osu file format v14

[General]
AudioFilename: audio.mp3
AudioLeadIn: 0
PreviewTime: 41510
Countdown: 0
SampleSet: Normal
StackLeniency: 0.7
Mode: 1
LetterboxInBreaks: 0
WidescreenStoryboard: 0

[Editor]
DistanceSpacing: 0.5
BeatDivisor: 4
GridSize: 32
TimelineZoom: 2.2

[Metadata]
Title:Mirai Symphony
TitleUnicode:未来Symphony
Artist:Minase Inori, Fuchigami Mai, Onishi Saori, Toyota Moe, Tazawa Masumi
ArtistUnicode:水瀬 いのり, 渕上 舞, 大西 沙織, 豊田 萌絵, 田澤 茉純
Creator:Hikawa Hina
Version:Taiko Oni
Source:ららマジ
Tags:ホニャららMAGIC♪ ドラマティックRPG オープニングアニメーション 音と魔法の学園 東奏学園器楽部 A-1 Pictures z1085684963 KuranteMelodii Moecho Moeri Karen Kagamine Ren Chocola_2287
BeatmapID:1246372
BeatmapSetID:572734

[Difficulty]
HPDrainRate:6
CircleSize:2
OverallDifficulty:6
ApproachRate:10
SliderMultiplier:1.4
SliderTickRate:1

[Events]
//Background and Video events
0,0,"bg.jpg",0,0
Video,120,"video.avi"
//Break Periods
//Storyboard Layer 0 (Background)
//Storyboard Layer 1 (Fail)
//Storyboard Layer 2 (Pass)
//Storyboard Layer 3 (Foreground)
//Storyboard Sound Samples

[TimingPoints]
-592,340.909090909091,4,1,0,70,1,0
41680,-100,4,1,0,80,0,1
82589,-100,4,1,0,70,0,0

[Colours]
Combo1 : 255,133,11
Combo2 : 0,128,255
Combo3 : 255,83,135
Combo4 : 95,0,210

[HitObjects]
224,192,771,5,4,0:0:0:0:
224,192,2135,1,4,0:0:0:0:
224,192,3498,1,4,0:0:0:0:
224,192,4862,1,4,0:0:0:0:
224,192,6226,1,12,0:0:0:0:
224,192,7589,1,12,0:0:0:0:
224,192,8953,1,12,0:0:0:0:
224,192,10317,1,12,0:0:0:0:
224,192,10487,1,0,0:0:0:0:
224,192,10658,1,12,0:0:0:0:
224,192,10828,1,0,0:0:0:0:
224,192,10998,1,12,0:0:0:0:
224,192,11169,1,0,0:0:0:0:
224,192,11339,1,8,0:0:0:0:
224,192,11425,1,8,0:0:0:0:
224,192,11510,1,0,0:0:0:0:
224,192,11595,1,0,0:0:0:0:
224,192,11680,1,0,0:0:0:0:
224,128,11851,1,0,0:0:0:0:
224,128,12021,1,8,0:0:0:0:
256,160,12277,1,0,0:0:0:0:
256,160,12362,1,0,0:0:0:0:
256,160,12533,1,0,0:0:0:0:
256,160,12703,1,8,0:0:0:0:
256,160,12873,1,0,0:0:0:0:
256,160,12959,1,0,0:0:0:0:
256,160,13044,1,0,0:0:0:0:
256,160,13214,1,0,0:0:0:0:
224,128,13385,1,8,0:0:0:0:
224,128,13640,1,0,0:0:0:0:
224,128,13726,1,0,0:0:0:0:
224,128,13896,1,8,0:0:0:0:
256,160,14067,1,8,0:0:0:0:
256,160,14152,1,8,0:0:0:0:
256,160,14237,1,0,0:0:0:0:
256,160,14322,1,0,0:0:0:0:
256,160,14408,1,0,0:0:0:0:
256,160,14578,1,0,0:0:0:0:
256,160,14748,1,8,0:0:0:0:
224,128,15004,1,0,0:0:0:0:
224,128,15089,1,0,0:0:0:0:
224,128,15260,1,0,0:0:0:0:
192,32,15345,1,0,0:0:0:0:
224,128,15430,1,8,0:0:0:0:
128,160,15601,1,8,0:0:0:0:
224,128,15771,1,4,0:0:0:0:
224,128,15942,1,4,0:0:0:0:
224,128,16283,1,12,0:0:0:0:
224,128,16623,1,12,0:0:0:0:
160,192,17135,1,4,0:0:0:0:
160,192,17476,1,8,0:0:0:0:
160,192,17817,1,4,0:0:0:0:
160,192,18158,1,8,0:0:0:0:
160,192,18498,1,4,0:0:0:0:
160,192,18839,1,8,0:0:0:0:
160,192,19010,1,8,0:0:0:0:
160,192,19180,1,4,0:0:0:0:
160,192,19351,1,8,0:0:0:0:
160,192,19521,1,8,0:0:0:0:
160,128,19862,1,4,0:0:0:0:
160,128,20203,1,8,0:0:0:0:
160,128,20544,1,4,0:0:0:0:
160,128,20885,1,8,0:0:0:0:
160,128,21226,1,4,0:0:0:0:
160,128,21567,1,8,0:0:0:0:
160,128,21737,1,8,0:0:0:0:
160,128,21908,1,4,0:0:0:0:
160,128,22078,1,8,0:0:0:0:
256,128,22248,1,8,0:0:0:0:
256,128,22334,1,8,0:0:0:0:
256,128,22419,1,0,0:0:0:0:
256,128,22504,1,0,0:0:0:0:
256,128,22589,1,0,0:0:0:0:
256,192,22930,1,8,0:0:0:0:
256,192,23101,1,8,0:0:0:0:
256,192,23271,1,0,0:0:0:0:
256,192,23442,1,8,0:0:0:0:
256,192,23612,1,0,0:0:0:0:
256,192,23697,1,8,0:0:0:0:
256,192,23783,1,0,0:0:0:0:
256,192,23953,1,0,0:0:0:0:
256,192,24294,1,8,0:0:0:0:
256,192,24464,1,8,0:0:0:0:
256,192,24635,1,0,0:0:0:0:
256,192,24805,1,8,0:0:0:0:
256,192,24976,1,0,0:0:0:0:
256,192,25061,1,8,0:0:0:0:
256,192,25146,1,8,0:0:0:0:
256,192,25317,1,0,0:0:0:0:
256,192,25658,1,8,0:0:0:0:
256,192,25828,1,8,0:0:0:0:
256,192,25998,1,0,0:0:0:0:
256,192,26169,1,8,0:0:0:0:
256,192,26339,1,0,0:0:0:0:
256,192,26425,1,8,0:0:0:0:
256,192,26510,1,0,0:0:0:0:
256,192,26680,1,0,0:0:0:0:
224,192,26936,1,8,0:0:0:0:
224,192,27021,1,0,0:0:0:0:
224,192,27192,1,8,0:0:0:0:
224,192,27362,1,0,0:0:0:0:
224,192,27447,1,8,0:0:0:0:
224,192,27533,1,8,0:0:0:0:
224,192,27618,1,8,0:0:0:0:
224,192,27703,1,0,0:0:0:0:
224,192,27873,1,8,0:0:0:0:
224,192,28044,1,0,0:0:0:0:
224,192,28214,1,0,0:0:0:0:
224,192,28385,1,8,0:0:0:0:
224,192,28555,1,0,0:0:0:0:
224,192,28640,1,0,0:0:0:0:
224,192,28726,1,0,0:0:0:0:
160,160,28896,1,0,0:0:0:0:
160,160,29067,1,8,0:0:0:0:
160,160,29237,1,8,0:0:0:0:
160,160,29408,1,0,0:0:0:0:
160,160,29578,1,0,0:0:0:0:
160,160,29748,1,8,0:0:0:0:
160,160,29919,1,0,0:0:0:0:
160,160,30004,1,0,0:0:0:0:
160,160,30089,1,0,0:0:0:0:
160,160,30260,1,0,0:0:0:0:
160,160,30430,1,8,0:0:0:0:
160,160,30771,1,0,0:0:0:0:
160,160,30942,1,0,0:0:0:0:
160,160,31112,1,8,0:0:0:0:
160,160,31283,1,0,0:0:0:0:
160,160,31368,1,0,0:0:0:0:
160,160,31453,1,0,0:0:0:0:
160,160,31623,1,0,0:0:0:0:
160,160,31794,1,8,0:0:0:0:
160,160,31964,1,8,0:0:0:0:
96,96,32135,5,4,0:0:0:0:
96,96,32305,1,8,0:0:0:0:
96,96,32476,1,8,0:0:0:0:
96,96,32646,1,4,0:0:0:0:
96,96,32987,1,4,0:0:0:0:
96,96,33158,1,8,0:0:0:0:
96,96,33243,1,8,0:0:0:0:
96,96,33328,1,8,0:0:0:0:
96,96,33498,1,4,0:0:0:0:
192,192,33669,1,8,0:0:0:0:
192,192,33754,1,8,0:0:0:0:
192,192,33839,1,8,0:0:0:0:
192,192,34010,1,4,0:0:0:0:
192,192,34351,1,8,0:0:0:0:
192,192,34436,1,8,0:0:0:0:
192,192,34521,1,8,0:0:0:0:
192,192,34692,1,4,0:0:0:0:
192,192,35033,1,8,0:0:0:0:
192,192,35118,1,8,0:0:0:0:
192,192,35203,1,8,0:0:0:0:
192,192,35373,1,4,0:0:0:0:
192,192,35714,1,8,0:0:0:0:
192,192,35800,1,8,0:0:0:0:
192,192,35885,1,8,0:0:0:0:
192,192,36055,1,0,0:0:0:0:
192,192,36226,1,4,0:0:0:0:
160,192,36396,1,0,0:0:0:0:
160,192,36481,1,0,0:0:0:0:
160,192,36567,1,8,0:0:0:0:
160,192,36737,1,0,0:0:0:0:
160,192,36822,1,0,0:0:0:0:
160,192,36908,1,8,0:0:0:0:
160,192,37078,1,0,0:0:0:0:
160,192,37163,1,0,0:0:0:0:
160,192,37248,1,8,0:0:0:0:
160,192,37419,1,0,0:0:0:0:
160,192,37504,1,0,0:0:0:0:
160,192,37589,1,8,0:0:0:0:
160,192,37675,1,0,0:0:0:0:
160,192,37760,1,0,0:0:0:0:
160,192,37845,1,8,0:0:0:0:
160,192,37930,1,0,0:0:0:0:
160,192,38101,1,0,0:0:0:0:
160,192,38186,1,0,0:0:0:0:
160,192,38271,1,8,0:0:0:0:
160,192,38356,1,0,0:0:0:0:
160,192,38442,1,0,0:0:0:0:
160,192,38527,1,8,0:0:0:0:
160,192,38612,1,0,0:0:0:0:
160,192,38783,1,8,0:0:0:0:
160,192,38953,1,4,0:0:0:0:
128,192,39123,1,8,0:0:0:0:
128,192,39209,1,8,0:0:0:0:
128,192,39294,1,8,0:0:0:0:
128,192,39464,1,4,0:0:0:0:
128,192,39635,1,8,0:0:0:0:
128,192,39720,1,8,0:0:0:0:
128,192,39805,1,8,0:0:0:0:
128,192,39976,1,0,0:0:0:0:
160,128,40061,1,0,0:0:0:0:
128,192,40146,1,8,0:0:0:0:
128,192,40317,1,4,0:0:0:0:
128,160,40487,1,4,0:0:0:0:
128,160,40658,1,8,0:0:0:0:
128,160,40743,1,8,0:0:0:0:
128,160,40828,1,8,0:0:0:0:
128,160,40913,1,0,0:0:0:0:
128,160,41084,1,8,0:0:0:0:
128,160,41169,1,0,0:0:0:0:
160,128,41339,1,0,0:0:0:0:
160,128,41425,1,8,0:0:0:0:
160,128,41510,1,8,0:0:0:0:
192,160,41595,1,8,0:0:0:0:
160,128,41680,1,0,0:0:0:0:
192,160,41851,1,0,0:0:0:0:
192,160,41936,1,0,0:0:0:0:
192,160,42021,1,8,0:0:0:0:
192,160,42192,1,8,0:0:0:0:
192,160,42277,1,8,0:0:0:0:
192,160,42362,1,0,0:0:0:0:
192,160,42533,1,0,0:0:0:0:
192,160,42703,1,8,0:0:0:0:
192,160,42873,1,8,0:0:0:0:
192,160,43044,1,0,0:0:0:0:
192,160,43214,1,0,0:0:0:0:
192,160,43300,1,0,0:0:0:0:
192,160,43385,1,8,0:0:0:0:
192,160,43555,1,8,0:0:0:0:
192,160,43640,1,8,0:0:0:0:
192,160,43726,1,0,0:0:0:0:
192,160,43896,1,8,0:0:0:0:
192,160,44067,1,0,0:0:0:0:
192,160,44237,1,8,0:0:0:0:
192,160,44408,1,0,0:0:0:0:
192,160,44578,1,0,0:0:0:0:
192,160,44663,1,0,0:0:0:0:
192,160,44748,1,8,0:0:0:0:
192,160,44919,1,8,0:0:0:0:
192,160,45004,1,8,0:0:0:0:
192,160,45089,1,0,0:0:0:0:
192,160,45260,1,0,0:0:0:0:
192,160,45430,1,8,0:0:0:0:
192,160,45601,1,8,0:0:0:0:
192,160,45771,1,0,0:0:0:0:
192,160,45942,1,0,0:0:0:0:
192,160,46027,1,0,0:0:0:0:
192,160,46112,1,8,0:0:0:0:
192,160,46283,1,8,0:0:0:0:
192,160,46368,1,8,0:0:0:0:
192,160,46453,1,0,0:0:0:0:
192,160,46623,1,0,0:0:0:0:
192,160,46709,1,0,0:0:0:0:
192,160,46794,1,8,0:0:0:0:
192,160,46879,1,8,0:0:0:0:
192,160,46964,1,0,0:0:0:0:
192,160,47135,1,0,0:0:0:0:
192,160,47305,1,0,0:0:0:0:
192,160,47390,1,0,0:0:0:0:
192,160,47476,1,8,0:0:0:0:
192,160,47646,1,8,0:0:0:0:
192,160,47731,1,8,0:0:0:0:
192,160,47817,1,0,0:0:0:0:
192,160,47987,1,0,0:0:0:0:
192,160,48158,1,8,0:0:0:0:
192,160,48328,1,8,0:0:0:0:
192,160,48498,1,0,0:0:0:0:
192,160,48669,1,0,0:0:0:0:
192,160,48754,1,0,0:0:0:0:
192,160,48839,1,8,0:0:0:0:
192,160,49010,1,8,0:0:0:0:
192,160,49095,1,8,0:0:0:0:
192,160,49180,1,0,0:0:0:0:
192,160,49351,1,8,0:0:0:0:
192,160,49521,1,0,0:0:0:0:
192,160,49692,1,8,0:0:0:0:
192,160,49862,1,0,0:0:0:0:
192,160,50033,1,0,0:0:0:0:
192,160,50118,1,0,0:0:0:0:
192,160,50203,1,8,0:0:0:0:
192,160,50373,1,8,0:0:0:0:
192,160,50459,1,8,0:0:0:0:
192,160,50544,1,0,0:0:0:0:
192,160,50714,1,0,0:0:0:0:
192,160,50885,1,8,0:0:0:0:
192,160,51055,1,8,0:0:0:0:
224,160,51226,1,0,0:0:0:0:
224,160,51311,1,8,0:0:0:0:
224,160,51396,1,8,0:0:0:0:
224,160,51481,1,8,0:0:0:0:
224,160,51567,1,0,0:0:0:0:
224,160,51737,1,0,0:0:0:0:
224,160,51822,1,8,0:0:0:0:
224,160,51908,1,8,0:0:0:0:
224,160,51993,1,8,0:0:0:0:
224,160,52078,1,0,0:0:0:0:
224,160,52248,1,8,0:0:0:0:
224,160,52305,1,8,0:0:0:0:
224,160,52362,1,8,0:0:0:0:
224,160,52419,1,8,0:0:0:0:
160,128,52589,1,0,0:0:0:0:
192,160,52760,1,0,0:0:0:0:
192,160,52845,1,0,0:0:0:0:
192,160,52930,1,8,0:0:0:0:
192,160,53101,1,8,0:0:0:0:
192,160,53186,1,8,0:0:0:0:
192,160,53271,1,0,0:0:0:0:
192,160,53442,1,0,0:0:0:0:
192,160,53612,1,8,0:0:0:0:
192,160,53783,1,8,0:0:0:0:
192,160,53953,1,0,0:0:0:0:
192,160,54123,1,0,0:0:0:0:
192,160,54209,1,0,0:0:0:0:
192,160,54294,1,8,0:0:0:0:
192,160,54464,1,8,0:0:0:0:
192,160,54550,1,8,0:0:0:0:
192,160,54635,1,0,0:0:0:0:
192,160,54805,1,8,0:0:0:0:
192,160,54976,1,0,0:0:0:0:
192,160,55146,1,8,0:0:0:0:
192,160,55317,1,0,0:0:0:0:
192,160,55487,1,0,0:0:0:0:
192,160,55572,1,0,0:0:0:0:
192,160,55658,1,8,0:0:0:0:
192,160,55828,1,8,0:0:0:0:
192,160,55913,1,8,0:0:0:0:
192,160,55998,1,0,0:0:0:0:
192,160,56169,1,0,0:0:0:0:
192,160,56339,1,8,0:0:0:0:
192,160,56510,1,8,0:0:0:0:
192,160,56680,1,0,0:0:0:0:
192,160,56851,1,0,0:0:0:0:
192,160,56936,1,0,0:0:0:0:
192,160,57021,1,8,0:0:0:0:
192,160,57192,1,8,0:0:0:0:
192,160,57277,1,8,0:0:0:0:
192,160,57362,1,0,0:0:0:0:
192,160,57533,1,0,0:0:0:0:
192,160,57618,1,8,0:0:0:0:
192,160,57703,1,8,0:0:0:0:
192,160,57788,1,8,0:0:0:0:
192,160,57873,1,0,0:0:0:0:
192,160,58044,1,0,0:0:0:0:
192,160,58214,1,0,0:0:0:0:
192,160,58300,1,0,0:0:0:0:
192,160,58385,1,8,0:0:0:0:
192,160,58555,1,8,0:0:0:0:
192,160,58640,1,8,0:0:0:0:
192,160,58726,1,0,0:0:0:0:
192,160,58896,1,0,0:0:0:0:
192,160,59067,1,8,0:0:0:0:
192,160,59237,1,8,0:0:0:0:
192,160,59408,1,0,0:0:0:0:
192,160,59578,1,0,0:0:0:0:
192,160,59663,1,0,0:0:0:0:
192,160,59748,1,8,0:0:0:0:
192,160,59919,1,8,0:0:0:0:
192,160,60004,1,8,0:0:0:0:
192,160,60089,1,0,0:0:0:0:
192,160,60260,1,8,0:0:0:0:
192,160,60430,1,0,0:0:0:0:
192,160,60601,1,8,0:0:0:0:
192,160,60771,1,0,0:0:0:0:
192,160,60942,1,0,0:0:0:0:
192,160,61027,1,0,0:0:0:0:
192,160,61112,1,8,0:0:0:0:
192,160,61283,1,8,0:0:0:0:
192,160,61368,1,8,0:0:0:0:
192,160,61453,1,0,0:0:0:0:
192,160,61623,1,0,0:0:0:0:
192,160,61794,1,8,0:0:0:0:
192,160,61964,1,8,0:0:0:0:
192,192,62135,1,0,0:0:0:0:
192,192,62305,1,0,0:0:0:0:
192,192,62390,1,0,0:0:0:0:
192,192,62476,1,8,0:0:0:0:
192,192,62646,1,0,0:0:0:0:
192,192,62731,1,8,0:0:0:0:
192,192,62817,1,0,0:0:0:0:
192,192,62987,1,0,0:0:0:0:
192,192,63158,1,8,0:0:0:0:
192,192,63328,1,8,0:0:0:0:
192,192,63498,1,4,0:0:0:0:
192,192,63669,1,0,0:0:0:0:
192,192,63754,1,0,0:0:0:0:
192,192,63839,1,8,0:0:0:0:
192,192,64010,1,0,0:0:0:0:
192,192,64095,1,0,0:0:0:0:
192,192,64180,1,8,0:0:0:0:
192,192,64351,1,0,0:0:0:0:
192,192,64436,1,0,0:0:0:0:
192,192,64521,1,8,0:0:0:0:
192,192,64692,1,0,0:0:0:0:
192,192,64777,1,0,0:0:0:0:
192,192,64862,1,8,0:0:0:0:
192,192,65033,1,0,0:0:0:0:
192,192,65118,1,0,0:0:0:0:
192,192,65203,1,8,0:0:0:0:
192,192,65373,1,0,0:0:0:0:
192,192,65459,1,0,0:0:0:0:
192,192,65544,1,8,0:0:0:0:
192,192,65714,1,0,0:0:0:0:
192,192,65800,1,0,0:0:0:0:
192,192,65885,1,8,0:0:0:0:
192,192,65970,1,8,0:0:0:0:
192,192,66055,1,0,0:0:0:0:
192,192,66140,1,8,0:0:0:0:
192,192,66226,1,0,0:0:0:0:
192,192,66396,1,0,0:0:0:0:
192,192,66481,1,0,0:0:0:0:
192,192,66567,1,8,0:0:0:0:
192,192,66737,1,0,0:0:0:0:
192,192,66822,1,0,0:0:0:0:
192,192,66908,1,8,0:0:0:0:
192,192,67078,1,0,0:0:0:0:
192,192,67163,1,0,0:0:0:0:
192,192,67248,1,8,0:0:0:0:
192,192,67419,1,0,0:0:0:0:
192,192,67504,1,0,0:0:0:0:
192,192,67589,1,8,0:0:0:0:
192,192,67760,1,0,0:0:0:0:
192,192,67845,1,0,0:0:0:0:
192,192,67930,1,8,0:0:0:0:
192,192,68101,1,0,0:0:0:0:
192,192,68186,1,0,0:0:0:0:
192,192,68271,1,8,0:0:0:0:
192,192,68442,1,0,0:0:0:0:
192,192,68527,1,8,0:0:0:0:
192,192,68612,1,8,0:0:0:0:
192,192,68697,1,0,0:0:0:0:
192,192,68783,1,8,0:0:0:0:
192,192,68868,1,8,0:0:0:0:
192,192,68953,1,0,0:0:0:0:
192,192,69123,1,0,0:0:0:0:
192,192,69209,1,0,0:0:0:0:
192,192,69294,1,8,0:0:0:0:
192,192,69464,1,0,0:0:0:0:
192,192,69550,1,0,0:0:0:0:
192,192,69635,1,8,0:0:0:0:
192,192,69805,1,0,0:0:0:0:
192,192,69890,1,0,0:0:0:0:
192,192,69976,1,8,0:0:0:0:
192,192,70146,1,0,0:0:0:0:
192,192,70231,1,0,0:0:0:0:
192,192,70317,1,8,0:0:0:0:
192,192,70487,1,0,0:0:0:0:
192,192,70572,1,0,0:0:0:0:
192,192,70658,1,8,0:0:0:0:
192,192,70828,1,0,0:0:0:0:
192,192,70913,1,0,0:0:0:0:
192,192,70998,1,8,0:0:0:0:
192,192,71169,1,0,0:0:0:0:
192,192,71254,1,0,0:0:0:0:
192,192,71339,1,8,0:0:0:0:
192,192,71425,1,8,0:0:0:0:
192,192,71510,1,0,0:0:0:0:
192,192,71595,1,8,0:0:0:0:
192,192,71680,1,0,0:0:0:0:
224,192,71851,1,8,0:0:0:0:
224,192,71936,1,8,0:0:0:0:
224,192,72021,1,0,0:0:0:0:
224,192,72192,1,8,0:0:0:0:
224,192,72277,1,8,0:0:0:0:
224,192,72362,1,0,0:0:0:0:
224,192,72533,1,8,0:0:0:0:
224,192,72618,1,8,0:0:0:0:
224,192,72703,1,0,0:0:0:0:
224,192,72873,1,8,0:0:0:0:
224,192,72959,1,8,0:0:0:0:
224,192,73044,1,0,0:0:0:0:
224,192,73214,1,8,0:0:0:0:
224,192,73300,1,8,0:0:0:0:
224,192,73385,1,0,0:0:0:0:
224,192,73555,1,8,0:0:0:0:
224,192,73640,1,8,0:0:0:0:
224,192,73726,1,0,0:0:0:0:
224,192,73896,1,8,0:0:0:0:
224,192,73981,1,8,0:0:0:0:
224,192,74067,1,0,0:0:0:0:
224,192,74152,1,0,0:0:0:0:
224,192,74237,1,8,0:0:0:0:
224,192,74322,1,8,0:0:0:0:
224,192,74408,1,0,0:0:0:0:
224,192,74578,1,8,0:0:0:0:
224,192,74663,1,8,0:0:0:0:
224,192,74748,1,0,0:0:0:0:
224,192,74919,1,8,0:0:0:0:
224,192,75004,1,8,0:0:0:0:
224,192,75089,1,0,0:0:0:0:
224,192,75260,1,8,0:0:0:0:
224,192,75345,1,8,0:0:0:0:
224,192,75430,1,0,0:0:0:0:
224,192,75601,1,8,0:0:0:0:
224,192,75686,1,8,0:0:0:0:
224,192,75771,1,0,0:0:0:0:
224,160,75942,1,8,0:0:0:0:
224,160,76027,1,8,0:0:0:0:
224,160,76112,1,0,0:0:0:0:
160,128,76283,1,8,0:0:0:0:
160,128,76368,1,8,0:0:0:0:
160,128,76453,1,0,0:0:0:0:
160,128,76538,1,8,0:0:0:0:
160,128,76623,1,8,0:0:0:0:
160,128,76709,1,8,0:0:0:0:
160,128,76794,1,0,0:0:0:0:
160,128,76964,1,8,0:0:0:0:
224,160,77135,1,0,0:0:0:0:
224,160,77305,1,0,0:0:0:0:
224,160,77390,1,0,0:0:0:0:
224,160,77476,1,8,0:0:0:0:
224,160,77646,1,8,0:0:0:0:
224,160,77731,1,8,0:0:0:0:
224,160,77817,1,0,0:0:0:0:
224,160,77987,1,0,0:0:0:0:
224,160,78158,1,8,0:0:0:0:
224,160,78328,1,8,0:0:0:0:
224,160,78498,1,0,0:0:0:0:
224,160,78669,1,0,0:0:0:0:
224,160,78754,1,0,0:0:0:0:
224,160,78839,1,8,0:0:0:0:
224,160,79010,1,8,0:0:0:0:
224,160,79095,1,8,0:0:0:0:
224,160,79180,1,0,0:0:0:0:
224,160,79351,1,8,0:0:0:0:
224,160,79521,1,0,0:0:0:0:
224,160,79692,1,8,0:0:0:0:
224,160,79862,1,0,0:0:0:0:
224,160,80033,1,0,0:0:0:0:
224,160,80118,1,0,0:0:0:0:
224,160,80203,1,8,0:0:0:0:
224,160,80373,1,8,0:0:0:0:
224,160,80459,1,8,0:0:0:0:
224,160,80544,1,0,0:0:0:0:
224,160,80714,1,0,0:0:0:0:
224,160,80885,1,8,0:0:0:0:
224,160,81055,1,8,0:0:0:0:
224,160,81226,1,4,0:0:0:0:
224,160,81396,1,4,0:0:0:0:
224,160,81737,1,12,0:0:0:0:
224,160,82078,1,12,0:0:0:0:
224,160,82589,1,4,0:0:0:0:
224,160,82760,1,4,0:0:0:0:
224,160,83101,1,12,0:0:0:0:
224,160,83271,1,12,0:0:0:0:
224,160,83612,1,4,0:0:0:0:
256,192,83783,12,0,85317,0:0:0:0:
