osu file format v14

[General]
AudioFilename: audio.mp3
AudioLeadIn: 0
PreviewTime: 41510
Countdown: 0
SampleSet: Soft
StackLeniency: 0.4
Mode: 0
LetterboxInBreaks: 0
WidescreenStoryboard: 0

[Editor]
DistanceSpacing: 1.6
BeatDivisor: 2
GridSize: 8
TimelineZoom: 2.2

[Metadata]
Title:Mirai Symphony
TitleUnicode:未来Symphony
Artist:Minase Inori, Fuchigami Mai, Onishi Saori, Toyota Moe, Tazawa Masumi
ArtistUnicode:水瀬 いのり, 渕上 舞, 大西 沙織, 豊田 萌絵, 田澤 茉純
Creator:Hikawa Hina
Version:Hyper
Source:ららマジ
Tags:ホニャららMAGIC♪ ドラマティックRPG オープニングアニメーション 音と魔法の学園 東奏学園器楽部 A-1 Pictures z1085684963 KuranteMelodii Moecho Moeri Karen Kagamine Ren Chocola_2287
BeatmapID:1213480
BeatmapSetID:572734

[Difficulty]
HPDrainRate:5.5
CircleSize:4
OverallDifficulty:7
ApproachRate:8
SliderMultiplier:1.4
SliderTickRate:1

[Events]
//Background and Video events
0,0,"bg.jpg",0,0
Video,120,"video.avi"
//Break Periods
//Storyboard Layer 0 (Background)
//Storyboard Layer 1 (Fail)
//Storyboard Layer 2 (Pass)
//Storyboard Layer 3 (Foreground)
//Storyboard Sound Samples

[TimingPoints]
-592,340.909090909091,4,2,1,70,1,0
771,-125,4,2,1,30,0,0
11680,-100,4,2,1,70,0,0
15430,-100,4,2,1,60,0,0
15771,-100,4,2,1,80,0,0
16623,-166.666666666667,4,2,1,80,0,0
17135,-125,4,2,1,50,0,0
17476,-125,4,2,1,30,0,0
17561,-125,4,2,1,50,0,0
18158,-125,4,2,1,30,0,0
18243,-125,4,2,1,50,0,0
18839,-125,4,2,1,30,0,0
18924,-125,4,2,1,50,0,0
19521,-125,4,2,1,30,0,0
19606,-125,4,2,1,50,0,0
20203,-125,4,2,1,30,0,0
20288,-125,4,2,1,50,0,0
20885,-125,4,2,1,30,0,0
20970,-125,4,2,1,50,0,0
21567,-125,4,2,1,30,0,0
21652,-125,4,2,1,50,0,0
22248,-125,4,2,1,30,0,0
22589,-100,4,2,1,50,0,0
23442,-100,4,2,1,30,0,0
23527,-100,4,2,1,50,0,0
23783,-100,4,2,1,30,0,0
23868,-100,4,2,1,50,0,0
24805,-100,4,2,1,30,0,0
24890,-100,4,2,1,50,0,0
25146,-100,4,2,1,30,0,0
25231,-100,4,2,1,50,0,0
26169,-100,4,2,1,30,0,0
26254,-100,4,2,1,50,0,0
26510,-100,4,2,1,30,0,0
26595,-100,4,2,1,50,0,0
27703,-100,4,2,1,50,0,0
28044,-100,4,2,1,60,0,0
33158,-100,4,2,1,60,0,0
33499,-100,4,2,1,70,0,0
33669,-100,4,2,1,45,0,0
34010,-100,4,2,1,70,0,0
34521,-100,4,2,1,40,0,0
34692,-100,4,2,1,70,0,0
35033,-100,4,2,1,50,0,0
35373,-100,4,2,1,70,0,0
35714,-100,4,2,1,50,0,0
37078,-100,4,2,1,30,0,0
37163,-100,4,2,1,50,0,0
40658,-100,4,2,1,60,0,0
40999,-100,4,2,1,80,0,0
41680,-83.3333333333333,4,2,1,80,0,1
42533,-83.3333333333333,4,2,1,60,0,1
42618,-83.3333333333333,4,2,1,80,0,1
42873,-83.3333333333333,4,2,1,60,0,1
42958,-83.3333333333333,4,2,1,80,0,1
43896,-83.3333333333333,4,2,1,60,0,1
43981,-83.3333333333333,4,2,1,80,0,1
44237,-83.3333333333333,4,2,1,60,0,1
44322,-83.3333333333333,4,2,1,80,0,1
45260,-83.3333333333333,4,2,1,60,0,1
45345,-83.3333333333333,4,2,1,80,0,1
45601,-83.3333333333333,4,2,1,60,0,1
45686,-83.3333333333333,4,2,1,80,0,1
46453,-83.3333333333333,4,2,1,60,0,1
46538,-83.3333333333333,4,2,1,80,0,1
47987,-83.3333333333333,4,2,1,60,0,1
48072,-83.3333333333333,4,2,1,80,0,1
48328,-83.3333333333333,4,2,1,60,0,1
48413,-83.3333333333333,4,2,1,80,0,1
48839,-83.3333333333333,4,2,1,60,0,1
48924,-83.3333333333333,4,2,1,80,0,1
49351,-83.3333333333333,4,2,1,60,0,1
49436,-83.3333333333333,4,2,1,80,0,1
49692,-83.3333333333333,4,2,1,60,0,1
49777,-83.3333333333333,4,2,1,80,0,1
50544,-83.3333333333333,4,2,1,60,0,1
50629,-83.3333333333333,4,2,1,80,0,1
50885,-83.3333333333333,4,2,1,60,0,1
50970,-83.3333333333333,4,2,1,80,0,1
52504,-83.3333333333333,4,2,1,80,0,0
52589,-83.3333333333333,4,2,1,80,0,1
53442,-83.3333333333333,4,2,1,60,0,1
53527,-83.3333333333333,4,2,1,80,0,1
53783,-83.3333333333333,4,2,1,60,0,1
53868,-83.3333333333333,4,2,1,80,0,1
54805,-83.3333333333333,4,2,1,60,0,1
54890,-83.3333333333333,4,2,1,80,0,1
55146,-83.3333333333333,4,2,1,60,0,1
55231,-83.3333333333333,4,2,1,80,0,1
56169,-83.3333333333333,4,2,1,60,0,1
56254,-83.3333333333333,4,2,1,80,0,1
56510,-83.3333333333333,4,2,1,60,0,1
56595,-83.3333333333333,4,2,1,80,0,1
57533,-83.3333333333333,4,2,1,60,0,1
57618,-83.3333333333333,4,2,1,80,0,1
57873,-83.3333333333333,4,2,1,60,0,1
57958,-83.3333333333333,4,2,1,80,0,1
58896,-83.3333333333333,4,2,1,60,0,1
58981,-83.3333333333333,4,2,1,80,0,1
59237,-83.3333333333333,4,2,1,60,0,1
59322,-83.3333333333333,4,2,1,80,0,1
60260,-83.3333333333333,4,2,1,60,0,1
60345,-83.3333333333333,4,2,1,80,0,1
60601,-83.3333333333333,4,2,1,60,0,1
60686,-83.3333333333333,4,2,1,80,0,1
62135,-83.3333333333333,4,2,1,60,0,1
62220,-83.3333333333333,4,2,1,80,0,1
62476,-83.3333333333333,4,2,1,60,0,1
62561,-83.3333333333333,4,2,1,80,0,1
62817,-100,4,2,1,50,0,1
63498,-100,4,2,1,70,0,0
63839,-100,4,2,1,50,0,0
63924,-100,4,2,1,70,0,0
64351,-100,4,2,1,50,0,0
64436,-100,4,2,1,70,0,0
64692,-100,4,2,1,50,0,0
64777,-100,4,2,1,70,0,0
65714,-100,4,2,1,50,0,0
65799,-100,4,2,1,70,0,0
66055,-100,4,2,1,50,0,0
66140,-100,4,2,1,70,0,0
67078,-100,4,2,1,50,0,0
67163,-100,4,2,1,70,0,0
67419,-100,4,2,1,50,0,0
67504,-100,4,2,1,70,0,0
69805,-100,4,2,1,50,0,0
69890,-100,4,2,1,70,0,0
70146,-100,4,2,1,50,0,0
70231,-100,4,2,1,70,0,0
71339,-100,4,2,1,50,0,0
71680,-100,4,2,1,70,0,0
76794,-100,4,2,1,50,0,0
77135,-100,4,2,1,70,0,0
80885,-100,4,2,1,50,0,0
81226,-100,4,2,1,70,0,0
82078,-166.666666666667,4,2,1,80,0,0
82504,-100,4,2,1,50,0,0
85317,-100,4,2,1,5,0,0

[Colours]
Combo1 : 255,133,11
Combo2 : 0,128,255
Combo3 : 255,83,135
Combo4 : 95,0,210

[HitObjects]
59,98,771,6,0,L|179:86,1,112,2|0,0:1|0:0,0:0:0:0:
340,145,1453,2,0,L|408:148,2,56,2|2|2,0:1|0:1|0:1,0:0:0:0:
252,163,1964,1,2,0:1:0:0:
262,263,2135,2,0,P|277:211|252:163,1,112,4|0,0:0|0:0,0:0:0:0:
98,67,2817,2,0,L|32:66,2,56,2|2|2,0:1|0:1|0:1,0:0:0:0:
180,32,3328,1,2,0:1:0:0:
180,32,3498,6,0,P|232:16|286:30,1,112,2|0,0:1|0:0,0:0:0:0:
419,150,4180,2,0,L|418:205,1,56,2|2,0:1|0:1,0:0:0:0:
338,247,4521,2,0,L|341:191,1,56,2|2,0:1|0:1,0:0:0:0:
285,120,4862,2,0,L|168:106,1,112,2|0,0:1|0:0,0:0:0:0:
341,191,5544,2,0,L|456:202,1,112,2|0,0:1|0:0,0:0:0:0:
200,218,6226,6,0,P|151:235|162:285,1,112,2|0,0:1|0:0,0:0:0:0:
162,285,6908,1,2,0:1:0:0:
245,319,7079,2,0,L|300:321,2,56,2|2|2,0:1|0:1|0:1,0:0:0:0:
170,367,7589,2,0,P|114:351|59:357,1,112,2|0,0:1|0:0,0:0:0:0:
245,319,8271,2,0,P|307:326|358:317,1,112,2|0,0:1|0:0,0:0:0:0:
192,194,8953,5,2,0:1:0:0:
216,178,9464,2,0,L|274:175,1,56,2|2,0:1|0:1,0:0:0:0:
409,258,10317,2,0,L|292:246,1,112,4|2,0:1|1:0,0:0:0:0:
96,336,10998,2,0,L|99:294,3,28,0|0|0|0,3:0|3:0|3:0|3:0,0:0:0:0:
128,304,11339,2,0,L|131:276,3,28,0|0|0|0,3:0|3:0|3:0|3:0,0:0:0:0:
168,248,11680,6,0,P|163:196|176:104,1,140,4|0,0:1|1:0,0:0:0:0:
248,16,12192,1,0,0:0:0:0:
352,60,12362,2,0,L|421:60,1,70,0|4,0:0|0:0,0:0:0:0:
344,144,12703,2,0,L|271:143,1,70,0|0,1:0|0:0,0:0:0:0:
422,60,13044,2,0,P|457:127|443:191,1,140,0|0,0:0|1:0,0:0:0:0:
371,272,13555,1,4,0:0:0:0:
282,210,13726,2,0,L|275:141,1,70,0|4,0:0|0:0,0:0:0:0:
187,69,14067,2,0,L|182:144,1,70,0|0,1:0|0:0,0:0:0:0:
282,210,14408,6,0,L|421:200,1,140,4|0,0:1|1:0,0:0:0:0:
499,281,14919,1,0,0:0:0:0:
400,334,15089,2,0,L|327:328,1,70,4|0,0:0|0:0,0:0:0:0:
219,348,15430,1,0,1:0:0:0:
212,314,15515,1,0,1:0:0:0:
207,280,15601,1,0,1:0:0:0:
200,245,15686,1,0,1:0:0:0:
194,211,15771,5,4,1:0:0:0:
160,42,15942,1,4,0:1:0:0:
176,58,16283,1,4,0:1:0:0:
192,74,16623,2,0,L|276:72,1,83.9999974365235,4|0,0:1|0:0,0:0:0:0:
424,54,17135,6,0,L|416:174,1,112,4|8,0:0|0:1,0:0:0:0:
390,251,17646,1,4,0:0:0:0:
305,221,17817,2,0,B|263:211|263:211|190:213,1,112,4|8,0:0|0:1,0:0:0:0:
23,156,18498,2,0,B|72:157|72:157|135:144,1,112,4|8,0:0|0:1,0:0:0:0:
219,117,19010,1,4,0:0:0:0:
283,178,19180,2,0,L|276:291,1,112,4|8,0:0|0:1,0:0:0:0:
92,355,19862,6,0,L|81:238,1,112,4|8,0:0|0:1,0:0:0:0:
34,166,20373,1,4,0:0:0:0:
108,115,20544,2,0,L|166:113,1,56,4|0,0:0|0:0,0:0:0:0:
227,176,20885,2,0,L|282:177,1,56,8|0,0:1|0:0,0:0:0:0:
358,129,21226,2,0,P|373:178|350:240,1,112,4|8,0:0|0:1,0:0:0:0:
296,303,21737,1,4,0:0:0:0:
222,251,21908,2,0,L|166:248,1,56,4|0,0:0|0:0,0:0:0:0:
79,225,22248,1,0,1:0:0:0:
81,190,22334,1,0,1:0:0:0:
84,155,22419,1,0,1:0:0:0:
87,120,22504,1,0,1:0:0:0:
89,85,22589,6,0,P|117:39|197:28,1,140,4|0,0:1|1:0,0:0:0:0:
294,86,23101,1,4,0:0:0:0:
375,9,23271,2,0,L|444:13,1,70,4|2,0:0|0:1,0:0:0:0:
363,87,23612,2,0,L|293:85,1,70,0|2,1:0|0:1,0:0:0:0:
197,28,23953,2,0,L|186:169,1,140,4|0,0:0|1:0,0:0:0:0:
137,268,24464,1,4,0:0:0:0:
237,319,24635,2,0,L|313:323,1,70,4|2,0:0|0:1,0:0:0:0:
391,248,24976,2,0,L|315:240,1,70,0|2,1:0|0:1,0:0:0:0:
253,150,25317,6,0,L|111:138,1,140,4|0,0:0|1:0,0:0:0:0:
25,68,25828,1,0,0:0:0:0:
32,179,25998,2,0,L|35:251,1,70,4|2,0:0|0:1,0:0:0:0:
113,138,26339,2,0,L|114:69,1,70,0|2,1:0|0:1,0:0:0:0:
216,21,26680,2,0,P|296:48|360:16,1,140,4|0,0:0|1:0,0:0:0:0:
448,74,27192,1,4,0:0:0:0:
424,184,27362,2,0,L|426:261,1,70,4|0,0:0|0:0,0:0:0:0:
344,328,27703,2,0,L|344:293,1,35,0|0,1:0|1:0,0:0:0:0:
296,264,27873,2,0,L|298:212,1,35,0|0,1:0|1:0,0:0:0:0:
248,200,28044,6,0,L|240:56,1,140,4|0,0:1|1:0,0:0:0:0:
336,0,28555,1,4,0:0:0:0:
424,72,28726,2,0,L|504:64,1,70,4|0,0:0|0:0,0:0:0:0:
440,160,29067,2,0,L|364:156,1,70,0|0,1:0|0:0,0:0:0:0:
284,232,29408,2,0,L|140:224,1,140,4|0,0:0|1:0,0:0:0:0:
76,136,29919,2,0,L|216:121,1,140,4|4,0:0|0:0,0:0:0:0:
328,108,30430,1,0,1:0:0:0:
328,108,30601,1,0,0:0:0:0:
428,64,30771,6,0,L|440:208,1,140,4|0,0:0|1:0,0:0:0:0:
392,308,31283,1,4,0:0:0:0:
284,280,31453,2,0,L|208:280,1,70,4|0,0:0|0:0,0:0:0:0:
132,204,31794,2,0,L|212:200,1,70,0|0,1:0|0:0,0:0:0:0:
336,168,32135,2,0,L|344:28,1,140,4|0,0:1|1:0,0:0:0:0:
216,64,32646,2,0,L|200:207,1,140,4|0,0:1|1:0,0:0:0:0:
272,292,33158,2,0,L|306:289,1,35,0|0,1:0|1:0,0:0:0:0:
352,324,33328,2,0,L|388:320,1,35,0|0,1:0|0:0,0:0:0:0:
436,296,33498,6,0,L|440:224,1,70,4|0,1:0|1:0,0:0:0:0:
444,112,33839,1,0,1:0:0:0:
348,52,34010,2,0,P|285:73|210:46,1,140,4|0,1:0|0:0,0:0:0:0:
114,5,34521,1,0,1:0:0:0:
36,86,34692,2,0,P|12:154|40:234,1,140,4|0,0:1|1:0,0:0:0:0:
113,291,35203,1,0,0:0:0:0:
264,248,35373,2,0,B|403:244,1,140,4|0,1:0|1:0,0:0:0:0:
500,184,35885,1,0,1:0:0:0:
500,184,36055,1,0,1:0:0:0:
360,120,36226,5,4,0:0:0:0:
344,136,36567,1,8,0:3:0:0:
328,152,36908,2,0,L|256:148,1,70,0|2,0:0|0:1,0:0:0:0:
114,223,37248,2,0,L|184:228,1,70
319,256,37589,6,0,B|328:147,2,105,0|0|4,1:0|0:0|3:0,0:0:0:0:
428,176,38271,2,0,B|440:71,2,105,0|0|4,1:0|0:0|0:0,0:0:0:0:
319,256,38953,6,0,P|248:260|176:244,1,140,4|0,0:1|1:0,0:0:0:0:
72,264,39464,2,0,P|84:192|135:147,1,140,4|0,0:1|1:0,0:0:0:0:
230,94,39976,2,0,L|303:95,1,70,4|4,0:1|1:0,0:0:0:0:
404,136,40317,1,0,1:0:0:0:
404,136,40487,1,4,1:0:0:0:
491,206,40658,1,0,1:0:0:0:
486,240,40743,1,0,1:0:0:0:
481,275,40828,1,0,1:0:0:0:
476,310,40913,1,0,1:0:0:0:
451,335,40998,6,0,L|408:340,3,35,0|0|0|0,3:0|3:0|3:0|3:0,3:0:0:0:
381,330,41339,2,0,L|334:334,3,35,0|0|0|0,3:0|3:0|3:0|3:0,3:0:0:0:
305,345,41680,6,0,L|137:332,1,167.999994873047,4|0,0:1|1:0,0:0:0:0:
120,312,42362,1,4,0:0:0:0:
40,208,42533,2,0,L|36:120,1,83.9999974365235,2|0,0:1|0:0,0:0:0:0:
132,28,42873,1,2,0:1:0:0:
264,60,43044,2,0,L|440:55,1,167.999994873047,4|0,0:0|1:0,0:0:0:0:
508,168,43555,1,4,0:0:0:0:
424,272,43726,2,0,L|432:356,1,83.9999974365235,4|2,0:0|0:1,0:0:0:0:
336,260,44067,2,0,L|331:164,1,83.9999974365235,0|2,1:0|0:1,0:0:0:0:
392,56,44408,6,0,P|308:28|244:72,1,167.999994873047,4|0,0:0|1:0,0:0:0:0:
232,88,45089,2,0,L|141:93,1,83.9999974365235,4|2,0:0|0:1,0:0:0:0:
264,168,45430,2,0,L|348:165,1,83.9999974365235,0|2,1:0|0:1,0:0:0:0:
472,120,45771,2,0,L|464:288,1,167.999994873047,4|0,0:0|1:0,0:0:0:0:
368,384,46283,1,4,0:0:0:0:
248,324,46453,2,0,L|156:320,2,83.9999974365235,2|0|0,0:1|0:0|1:0,0:0:0:0:
384,332,46964,1,0,0:0:0:0:
399,164,47135,6,0,L|383:336,1,167.999994873047,4|0,0:1|1:0,0:0:0:0:
368,352,47817,1,4,0:0:0:0:
250,287,47987,2,0,L|152:283,1,83.9999974365235,2|0,0:1|1:0,0:0:0:0:
53,209,48328,1,2,0:1:0:0:
119,92,48498,2,0,L|290:105,1,167.999994873047,4|2,0:0|1:0,0:0:0:0:
404,170,49010,1,4,0:0:0:0:
506,83,49180,2,0,L|510:-2,1,83.9999974365235,4|2,0:0|0:1,0:0:0:0:
407,87,49521,2,0,L|403:176,1,83.9999974365235,0|2,1:0|0:1,0:0:0:0:
442,299,49862,6,0,L|273:286,1,167.999994873047,4|0,0:0|1:0,0:0:0:0:
248,272,50544,2,0,L|157:269,1,83.9999974365235,2|0,0:1|0:0,0:0:0:0:
269,185,50885,2,0,L|358:190,1,83.9999974365235,2|0,0:1|0:0,0:0:0:0:
487,196,51226,5,4,0:1:0:0:
411,306,51396,1,0,1:0:0:0:
411,306,51481,1,0,1:0:0:0:
411,306,51567,1,0,1:0:0:0:
352,189,51737,1,0,0:0:0:0:
217,196,51908,2,0,L|164:200,2,41.9999987182618,0|0|0,1:0|1:0|1:0,0:0:0:0:
352,189,52248,1,0,1:0:0:0:
352,189,52419,1,0,1:0:0:0:
474,135,52589,6,0,L|462:302,1,167.999994873047,4|0,0:1|1:0,0:0:0:0:
448,328,53271,2,0,L|359:331,1,83.9999974365235,4|2,0:0|0:1,0:0:0:0:
262,241,53612,2,0,L|346:237,1,83.9999974365235,0|2,1:0|0:1,0:0:0:0:
222,323,53953,2,0,P|167:260|197:174,1,167.999994873047,4|0,0:0|1:0,0:0:0:0:
68,119,54464,1,4,0:0:0:0:
201,102,54635,2,0,L|284:91,1,83.9999974365235,4|2,0:0|0:1,0:0:0:0:
188,185,54976,2,0,L|104:197,1,83.9999974365235,0|2,1:0|0:1,0:0:0:0:
310,170,55317,6,0,P|377:239|359:308,1,167.999994873047,4|0,0:0|1:0,0:0:0:0:
32,320,55998,2,0,L|120:312,1,83.9999974365235,4|2,0:0|0:1,0:0:0:0:
233,377,56339,2,0,L|325:383,1,83.9999974365235,0|2,1:0|0:1,0:0:0:0:
438,324,56680,2,0,B|448:155,1,167.999994873047,4|0,0:0|1:0,0:0:0:0:
356,55,57192,1,4,0:0:0:0:
234,110,57362,1,4,0:0:0:0:
119,38,57533,2,0,L|36:32,2,83.9999974365235,2|0|2,0:1|1:0|0:1,0:0:0:0:
234,110,58044,6,0,L|225:291,1,167.999994873047,4|0,0:0|1:0,0:0:0:0:
248,296,58726,2,0,L|240:384,1,83.9999974365235,4|2,0:0|0:1,0:0:0:0:
346,297,59067,2,0,L|339:213,1,83.9999974365235,0|2,1:0|0:1,0:0:0:0:
395,90,59408,2,0,P|319:68|241:113,1,167.999994873047,4|0,0:0|1:0,0:0:0:0:
156,210,59919,1,4,0:0:0:0:
258,296,60089,2,0,L|259:382,1,83.9999974365235,4|2,0:0|0:1,0:0:0:0:
360,291,60430,2,0,L|355:207,1,83.9999974365235,0|2,1:0|0:1,0:0:0:0:
258,113,60771,6,0,L|85:120,1,167.999994873047,4|0,0:0|1:0,0:0:0:0:
0,221,61283,1,4,0:0:0:0:
124,270,61453,2,0,B|296:291,1,167.999994873047,4|0,0:0|1:0,0:0:0:0:
320,312,62135,2,0,L|408:320,1,83.9999974365235,2|0,0:1|0:0,0:0:0:0:
490,216,62476,2,0,L|405:202,1,83.9999974365235,2|0,1:0|0:0,0:0:0:0:
323,127,62817,1,0,1:0:0:0:
288,129,62902,1,0,1:0:0:0:
253,131,62987,1,0,1:0:0:0:
218,133,63072,1,0,1:0:0:0:
184,135,63158,2,0,L|134:138,3,35,0|0|0|0,1:0|1:0|1:0|1:0,0:0:0:0:
121,158,63498,6,0,L|114:303,1,140,4|2,0:1|1:0,0:0:0:0:
326,372,64180,2,0,L|321:301,1,70,4|2,0:0|0:1,0:0:0:0:
421,250,64521,2,0,L|422:174,1,70,0|2,1:0|0:1,0:0:0:0:
369,80,64862,2,0,L|229:64,1,140,4|0,0:0|1:0,0:0:0:0:
120,91,65373,1,4,0:0:0:0:
184,182,65544,1,0,0:0:0:0:
184,182,65714,2,0,L|265:184,2,70,2|0|2,0:1|1:0|0:1,0:0:0:0:
277,95,66226,6,0,P|318:87|348:90,1,70,4|0,0:0|0:0,0:0:0:0:
419,174,66567,2,0,P|453:186|479:211,1,70,0|0,1:0|0:0,0:0:0:0:
412,300,66908,2,0,P|430:329|437:369,1,70,4|2,0:0|0:1,0:0:0:0:
325,357,67248,2,0,P|285:346|251:329,1,70,0|2,1:0|0:1,0:0:0:0:
149,357,67589,2,0,B|141:216,1,140,4|0,0:0|1:0,0:0:0:0:
46,155,68101,2,0,L|40:307,1,140,4|4,0:0|0:0,0:0:0:0:
149,357,68612,1,0,1:0:0:0:
254,318,68783,1,0,1:0:0:0:
361,346,68953,6,0,L|504:332,1,140,4|0,0:1|1:0,0:0:0:0:
303,224,69635,2,0,L|233:226,1,70,4|2,0:0|0:1,0:0:0:0:
148,152,69976,2,0,L|217:149,1,70,0|2,1:0|0:1,0:0:0:0:
298,71,70317,2,0,L|449:60,1,140,4|0,0:0|1:0,0:0:0:0:
506,149,70828,1,4,0:0:0:0:
447,244,70998,2,0,L|447:317,1,70,4|0,0:0|0:0,0:0:0:0:
353,375,71339,1,0,1:0:0:0:
318,373,71425,1,0,1:0:0:0:
283,371,71510,1,0,1:0:0:0:
248,369,71595,1,0,1:0:0:0:
213,367,71680,6,0,P|174:361|138:346,1,70,0|0,1:0|0:0,0:0:0:0:
20,333,72021,2,0,P|14:296|16:261,1,70,0|0,1:0|0:0,0:0:0:0:
120,193,72362,2,0,P|151:166|194:159,1,70,0|0,1:0|0:0,0:0:0:0:
267,69,72703,2,0,P|308:68|351:88,1,70,0|0,1:0|0:0,0:0:0:0:
424,167,73044,6,0,P|393:182|368:215,1,70,0|0,1:0|0:0,0:0:0:0:
313,321,73385,1,0,1:0:0:0:
313,321,73555,1,0,0:0:0:0:
196,272,73726,2,0,P|175:241|150:217,1,70,0|0,1:0|0:0,0:0:0:0:
101,102,74067,2,0,P|61:97|24:102,1,70,0|0,1:0|0:0,0:0:0:0:
171,33,74408,6,0,P|204:38|240:36,1,70,4|0,1:0|0:0,0:0:0:0:
325,129,74748,2,0,P|362:104|383:73,1,70,0|0,1:0|0:0,0:0:0:0:
432,197,75089,2,0,P|436:229|428:275,1,70,0|0,1:0|0:0,0:0:0:0:
353,366,75430,1,0,1:0:0:0:
353,366,75601,1,0,1:0:0:0:
243,304,75771,6,0,L|161:314,1,70,0|0,1:0|1:0,0:0:0:0:
139,205,76112,2,0,L|96:208,2,35
251,208,76453,2,0,L|323:211,1,70,0|0,1:0|1:0,0:0:0:0:
428,241,76794,1,0,1:0:0:0:
431,206,76879,1,0,1:0:0:0:
435,171,76964,1,0,1:0:0:0:
439,136,77050,1,0,1:0:0:0:
442,101,77135,6,0,P|407:29|340:35,1,140,4|0,0:0|1:0,0:0:0:0:
328,52,77817,2,0,L|320:136,1,70,4|0,0:0|0:0,0:0:0:0:
231,188,78158,2,0,L|239:118,1,70,0|0,1:0|0:0,0:0:0:0:
192,17,78498,2,0,L|39:11,1,140,4|0,0:0|1:0,0:0:0:0:
0,118,79010,1,4,0:0:0:0:
79,196,79180,2,0,L|73:265,1,70,4|0,0:0|0:0,0:0:0:0:
165,201,79521,2,0,L|165:131,1,70,0|0,1:0|0:0,0:0:0:0:
256,72,79862,6,0,L|398:84,1,140,4|0,0:1|1:0,0:0:0:0:
416,104,80544,2,0,L|488:104,1,70,4|0,0:0|0:0,0:0:0:0:
508,214,80885,1,4,1:0:0:0:
504,249,80971,1,0,1:0:0:0:
500,284,81056,1,0,1:0:0:0:
497,318,81141,1,0,1:0:0:0:
493,353,81226,5,0,1:0:0:0:
327,382,81396,1,4,1:0:0:0:
304,360,81737,1,4,1:0:0:0:
280,336,82078,2,0,L|184:328,1,83.9999974365235,4|0,1:0|0:0,0:0:0:0:
103,265,82589,5,2,1:0:0:0:
282,229,82760,1,2,1:0:0:0:
120,240,83101,5,2,1:0:0:0:
299,204,83272,1,2,1:0:0:0:
136,216,83612,5,2,1:0:0:0:
315,180,83783,1,2,1:0:0:0:
256,192,83868,12,0,85317,0:1:0:0:
