osu file format v14

[General]
AudioFilename: audio.mp3
AudioLeadIn: 0
PreviewTime: 41510
Countdown: 0
SampleSet: Soft
StackLeniency: 0.7
Mode: 0
LetterboxInBreaks: 0
WidescreenStoryboard: 1

[Editor]
DistanceSpacing: 1.2
BeatDivisor: 2
GridSize: 32
TimelineZoom: 2

[Metadata]
Title:Mirai Symphony
TitleUnicode:未来Symphony
Artist:Minase Inori, Fuchigami Mai, Onishi Saori, Toyota Moe, Tazawa Masumi
ArtistUnicode:水瀬 いのり, 渕上 舞, 大西 沙織, 豊田 萌絵, 田澤 茉純
Creator:Hikawa Hina
Version:Easy
Source:ららマジ
Tags:ホニャららMAGIC♪ ドラマティックRPG オープニングアニメーション 音と魔法の学園 東奏学園器楽部 A-1 Pictures z1085684963 KuranteMelodii Moecho Moeri Karen Kagamine Ren Chocola_2287
BeatmapID:1213479
BeatmapSetID:572734

[Difficulty]
HPDrainRate:3
CircleSize:3
OverallDifficulty:3
ApproachRate:4
SliderMultiplier:0.7
SliderTickRate:1

[Events]
//Background and Video events
0,0,"bg.jpg",0,0
Video,120,"video.avi"
//Break Periods
//Storyboard Layer 0 (Background)
//Storyboard Layer 1 (Fail)
//Storyboard Layer 2 (Pass)
//Storyboard Layer 3 (Foreground)
//Storyboard Sound Samples

[TimingPoints]
-592,340.909090909091,4,2,1,100,1,0
771,-100,4,2,1,70,0,0
11680,-100,4,2,1,60,0,0
11936,-100,4,2,2,60,0,0
12106,-100,4,2,1,60,0,0
14663,-100,4,2,2,60,0,0
14833,-100,4,2,1,60,0,0
17390,-100,4,2,3,30,0,0
17561,-100,4,2,1,50,0,0
20203,-100,4,2,3,30,0,0
20374,-100,4,2,1,50,0,0
21567,-100,4,2,3,30,0,0
21738,-100,4,2,1,50,0,0
24294,-100,4,2,2,50,0,0
24464,-100,4,2,1,50,0,0
27021,-100,4,2,2,50,0,0
27191,-100,4,2,1,50,0,0
29748,-100,4,2,2,50,0,0
29918,-100,4,2,1,80,0,0
31112,-100,4,2,2,80,0,0
31282,-100,4,2,1,80,0,0
32476,-100,4,2,2,80,0,0
32646,-100,4,2,1,80,0,0
33839,-100,4,2,2,80,0,0
34009,-100,4,2,1,80,0,0
35033,-100,4,2,2,80,0,0
35203,-100,4,2,1,80,0,0
36567,-100,4,2,2,80,0,0
36737,-100,4,2,1,80,0,0
38101,-100,4,2,1,40,0,0
38271,-100,4,2,1,80,0,0
39294,-100,4,2,2,80,0,0
39464,-100,4,2,1,80,0,0
39805,-100,4,2,2,80,0,0
39975,-100,4,2,1,80,0,0
41680,-100,4,2,1,80,0,1
43385,-100,4,2,2,50,0,1
43555,-100,4,2,1,80,0,1
47476,-100,4,2,2,50,0,1
47646,-100,4,2,1,80,0,1
50203,-100,4,2,2,50,0,1
50373,-100,4,2,1,80,0,1
51567,-100,4,2,2,50,0,1
51737,-100,4,2,1,80,0,1
52504,-100,4,2,1,80,0,0
52589,-100,4,2,1,80,0,1
52930,-100,4,2,2,50,0,1
53100,-100,4,2,1,80,0,1
54294,-100,4,2,2,50,0,1
54464,-100,4,2,1,80,0,1
57021,-100,4,2,2,50,0,1
57191,-100,4,2,1,80,0,1
58385,-100,4,2,2,50,0,1
58555,-100,4,2,1,80,0,1
61112,-100,4,2,2,50,0,1
61282,-100,4,2,1,80,0,1
62476,-100,4,2,2,50,0,1
62646,-100,4,2,1,80,0,1
63158,-100,4,2,2,50,0,1
63328,-100,4,2,1,80,0,1
63498,-100,4,2,1,80,0,0
64521,-100,4,2,2,50,0,0
64691,-100,4,2,1,80,0,0
67930,-100,4,2,2,50,0,0
68100,-100,4,2,1,80,0,0
70658,-100,4,2,2,50,0,0
70828,-100,4,2,1,80,0,0
72021,-100,4,2,2,50,0,0
72191,-100,4,2,1,80,0,0
72703,-100,4,2,2,50,0,0
72873,-100,4,2,1,80,0,0
74748,-100,4,2,2,50,0,0
74918,-100,4,2,1,80,0,0
76112,-100,4,2,2,50,0,0
76282,-100,4,2,1,80,0,0
77476,-100,4,2,2,50,0,0
77646,-100,4,2,1,80,0,0
80203,-100,4,2,2,50,0,0
80373,-100,4,2,1,80,0,0
80885,-100,4,2,2,50,0,0
81055,-100,4,2,1,80,0,0
85317,-100,4,2,1,5,0,0

[Colours]
Combo1 : 255,133,11
Combo2 : 0,128,255
Combo3 : 255,83,135
Combo4 : 95,0,210

[HitObjects]
95,106,771,6,0,P|170:110|238:90,1,140,2|0,0:1|0:0,0:0:0:0:
388,154,2135,2,0,P|331:199|292:265,1,140,2|0,0:1|0:0,0:0:0:0:
132,216,3498,6,0,P|59:177|81:118,1,140,2|0,0:1|0:0,0:0:0:0:
218,58,4862,2,0,P|312:79|365:68,1,140,2|0,0:1|0:0,0:0:0:0:
475,187,6226,6,0,P|448:257|448:331,1,140,2|0,0:1|0:0,0:0:0:0:
279,305,7589,1,2,0:1:0:0:
115,344,8271,1,2,0:1:0:0:
131,176,8953,6,0,P|92:120|115:57,1,140,2|0,0:1|0:0,0:0:0:0:
282,46,10317,2,0,P|321:50|351:52,1,70,4|0,0:1|1:0,0:0:0:0:
374,132,10998,2,0,P|413:133|450:140,1,70,4|0,0:0|1:0,0:0:0:0:
503,197,11680,6,0,P|501:269|455:331,1,140,4|0,0:1|0:0,0:0:0:0:
383,350,12703,1,0,1:0:0:0:
301,331,13044,2,0,L|220:326,1,70,4|0,0:0|1:0,0:0:0:0:
198,249,13726,2,0,L|125:238,1,70,4|0,0:0|1:0,0:0:0:0:
64,293,14408,6,0,P|46:218|88:164,1,140,4|0,0:1|0:0,0:0:0:0:
149,124,15430,2,0,L|243:125,1,70,0|4,1:0|0:1,0:0:0:0:
299,222,16283,2,0,L|381:219,1,70,4|4,0:1|0:1,0:0:0:0:
494,227,17135,6,0,P|482:163|419:104,1,140,4|0,0:0|0:0,0:0:0:0:
356,73,18158,1,8,0:1:0:0:
274,53,18498,2,0,P|236:51|194:57,1,70,4|8,0:0|0:1,0:0:0:0:
198,138,19180,2,0,P|163:141|128:139,1,70,4|8,0:0|0:1,0:0:0:0:
69,79,19862,6,0,P|39:143|71:204,1,140,4|0,0:0|0:0,0:0:0:0:
129,257,20885,1,8,0:1:0:0:
205,291,21226,2,0,P|272:269|350:298,1,140,4|0,0:0|0:0,0:0:0:0:
402,339,22248,1,0,1:0:0:0:
473,294,22589,6,0,L|478:221,1,70,4|0,0:0|1:0,0:0:0:0:
394,211,23271,2,0,L|396:138,1,70,4|0,0:0|1:0,0:0:0:0:
457,83,23953,2,0,P|388:56|332:86,1,140,4|0,0:0|0:0,0:0:0:0:
284,153,24976,1,0,1:0:0:0:
203,129,25317,6,0,B|167:118|125:124|126:124,1,70
97,198,25998,2,0,B|133:209|175:203|174:203,1,70
238,248,26680,2,0,P|277:302|337:278,1,140,4|0,0:0|0:0,0:0:0:0:
372,202,27703,1,0,1:0:0:0:
429,140,28044,6,0,P|436:101|434:68,1,70,4|0,0:0|1:0,0:0:0:0:
361,29,28726,2,0,P|353:67|356:101,1,70,4|0,0:0|1:0,0:0:0:0:
336,180,29408,2,0,P|285:224|212:200,1,140,4|0,0:0|0:0,0:0:0:0:
157,151,30430,1,0,1:0:0:0:
117,76,30771,6,0,P|76:131|95:208,1,140
123,273,31794,1,0,1:0:0:0:
204,294,32135,2,0,P|257:286|314:292,1,105,4|0,0:1|0:0,0:0:0:0:
428,327,33158,1,0,1:0:0:0:
485,266,33498,6,0,P|495:212|485:151,1,105,4|4,0:1|0:1,0:0:0:0:
328,213,34692,2,0,P|254:218|185:206,1,140,4|4,0:1|0:1,0:0:0:0:
81,141,35885,1,0,1:0:0:0:
17,86,36226,2,0,P|77:55|143:83,1,140,4|0,0:1|0:0,0:0:0:0:
267,190,37589,6,0,L|372:182,2,105,0|0|0,0:0|1:0|1:0,0:0:0:0:
211,253,38953,2,0,L|95:245,2,105,4|0|0,0:1|0:0|0:0,0:0:0:0:
262,186,40317,2,0,L|310:184,1,35,4|4,0:1|0:1,0:0:0:0:
462,109,41680,6,0,L|455:192,1,70,4|0,0:1|1:0,0:0:0:0:
381,218,42362,2,0,L|375:295,1,70,4|0,0:0|1:0,0:0:0:0:
321,352,43044,2,0,P|257:379|191:346,1,140,4|0,0:0|0:0,0:0:0:0:
131,297,44067,1,0,1:0:0:0:
81,229,44408,6,0,L|79:155,1,70,4|0,0:0|1:0,0:0:0:0:
161,143,45089,2,0,L|167:71,1,70,4|0,0:0|1:0,0:0:0:0:
233,21,45771,2,0,P|272:30|317:25,1,70,4|0,0:0|1:0,0:0:0:0:
347,98,46453,2,0,P|382:93|421:96,1,70,0|0,0:0|1:0,0:0:0:0:
479,151,47135,6,0,P|498:215|479:287,1,140,4|0,0:0|0:0,0:0:0:0:
416,338,48158,1,0,1:0:0:0:
341,299,48498,2,0,B|262:295,1,70,4|0,0:0|1:0,0:0:0:0:
199,344,49180,2,0,L|122:346,1,70,0|0,0:0|1:0,0:0:0:0:
51,312,49862,6,0,P|26:247|51:180,1,140,4|0,0:0|0:0,0:0:0:0:
105,121,50885,1,0,1:0:0:0:
184,92,51226,2,0,L|289:89,1,105,4|4,0:1|0:1,0:0:0:0:
396,155,52248,1,0,1:0:0:0:
461,102,52589,6,0,P|476:168|440:226,1,140,4|0,0:1|0:0,0:0:0:0:
371,276,53612,1,0,1:0:0:0:
325,346,53953,2,0,P|254:331|188:353,1,140,4|0,0:0|0:0,0:0:0:0:
113,318,54976,1,0,1:0:0:0:
38,279,55317,6,0,L|41:202,1,70,4|0,0:0|1:0,0:0:0:0:
115,170,55998,2,0,L|122:87,1,70,4|0,0:0|1:0,0:0:0:0:
66,35,56680,2,0,P|137:16|191:53,1,140,4|0,0:0|0:0,0:0:0:0:
268,80,57703,1,0,1:0:0:0:
330,24,58044,6,0,P|353:84|319:146,1,140,4|0,0:0|0:0,0:0:0:0:
252,199,59067,1,0,1:0:0:0:
187,252,59408,2,4,L|186:321,1,70,4|0,0:0|1:0,0:0:0:0:
263,355,60089,2,0,L|269:282,1,70,0|0,0:0|1:0,0:0:0:0:
252,199,60771,6,0,P|313:165|381:190,1,140,4|0,0:0|0:0,0:0:0:0:
436,244,61794,1,0,1:0:0:0:
500,189,62135,2,0,L|505:42,2,140,0|0|0,0:0|1:0|0:0,0:0:0:0:
477,269,63839,5,0,1:0:0:0:
430,338,64180,2,0,P|364:363|299:340,1,140,4|0,0:0|0:0,0:0:0:0:
247,276,65203,1,0,1:0:0:0:
164,292,65544,2,0,L|85:289,1,70,0|0,0:0|1:0,0:0:0:0:
61,211,66226,6,0,L|131:206,1,70,0|0,0:0|1:0,0:0:0:0:
168,130,66908,2,0,L|250:132,1,70,4|0,0:0|1:0,0:0:0:0:
291,196,67589,2,0,P|323:133|292:68,1,140
230,22,68612,1,0,1:0:0:0:
159,68,68953,6,0,P|120:64|84:71,1,70,4|0,0:0|1:0,0:0:0:0:
54,145,69635,2,0,P|92:152|129:142,1,70,4|0,0:0|1:0,0:0:0:0:
199,179,70317,2,0,P|237:172|274:182,1,70,4|0,0:0|1:0,0:0:0:0:
350,170,70998,2,0,P|343:202|350:242,1,70
328,320,71680,6,0,P|260:357|188:333,2,140,0|0|0,1:0|1:0|0:0,0:0:0:0:
374,249,73385,1,0,0:0:0:0:
352,167,73726,2,0,L|356:97,1,70,0|0,1:0|1:0,0:0:0:0:
416,38,74408,6,0,P|354:12|289:45,1,140,0|0,1:0|1:0,0:0:0:0:
267,121,75430,1,0,1:0:0:0:
215,187,75771,2,0,L|98:202,2,105,0|0|0,1:0|1:0|1:0,0:0:0:0:
287,230,77135,6,0,P|297:169|249:110,1,140,4|0,0:1|0:0,0:0:0:0:
177,68,78158,1,0,1:0:0:0:
97,94,78498,2,0,L|90:182,1,70,4|0,0:0|1:0,0:0:0:0:
42,232,79180,2,0,L|45:317,1,70,4|0,0:0|1:0,0:0:0:0:
117,343,79862,6,0,P|173:378|241:344,2,140,4|0|0,0:1|0:0|1:0,0:0:0:0:
41,241,81737,2,0,L|45:165,1,70,4|4,0:1|0:1,0:0:0:0:
170,160,82589,6,0,L|291:154,2,105,2|2|2,1:0|1:0|1:0,0:0:0:0:
256,192,83783,12,0,85317,0:1:0:0:
