osu file format v14

[General]
AudioFilename: audio.mp3
AudioLeadIn: 0
PreviewTime: 73064
Countdown: 0
SampleSet: Normal
StackLeniency: 0.7
Mode: 1
LetterboxInBreaks: 0
WidescreenStoryboard: 0

[Editor]
Bookmarks: 3866,24012,38903,52918,73064,87078,101969,123866,131750,138757,158903,173794,187808,201823,225472,251750,265764,280655,294669,298611,301677,305180,308684,312188,315691,322699,336713,349852
DistanceSpacing: 1.2
BeatDivisor: 4
GridSize: 4
TimelineZoom: 1.3

[Metadata]
Title:harmony ribbon
TitleUnicode:harmony ribbon
Artist:Minase Inori
ArtistUnicode:水瀬いのり
Creator:Akemi_Homura
Version:HarmOni
Source:
Tags:marathon
BeatmapID:1312077
BeatmapSetID:622355

[Difficulty]
HPDrainRate:5
CircleSize:2
OverallDifficulty:5
ApproachRate:5
SliderMultiplier:1.4
SliderTickRate:1

[Events]
//Background and Video events
0,0,"BG1.jpg",0,0
//Break Periods
//Storyboard Layer 0 (Background)
//Storyboard Layer 1 (Fail)
//Storyboard Layer 2 (Pass)
//Storyboard Layer 3 (Foreground)
//Storyboard Sound Samples

[TimingPoints]
3867,437.956204379562,4,1,0,40,1,0
10874,-100,4,1,0,45,0,0
24888,-100,4,1,0,50,0,0
38903,-100,4,1,0,55,0,0
52918,-100,4,1,0,60,0,0
63429,-100,4,1,0,65,0,0
66713,-100,4,1,0,70,0,0
73064,-100,4,1,0,50,0,0
73939,-100,4,1,0,80,0,1
87078,-100,4,1,0,50,0,0
87954,-100,4,1,0,80,0,1
101750,-105.263157894737,4,1,0,80,0,1
101969,-111.111111111111,4,1,0,60,0,0
107005,-111.111111111111,4,1,0,70,0,0
108976,-100,4,1,0,70,0,0
115983,-100,4,1,0,40,0,0
124742,-100,4,1,0,50,0,0
138757,-100,4,1,0,60,0,0
149268,-100,4,1,0,65,0,0
152553,-100,4,1,0,70,0,0
158903,-100,4,1,0,50,0,0
159779,-100,4,1,0,80,0,1
172918,-100,4,1,0,50,0,0
173794,-100,4,1,0,80,0,1
187589,-105.263157894737,4,1,0,80,0,1
187808,-111.111111111111,4,1,0,60,0,0
192845,-111.111111111111,4,1,0,70,0,0
194815,-100,4,1,0,70,0,0
201823,-100,4,1,0,50,0,0
214961,-100,4,1,0,60,0,0
219341,-100,4,1,0,70,0,0
229852,-100,4,1,0,50,0,0
236859,-100,4,1,0,55,0,0
240363,-100,4,1,0,60,0,0
243866,-100,4,1,0,50,0,0
251750,-111.111111111111,4,1,0,40,0,0
257881,-111.111111111111,4,1,0,60,0,0
265764,-111.111111111111,4,1,0,50,0,0
266640,-100,4,1,0,80,0,1
279998,-101.010101010101,4,1,0,80,0,1
280107,-102.040816326531,4,1,0,80,0,1
280217,-103.092783505155,4,1,0,80,0,1
280326,-104.166666666667,4,1,0,80,0,1
280436,-105.263157894737,4,1,0,80,0,1
280655,-111.111111111111,4,1,0,60,0,0
285691,-111.111111111111,4,1,0,70,0,0
287662,-100,4,1,0,70,0,0
316129,-100,4,1,0,80,0,0
322699,-100,4,1,0,70,0,0
330144,-100,4,1,0,80,0,0
337151,-102.040816326531,4,1,0,60,0,0
349852,-104.166666666667,4,1,0,50,0,0
350180,-106.382978723404,4,1,0,60,0,0
350509,-108.695652173913,4,1,0,70,0,0
350728,-111.111111111111,4,1,0,50,0,0
357735,-104.166666666667,4,1,0,70,0,0
363429,-100,4,1,0,60,0,0
364742,-100,4,1,0,50,0,0
366494,-100,4,1,0,40,0,0
368246,-100,4,1,0,30,0,0
369998,-100,4,1,0,20,0,0
370874,-100,4,1,0,10,0,0

[HitObjects]
256,192,3866,5,8,0:0:0:0:
256,192,4085,1,0,0:0:0:0:
256,192,4304,1,0,0:0:0:0:
256,192,4523,1,8,0:0:0:0:
256,192,4961,1,8,0:0:0:0:
256,192,5180,1,8,0:0:0:0:
256,192,5399,1,0,0:0:0:0:
256,192,5618,1,0,0:0:0:0:
256,192,6056,1,8,0:0:0:0:
256,192,6494,1,8,0:0:0:0:
256,192,6932,1,0,0:0:0:0:
256,192,7370,1,8,0:0:0:0:
256,192,7589,1,0,0:0:0:0:
256,192,7808,1,8,0:0:0:0:
256,192,8027,1,0,0:0:0:0:
256,192,8465,1,8,0:0:0:0:
256,192,8903,1,8,0:0:0:0:
256,192,9122,1,0,0:0:0:0:
256,192,9341,1,12,0:0:0:0:
256,192,9560,1,0,0:0:0:0:
256,192,9779,1,0,0:0:0:0:
256,192,9888,1,0,0:0:0:0:
256,192,9998,1,8,0:0:0:0:
256,192,10217,1,0,0:0:0:0:
256,192,10436,1,12,0:0:0:0:
256,192,10874,1,4,0:0:0:0:
256,192,11531,1,4,0:0:0:0:
256,192,11969,1,0,0:0:0:0:
256,192,12078,1,0,0:0:0:0:
256,192,12188,1,8,0:0:0:0:
256,192,12407,1,0,0:0:0:0:
256,192,12626,1,0,0:0:0:0:
256,192,12845,1,8,0:0:0:0:
256,192,13283,1,0,0:0:0:0:
256,192,13392,1,0,0:0:0:0:
256,192,13502,1,8,0:0:0:0:
256,192,13721,1,0,0:0:0:0:
256,192,13939,1,12,0:0:0:0:
256,192,14158,1,0,0:0:0:0:
256,192,14377,1,12,0:0:0:0:
256,192,15034,1,4,0:0:0:0:
256,192,15472,1,0,0:0:0:0:
256,192,15582,1,0,0:0:0:0:
256,192,15691,1,8,0:0:0:0:
256,192,15910,1,8,0:0:0:0:
256,192,16129,1,0,0:0:0:0:
256,192,16348,1,8,0:0:0:0:
256,192,16786,1,0,0:0:0:0:
256,192,17005,1,12,0:0:0:0:
256,192,17224,1,0,0:0:0:0:
256,192,17443,1,12,0:0:0:0:
256,192,17662,1,0,0:0:0:0:
256,192,17881,1,12,0:0:0:0:
256,192,18319,1,8,0:0:0:0:
256,192,18538,1,0,0:0:0:0:
256,192,18976,1,0,0:0:0:0:
256,192,19195,1,8,0:0:0:0:
256,192,19414,1,0,0:0:0:0:
256,192,19633,1,8,0:0:0:0:
256,192,20071,1,8,0:0:0:0:
256,192,20290,1,0,0:0:0:0:
256,192,20399,1,0,0:0:0:0:
256,192,20509,1,8,0:0:0:0:
256,192,20728,1,0,0:0:0:0:
256,192,20947,1,8,0:0:0:0:
256,192,21166,1,0,0:0:0:0:
256,192,21385,5,12,0:0:0:0:
256,192,21823,1,8,0:0:0:0:
256,192,22042,1,0,0:0:0:0:
256,192,22151,1,0,0:0:0:0:
256,192,22261,1,8,0:0:0:0:
256,192,22480,1,0,0:0:0:0:
256,192,22589,1,0,0:0:0:0:
256,192,22699,1,8,0:0:0:0:
256,192,22808,1,0,0:0:0:0:
256,192,22918,1,8,0:0:0:0:
256,192,23027,1,8,0:0:0:0:
256,192,23137,1,0,0:0:0:0:
256,192,24012,1,0,0:0:0:0:
256,192,24450,1,8,0:0:0:0:
256,192,24888,1,4,0:0:0:0:
256,192,25326,1,0,0:0:0:0:
256,192,25545,1,8,0:0:0:0:
256,192,25764,1,0,0:0:0:0:
256,192,26202,1,0,0:0:0:0:
256,192,26421,1,0,0:0:0:0:
256,192,26640,1,8,0:0:0:0:
256,192,26859,1,8,0:0:0:0:
256,192,27078,1,0,0:0:0:0:
256,192,27297,1,8,0:0:0:0:
256,192,27735,1,8,0:0:0:0:
256,192,27954,1,0,0:0:0:0:
256,192,28392,1,8,0:0:0:0:
256,192,28830,1,0,0:0:0:0:
256,192,29049,1,8,0:0:0:0:
256,192,29268,1,8,0:0:0:0:
256,192,29487,1,0,0:0:0:0:
256,192,29706,1,8,0:0:0:0:
256,192,29925,1,0,0:0:0:0:
256,192,30582,1,0,0:0:0:0:
256,192,30801,1,0,0:0:0:0:
256,192,31020,1,8,0:0:0:0:
256,192,31458,1,8,0:0:0:0:
256,192,31896,1,0,0:0:0:0:
256,192,32334,1,0,0:0:0:0:
256,192,32553,1,0,0:0:0:0:
256,192,32991,1,0,0:0:0:0:
256,192,33210,1,8,0:0:0:0:
256,192,33429,1,8,0:0:0:0:
256,192,33648,1,0,0:0:0:0:
256,192,33867,1,8,0:0:0:0:
256,192,34304,1,0,0:0:0:0:
256,192,34523,1,8,0:0:0:0:
256,192,34742,1,0,0:0:0:0:
256,192,34961,1,8,0:0:0:0:
256,192,35180,1,8,0:0:0:0:
256,192,35399,1,0,0:0:0:0:
256,192,35837,1,0,0:0:0:0:
256,192,36275,1,0,0:0:0:0:
256,192,36494,1,8,0:0:0:0:
256,192,36713,1,8,0:0:0:0:
256,192,36932,1,0,0:0:0:0:
256,192,37151,1,8,0:0:0:0:
256,192,37370,1,0,0:0:0:0:
256,192,37808,1,0,0:0:0:0:
256,192,38027,1,0,0:0:0:0:
256,192,38465,1,8,0:0:0:0:
256,192,38903,1,4,0:0:0:0:
256,192,39341,1,8,0:0:0:0:
256,192,39560,1,0,0:0:0:0:
256,192,39779,1,8,0:0:0:0:
256,192,40217,1,0,0:0:0:0:
256,192,40436,1,8,0:0:0:0:
256,192,40655,1,0,0:0:0:0:
256,192,40764,1,8,0:0:0:0:
256,192,40874,1,0,0:0:0:0:
256,192,41093,1,8,0:0:0:0:
256,192,41312,1,0,0:0:0:0:
256,192,41750,1,0,0:0:0:0:
256,192,41969,1,8,0:0:0:0:
256,192,42407,1,8,0:0:0:0:
256,192,42845,1,0,0:0:0:0:
256,192,43064,1,8,0:0:0:0:
256,192,43283,1,0,0:0:0:0:
256,192,43392,1,0,0:0:0:0:
256,192,43502,1,8,0:0:0:0:
256,192,43721,1,8,0:0:0:0:
256,192,43939,1,0,0:0:0:0:
256,192,44158,1,8,0:0:0:0:
256,192,44596,1,0,0:0:0:0:
256,192,44815,1,8,0:0:0:0:
256,192,44925,1,8,0:0:0:0:
256,192,45034,1,0,0:0:0:0:
256,192,45253,1,8,0:0:0:0:
256,192,45472,1,0,0:0:0:0:
256,192,45910,1,8,0:0:0:0:
256,192,46348,1,8,0:0:0:0:
256,192,46567,1,0,0:0:0:0:
256,192,46786,1,8,0:0:0:0:
256,192,46896,1,8,0:0:0:0:
256,192,47005,1,0,0:0:0:0:
256,192,47224,1,8,0:0:0:0:
256,192,47443,1,8,0:0:0:0:
256,192,47662,1,0,0:0:0:0:
256,192,47881,1,8,0:0:0:0:
256,192,48319,1,8,0:0:0:0:
256,192,48538,1,0,0:0:0:0:
256,192,48757,1,8,0:0:0:0:
256,192,48866,1,0,0:0:0:0:
256,192,48976,1,8,0:0:0:0:
256,192,49195,1,0,0:0:0:0:
256,192,49414,1,8,0:0:0:0:
256,192,49852,1,8,0:0:0:0:
256,192,50071,1,0,0:0:0:0:
256,192,50180,1,0,0:0:0:0:
256,192,50290,1,8,0:0:0:0:
256,192,50399,1,8,0:0:0:0:
256,192,50509,1,0,0:0:0:0:
256,192,50728,1,8,0:0:0:0:
256,192,50947,1,8,0:0:0:0:
256,192,51166,1,0,0:0:0:0:
256,192,51604,1,0,0:0:0:0:
256,192,51823,5,0,0:0:0:0:
256,192,51896,1,0,0:0:0:0:
256,192,51969,1,0,0:0:0:0:
256,192,52042,1,8,0:0:0:0:
256,192,52261,1,8,0:0:0:0:
256,192,52480,1,0,0:0:0:0:
256,192,52699,1,0,0:0:0:0:
256,192,52918,1,12,0:0:0:0:
256,192,53356,1,0,0:0:0:0:
256,192,53575,1,8,0:0:0:0:
256,192,53794,1,0,0:0:0:0:
256,192,54231,1,0,0:0:0:0:
256,192,54450,1,8,0:0:0:0:
256,192,54888,1,8,0:0:0:0:
256,192,55107,1,0,0:0:0:0:
256,192,55326,1,8,0:0:0:0:
256,192,55436,1,8,0:0:0:0:
256,192,55545,1,0,0:0:0:0:
256,192,55764,1,0,0:0:0:0:
256,192,55983,1,0,0:0:0:0:
256,192,56421,1,8,0:0:0:0:
256,192,56640,1,0,0:0:0:0:
256,192,56859,1,0,0:0:0:0:
256,192,56969,1,0,0:0:0:0:
256,192,57078,1,8,0:0:0:0:
256,192,57297,1,0,0:0:0:0:
256,192,57516,1,8,0:0:0:0:
256,192,57735,1,0,0:0:0:0:
256,192,57845,1,0,0:0:0:0:
256,192,57954,1,8,0:0:0:0:
256,192,58173,1,0,0:0:0:0:
256,192,58392,1,8,0:0:0:0:
256,192,58611,1,0,0:0:0:0:
256,192,58721,1,0,0:0:0:0:
256,192,58830,1,8,0:0:0:0:
256,192,58939,1,0,0:0:0:0:
256,192,59049,1,8,0:0:0:0:
256,192,59268,1,8,0:0:0:0:
256,192,59487,1,0,0:0:0:0:
256,192,59925,1,12,0:0:0:0:
256,192,60144,1,0,0:0:0:0:
256,192,60363,1,0,0:0:0:0:
256,192,60472,1,0,0:0:0:0:
256,192,60582,1,8,0:0:0:0:
256,192,60801,1,8,0:0:0:0:
256,192,61020,1,0,0:0:0:0:
256,192,61239,1,8,0:0:0:0:
256,192,61348,1,0,0:0:0:0:
256,192,61458,1,8,0:0:0:0:
256,192,61677,1,0,0:0:0:0:
256,192,61896,1,8,0:0:0:0:
256,192,62005,1,0,0:0:0:0:
256,192,62115,1,8,0:0:0:0:
256,192,62334,1,0,0:0:0:0:
256,192,62553,1,8,0:0:0:0:
256,192,62772,1,8,0:0:0:0:
256,192,62881,1,0,0:0:0:0:
256,192,62991,1,0,0:0:0:0:
256,192,63210,1,8,0:0:0:0:
256,192,63429,1,4,0:0:0:0:
256,192,63866,1,8,0:0:0:0:
256,192,64085,1,0,0:0:0:0:
256,192,64304,1,8,0:0:0:0:
256,192,64742,1,8,0:0:0:0:
256,192,64961,1,0,0:0:0:0:
256,192,65180,1,8,0:0:0:0:
256,192,65290,1,8,0:0:0:0:
256,192,65399,1,0,0:0:0:0:
256,192,65618,1,8,0:0:0:0:
256,192,65837,1,0,0:0:0:0:
256,192,65947,1,0,0:0:0:0:
256,192,66056,1,8,0:0:0:0:
256,192,66275,1,0,0:0:0:0:
256,192,66494,1,8,0:0:0:0:
256,192,66713,1,0,0:0:0:0:
256,192,66932,1,12,0:0:0:0:
256,192,67151,1,0,0:0:0:0:
256,192,67370,1,8,0:0:0:0:
256,192,67589,1,8,0:0:0:0:
256,192,67699,1,0,0:0:0:0:
256,192,67808,1,8,0:0:0:0:
256,192,68027,1,8,0:0:0:0:
256,192,68246,5,0,0:0:0:0:
256,192,68465,1,8,0:0:0:0:
256,192,68575,1,8,0:0:0:0:
256,192,68684,1,0,0:0:0:0:
256,192,68794,1,0,0:0:0:0:
256,192,68903,1,8,0:0:0:0:
256,192,69122,1,0,0:0:0:0:
256,192,69341,5,8,0:0:0:0:
256,192,69450,1,8,0:0:0:0:
256,192,69560,1,0,0:0:0:0:
256,192,69779,1,0,0:0:0:0:
256,192,69998,1,8,0:0:0:0:
256,192,70217,1,4,0:0:0:0:
256,192,71093,5,0,0:0:0:0:
256,192,71166,1,0,0:0:0:0:
256,192,71239,1,0,0:0:0:0:
256,192,71312,1,8,0:0:0:0:
256,192,71531,1,4,0:0:0:0:
256,192,71969,1,0,0:0:0:0:
256,192,72188,1,12,0:0:0:0:
256,192,73064,1,0,0:0:0:0:
256,192,73502,1,12,0:0:0:0:
256,192,73939,1,4,0:0:0:0:
256,192,74377,1,8,0:0:0:0:
256,192,74596,1,0,0:0:0:0:
256,192,74815,1,8,0:0:0:0:
256,192,74925,1,8,0:0:0:0:
256,192,75034,1,0,0:0:0:0:
256,192,75253,1,8,0:0:0:0:
256,192,75472,1,0,0:0:0:0:
256,192,75691,1,8,0:0:0:0:
256,192,75801,1,8,0:0:0:0:
256,192,75910,1,0,0:0:0:0:
256,192,76020,1,0,0:0:0:0:
256,192,76129,1,8,0:0:0:0:
256,192,76348,1,0,0:0:0:0:
256,192,76567,1,8,0:0:0:0:
256,192,76677,1,8,0:0:0:0:
256,192,76786,1,0,0:0:0:0:
256,192,77005,1,8,0:0:0:0:
256,192,77224,1,0,0:0:0:0:
256,192,77443,1,8,0:0:0:0:
256,192,77553,1,0,0:0:0:0:
256,192,77662,1,0,0:0:0:0:
256,192,77772,1,0,0:0:0:0:
256,192,77881,1,8,0:0:0:0:
256,192,78100,1,0,0:0:0:0:
256,192,78319,1,8,0:0:0:0:
256,192,78757,1,8,0:0:0:0:
256,192,78976,1,0,0:0:0:0:
256,192,79195,1,8,0:0:0:0:
256,192,79304,1,0,0:0:0:0:
256,192,79414,1,0,0:0:0:0:
256,192,79633,1,8,0:0:0:0:
256,192,79852,1,0,0:0:0:0:
256,192,80071,5,0,0:0:0:0:
256,192,80180,1,8,0:0:0:0:
256,192,80290,1,0,0:0:0:0:
256,192,80399,1,0,0:0:0:0:
256,192,80509,1,8,0:0:0:0:
256,192,80728,1,0,0:0:0:0:
256,192,80947,1,12,0:0:0:0:
256,192,81385,1,8,0:0:0:0:
256,192,81604,1,0,0:0:0:0:
256,192,81823,1,8,0:0:0:0:
256,192,81932,1,0,0:0:0:0:
256,192,82042,1,8,0:0:0:0:
256,192,82151,1,0,0:0:0:0:
256,192,82261,1,8,0:0:0:0:
256,192,82480,1,0,0:0:0:0:
256,192,82699,1,8,0:0:0:0:
256,192,83137,1,8,0:0:0:0:
256,192,83246,1,0,0:0:0:0:
256,192,83356,1,0,0:0:0:0:
256,192,83575,1,8,0:0:0:0:
256,192,83794,1,0,0:0:0:0:
256,192,84012,1,8,0:0:0:0:
256,192,84122,1,8,0:0:0:0:
256,192,84231,1,0,0:0:0:0:
256,192,84450,5,8,0:0:0:0:
256,192,84669,1,0,0:0:0:0:
256,192,84888,1,8,0:0:0:0:
256,192,84998,1,8,0:0:0:0:
256,192,85107,1,0,0:0:0:0:
256,192,85326,1,8,0:0:0:0:
256,192,85436,1,8,0:0:0:0:
256,192,85545,1,0,0:0:0:0:
256,192,85655,1,8,0:0:0:0:
256,192,85764,1,0,0:0:0:0:
256,192,85983,1,8,0:0:0:0:
256,192,86202,5,12,0:0:0:0:
256,192,86421,1,0,0:0:0:0:
256,192,86640,1,8,0:0:0:0:
256,192,86859,1,0,0:0:0:0:
256,192,87078,5,12,0:0:0:0:
256,192,87516,1,8,0:0:0:0:
256,192,87954,1,4,0:0:0:0:
256,192,88392,1,8,0:0:0:0:
256,192,88611,1,0,0:0:0:0:
256,192,88830,1,8,0:0:0:0:
256,192,88939,1,0,0:0:0:0:
256,192,89049,1,0,0:0:0:0:
256,192,89268,1,8,0:0:0:0:
256,192,89487,1,0,0:0:0:0:
256,192,89706,1,0,0:0:0:0:
256,192,89815,1,0,0:0:0:0:
256,192,89925,1,0,0:0:0:0:
256,192,90144,1,8,0:0:0:0:
256,192,90363,1,0,0:0:0:0:
256,192,90582,1,8,0:0:0:0:
256,192,90691,1,8,0:0:0:0:
256,192,90801,1,0,0:0:0:0:
256,192,91020,1,8,0:0:0:0:
256,192,91239,1,0,0:0:0:0:
256,192,91458,1,8,0:0:0:0:
256,192,91567,1,8,0:0:0:0:
256,192,91677,1,0,0:0:0:0:
256,192,91786,1,8,0:0:0:0:
256,192,91896,1,0,0:0:0:0:
256,192,92115,1,8,0:0:0:0:
256,192,92334,1,8,0:0:0:0:
256,192,92772,1,0,0:0:0:0:
256,192,92991,1,8,0:0:0:0:
256,192,93210,1,0,0:0:0:0:
256,192,93319,1,0,0:0:0:0:
256,192,93429,1,8,0:0:0:0:
256,192,93538,1,0,0:0:0:0:
256,192,93648,1,8,0:0:0:0:
256,192,93866,1,0,0:0:0:0:
256,192,94085,1,12,0:0:0:0:
256,192,94304,1,0,0:0:0:0:
256,192,94523,1,12,0:0:0:0:
256,192,94742,1,0,0:0:0:0:
256,192,94961,1,12,0:0:0:0:
256,192,95399,1,0,0:0:0:0:
256,192,95618,1,8,0:0:0:0:
256,192,95837,1,0,0:0:0:0:
256,192,95947,1,0,0:0:0:0:
256,192,96056,1,0,0:0:0:0:
256,192,96166,1,0,0:0:0:0:
256,192,96275,1,8,0:0:0:0:
256,192,96494,1,0,0:0:0:0:
256,192,96713,1,8,0:0:0:0:
256,192,96932,1,0,0:0:0:0:
256,192,97151,1,8,0:0:0:0:
256,192,97261,1,8,0:0:0:0:
256,192,97370,1,0,0:0:0:0:
256,192,97589,5,8,0:0:0:0:
256,192,97808,1,0,0:0:0:0:
256,192,98027,1,8,0:0:0:0:
256,192,98137,1,8,0:0:0:0:
256,192,98246,1,0,0:0:0:0:
256,192,98356,1,0,0:0:0:0:
256,192,98465,5,8,0:0:0:0:
256,192,98684,1,0,0:0:0:0:
256,192,98903,1,8,0:0:0:0:
256,192,99012,1,8,0:0:0:0:
256,192,99122,1,0,0:0:0:0:
256,192,99341,1,8,0:0:0:0:
256,192,99560,1,0,0:0:0:0:
256,192,99669,1,8,0:0:0:0:
256,192,99779,1,0,0:0:0:0:
256,192,99998,1,8,0:0:0:0:
256,192,100217,1,4,0:0:0:0:
256,192,100436,1,8,0:0:0:0:
256,192,100655,1,0,0:0:0:0:
256,192,100874,1,0,0:0:0:0:
256,192,100947,1,0,0:0:0:0:
256,192,101020,1,0,0:0:0:0:
256,192,101093,1,8,0:0:0:0:
256,192,101312,1,0,0:0:0:0:
256,192,101531,1,8,0:0:0:0:
256,192,101750,1,0,0:0:0:0:
256,192,101969,1,4,0:0:0:0:
256,192,102407,1,8,0:0:0:0:
256,192,102626,1,0,0:0:0:0:
256,192,102845,1,8,0:0:0:0:
256,192,103283,1,0,0:0:0:0:
256,192,103502,1,8,0:0:0:0:
256,192,103721,1,0,0:0:0:0:
256,192,103939,1,0,0:0:0:0:
256,192,104049,1,8,0:0:0:0:
256,192,104158,1,0,0:0:0:0:
256,192,104377,1,8,0:0:0:0:
256,192,104487,1,0,0:0:0:0:
256,192,104596,1,8,0:0:0:0:
256,192,104815,1,0,0:0:0:0:
256,192,105034,1,8,0:0:0:0:
256,192,105253,1,8,0:0:0:0:
256,192,105472,1,0,0:0:0:0:
256,192,105910,1,8,0:0:0:0:
256,192,106129,1,0,0:0:0:0:
256,192,106348,1,8,0:0:0:0:
256,192,106567,1,0,0:0:0:0:
256,192,106677,1,8,0:0:0:0:
256,192,106786,1,0,0:0:0:0:
256,192,107005,1,12,0:0:0:0:
256,192,107443,1,0,0:0:0:0:
256,192,107662,1,8,0:0:0:0:
256,192,107881,1,0,0:0:0:0:
256,192,107991,1,0,0:0:0:0:
256,192,108100,1,8,0:0:0:0:
256,192,108319,1,0,0:0:0:0:
256,192,108538,1,12,0:0:0:0:
256,192,108976,1,4,0:0:0:0:
256,192,109414,1,8,0:0:0:0:
256,192,109633,1,0,0:0:0:0:
256,192,110071,1,0,0:0:0:0:
256,192,110290,1,8,0:0:0:0:
256,192,110509,1,0,0:0:0:0:
256,192,110947,1,8,0:0:0:0:
256,192,111166,1,0,0:0:0:0:
256,192,111385,1,0,0:0:0:0:
256,192,111604,1,8,0:0:0:0:
256,192,112042,1,0,0:0:0:0:
256,192,112261,1,0,0:0:0:0:
256,192,112480,1,12,0:0:0:0:
256,192,112699,1,0,0:0:0:0:
256,192,112808,1,0,0:0:0:0:
256,192,112918,1,0,0:0:0:0:
256,192,113137,1,12,0:0:0:0:
256,192,113356,1,0,0:0:0:0:
256,192,113465,1,0,0:0:0:0:
256,192,113575,1,0,0:0:0:0:
256,192,113794,1,12,0:0:0:0:
256,192,114012,1,0,0:0:0:0:
256,192,114450,1,8,0:0:0:0:
256,192,114669,1,0,0:0:0:0:
256,192,114888,1,0,0:0:0:0:
256,192,114998,1,0,0:0:0:0:
256,192,115107,1,8,0:0:0:0:
256,192,115326,1,0,0:0:0:0:
256,192,115545,1,12,0:0:0:0:
256,192,115764,1,0,0:0:0:0:
256,192,115983,1,8,0:0:0:0:
256,192,116640,1,8,0:0:0:0:
256,192,117078,1,8,0:0:0:0:
256,192,117297,1,0,0:0:0:0:
256,192,117516,1,8,0:0:0:0:
256,192,117735,1,0,0:0:0:0:
256,192,117954,1,0,0:0:0:0:
256,192,118173,1,8,0:0:0:0:
256,192,118392,1,8,0:0:0:0:
256,192,118830,1,0,0:0:0:0:
256,192,119049,1,8,0:0:0:0:
256,192,119268,1,0,0:0:0:0:
256,192,119377,1,0,0:0:0:0:
256,192,119487,1,8,0:0:0:0:
256,192,119925,1,0,0:0:0:0:
256,192,120144,1,8,0:0:0:0:
256,192,120582,1,8,0:0:0:0:
256,192,121020,1,0,0:0:0:0:
256,192,121239,1,8,0:0:0:0:
256,192,121348,1,8,0:0:0:0:
256,192,121458,1,0,0:0:0:0:
256,192,121567,1,0,0:0:0:0:
256,192,121677,1,8,0:0:0:0:
256,192,121896,1,0,0:0:0:0:
256,192,122115,1,0,0:0:0:0:
256,192,122443,1,0,0:0:0:0:
256,192,122772,1,8,0:0:0:0:
256,192,122881,1,8,0:0:0:0:
256,192,122991,1,0,0:0:0:0:
256,192,123648,1,0,0:0:0:0:
256,192,123866,1,8,0:0:0:0:
256,192,124085,1,0,0:0:0:0:
256,192,124304,1,0,0:0:0:0:
256,192,124742,1,12,0:0:0:0:
256,192,125399,1,8,0:0:0:0:
256,192,125618,1,0,0:0:0:0:
256,192,126275,1,0,0:0:0:0:
256,192,126494,1,8,0:0:0:0:
256,192,126713,1,8,0:0:0:0:
256,192,126932,1,0,0:0:0:0:
256,192,127151,1,8,0:0:0:0:
256,192,127589,1,8,0:0:0:0:
256,192,127808,1,0,0:0:0:0:
256,192,128246,1,8,0:0:0:0:
256,192,128903,1,0,0:0:0:0:
256,192,129122,1,8,0:0:0:0:
256,192,129341,1,0,0:0:0:0:
256,192,129560,1,8,0:0:0:0:
256,192,129779,1,8,0:0:0:0:
256,192,129998,1,4,0:0:0:0:
256,192,130655,1,0,0:0:0:0:
256,192,130874,1,8,0:0:0:0:
256,192,131093,1,0,0:0:0:0:
256,192,131312,1,8,0:0:0:0:
256,192,131750,1,4,0:0:0:0:
256,192,132188,1,0,0:0:0:0:
256,192,132407,1,8,0:0:0:0:
256,192,132845,1,8,0:0:0:0:
256,192,133064,1,0,0:0:0:0:
256,192,133283,1,8,0:0:0:0:
256,192,133392,1,8,0:0:0:0:
256,192,133502,1,8,0:0:0:0:
256,192,133721,1,0,0:0:0:0:
256,192,133939,1,0,0:0:0:0:
256,192,134158,1,8,0:0:0:0:
256,192,134377,1,0,0:0:0:0:
256,192,134815,1,8,0:0:0:0:
256,192,135034,1,0,0:0:0:0:
256,192,135253,1,8,0:0:0:0:
256,192,135691,1,8,0:0:0:0:
256,192,135910,1,0,0:0:0:0:
256,192,136129,1,8,0:0:0:0:
256,192,136239,1,8,0:0:0:0:
256,192,136348,1,0,0:0:0:0:
256,192,136567,1,8,0:0:0:0:
256,192,136786,1,0,0:0:0:0:
256,192,137005,1,8,0:0:0:0:
256,192,137115,1,0,0:0:0:0:
256,192,137224,1,8,0:0:0:0:
256,192,137443,1,0,0:0:0:0:
256,192,137662,1,0,0:0:0:0:
256,192,137735,1,0,0:0:0:0:
256,192,137808,1,0,0:0:0:0:
256,192,137881,1,8,0:0:0:0:
256,192,138100,1,0,0:0:0:0:
256,192,138319,1,8,0:0:0:0:
256,192,138538,1,8,0:0:0:0:
256,192,138757,1,4,0:0:0:0:
256,192,139195,1,0,0:0:0:0:
256,192,139414,1,8,0:0:0:0:
256,192,139633,1,8,0:0:0:0:
256,192,139852,1,0,0:0:0:0:
256,192,140071,1,8,0:0:0:0:
256,192,140290,1,0,0:0:0:0:
256,192,140728,1,8,0:0:0:0:
256,192,140947,1,0,0:0:0:0:
256,192,141166,1,8,0:0:0:0:
256,192,141275,1,8,0:0:0:0:
256,192,141385,1,0,0:0:0:0:
256,192,141604,1,0,0:0:0:0:
256,192,141823,1,8,0:0:0:0:
256,192,142042,1,0,0:0:0:0:
256,192,142151,1,0,0:0:0:0:
256,192,142261,1,8,0:0:0:0:
256,192,142480,1,0,0:0:0:0:
256,192,142699,1,8,0:0:0:0:
256,192,142918,1,0,0:0:0:0:
256,192,143027,1,0,0:0:0:0:
256,192,143137,1,8,0:0:0:0:
256,192,143356,1,0,0:0:0:0:
256,192,143575,1,8,0:0:0:0:
256,192,143794,1,8,0:0:0:0:
256,192,144231,1,8,0:0:0:0:
256,192,144450,1,0,0:0:0:0:
256,192,144669,1,8,0:0:0:0:
256,192,144779,1,0,0:0:0:0:
256,192,144888,1,8,0:0:0:0:
256,192,145107,1,0,0:0:0:0:
256,192,145326,1,8,0:0:0:0:
256,192,145545,1,0,0:0:0:0:
256,192,145764,1,4,0:0:0:0:
256,192,145983,1,8,0:0:0:0:
256,192,146093,1,8,0:0:0:0:
256,192,146202,1,0,0:0:0:0:
256,192,146421,1,8,0:0:0:0:
256,192,146640,1,0,0:0:0:0:
256,192,146750,1,8,0:0:0:0:
256,192,146859,1,0,0:0:0:0:
256,192,147078,1,0,0:0:0:0:
256,192,147297,1,8,0:0:0:0:
256,192,147735,1,0,0:0:0:0:
256,192,147954,1,8,0:0:0:0:
256,192,148173,1,0,0:0:0:0:
256,192,148283,1,0,0:0:0:0:
256,192,148392,1,8,0:0:0:0:
256,192,148611,1,0,0:0:0:0:
256,192,148830,1,8,0:0:0:0:
256,192,149049,1,0,0:0:0:0:
256,192,149268,1,12,0:0:0:0:
256,192,149706,1,8,0:0:0:0:
256,192,149925,1,0,0:0:0:0:
256,192,150144,1,8,0:0:0:0:
256,192,150582,1,8,0:0:0:0:
256,192,150801,1,0,0:0:0:0:
256,192,150910,1,8,0:0:0:0:
256,192,151020,1,8,0:0:0:0:
256,192,151239,1,0,0:0:0:0:
256,192,151458,1,8,0:0:0:0:
256,192,151677,1,0,0:0:0:0:
256,192,151786,1,0,0:0:0:0:
256,192,151896,1,8,0:0:0:0:
256,192,152115,1,0,0:0:0:0:
256,192,152334,1,8,0:0:0:0:
256,192,152553,1,0,0:0:0:0:
256,192,152772,1,12,0:0:0:0:
256,192,152991,1,0,0:0:0:0:
256,192,153210,1,8,0:0:0:0:
256,192,153429,1,0,0:0:0:0:
256,192,153538,1,8,0:0:0:0:
256,192,153648,1,0,0:0:0:0:
256,192,153866,1,8,0:0:0:0:
256,192,154085,1,0,0:0:0:0:
256,192,154304,1,8,0:0:0:0:
256,192,154414,1,8,0:0:0:0:
256,192,154523,1,0,0:0:0:0:
256,192,154633,1,8,0:0:0:0:
256,192,154742,1,8,0:0:0:0:
256,192,154961,1,0,0:0:0:0:
256,192,155180,1,8,0:0:0:0:
256,192,155289,1,8,0:0:0:0:
256,192,155399,1,0,0:0:0:0:
256,192,155618,1,0,0:0:0:0:
256,192,155837,1,8,0:0:0:0:
256,192,156056,1,4,0:0:0:0:
256,192,156932,1,0,0:0:0:0:
256,192,157005,1,0,0:0:0:0:
256,192,157078,1,0,0:0:0:0:
256,192,157151,1,8,0:0:0:0:
256,192,157370,1,4,0:0:0:0:
256,192,157808,1,0,0:0:0:0:
256,192,158027,1,12,0:0:0:0:
256,192,158903,1,0,0:0:0:0:
256,192,159341,1,12,0:0:0:0:
256,192,159779,1,4,0:0:0:0:
256,192,160217,1,8,0:0:0:0:
256,192,160436,1,0,0:0:0:0:
256,192,160655,1,8,0:0:0:0:
256,192,160764,1,8,0:0:0:0:
256,192,160874,1,0,0:0:0:0:
256,192,160983,1,0,0:0:0:0:
256,192,161093,1,8,0:0:0:0:
256,192,161312,1,0,0:0:0:0:
256,192,161531,1,8,0:0:0:0:
256,192,161750,1,0,0:0:0:0:
256,192,161859,1,8,0:0:0:0:
256,192,161969,1,0,0:0:0:0:
256,192,162188,1,8,0:0:0:0:
256,192,162407,1,0,0:0:0:0:
256,192,162516,1,0,0:0:0:0:
256,192,162626,1,8,0:0:0:0:
256,192,162735,1,8,0:0:0:0:
256,192,162845,1,0,0:0:0:0:
256,192,163064,1,8,0:0:0:0:
256,192,163283,1,0,0:0:0:0:
256,192,163392,1,0,0:0:0:0:
256,192,163502,1,8,0:0:0:0:
256,192,163611,1,0,0:0:0:0:
256,192,163721,1,8,0:0:0:0:
256,192,163939,1,0,0:0:0:0:
256,192,164158,1,8,0:0:0:0:
256,192,164596,1,0,0:0:0:0:
256,192,164815,1,8,0:0:0:0:
256,192,165034,1,8,0:0:0:0:
256,192,165144,1,8,0:0:0:0:
256,192,165253,1,0,0:0:0:0:
256,192,165472,1,8,0:0:0:0:
256,192,165691,1,0,0:0:0:0:
256,192,165910,1,8,0:0:0:0:
256,192,166020,1,8,0:0:0:0:
256,192,166129,1,0,0:0:0:0:
256,192,166239,1,0,0:0:0:0:
256,192,166348,1,8,0:0:0:0:
256,192,166567,1,0,0:0:0:0:
256,192,166786,1,12,0:0:0:0:
256,192,167224,1,0,0:0:0:0:
256,192,167443,1,8,0:0:0:0:
256,192,167662,1,8,0:0:0:0:
256,192,167772,1,8,0:0:0:0:
256,192,167881,1,0,0:0:0:0:
256,192,167991,1,8,0:0:0:0:
256,192,168100,1,0,0:0:0:0:
256,192,168319,1,0,0:0:0:0:
256,192,168538,1,8,0:0:0:0:
256,192,168976,1,8,0:0:0:0:
256,192,169195,1,0,0:0:0:0:
256,192,169414,1,8,0:0:0:0:
256,192,169523,1,8,0:0:0:0:
256,192,169633,1,0,0:0:0:0:
256,192,169852,1,8,0:0:0:0:
256,192,170071,1,0,0:0:0:0:
256,192,170290,1,8,0:0:0:0:
256,192,170399,1,8,0:0:0:0:
256,192,170509,1,0,0:0:0:0:
256,192,170618,1,0,0:0:0:0:
256,192,170728,1,8,0:0:0:0:
256,192,170947,1,8,0:0:0:0:
256,192,171166,1,8,0:0:0:0:
256,192,171275,1,0,0:0:0:0:
256,192,171385,1,0,0:0:0:0:
256,192,171494,1,0,0:0:0:0:
256,192,171604,1,8,0:0:0:0:
256,192,171823,1,8,0:0:0:0:
256,192,172042,1,4,0:0:0:0:
256,192,172261,1,8,0:0:0:0:
256,192,172370,1,8,0:0:0:0:
256,192,172480,1,0,0:0:0:0:
256,192,172699,1,0,0:0:0:0:
256,192,172918,1,12,0:0:0:0:
256,192,173356,1,8,0:0:0:0:
256,192,173794,1,4,0:0:0:0:
256,192,174231,1,8,0:0:0:0:
256,192,174450,1,0,0:0:0:0:
256,192,174669,1,0,0:0:0:0:
256,192,174779,1,0,0:0:0:0:
256,192,174888,1,0,0:0:0:0:
256,192,175107,1,8,0:0:0:0:
256,192,175326,1,0,0:0:0:0:
256,192,175545,1,8,0:0:0:0:
256,192,175655,1,8,0:0:0:0:
256,192,175764,1,0,0:0:0:0:
256,192,175874,1,0,0:0:0:0:
256,192,175983,1,8,0:0:0:0:
256,192,176202,1,0,0:0:0:0:
256,192,176421,1,8,0:0:0:0:
256,192,176640,1,0,0:0:0:0:
256,192,176750,1,0,0:0:0:0:
256,192,176859,1,8,0:0:0:0:
256,192,177078,1,0,0:0:0:0:
256,192,177297,1,8,0:0:0:0:
256,192,177407,1,0,0:0:0:0:
256,192,177516,1,8,0:0:0:0:
256,192,177626,1,8,0:0:0:0:
256,192,177735,1,0,0:0:0:0:
256,192,177954,1,8,0:0:0:0:
256,192,178173,1,8,0:0:0:0:
256,192,178611,1,0,0:0:0:0:
256,192,178830,1,8,0:0:0:0:
256,192,179049,1,0,0:0:0:0:
256,192,179158,1,8,0:0:0:0:
256,192,179268,1,0,0:0:0:0:
256,192,179377,1,0,0:0:0:0:
256,192,179487,1,8,0:0:0:0:
256,192,179706,1,0,0:0:0:0:
256,192,179925,1,12,0:0:0:0:
256,192,180144,1,0,0:0:0:0:
256,192,180363,1,12,0:0:0:0:
256,192,180582,1,0,0:0:0:0:
256,192,180801,1,12,0:0:0:0:
256,192,181239,1,8,0:0:0:0:
256,192,181458,1,0,0:0:0:0:
256,192,181677,1,8,0:0:0:0:
256,192,181786,1,0,0:0:0:0:
256,192,181896,1,8,0:0:0:0:
256,192,182005,1,0,0:0:0:0:
256,192,182115,1,8,0:0:0:0:
256,192,182334,1,0,0:0:0:0:
256,192,182553,1,8,0:0:0:0:
256,192,182772,1,0,0:0:0:0:
256,192,182881,1,0,0:0:0:0:
256,192,182991,1,8,0:0:0:0:
256,192,183210,1,0,0:0:0:0:
256,192,183429,1,8,0:0:0:0:
256,192,183538,1,0,0:0:0:0:
256,192,183648,1,8,0:0:0:0:
256,192,183757,1,8,0:0:0:0:
256,192,183866,1,0,0:0:0:0:
256,192,184085,1,8,0:0:0:0:
256,192,184304,1,4,0:0:0:0:
256,192,184523,1,8,0:0:0:0:
256,192,184742,1,0,0:0:0:0:
256,192,184852,1,0,0:0:0:0:
256,192,184961,1,8,0:0:0:0:
256,192,185071,1,0,0:0:0:0:
256,192,185180,1,8,0:0:0:0:
256,192,185399,1,0,0:0:0:0:
256,192,185618,1,8,0:0:0:0:
256,192,185728,1,0,0:0:0:0:
256,192,185837,1,8,0:0:0:0:
256,192,186056,1,4,0:0:0:0:
256,192,186275,1,8,0:0:0:0:
256,192,186385,1,8,0:0:0:0:
256,192,186494,1,0,0:0:0:0:
256,192,186713,1,0,0:0:0:0:
256,192,186786,1,0,0:0:0:0:
256,192,186859,1,0,0:0:0:0:
256,192,186932,1,8,0:0:0:0:
256,192,187151,1,0,0:0:0:0:
256,192,187370,1,8,0:0:0:0:
256,192,187589,1,0,0:0:0:0:
256,192,187808,1,4,0:0:0:0:
256,192,188246,1,0,0:0:0:0:
256,192,188465,1,8,0:0:0:0:
256,192,188575,1,0,0:0:0:0:
256,192,188684,1,8,0:0:0:0:
256,192,188903,1,0,0:0:0:0:
256,192,189122,1,8,0:0:0:0:
256,192,189341,1,8,0:0:0:0:
256,192,189560,1,0,0:0:0:0:
256,192,189779,1,0,0:0:0:0:
256,192,189888,1,0,0:0:0:0:
256,192,189998,1,8,0:0:0:0:
256,192,190217,1,0,0:0:0:0:
256,192,190436,1,8,0:0:0:0:
256,192,190545,1,8,0:0:0:0:
256,192,190655,1,0,0:0:0:0:
256,192,190764,1,0,0:0:0:0:
256,192,190874,1,8,0:0:0:0:
256,192,191093,1,0,0:0:0:0:
256,192,191312,1,8,0:0:0:0:
256,192,191750,1,0,0:0:0:0:
256,192,191969,1,8,0:0:0:0:
256,192,192078,1,0,0:0:0:0:
256,192,192188,1,8,0:0:0:0:
256,192,192407,1,0,0:0:0:0:
256,192,192516,1,8,0:0:0:0:
256,192,192626,1,0,0:0:0:0:
256,192,192845,1,12,0:0:0:0:
256,192,193283,1,0,0:0:0:0:
256,192,193502,1,8,0:0:0:0:
256,192,193611,1,8,0:0:0:0:
256,192,193721,1,0,0:0:0:0:
256,192,193939,1,8,0:0:0:0:
256,192,194158,1,0,0:0:0:0:
256,192,194377,1,12,0:0:0:0:
256,192,194815,1,4,0:0:0:0:
256,192,195253,1,8,0:0:0:0:
256,192,195472,1,0,0:0:0:0:
256,192,195910,1,0,0:0:0:0:
256,192,196129,1,8,0:0:0:0:
256,192,196348,1,0,0:0:0:0:
256,192,196786,1,0,0:0:0:0:
256,192,197005,1,8,0:0:0:0:
256,192,197115,1,8,0:0:0:0:
256,192,197224,1,0,0:0:0:0:
256,192,197443,5,8,0:0:0:0:
256,192,197662,1,0,0:0:0:0:
256,192,197772,1,0,0:0:0:0:
256,192,197881,1,8,0:0:0:0:
256,192,198100,1,0,0:0:0:0:
256,192,198319,5,12,0:0:0:0:
256,192,198538,1,0,0:0:0:0:
256,192,198648,1,0,0:0:0:0:
256,192,198757,1,0,0:0:0:0:
256,192,198976,1,12,0:0:0:0:
256,192,199195,1,0,0:0:0:0:
256,192,199304,1,0,0:0:0:0:
256,192,199414,5,0,0:0:0:0:
256,192,199633,1,12,0:0:0:0:
256,192,199852,1,0,0:0:0:0:
256,192,200290,5,8,0:0:0:0:
256,192,200509,1,0,0:0:0:0:
256,192,200618,1,0,0:0:0:0:
256,192,200728,1,0,0:0:0:0:
256,192,200947,1,8,0:0:0:0:
256,192,201166,1,0,0:0:0:0:
256,192,201275,1,0,0:0:0:0:
256,192,201385,1,8,0:0:0:0:
256,192,201494,1,8,0:0:0:0:
256,192,201604,1,0,0:0:0:0:
256,192,201823,1,12,0:0:0:0:
256,192,202261,1,0,0:0:0:0:
256,192,202699,1,8,0:0:0:0:
256,192,203027,1,8,0:0:0:0:
256,192,203137,1,0,0:0:0:0:
256,192,203356,1,0,0:0:0:0:
256,192,203575,1,8,0:0:0:0:
256,192,204012,1,0,0:0:0:0:
256,192,204231,1,0,0:0:0:0:
256,192,204341,1,0,0:0:0:0:
256,192,204450,1,8,0:0:0:0:
256,192,204779,1,8,0:0:0:0:
256,192,204888,1,0,0:0:0:0:
256,192,205107,1,8,0:0:0:0:
256,192,205326,1,0,0:0:0:0:
256,192,205545,1,0,0:0:0:0:
256,192,205764,1,8,0:0:0:0:
256,192,205874,1,0,0:0:0:0:
256,192,205983,1,8,0:0:0:0:
256,192,206202,1,0,0:0:0:0:
256,192,206640,1,0,0:0:0:0:
256,192,206859,1,8,0:0:0:0:
256,192,207078,1,0,0:0:0:0:
256,192,207297,1,8,0:0:0:0:
256,192,207407,1,8,0:0:0:0:
256,192,207516,1,8,0:0:0:0:
256,192,207735,1,0,0:0:0:0:
256,192,207954,1,12,0:0:0:0:
256,192,208173,1,0,0:0:0:0:
256,192,208392,1,12,0:0:0:0:
256,192,208830,1,0,0:0:0:0:
256,192,209049,1,8,0:0:0:0:
256,192,209158,1,8,0:0:0:0:
256,192,209268,1,0,0:0:0:0:
256,192,209487,1,8,0:0:0:0:
256,192,209706,1,0,0:0:0:0:
256,192,209925,1,8,0:0:0:0:
256,192,210034,1,0,0:0:0:0:
256,192,210144,5,8,0:0:0:0:
256,192,210363,1,0,0:0:0:0:
256,192,210582,1,8,0:0:0:0:
256,192,210691,1,0,0:0:0:0:
256,192,210801,1,0,0:0:0:0:
256,192,211020,1,8,0:0:0:0:
256,192,211239,1,0,0:0:0:0:
256,192,211458,1,8,0:0:0:0:
256,192,211567,1,8,0:0:0:0:
256,192,211677,1,0,0:0:0:0:
256,192,211786,1,0,0:0:0:0:
256,192,211896,1,8,0:0:0:0:
256,192,212115,1,0,0:0:0:0:
256,192,212334,5,8,0:0:0:0:
256,192,212772,1,8,0:0:0:0:
256,192,212991,1,0,0:0:0:0:
256,192,213210,1,8,0:0:0:0:
256,192,213429,1,8,0:0:0:0:
256,192,213538,1,8,0:0:0:0:
256,192,213648,1,0,0:0:0:0:
256,192,213757,1,0,0:0:0:0:
256,192,213866,1,8,0:0:0:0:
256,192,214085,5,8,0:0:0:0:
256,192,214304,1,0,0:0:0:0:
256,192,214414,1,0,0:0:0:0:
256,192,214523,1,8,0:0:0:0:
256,192,214742,1,0,0:0:0:0:
256,192,214961,5,8,0:0:0:0:
256,192,215071,1,0,0:0:0:0:
256,192,215180,1,0,0:0:0:0:
256,192,215290,1,8,0:0:0:0:
256,192,215509,1,0,0:0:0:0:
256,192,215618,1,8,0:0:0:0:
256,192,215837,1,12,0:0:0:0:
256,192,216056,1,0,0:0:0:0:
256,192,216494,1,4,0:0:0:0:
256,192,216713,1,8,0:0:0:0:
256,192,217042,1,8,0:0:0:0:
256,192,217151,1,0,0:0:0:0:
256,192,217370,1,8,0:0:0:0:
256,192,217589,1,0,0:0:0:0:
256,192,217808,1,12,0:0:0:0:
256,192,218246,1,8,0:0:0:0:
256,192,218356,1,0,0:0:0:0:
256,192,218465,1,8,0:0:0:0:
256,192,218684,1,0,0:0:0:0:
256,192,218903,1,12,0:0:0:0:
256,192,219122,1,0,0:0:0:0:
256,192,219341,1,12,0:0:0:0:
256,192,219669,1,8,0:0:0:0:
256,192,219779,1,0,0:0:0:0:
256,192,219998,1,8,0:0:0:0:
256,192,220217,1,0,0:0:0:0:
256,192,220436,1,8,0:0:0:0:
256,192,220545,1,8,0:0:0:0:
256,192,220655,1,0,0:0:0:0:
256,192,220874,1,8,0:0:0:0:
256,192,221093,1,0,0:0:0:0:
256,192,221421,1,8,0:0:0:0:
256,192,221531,1,0,0:0:0:0:
256,192,221750,1,8,0:0:0:0:
256,192,221859,1,0,0:0:0:0:
256,192,221969,1,8,0:0:0:0:
256,192,222188,1,0,0:0:0:0:
256,192,222407,1,12,0:0:0:0:
256,192,222626,1,0,0:0:0:0:
256,192,222845,1,12,0:0:0:0:
256,192,223283,1,0,0:0:0:0:
256,192,223502,1,8,0:0:0:0:
256,192,223611,1,8,0:0:0:0:
256,192,223721,1,0,0:0:0:0:
256,192,223939,1,8,0:0:0:0:
256,192,224158,1,0,0:0:0:0:
256,192,224268,1,0,0:0:0:0:
256,192,224377,1,0,0:0:0:0:
256,192,224596,5,8,0:0:0:0:
256,192,224815,1,0,0:0:0:0:
256,192,224925,1,0,0:0:0:0:
256,192,225034,1,8,0:0:0:0:
256,192,225253,1,0,0:0:0:0:
256,192,225472,5,8,0:0:0:0:
256,192,225582,1,8,0:0:0:0:
256,192,225691,5,0,0:0:0:0:
256,192,225801,1,0,0:0:0:0:
256,192,225910,5,8,0:0:0:0:
256,192,226129,5,4,0:0:0:0:
256,192,226348,5,12,0:0:0:0:
256,192,226677,1,0,0:0:0:0:
256,192,226786,5,8,0:0:0:0:
256,192,227005,1,0,0:0:0:0:
256,192,227224,5,8,0:0:0:0:
256,192,227334,1,8,0:0:0:0:
256,192,227443,1,0,0:0:0:0:
256,192,227553,1,0,0:0:0:0:
256,192,227662,1,8,0:0:0:0:
256,192,227772,1,8,0:0:0:0:
256,192,227881,1,8,0:0:0:0:
256,192,228100,1,0,0:0:0:0:
256,192,228319,1,12,0:0:0:0:
256,192,228538,1,8,0:0:0:0:
256,192,228648,1,8,0:0:0:0:
256,192,228757,1,0,0:0:0:0:
256,192,228976,1,4,0:0:0:0:
256,192,229195,1,0,0:0:0:0:
256,192,229304,1,0,0:0:0:0:
256,192,229414,1,8,0:0:0:0:
256,192,229523,1,8,0:0:0:0:
256,192,229633,1,0,0:0:0:0:
256,192,229852,1,12,0:0:0:0:
256,192,230290,1,0,0:0:0:0:
256,192,230509,1,8,0:0:0:0:
256,192,230728,1,0,0:0:0:0:
256,192,230947,1,0,0:0:0:0:
256,192,231166,1,8,0:0:0:0:
256,192,231604,1,0,0:0:0:0:
256,192,231823,1,0,0:0:0:0:
256,192,231932,1,0,0:0:0:0:
256,192,232042,1,8,0:0:0:0:
256,192,232261,1,0,0:0:0:0:
256,192,232480,1,8,0:0:0:0:
256,192,232699,1,0,0:0:0:0:
256,192,232918,1,8,0:0:0:0:
256,192,233356,1,0,0:0:0:0:
256,192,233575,1,8,0:0:0:0:
256,192,233794,1,0,0:0:0:0:
256,192,234012,1,8,0:0:0:0:
256,192,234231,1,8,0:0:0:0:
256,192,234669,1,0,0:0:0:0:
256,192,234888,1,8,0:0:0:0:
256,192,234998,1,8,0:0:0:0:
256,192,235107,1,0,0:0:0:0:
256,192,235326,1,0,0:0:0:0:
256,192,235436,1,0,0:0:0:0:
256,192,235545,1,8,0:0:0:0:
256,192,235764,1,0,0:0:0:0:
256,192,235983,1,12,0:0:0:0:
256,192,236202,1,0,0:0:0:0:
256,192,236421,1,12,0:0:0:0:
256,192,236859,1,4,0:0:0:0:
256,192,237078,1,8,0:0:0:0:
256,192,237188,1,8,0:0:0:0:
256,192,237297,1,0,0:0:0:0:
256,192,237516,1,8,0:0:0:0:
256,192,237735,1,0,0:0:0:0:
256,192,237845,1,8,0:0:0:0:
256,192,237954,1,0,0:0:0:0:
256,192,238173,1,8,0:0:0:0:
256,192,238392,1,8,0:0:0:0:
256,192,238502,1,0,0:0:0:0:
256,192,238611,1,8,0:0:0:0:
256,192,238830,1,8,0:0:0:0:
256,192,239049,1,0,0:0:0:0:
256,192,239268,1,0,0:0:0:0:
256,192,239377,1,0,0:0:0:0:
256,192,239487,1,8,0:0:0:0:
256,192,239596,1,0,0:0:0:0:
256,192,239706,1,8,0:0:0:0:
256,192,239925,1,4,0:0:0:0:
256,192,240363,1,4,0:0:0:0:
256,192,240582,1,8,0:0:0:0:
256,192,240801,1,0,0:0:0:0:
256,192,241020,1,8,0:0:0:0:
256,192,241129,1,8,0:0:0:0:
256,192,241239,1,0,0:0:0:0:
256,192,241458,1,8,0:0:0:0:
256,192,241677,1,0,0:0:0:0:
256,192,241896,1,8,0:0:0:0:
256,192,242005,1,8,0:0:0:0:
256,192,242115,1,0,0:0:0:0:
256,192,242334,1,12,0:0:0:0:
256,192,242553,1,0,0:0:0:0:
256,192,242626,1,0,0:0:0:0:
256,192,242699,1,0,0:0:0:0:
256,192,242772,1,8,0:0:0:0:
256,192,242991,1,0,0:0:0:0:
256,192,243100,1,0,0:0:0:0:
256,192,243210,1,8,0:0:0:0:
256,192,243319,1,0,0:0:0:0:
256,192,243429,1,8,0:0:0:0:
256,192,243538,1,8,0:0:0:0:
256,192,243648,1,0,0:0:0:0:
256,192,243866,1,12,0:0:0:0:
256,192,244304,1,0,0:0:0:0:
256,192,244523,1,8,0:0:0:0:
256,192,244742,1,0,0:0:0:0:
256,192,244961,1,8,0:0:0:0:
256,192,245071,1,8,0:0:0:0:
256,192,245180,1,8,0:0:0:0:
256,192,245399,1,0,0:0:0:0:
256,192,245618,1,8,0:0:0:0:
256,192,245837,1,0,0:0:0:0:
256,192,245947,1,0,0:0:0:0:
256,192,246056,1,0,0:0:0:0:
256,192,246275,1,8,0:0:0:0:
256,192,246494,1,0,0:0:0:0:
256,192,246932,1,0,0:0:0:0:
256,192,247151,1,0,0:0:0:0:
256,192,247370,1,12,0:0:0:0:
256,192,247808,1,0,0:0:0:0:
256,192,248027,5,8,0:0:0:0:
256,192,248246,1,8,0:0:0:0:
256,192,248465,5,0,0:0:0:0:
256,192,248903,1,8,0:0:0:0:
256,192,249012,1,8,0:0:0:0:
256,192,249122,1,0,0:0:0:0:
256,192,249779,1,8,0:0:0:0:
256,192,249998,1,8,0:0:0:0:
256,192,250217,1,0,0:0:0:0:
256,192,250436,1,8,0:0:0:0:
256,192,251750,1,0,0:0:0:0:
256,192,252188,1,8,0:0:0:0:
256,192,252407,1,0,0:0:0:0:
256,192,252626,1,8,0:0:0:0:
256,192,253283,1,8,0:0:0:0:
256,192,253502,1,0,0:0:0:0:
256,192,254158,1,8,0:0:0:0:
256,192,254377,1,0,0:0:0:0:
256,192,254815,1,8,0:0:0:0:
256,192,255253,1,8,0:0:0:0:
256,192,255691,1,0,0:0:0:0:
256,192,256129,1,0,0:0:0:0:
256,192,256786,1,8,0:0:0:0:
256,192,257005,1,8,0:0:0:0:
256,192,257662,1,8,0:0:0:0:
256,192,257881,1,0,0:0:0:0:
256,192,258100,1,12,0:0:0:0:
256,192,258319,1,0,0:0:0:0:
256,192,258757,1,8,0:0:0:0:
256,192,259195,1,8,0:0:0:0:
256,192,259633,1,4,0:0:0:0:
256,192,260290,1,4,0:0:0:0:
256,192,261385,1,12,0:0:0:0:
256,192,262261,1,8,0:0:0:0:
256,192,262480,1,0,0:0:0:0:
256,192,262699,1,0,0:0:0:0:
256,192,263137,1,4,0:0:0:0:
256,192,264012,1,12,0:0:0:0:
256,192,264888,1,8,0:0:0:0:
256,192,265107,1,4,0:0:0:0:
256,192,265326,1,8,0:0:0:0:
256,192,265545,1,8,0:0:0:0:
256,192,265764,1,0,0:0:0:0:
256,192,266202,1,12,0:0:0:0:
256,192,266640,1,4,0:0:0:0:
256,192,267078,1,8,0:0:0:0:
256,192,267297,1,0,0:0:0:0:
256,192,267516,1,8,0:0:0:0:
256,192,267626,1,8,0:0:0:0:
256,192,267735,1,0,0:0:0:0:
256,192,267845,1,0,0:0:0:0:
256,192,267954,1,8,0:0:0:0:
256,192,268173,1,0,0:0:0:0:
256,192,268392,1,8,0:0:0:0:
256,192,268502,1,8,0:0:0:0:
256,192,268611,1,0,0:0:0:0:
256,192,268830,1,8,0:0:0:0:
256,192,269049,1,0,0:0:0:0:
256,192,269268,1,8,0:0:0:0:
256,192,269377,1,0,0:0:0:0:
256,192,269487,1,8,0:0:0:0:
256,192,269706,1,0,0:0:0:0:
256,192,269815,1,0,0:0:0:0:
256,192,269925,1,8,0:0:0:0:
256,192,270034,1,8,0:0:0:0:
256,192,270144,1,0,0:0:0:0:
256,192,270253,1,0,0:0:0:0:
256,192,270363,1,8,0:0:0:0:
256,192,270582,1,0,0:0:0:0:
256,192,270801,1,8,0:0:0:0:
256,192,271020,1,8,0:0:0:0:
256,192,271458,1,0,0:0:0:0:
256,192,271677,1,8,0:0:0:0:
256,192,271896,1,8,0:0:0:0:
256,192,272005,1,8,0:0:0:0:
256,192,272115,1,0,0:0:0:0:
256,192,272224,1,0,0:0:0:0:
256,192,272334,1,8,0:0:0:0:
256,192,272553,1,0,0:0:0:0:
256,192,272772,1,12,0:0:0:0:
256,192,272991,1,0,0:0:0:0:
256,192,273210,1,12,0:0:0:0:
256,192,273429,1,0,0:0:0:0:
256,192,273648,1,12,0:0:0:0:
256,192,274085,1,0,0:0:0:0:
256,192,274304,1,8,0:0:0:0:
256,192,274523,1,0,0:0:0:0:
256,192,274633,1,0,0:0:0:0:
256,192,274742,1,8,0:0:0:0:
256,192,274852,1,0,0:0:0:0:
256,192,274961,1,8,0:0:0:0:
256,192,275180,1,0,0:0:0:0:
256,192,275399,1,8,0:0:0:0:
256,192,275837,1,8,0:0:0:0:
256,192,276056,1,0,0:0:0:0:
256,192,276275,1,8,0:0:0:0:
256,192,276385,1,8,0:0:0:0:
256,192,276494,1,0,0:0:0:0:
256,192,276713,1,8,0:0:0:0:
256,192,276932,1,0,0:0:0:0:
256,192,277151,1,8,0:0:0:0:
256,192,277261,1,0,0:0:0:0:
256,192,277370,1,8,0:0:0:0:
256,192,277480,1,8,0:0:0:0:
256,192,277589,1,0,0:0:0:0:
256,192,277808,1,8,0:0:0:0:
256,192,278027,1,8,0:0:0:0:
256,192,278137,1,8,0:0:0:0:
256,192,278246,1,0,0:0:0:0:
256,192,278356,1,8,0:0:0:0:
256,192,278465,1,8,0:0:0:0:
256,192,278684,1,0,0:0:0:0:
256,192,278903,1,8,0:0:0:0:
256,192,279122,1,0,0:0:0:0:
256,192,279231,1,0,0:0:0:0:
256,192,279341,1,8,0:0:0:0:
256,192,279560,1,0,0:0:0:0:
256,192,279779,1,8,0:0:0:0:
256,192,279888,1,8,0:0:0:0:
256,192,279998,1,0,0:0:0:0:
256,192,280107,1,0,0:0:0:0:
256,192,280217,1,8,0:0:0:0:
256,192,280326,1,0,0:0:0:0:
256,192,280436,1,8,0:0:0:0:
256,192,280655,1,4,0:0:0:0:
256,192,281093,1,8,0:0:0:0:
256,192,281312,1,0,0:0:0:0:
256,192,281421,1,8,0:0:0:0:
256,192,281531,1,0,0:0:0:0:
256,192,281750,1,0,0:0:0:0:
256,192,281969,1,8,0:0:0:0:
256,192,282188,1,0,0:0:0:0:
256,192,282626,1,0,0:0:0:0:
256,192,282735,1,0,0:0:0:0:
256,192,282845,1,8,0:0:0:0:
256,192,283064,1,8,0:0:0:0:
256,192,283173,1,8,0:0:0:0:
256,192,283283,1,0,0:0:0:0:
256,192,283502,1,8,0:0:0:0:
256,192,283721,1,0,0:0:0:0:
256,192,283830,1,0,0:0:0:0:
256,192,283939,1,8,0:0:0:0:
256,192,284049,1,0,0:0:0:0:
256,192,284158,1,8,0:0:0:0:
256,192,284377,1,0,0:0:0:0:
256,192,284596,1,8,0:0:0:0:
256,192,284815,1,0,0:0:0:0:
256,192,285034,1,8,0:0:0:0:
256,192,285253,1,0,0:0:0:0:
256,192,285363,1,8,0:0:0:0:
256,192,285472,1,0,0:0:0:0:
256,192,285691,1,12,0:0:0:0:
256,192,286129,1,0,0:0:0:0:
256,192,286348,1,8,0:0:0:0:
256,192,286567,1,0,0:0:0:0:
256,192,286677,1,0,0:0:0:0:
256,192,286786,1,8,0:0:0:0:
256,192,287005,1,0,0:0:0:0:
256,192,287224,1,12,0:0:0:0:
256,192,287662,1,4,0:0:0:0:
256,192,288100,1,8,0:0:0:0:
256,192,288319,1,0,0:0:0:0:
256,192,288757,1,0,0:0:0:0:
256,192,288976,1,8,0:0:0:0:
256,192,289195,1,0,0:0:0:0:
256,192,289633,1,8,0:0:0:0:
256,192,289852,1,0,0:0:0:0:
256,192,290071,1,0,0:0:0:0:
256,192,290290,5,8,0:0:0:0:
256,192,290728,1,8,0:0:0:0:
256,192,290947,1,0,0:0:0:0:
256,192,291166,5,12,0:0:0:0:
256,192,291385,1,0,0:0:0:0:
256,192,291494,1,0,0:0:0:0:
256,192,291604,1,0,0:0:0:0:
256,192,291823,5,12,0:0:0:0:
256,192,292042,1,0,0:0:0:0:
256,192,292151,1,0,0:0:0:0:
256,192,292261,1,0,0:0:0:0:
256,192,292480,1,12,0:0:0:0:
256,192,292918,5,0,0:0:0:0:
256,192,293137,1,8,0:0:0:0:
256,192,293356,1,0,0:0:0:0:
256,192,293465,1,0,0:0:0:0:
256,192,293684,1,8,0:0:0:0:
256,192,293794,1,0,0:0:0:0:
256,192,294012,1,8,0:0:0:0:
256,192,294122,1,8,0:0:0:0:
256,192,294231,1,0,0:0:0:0:
256,192,294341,1,0,0:0:0:0:
256,192,294450,1,8,0:0:0:0:
256,192,294669,1,4,0:0:0:0:
256,192,295107,1,0,0:0:0:0:
256,192,295545,1,8,0:0:0:0:
256,192,295983,1,8,0:0:0:0:
256,192,296202,1,8,0:0:0:0:
256,192,296421,1,0,0:0:0:0:
256,192,296859,1,8,0:0:0:0:
256,192,297297,1,0,0:0:0:0:
256,192,297735,1,0,0:0:0:0:
256,192,297954,1,8,0:0:0:0:
256,192,298173,1,0,0:0:0:0:
256,192,298611,1,0,0:0:0:0:
256,192,299049,1,8,0:0:0:0:
256,192,299487,1,8,0:0:0:0:
256,192,299706,1,8,0:0:0:0:
256,192,299925,1,0,0:0:0:0:
256,192,300144,1,8,0:0:0:0:
256,192,300253,1,0,0:0:0:0:
256,192,300363,1,8,0:0:0:0:
256,192,300582,1,0,0:0:0:0:
256,192,300801,1,12,0:0:0:0:
256,192,301020,1,0,0:0:0:0:
256,192,301239,1,12,0:0:0:0:
256,192,301458,1,0,0:0:0:0:
256,192,301677,1,12,0:0:0:0:
256,192,302115,1,8,0:0:0:0:
256,192,302334,1,0,0:0:0:0:
256,192,302443,1,0,0:0:0:0:
256,192,302553,1,8,0:0:0:0:
256,192,302772,1,0,0:0:0:0:
256,192,302991,1,8,0:0:0:0:
256,192,303429,1,8,0:0:0:0:
256,192,303648,1,0,0:0:0:0:
256,192,303757,1,0,0:0:0:0:
256,192,303867,1,8,0:0:0:0:
256,192,304085,5,0,0:0:0:0:
256,192,304304,1,8,0:0:0:0:
256,192,304414,1,8,0:0:0:0:
256,192,304523,1,0,0:0:0:0:
256,192,304633,1,8,0:0:0:0:
256,192,304742,1,0,0:0:0:0:
256,192,304961,1,8,0:0:0:0:
256,192,305180,5,4,0:0:0:0:
256,192,305399,1,8,0:0:0:0:
256,192,305509,1,0,0:0:0:0:
256,192,305618,1,8,0:0:0:0:
256,192,305837,1,0,0:0:0:0:
256,192,306056,1,8,0:0:0:0:
256,192,306166,1,8,0:0:0:0:
256,192,306275,1,8,0:0:0:0:
256,192,306385,1,8,0:0:0:0:
256,192,306494,1,0,0:0:0:0:
256,192,306713,1,8,0:0:0:0:
256,192,306932,5,4,0:0:0:0:
256,192,307151,1,8,0:0:0:0:
256,192,307261,1,0,0:0:0:0:
256,192,307370,1,8,0:0:0:0:
256,192,307480,1,8,0:0:0:0:
256,192,307589,1,0,0:0:0:0:
256,192,307808,5,8,0:0:0:0:
256,192,308027,1,0,0:0:0:0:
256,192,308137,1,0,0:0:0:0:
256,192,308246,1,8,0:0:0:0:
256,192,308356,1,8,0:0:0:0:
256,192,308465,1,8,0:0:0:0:
256,192,308684,5,4,0:0:0:0:
256,192,309122,1,8,0:0:0:0:
256,192,309341,1,0,0:0:0:0:
256,192,309560,1,8,0:0:0:0:
256,192,309669,1,8,0:0:0:0:
256,192,309779,1,0,0:0:0:0:
256,192,309998,1,8,0:0:0:0:
256,192,310217,1,8,0:0:0:0:
256,192,310436,1,0,0:0:0:0:
256,192,310874,1,8,0:0:0:0:
256,192,311093,1,0,0:0:0:0:
256,192,311312,1,8,0:0:0:0:
256,192,311421,1,0,0:0:0:0:
256,192,311531,1,8,0:0:0:0:
256,192,311750,1,0,0:0:0:0:
256,192,311969,1,8,0:0:0:0:
256,192,312188,1,0,0:0:0:0:
256,192,312626,5,8,0:0:0:0:
256,192,312845,1,0,0:0:0:0:
256,192,313064,1,8,0:0:0:0:
256,192,313173,1,8,0:0:0:0:
256,192,313283,1,0,0:0:0:0:
256,192,313502,5,8,0:0:0:0:
256,192,313721,5,0,0:0:0:0:
256,192,313830,1,0,0:0:0:0:
256,192,313939,1,8,0:0:0:0:
256,192,314158,1,0,0:0:0:0:
256,192,314268,1,0,0:0:0:0:
256,192,314377,1,8,0:0:0:0:
256,192,314487,1,8,0:0:0:0:
256,192,314596,1,0,0:0:0:0:
256,192,314815,1,12,0:0:0:0:
256,192,315034,1,0,0:0:0:0:
256,192,315253,1,12,0:0:0:0:
256,192,315472,1,0,0:0:0:0:
256,192,315691,5,12,0:0:0:0:
256,192,316129,5,8,0:0:0:0:
256,192,316348,1,0,0:0:0:0:
256,192,316567,1,8,0:0:0:0:
256,192,316677,1,8,0:0:0:0:
256,192,316786,1,0,0:0:0:0:
256,192,317005,1,8,0:0:0:0:
256,192,317224,1,8,0:0:0:0:
256,192,317334,1,0,0:0:0:0:
256,192,317443,1,8,0:0:0:0:
256,192,317553,1,8,0:0:0:0:
256,192,317662,1,0,0:0:0:0:
256,192,317772,1,8,0:0:0:0:
256,192,317881,1,0,0:0:0:0:
256,192,318100,1,8,0:0:0:0:
256,192,318319,1,0,0:0:0:0:
256,192,318429,1,8,0:0:0:0:
256,192,318538,1,0,0:0:0:0:
256,192,318648,1,0,0:0:0:0:
256,192,318757,1,8,0:0:0:0:
256,192,318976,1,0,0:0:0:0:
256,192,319195,1,4,0:0:0:0:
256,192,319414,1,8,0:0:0:0:
256,192,319523,1,0,0:0:0:0:
256,192,319633,1,8,0:0:0:0:
256,192,319852,1,0,0:0:0:0:
256,192,320071,1,8,0:0:0:0:
256,192,320290,1,0,0:0:0:0:
256,192,320399,1,0,0:0:0:0:
256,192,320509,1,8,0:0:0:0:
256,192,320728,1,8,0:0:0:0:
256,192,320947,5,12,0:0:0:0:
256,192,321385,1,8,0:0:0:0:
256,192,321604,5,0,0:0:0:0:
256,192,321823,1,8,0:0:0:0:
256,192,321932,1,8,0:0:0:0:
256,192,322042,1,0,0:0:0:0:
256,192,322151,1,0,0:0:0:0:
256,192,322261,1,8,0:0:0:0:
256,192,322370,1,0,0:0:0:0:
256,192,322480,1,8,0:0:0:0:
256,192,322699,1,4,0:0:0:0:
256,192,323137,1,8,0:0:0:0:
256,192,323356,1,0,0:0:0:0:
256,192,323575,1,8,0:0:0:0:
256,192,323684,1,8,0:0:0:0:
256,192,323794,1,0,0:0:0:0:
256,192,324012,1,8,0:0:0:0:
256,192,324231,1,8,0:0:0:0:
256,192,324450,1,0,0:0:0:0:
256,192,324888,1,8,0:0:0:0:
256,192,325107,1,0,0:0:0:0:
256,192,325326,1,8,0:0:0:0:
256,192,325436,1,0,0:0:0:0:
256,192,325545,1,8,0:0:0:0:
256,192,325764,1,0,0:0:0:0:
256,192,325983,1,8,0:0:0:0:
256,192,326202,1,0,0:0:0:0:
256,192,326640,1,8,0:0:0:0:
256,192,326859,1,0,0:0:0:0:
256,192,327078,1,8,0:0:0:0:
256,192,327188,1,8,0:0:0:0:
256,192,327297,1,0,0:0:0:0:
256,192,327516,1,8,0:0:0:0:
256,192,327735,1,0,0:0:0:0:
256,192,327845,1,0,0:0:0:0:
256,192,327954,1,8,0:0:0:0:
256,192,328173,1,0,0:0:0:0:
256,192,328283,1,0,0:0:0:0:
256,192,328392,1,8,0:0:0:0:
256,192,328502,1,8,0:0:0:0:
256,192,328611,1,0,0:0:0:0:
256,192,328830,1,12,0:0:0:0:
256,192,329049,1,0,0:0:0:0:
256,192,329268,1,12,0:0:0:0:
256,192,329487,1,0,0:0:0:0:
256,192,329706,1,12,0:0:0:0:
256,192,330144,1,8,0:0:0:0:
256,192,330363,1,0,0:0:0:0:
256,192,330582,1,8,0:0:0:0:
256,192,330691,1,8,0:0:0:0:
256,192,330801,1,0,0:0:0:0:
256,192,331020,1,8,0:0:0:0:
256,192,331239,1,8,0:0:0:0:
256,192,331348,1,8,0:0:0:0:
256,192,331458,1,0,0:0:0:0:
256,192,331567,1,0,0:0:0:0:
256,192,331677,1,8,0:0:0:0:
256,192,331896,1,8,0:0:0:0:
256,192,332115,1,0,0:0:0:0:
256,192,332334,1,8,0:0:0:0:
256,192,332443,1,0,0:0:0:0:
256,192,332553,1,8,0:0:0:0:
256,192,332772,1,0,0:0:0:0:
256,192,333210,1,12,0:0:0:0:
256,192,333429,1,0,0:0:0:0:
256,192,333538,1,8,0:0:0:0:
256,192,333648,1,0,0:0:0:0:
256,192,333867,5,8,0:0:0:0:
256,192,334085,1,8,0:0:0:0:
256,192,334195,1,8,0:0:0:0:
256,192,334304,1,0,0:0:0:0:
256,192,334414,1,0,0:0:0:0:
256,192,334523,1,8,0:0:0:0:
256,192,334742,1,0,0:0:0:0:
256,192,334961,5,8,0:0:0:0:
256,192,335180,1,0,0:0:0:0:
256,192,335290,1,0,0:0:0:0:
256,192,335399,1,8,0:0:0:0:
256,192,335618,1,0,0:0:0:0:
256,192,335837,1,8,0:0:0:0:
256,192,335947,1,8,0:0:0:0:
256,192,336056,1,0,0:0:0:0:
256,192,336166,1,0,0:0:0:0:
256,192,336275,1,8,0:0:0:0:
256,192,336385,1,0,0:0:0:0:
256,192,336494,1,8,0:0:0:0:
256,192,336713,5,4,0:0:0:0:
256,192,337151,5,0,0:0:0:0:
256,192,337589,1,0,0:0:0:0:
256,192,338027,5,8,0:0:0:0:
256,192,338246,1,8,0:0:0:0:
256,192,338465,1,0,0:0:0:0:
256,192,338794,1,0,0:0:0:0:
256,192,338903,1,8,0:0:0:0:
256,192,339341,1,0,0:0:0:0:
256,192,339779,1,0,0:0:0:0:
256,192,339998,1,8,0:0:0:0:
256,192,340217,1,0,0:0:0:0:
256,192,340655,1,8,0:0:0:0:
256,192,340874,1,0,0:0:0:0:
256,192,341093,1,0,0:0:0:0:
256,192,341531,1,8,0:0:0:0:
256,192,341750,1,0,0:0:0:0:
256,192,341969,1,4,0:0:0:0:
256,192,342297,1,0,0:0:0:0:
256,192,342407,1,8,0:0:0:0:
256,192,342845,1,0,0:0:0:0:
256,192,343283,1,8,0:0:0:0:
256,192,343502,1,0,0:0:0:0:
256,192,343721,1,12,0:0:0:0:
256,192,344158,1,8,0:0:0:0:
256,192,344377,1,0,0:0:0:0:
256,192,344596,1,8,0:0:0:0:
256,192,345034,1,0,0:0:0:0:
256,192,345472,1,8,0:0:0:0:
256,192,345691,1,0,0:0:0:0:
256,192,345801,1,0,0:0:0:0:
256,192,345910,1,8,0:0:0:0:
256,192,346129,5,0,0:0:0:0:
256,192,346348,1,8,0:0:0:0:
256,192,346786,1,0,0:0:0:0:
256,192,347224,5,12,0:0:0:0:
256,192,347662,1,8,0:0:0:0:
256,192,347881,1,0,0:0:0:0:
256,192,348100,1,8,0:0:0:0:
256,192,348319,1,0,0:0:0:0:
256,192,348538,1,8,0:0:0:0:
256,192,348757,1,8,0:0:0:0:
256,192,348867,1,0,0:0:0:0:
256,192,348976,1,8,0:0:0:0:
256,192,349195,1,0,0:0:0:0:
256,192,349414,1,12,0:0:0:0:
256,192,349633,1,0,0:0:0:0:
256,192,349852,5,4,0:0:0:0:
256,192,350180,1,12,0:0:0:0:
256,192,350509,5,12,0:0:0:0:
256,192,350728,1,4,0:0:0:0:
256,192,351385,5,8,0:0:0:0:
256,192,351604,1,0,0:0:0:0:
256,192,352480,1,0,0:0:0:0:
256,192,352918,1,8,0:0:0:0:
256,192,353356,1,8,0:0:0:0:
256,192,353794,1,0,0:0:0:0:
256,192,354231,1,0,0:0:0:0:
256,192,354888,1,8,0:0:0:0:
256,192,355107,1,8,0:0:0:0:
256,192,355983,1,0,0:0:0:0:
256,192,356421,1,8,0:0:0:0:
256,192,356859,1,8,0:0:0:0:
256,192,357297,1,0,0:0:0:0:
256,192,357735,1,12,0:0:0:0:
256,192,357954,1,0,0:0:0:0:
256,192,358173,1,0,0:0:0:0:
256,192,358392,1,12,0:0:0:0:
256,192,358830,1,8,0:0:0:0:
256,192,359049,1,4,0:0:0:0:
256,192,359487,1,8,0:0:0:0:
256,192,359706,1,4,0:0:0:0:
256,192,360144,1,0,0:0:0:0:
256,192,360363,1,0,0:0:0:0:
256,192,360582,1,8,0:0:0:0:
256,192,360691,1,0,0:0:0:0:
256,192,360801,1,8,0:0:0:0:
256,192,361020,1,0,0:0:0:0:
256,192,361239,1,8,0:0:0:0:
256,192,361458,1,8,0:0:0:0:
256,192,363429,1,4,0:0:0:0:
256,192,363648,12,0,370874,0:0:0:0:
