osu file format v14

[General]
AudioFilename: audio.mp3
AudioLeadIn: 0
PreviewTime: 65137
Countdown: 0
SampleSet: Soft
StackLeniency: 0.7
Mode: 3
LetterboxInBreaks: 0
SpecialStyle: 0
WidescreenStoryboard: 0

[Editor]
DistanceSpacing: 0.8
BeatDivisor: 6
GridSize: 4
TimelineZoom: 1.7

[Metadata]
Title:brave climber
TitleUnicode:brave climber
Artist:Minase Inori
ArtistUnicode:水瀬いのり
Creator:Amiichii
Version:Insane
Source:
Tags:3rd album Catch the Rainbow!
BeatmapID:2048614
BeatmapSetID:978949

[Difficulty]
HPDrainRate:8
CircleSize:4
OverallDifficulty:8
ApproachRate:5
SliderMultiplier:1.4
SliderTickRate:1

[Events]
//Background and Video events
0,0,"bg.jpg",0,0
//Break Periods
//Storyboard Layer 0 (Background)
//Storyboard Layer 1 (Fail)
//Storyboard Layer 2 (Pass)
//Storyboard Layer 3 (Foreground)
//Storyboard Sound Samples

[TimingPoints]
401,315.789473684211,4,2,1,100,1,0
1644,315.789473684211,4,2,1,100,1,0
3086,315.789473684211,4,2,1,100,1,0
4664,295.566502463054,4,2,1,100,1,0
4960,315.789473684211,4,2,1,100,1,0
5437,315.789473684211,4,2,1,100,1,0
50910,-117.647058823529,4,2,1,100,0,0
53121,-100,4,2,1,100,0,0
53910,-200,4,2,1,100,0,0
54068,-66.6666666666667,4,2,1,100,0,0
54226,-200,4,2,1,100,0,0
54384,-66.6666666666667,4,2,1,100,0,0
54542,-200,4,2,1,100,0,0
54621,-85.4700854700855,4,2,1,100,0,0
54858,-100,4,2,1,100,0,0
55015,-66.6666666666667,4,2,1,100,0,0
55173,-200,4,2,1,100,0,0
55331,-100,4,2,1,100,0,0
66068,-100,4,2,1,100,0,1
109015,-100,4,2,1,100,0,0

[HitObjects]
448,192,401,5,0,0:0:0:0:
64,192,401,1,0,0:0:0:0:
192,192,558,1,0,0:0:0:0:
320,192,716,1,0,0:0:0:0:
448,192,874,1,0,0:0:0:0:
64,192,874,1,0,0:0:0:0:
192,192,1032,1,0,0:0:0:0:
320,192,1190,1,0,0:0:0:0:
64,192,1348,1,0,0:0:0:0:
192,192,1348,1,0,0:0:0:0:
448,192,1506,1,0,0:0:0:0:
64,192,1644,1,0,0:0:0:0:
192,192,1801,1,0,0:0:0:0:
320,192,1801,1,0,0:0:0:0:
448,192,1959,1,0,0:0:0:0:
192,192,2117,1,0,0:0:0:0:
64,192,2117,1,0,0:0:0:0:
64,192,2275,1,0,0:0:0:0:
448,192,2275,1,0,0:0:0:0:
192,192,2433,1,0,0:0:0:0:
320,192,2433,1,0,0:0:0:0:
64,192,2591,1,0,0:0:0:0:
320,192,2591,1,0,0:0:0:0:
192,192,2749,1,0,0:0:0:0:
448,192,2749,1,0,0:0:0:0:
448,192,2907,1,0,0:0:0:0:
64,192,2907,1,0,0:0:0:0:
192,192,3084,1,0,0:0:0:0:
320,192,3243,1,0,0:0:0:0:
448,192,3401,1,0,0:0:0:0:
192,192,3401,1,0,0:0:0:0:
64,192,3559,1,0,0:0:0:0:
320,192,3717,1,0,0:0:0:0:
64,192,3875,1,0,0:0:0:0:
192,192,3875,1,0,0:0:0:0:
448,192,4033,1,0,0:0:0:0:
64,192,4191,1,0,0:0:0:0:
448,192,4349,1,0,0:0:0:0:
192,192,4349,1,0,0:0:0:0:
320,192,4507,1,0,0:0:0:0:
64,192,4664,1,0,0:0:0:0:
448,192,4811,1,0,0:0:0:0:
320,192,4811,1,0,0:0:0:0:
192,192,4960,1,0,0:0:0:0:
448,192,4960,1,0,0:0:0:0:
320,192,5117,1,0,0:0:0:0:
64,192,5117,1,0,0:0:0:0:
64,192,5275,1,0,0:0:0:0:
192,192,5275,1,0,0:0:0:0:
320,192,5433,1,0,0:0:0:0:
448,192,5433,1,0,0:0:0:0:
192,192,5594,1,0,0:0:0:0:
320,192,5752,1,0,0:0:0:0:
448,192,5910,1,0,0:0:0:0:
64,192,5910,1,0,0:0:0:0:
192,192,6068,1,0,0:0:0:0:
320,192,6226,1,0,0:0:0:0:
192,192,6384,1,0,0:0:0:0:
64,192,6384,1,0,0:0:0:0:
448,192,6542,1,0,0:0:0:0:
64,192,6700,1,0,0:0:0:0:
192,192,6858,1,0,0:0:0:0:
320,192,6858,1,0,0:0:0:0:
448,192,7015,1,0,0:0:0:0:
64,192,7173,1,0,0:0:0:0:
192,192,7173,1,0,0:0:0:0:
320,192,7331,1,0,0:0:0:0:
448,192,7331,1,0,0:0:0:0:
448,192,7489,1,0,0:0:0:0:
64,192,7489,1,0,0:0:0:0:
192,192,7647,1,0,0:0:0:0:
320,192,7647,1,0,0:0:0:0:
192,192,7805,1,0,0:0:0:0:
448,192,7805,1,0,0:0:0:0:
320,192,7963,1,0,0:0:0:0:
64,192,7963,1,0,0:0:0:0:
448,192,8121,1,0,0:0:0:0:
192,192,8279,1,0,0:0:0:0:
448,192,8437,1,0,0:0:0:0:
64,192,8437,1,0,0:0:0:0:
320,192,8594,1,0,0:0:0:0:
192,192,8752,1,0,0:0:0:0:
320,192,8910,1,0,0:0:0:0:
448,192,8910,1,0,0:0:0:0:
64,192,9068,1,0,0:0:0:0:
320,192,9226,1,0,0:0:0:0:
192,192,9384,1,0,0:0:0:0:
448,192,9384,1,0,0:0:0:0:
64,192,9542,1,0,0:0:0:0:
320,192,9700,1,0,0:0:0:0:
448,192,9700,1,0,0:0:0:0:
192,192,9779,1,0,0:0:0:0:
448,192,9858,1,0,0:0:0:0:
320,192,9858,1,0,0:0:0:0:
64,192,9858,1,0,0:0:0:0:
192,192,10015,1,0,0:0:0:0:
448,192,10015,1,0,0:0:0:0:
192,192,10173,1,0,0:0:0:0:
64,192,10173,1,0,0:0:0:0:
320,192,10252,1,0,0:0:0:0:
448,192,10252,1,0,0:0:0:0:
192,192,10331,1,0,0:0:0:0:
64,192,10331,1,0,0:0:0:0:
320,192,10410,1,0,0:0:0:0:
448,192,10489,1,0,0:0:0:0:
192,192,10489,1,0,0:0:0:0:
64,192,10489,128,0,10963:0:0:0:0:
320,192,10647,1,0,0:0:0:0:
192,192,10805,1,0,0:0:0:0:
320,192,10805,1,0,0:0:0:0:
448,192,10805,1,0,0:0:0:0:
448,192,10963,128,0,11437:0:0:0:0:
192,192,11121,1,0,0:0:0:0:
320,192,11121,1,0,0:0:0:0:
192,192,11279,1,0,0:0:0:0:
64,192,11279,1,0,0:0:0:0:
320,192,11437,128,0,11910:0:0:0:0:
64,192,11437,1,0,0:0:0:0:
192,192,11437,1,0,0:0:0:0:
448,192,11594,1,0,0:0:0:0:
192,192,11752,1,0,0:0:0:0:
64,192,11752,1,0,0:0:0:0:
64,192,11910,128,0,12384:0:0:0:0:
448,192,11910,1,0,0:0:0:0:
448,192,12068,1,0,0:0:0:0:
192,192,12068,1,0,0:0:0:0:
320,192,12068,1,0,0:0:0:0:
320,192,12226,1,0,0:0:0:0:
192,192,12384,128,0,12700:0:0:0:0:
448,192,12384,1,0,0:0:0:0:
320,192,12542,1,0,0:0:0:0:
64,192,12542,1,0,0:0:0:0:
320,192,12700,128,0,13015:0:0:0:0:
448,192,12700,1,0,0:0:0:0:
64,192,12700,1,0,0:0:0:0:
192,192,12858,1,0,0:0:0:0:
448,192,12858,1,0,0:0:0:0:
448,192,13015,128,0,13489:0:0:0:0:
64,192,13015,1,0,0:0:0:0:
320,192,13173,1,0,0:0:0:0:
320,192,13331,1,0,0:0:0:0:
192,192,13331,1,0,0:0:0:0:
64,192,13331,1,0,0:0:0:0:
192,192,13489,128,0,13963:0:0:0:0:
320,192,13647,1,0,0:0:0:0:
448,192,13647,1,0,0:0:0:0:
320,192,13805,1,0,0:0:0:0:
64,192,13805,1,0,0:0:0:0:
64,192,13963,128,0,14437:0:0:0:0:
448,192,13963,1,0,0:0:0:0:
320,192,13963,1,0,0:0:0:0:
192,192,14121,1,0,0:0:0:0:
320,192,14279,1,0,0:0:0:0:
448,192,14279,1,0,0:0:0:0:
320,192,14437,128,0,14910:0:0:0:0:
192,192,14437,1,0,0:0:0:0:
192,192,14594,1,0,0:0:0:0:
64,192,14594,1,0,0:0:0:0:
448,192,14594,1,0,0:0:0:0:
448,192,14752,1,0,0:0:0:0:
192,192,14910,128,0,15226:0:0:0:0:
64,192,14910,1,0,0:0:0:0:
320,192,15068,1,0,0:0:0:0:
448,192,15068,1,0,0:0:0:0:
448,192,15226,128,0,15542:0:0:0:0:
320,192,15226,1,0,0:0:0:0:
64,192,15226,1,0,0:0:0:0:
192,192,15384,1,0,0:0:0:0:
64,192,15542,128,0,16015:0:0:0:0:
192,192,15542,1,0,0:0:0:0:
320,192,15542,1,0,0:0:0:0:
448,192,15700,1,0,0:0:0:0:
192,192,15858,1,0,0:0:0:0:
320,192,15858,1,0,0:0:0:0:
448,192,15858,1,0,0:0:0:0:
320,192,16015,128,0,16489:0:0:0:0:
448,192,16173,1,0,0:0:0:0:
192,192,16173,1,0,0:0:0:0:
192,192,16331,1,0,0:0:0:0:
64,192,16331,1,0,0:0:0:0:
448,192,16489,128,0,16963:0:0:0:0:
64,192,16489,1,0,0:0:0:0:
192,192,16489,1,0,0:0:0:0:
320,192,16647,1,0,0:0:0:0:
64,192,16805,1,0,0:0:0:0:
192,192,16805,1,0,0:0:0:0:
192,192,16963,128,0,17437:0:0:0:0:
320,192,16963,1,0,0:0:0:0:
64,192,17121,1,0,0:0:0:0:
448,192,17121,1,0,0:0:0:0:
320,192,17121,1,0,0:0:0:0:
448,192,17279,1,0,0:0:0:0:
64,192,17437,128,0,17752:0:0:0:0:
320,192,17437,1,0,0:0:0:0:
320,192,17594,1,0,0:0:0:0:
192,192,17594,1,0,0:0:0:0:
320,192,17752,128,0,18068:0:0:0:0:
448,192,17752,1,0,0:0:0:0:
192,192,17752,1,0,0:0:0:0:
64,192,17910,1,0,0:0:0:0:
448,192,17910,1,0,0:0:0:0:
192,192,18068,1,0,0:0:0:0:
64,192,18068,1,0,0:0:0:0:
448,192,18068,1,0,0:0:0:0:
320,192,18226,1,0,0:0:0:0:
192,192,18226,1,0,0:0:0:0:
448,192,18384,1,0,0:0:0:0:
320,192,18384,1,0,0:0:0:0:
448,192,18542,1,0,0:0:0:0:
64,192,18542,1,0,0:0:0:0:
192,192,18542,1,0,0:0:0:0:
192,192,18700,1,0,0:0:0:0:
320,192,18700,1,0,0:0:0:0:
64,192,18858,1,0,0:0:0:0:
320,192,18858,1,0,0:0:0:0:
192,192,19015,1,0,0:0:0:0:
64,192,19015,1,0,0:0:0:0:
448,192,19015,1,0,0:0:0:0:
320,192,19173,1,0,0:0:0:0:
192,192,19173,1,0,0:0:0:0:
64,192,19331,1,0,0:0:0:0:
320,192,19331,1,0,0:0:0:0:
448,192,19489,1,0,0:0:0:0:
192,192,19489,1,0,0:0:0:0:
64,192,19489,1,0,0:0:0:0:
320,192,19647,1,0,0:0:0:0:
192,192,19647,1,0,0:0:0:0:
320,192,19805,1,0,0:0:0:0:
448,192,19805,1,0,0:0:0:0:
192,192,19963,1,0,0:0:0:0:
64,192,19963,1,0,0:0:0:0:
448,192,19963,1,0,0:0:0:0:
64,192,20121,1,0,0:0:0:0:
192,192,20121,1,0,0:0:0:0:
448,192,20121,1,0,0:0:0:0:
320,192,20279,1,0,0:0:0:0:
64,192,20279,1,0,0:0:0:0:
192,192,20279,1,0,0:0:0:0:
320,192,20437,1,0,0:0:0:0:
192,192,20437,1,0,0:0:0:0:
64,192,20437,1,0,0:0:0:0:
192,192,20594,1,0,0:0:0:0:
320,192,20594,1,0,0:0:0:0:
448,192,20594,1,0,0:0:0:0:
64,192,20594,128,0,20752:0:0:0:0:
448,192,20752,128,0,20910:0:0:0:0:
192,192,20910,128,0,21068:0:0:0:0:
448,192,21068,128,0,21226:0:0:0:0:
192,192,21226,1,0,0:0:0:0:
64,192,21226,1,0,0:0:0:0:
320,192,21384,1,0,0:0:0:0:
192,192,21542,1,0,0:0:0:0:
64,192,21542,128,0,21700:0:0:0:0:
448,192,21700,128,0,21858:0:0:0:0:
192,192,21858,128,0,22015:0:0:0:0:
320,192,21858,1,0,0:0:0:0:
448,192,22015,128,0,22173:0:0:0:0:
192,192,22173,1,0,0:0:0:0:
64,192,22173,1,0,0:0:0:0:
320,192,22331,1,0,0:0:0:0:
448,192,22489,1,0,0:0:0:0:
64,192,22489,1,0,0:0:0:0:
192,192,22647,1,0,0:0:0:0:
448,192,22805,1,0,0:0:0:0:
320,192,22805,1,0,0:0:0:0:
64,192,22963,1,0,0:0:0:0:
192,192,22963,1,0,0:0:0:0:
448,192,23121,128,0,23279:0:0:0:0:
320,192,23121,1,0,0:0:0:0:
64,192,23279,128,0,23437:0:0:0:0:
320,192,23437,128,0,23594:0:0:0:0:
192,192,23437,1,0,0:0:0:0:
64,192,23594,128,0,23752:0:0:0:0:
448,192,23752,1,0,0:0:0:0:
192,192,23752,1,0,0:0:0:0:
64,192,23910,1,0,0:0:0:0:
320,192,24068,1,0,0:0:0:0:
448,192,24068,128,0,24226:0:0:0:0:
64,192,24226,128,0,24384:0:0:0:0:
320,192,24384,128,0,24542:0:0:0:0:
192,192,24384,1,0,0:0:0:0:
64,192,24542,128,0,24700:0:0:0:0:
320,192,24700,1,0,0:0:0:0:
448,192,24700,1,0,0:0:0:0:
192,192,24858,1,0,0:0:0:0:
64,192,24858,1,0,0:0:0:0:
448,192,25015,1,0,0:0:0:0:
320,192,25015,1,0,0:0:0:0:
192,192,25173,1,0,0:0:0:0:
64,192,25173,1,0,0:0:0:0:
320,192,25331,1,0,0:0:0:0:
448,192,25331,1,0,0:0:0:0:
192,192,25489,1,0,0:0:0:0:
64,192,25489,1,0,0:0:0:0:
320,192,25568,1,0,0:0:0:0:
448,192,25568,1,0,0:0:0:0:
192,192,25647,128,0,25805:0:0:0:0:
64,192,25647,1,0,0:0:0:0:
320,192,25805,128,0,25963:0:0:0:0:
192,192,25963,1,0,0:0:0:0:
448,192,25963,128,0,26121:0:0:0:0:
64,192,26121,128,0,26279:0:0:0:0:
192,192,26279,1,0,0:0:0:0:
320,192,26279,1,0,0:0:0:0:
448,192,26437,1,0,0:0:0:0:
192,192,26594,128,0,26752:0:0:0:0:
64,192,26594,1,0,0:0:0:0:
320,192,26752,128,0,26910:0:0:0:0:
448,192,26752,1,0,0:0:0:0:
64,192,26831,1,0,0:0:0:0:
192,192,26910,1,0,0:0:0:0:
448,192,26910,128,0,27068:0:0:0:0:
64,192,27068,128,0,27226:0:0:0:0:
320,192,27226,1,0,0:0:0:0:
192,192,27226,1,0,0:0:0:0:
64,192,27384,1,0,0:0:0:0:
448,192,27384,1,0,0:0:0:0:
320,192,27542,1,0,0:0:0:0:
192,192,27542,1,0,0:0:0:0:
64,192,27700,1,0,0:0:0:0:
448,192,27700,1,0,0:0:0:0:
320,192,27858,1,0,0:0:0:0:
192,192,27858,1,0,0:0:0:0:
64,192,28015,1,0,0:0:0:0:
448,192,28015,1,0,0:0:0:0:
320,192,28173,128,0,28331:0:0:0:0:
192,192,28173,1,0,0:0:0:0:
448,192,28173,1,0,0:0:0:0:
192,192,28331,128,0,28489:0:0:0:0:
320,192,28489,1,0,0:0:0:0:
64,192,28489,128,0,28647:0:0:0:0:
448,192,28647,128,0,28805:0:0:0:0:
320,192,28805,1,0,0:0:0:0:
192,192,28805,1,0,0:0:0:0:
64,192,28963,1,0,0:0:0:0:
320,192,29121,128,0,29279:0:0:0:0:
192,192,29279,128,0,29437:0:0:0:0:
64,192,29279,1,0,0:0:0:0:
448,192,29358,1,0,0:0:0:0:
320,192,29437,1,0,0:0:0:0:
64,192,29437,128,0,29594:0:0:0:0:
192,192,29594,1,0,0:0:0:0:
448,192,29594,128,0,29752:0:0:0:0:
320,192,29673,1,0,0:0:0:0:
192,192,29752,1,0,0:0:0:0:
64,192,29752,1,0,0:0:0:0:
320,192,29910,1,0,0:0:0:0:
448,192,29910,1,0,0:0:0:0:
192,192,30068,1,0,0:0:0:0:
320,192,30068,1,0,0:0:0:0:
64,192,30068,1,0,0:0:0:0:
320,192,30305,1,0,0:0:0:0:
192,192,30305,1,0,0:0:0:0:
64,192,30305,1,0,0:0:0:0:
64,192,30515,1,0,0:0:0:0:
192,192,30515,1,0,0:0:0:0:
320,192,30515,1,0,0:0:0:0:
64,192,30700,1,0,0:0:0:0:
192,192,30700,1,0,0:0:0:0:
448,192,30700,1,0,0:0:0:0:
320,192,30700,1,0,0:0:0:0:
448,192,31015,1,0,0:0:0:0:
64,192,31015,1,0,0:0:0:0:
192,192,31015,1,0,0:0:0:0:
320,192,31173,1,0,0:0:0:0:
448,192,31331,1,0,0:0:0:0:
192,192,31331,1,0,0:0:0:0:
320,192,31489,1,0,0:0:0:0:
64,192,31489,1,0,0:0:0:0:
192,192,31647,1,0,0:0:0:0:
320,192,31805,1,0,0:0:0:0:
448,192,31805,1,0,0:0:0:0:
64,192,31805,1,0,0:0:0:0:
192,192,31963,1,0,0:0:0:0:
320,192,32121,1,0,0:0:0:0:
448,192,32121,1,0,0:0:0:0:
192,192,32279,1,0,0:0:0:0:
64,192,32279,1,0,0:0:0:0:
320,192,32279,1,0,0:0:0:0:
448,192,32437,1,0,0:0:0:0:
320,192,32594,1,0,0:0:0:0:
64,192,32594,128,0,32910:0:0:0:0:
448,192,32752,1,0,0:0:0:0:
192,192,32752,1,0,0:0:0:0:
320,192,32910,1,0,0:0:0:0:
448,192,32910,1,0,0:0:0:0:
192,192,32910,1,0,0:0:0:0:
320,192,33068,1,0,0:0:0:0:
192,192,33147,128,0,33226:0:0:0:0:
64,192,33226,1,0,0:0:0:0:
448,192,33226,128,0,33542:0:0:0:0:
320,192,33542,1,0,0:0:0:0:
192,192,33542,1,0,0:0:0:0:
64,192,33542,1,0,0:0:0:0:
448,192,33700,1,0,0:0:0:0:
192,192,33858,1,0,0:0:0:0:
64,192,33858,1,0,0:0:0:0:
320,192,34015,1,0,0:0:0:0:
448,192,34015,1,0,0:0:0:0:
192,192,34173,1,0,0:0:0:0:
64,192,34331,1,0,0:0:0:0:
448,192,34331,1,0,0:0:0:0:
320,192,34331,1,0,0:0:0:0:
192,192,34489,128,0,34805:0:0:0:0:
320,192,34647,1,0,0:0:0:0:
448,192,34647,1,0,0:0:0:0:
448,192,34805,1,0,0:0:0:0:
320,192,34805,1,0,0:0:0:0:
64,192,34805,1,0,0:0:0:0:
64,192,34963,128,0,35279:0:0:0:0:
320,192,35121,1,0,0:0:0:0:
192,192,35121,1,0,0:0:0:0:
320,192,35279,1,0,0:0:0:0:
448,192,35279,128,0,35437:0:0:0:0:
192,192,35437,1,0,0:0:0:0:
64,192,35437,1,0,0:0:0:0:
320,192,35515,1,0,0:0:0:0:
448,192,35515,1,0,0:0:0:0:
192,192,35594,1,0,0:0:0:0:
64,192,35594,1,0,0:0:0:0:
320,192,35673,1,0,0:0:0:0:
448,192,35752,1,0,0:0:0:0:
192,192,35752,1,0,0:0:0:0:
64,192,35752,1,0,0:0:0:0:
320,192,35910,1,0,0:0:0:0:
192,192,36068,1,0,0:0:0:0:
64,192,36068,1,0,0:0:0:0:
448,192,36068,1,0,0:0:0:0:
192,192,36226,1,0,0:0:0:0:
320,192,36384,1,0,0:0:0:0:
448,192,36384,1,0,0:0:0:0:
192,192,36542,1,0,0:0:0:0:
64,192,36542,1,0,0:0:0:0:
448,192,36700,1,0,0:0:0:0:
192,192,36858,1,0,0:0:0:0:
64,192,36858,1,0,0:0:0:0:
320,192,36858,1,0,0:0:0:0:
448,192,37015,1,0,0:0:0:0:
320,192,37173,1,0,0:0:0:0:
192,192,37173,1,0,0:0:0:0:
64,192,37331,1,0,0:0:0:0:
320,192,37331,1,0,0:0:0:0:
448,192,37331,1,0,0:0:0:0:
192,192,37489,1,0,0:0:0:0:
64,192,37647,1,0,0:0:0:0:
448,192,37647,1,0,0:0:0:0:
320,192,37805,1,0,0:0:0:0:
192,192,37805,1,0,0:0:0:0:
64,192,37963,1,0,0:0:0:0:
192,192,37963,1,0,0:0:0:0:
448,192,37963,1,0,0:0:0:0:
320,192,38121,1,0,0:0:0:0:
192,192,38200,1,0,0:0:0:0:
64,192,38279,1,0,0:0:0:0:
448,192,38279,128,0,38752:0:0:0:0:
320,192,38437,1,0,0:0:0:0:
192,192,38594,1,0,0:0:0:0:
320,192,38594,1,0,0:0:0:0:
64,192,38594,1,0,0:0:0:0:
192,192,38752,128,0,39226:0:0:0:0:
64,192,38910,1,0,0:0:0:0:
320,192,38910,1,0,0:0:0:0:
320,192,39068,1,0,0:0:0:0:
448,192,39068,1,0,0:0:0:0:
64,192,39226,128,0,39858:0:0:0:0:
320,192,39384,1,0,0:0:0:0:
448,192,39384,1,0,0:0:0:0:
192,192,39384,1,0,0:0:0:0:
448,192,39542,1,0,0:0:0:0:
320,192,39700,1,0,0:0:0:0:
192,192,39700,1,0,0:0:0:0:
320,192,39858,1,0,0:0:0:0:
448,192,39858,1,0,0:0:0:0:
192,192,39858,1,0,0:0:0:0:
64,192,40015,1,0,0:0:0:0:
448,192,40015,1,0,0:0:0:0:
192,192,40173,1,0,0:0:0:0:
64,192,40173,1,0,0:0:0:0:
320,192,40173,128,0,40489:0:0:0:0:
448,192,40331,1,0,0:0:0:0:
192,192,40331,1,0,0:0:0:0:
64,192,40489,128,0,40805:0:0:0:0:
448,192,40489,1,0,0:0:0:0:
192,192,40647,1,0,0:0:0:0:
320,192,40647,1,0,0:0:0:0:
192,192,40805,1,0,0:0:0:0:
320,192,40805,1,0,0:0:0:0:
448,192,40805,1,0,0:0:0:0:
64,192,41121,1,0,0:0:0:0:
448,192,41121,1,0,0:0:0:0:
192,192,41279,1,0,0:0:0:0:
448,192,41437,1,0,0:0:0:0:
64,192,41437,1,0,0:0:0:0:
320,192,41594,1,0,0:0:0:0:
192,192,41594,1,0,0:0:0:0:
64,192,41752,1,0,0:0:0:0:
320,192,41752,1,0,0:0:0:0:
192,192,41910,1,0,0:0:0:0:
64,192,41910,1,0,0:0:0:0:
448,192,41910,1,0,0:0:0:0:
320,192,42068,1,0,0:0:0:0:
192,192,42068,1,0,0:0:0:0:
320,192,42384,1,0,0:0:0:0:
64,192,42384,1,0,0:0:0:0:
192,192,42542,1,0,0:0:0:0:
448,192,42700,1,0,0:0:0:0:
64,192,42700,1,0,0:0:0:0:
320,192,42858,1,0,0:0:0:0:
192,192,43015,1,0,0:0:0:0:
448,192,43015,1,0,0:0:0:0:
64,192,43173,1,0,0:0:0:0:
192,192,43331,1,0,0:0:0:0:
448,192,43331,1,0,0:0:0:0:
320,192,43331,1,0,0:0:0:0:
64,192,43647,1,0,0:0:0:0:
192,192,43647,1,0,0:0:0:0:
320,192,43805,1,0,0:0:0:0:
448,192,43963,1,0,0:0:0:0:
64,192,43963,1,0,0:0:0:0:
192,192,44121,1,0,0:0:0:0:
320,192,44121,1,0,0:0:0:0:
448,192,44279,1,0,0:0:0:0:
64,192,44279,1,0,0:0:0:0:
192,192,44437,1,0,0:0:0:0:
64,192,44437,1,0,0:0:0:0:
320,192,44437,1,0,0:0:0:0:
192,192,44594,1,0,0:0:0:0:
448,192,44594,128,0,44910:0:0:0:0:
320,192,44752,1,0,0:0:0:0:
64,192,44752,1,0,0:0:0:0:
192,192,44910,1,0,0:0:0:0:
64,192,44910,1,0,0:0:0:0:
320,192,45068,128,0,45384:0:0:0:0:
448,192,45068,1,0,0:0:0:0:
64,192,45226,1,0,0:0:0:0:
192,192,45226,1,0,0:0:0:0:
448,192,45384,1,0,0:0:0:0:
192,192,45384,1,0,0:0:0:0:
64,192,45542,128,0,45858:0:0:0:0:
320,192,45542,1,0,0:0:0:0:
448,192,45542,1,0,0:0:0:0:
320,192,45700,1,0,0:0:0:0:
192,192,45700,1,0,0:0:0:0:
448,192,45858,1,0,0:0:0:0:
192,192,45858,1,0,0:0:0:0:
320,192,45858,1,0,0:0:0:0:
64,192,46173,1,0,0:0:0:0:
448,192,46173,1,0,0:0:0:0:
192,192,46331,1,0,0:0:0:0:
320,192,46489,1,0,0:0:0:0:
448,192,46489,1,0,0:0:0:0:
192,192,46647,1,0,0:0:0:0:
64,192,46647,1,0,0:0:0:0:
320,192,46805,1,0,0:0:0:0:
448,192,46805,1,0,0:0:0:0:
192,192,46963,1,0,0:0:0:0:
64,192,46963,1,0,0:0:0:0:
448,192,46963,1,0,0:0:0:0:
320,192,47121,1,0,0:0:0:0:
192,192,47121,1,0,0:0:0:0:
64,192,47437,1,0,0:0:0:0:
448,192,47437,1,0,0:0:0:0:
192,192,47594,1,0,0:0:0:0:
320,192,47752,1,0,0:0:0:0:
64,192,47752,1,0,0:0:0:0:
192,192,47910,1,0,0:0:0:0:
448,192,47910,1,0,0:0:0:0:
64,192,48068,1,0,0:0:0:0:
448,192,48068,128,0,48384:0:0:0:0:
320,192,48226,1,0,0:0:0:0:
192,192,48226,1,0,0:0:0:0:
64,192,48305,1,0,0:0:0:0:
320,192,48384,1,0,0:0:0:0:
192,192,48384,1,0,0:0:0:0:
64,192,48700,1,0,0:0:0:0:
448,192,48700,1,0,0:0:0:0:
192,192,48858,1,0,0:0:0:0:
320,192,49015,1,0,0:0:0:0:
448,192,49015,1,0,0:0:0:0:
192,192,49173,1,0,0:0:0:0:
64,192,49173,1,0,0:0:0:0:
320,192,49331,1,0,0:0:0:0:
448,192,49331,1,0,0:0:0:0:
64,192,49489,1,0,0:0:0:0:
448,192,49489,1,0,0:0:0:0:
192,192,49489,1,0,0:0:0:0:
320,192,49647,1,0,0:0:0:0:
192,192,49647,1,0,0:0:0:0:
448,192,49963,1,0,0:0:0:0:
192,192,49963,1,0,0:0:0:0:
64,192,50121,1,0,0:0:0:0:
320,192,50200,1,0,0:0:0:0:
448,192,50200,1,0,0:0:0:0:
192,192,50279,1,0,0:0:0:0:
64,192,50279,1,0,0:0:0:0:
320,192,50437,1,0,0:0:0:0:
448,192,50437,1,0,0:0:0:0:
192,192,50594,1,0,0:0:0:0:
320,192,50594,1,0,0:0:0:0:
64,192,50752,1,0,0:0:0:0:
192,192,50752,1,0,0:0:0:0:
320,192,50910,1,0,0:0:0:0:
64,192,50910,1,0,0:0:0:0:
448,192,50910,128,0,51305:0:0:0:0:
192,192,51068,128,0,51305:0:0:0:0:
320,192,51226,128,0,51305:0:0:0:0:
64,192,51384,128,0,51542:0:0:0:0:
448,192,51542,1,0,0:0:0:0:
192,192,51700,128,0,51858:0:0:0:0:
448,192,51858,1,0,0:0:0:0:
320,192,51858,128,0,52173:0:0:0:0:
64,192,52015,1,0,0:0:0:0:
192,192,52015,128,0,52173:0:0:0:0:
448,192,52173,1,0,0:0:0:0:
64,192,52173,128,0,52568:0:0:0:0:
320,192,52331,128,0,52568:0:0:0:0:
192,192,52489,128,0,52568:0:0:0:0:
448,192,52647,128,0,52805:0:0:0:0:
64,192,52805,1,0,0:0:0:0:
192,192,52963,128,0,53121:0:0:0:0:
320,192,52963,1,0,0:0:0:0:
64,192,53121,1,0,0:0:0:0:
320,192,53121,1,0,0:0:0:0:
448,192,53121,128,0,53437:0:0:0:0:
64,192,53279,128,0,53437:0:0:0:0:
192,192,53437,128,0,53673:0:0:0:0:
320,192,53437,128,0,53673:0:0:0:0:
64,192,53752,1,0,0:0:0:0:
448,192,53752,1,0,0:0:0:0:
320,192,53752,1,0,0:0:0:0:
64,192,53910,1,0,0:0:0:0:
192,192,53910,1,0,0:0:0:0:
448,192,53910,1,0,0:0:0:0:
448,192,54226,1,0,0:0:0:0:
192,192,54226,1,0,0:0:0:0:
64,192,54226,1,0,0:0:0:0:
192,192,54542,1,0,0:0:0:0:
320,192,54542,1,0,0:0:0:0:
448,192,54542,1,0,0:0:0:0:
64,192,54858,1,0,0:0:0:0:
448,192,54858,1,0,0:0:0:0:
320,192,55015,1,0,0:0:0:0:
64,192,55015,1,0,0:0:0:0:
192,192,55015,1,0,0:0:0:0:
448,192,55331,1,0,0:0:0:0:
64,192,55331,1,0,0:0:0:0:
320,192,55371,1,0,0:0:0:0:
192,192,55410,1,0,0:0:0:0:
64,192,55450,1,0,0:0:0:0:
448,192,55489,1,0,0:0:0:0:
320,192,55529,1,0,0:0:0:0:
192,192,55568,1,0,0:0:0:0:
64,192,55608,1,0,0:0:0:0:
448,192,55647,1,0,0:0:0:0:
320,192,55687,1,0,0:0:0:0:
192,192,55726,1,0,0:0:0:0:
64,192,55765,1,0,0:0:0:0:
448,192,55805,1,0,0:0:0:0:
320,192,55844,1,0,0:0:0:0:
192,192,55884,1,0,0:0:0:0:
64,192,55923,1,0,0:0:0:0:
320,192,55963,1,0,0:0:0:0:
448,192,55963,1,0,0:0:0:0:
320,192,56279,1,0,0:0:0:0:
448,192,56279,1,0,0:0:0:0:
192,192,56437,1,0,0:0:0:0:
64,192,56594,1,0,0:0:0:0:
448,192,56594,1,0,0:0:0:0:
320,192,56752,1,0,0:0:0:0:
192,192,56910,1,0,0:0:0:0:
64,192,56910,1,0,0:0:0:0:
320,192,57068,1,0,0:0:0:0:
448,192,57068,1,0,0:0:0:0:
192,192,57226,1,0,0:0:0:0:
64,192,57226,1,0,0:0:0:0:
320,192,57384,1,0,0:0:0:0:
448,192,57542,1,0,0:0:0:0:
64,192,57542,1,0,0:0:0:0:
192,192,57700,1,0,0:0:0:0:
320,192,57700,1,0,0:0:0:0:
192,192,57858,1,0,0:0:0:0:
64,192,57858,1,0,0:0:0:0:
448,192,58015,1,0,0:0:0:0:
320,192,58015,1,0,0:0:0:0:
192,192,58173,1,0,0:0:0:0:
320,192,58173,1,0,0:0:0:0:
192,192,58331,1,0,0:0:0:0:
64,192,58331,1,0,0:0:0:0:
320,192,58489,1,0,0:0:0:0:
448,192,58489,1,0,0:0:0:0:
64,192,58489,1,0,0:0:0:0:
192,192,58647,1,0,0:0:0:0:
64,192,58805,1,0,0:0:0:0:
448,192,58805,1,0,0:0:0:0:
320,192,58963,1,0,0:0:0:0:
192,192,59121,1,0,0:0:0:0:
64,192,59121,1,0,0:0:0:0:
320,192,59279,1,0,0:0:0:0:
448,192,59279,1,0,0:0:0:0:
192,192,59437,1,0,0:0:0:0:
64,192,59437,1,0,0:0:0:0:
448,192,59594,1,0,0:0:0:0:
320,192,59752,1,0,0:0:0:0:
64,192,59752,1,0,0:0:0:0:
192,192,59910,1,0,0:0:0:0:
320,192,60068,1,0,0:0:0:0:
448,192,60068,1,0,0:0:0:0:
192,192,60226,1,0,0:0:0:0:
64,192,60226,1,0,0:0:0:0:
448,192,60384,1,0,0:0:0:0:
64,192,60384,1,0,0:0:0:0:
320,192,60542,1,0,0:0:0:0:
192,192,60621,1,0,0:0:0:0:
64,192,60621,1,0,0:0:0:0:
320,192,60700,1,0,0:0:0:0:
448,192,60700,1,0,0:0:0:0:
192,192,60858,1,0,0:0:0:0:
448,192,60858,1,0,0:0:0:0:
320,192,61015,1,0,0:0:0:0:
64,192,61015,1,0,0:0:0:0:
192,192,61015,1,0,0:0:0:0:
448,192,61173,1,0,0:0:0:0:
320,192,61331,1,0,0:0:0:0:
64,192,61331,1,0,0:0:0:0:
320,192,61489,1,0,0:0:0:0:
448,192,61489,1,0,0:0:0:0:
192,192,61489,1,0,0:0:0:0:
64,192,61647,1,0,0:0:0:0:
448,192,61647,1,0,0:0:0:0:
192,192,61647,1,0,0:0:0:0:
64,192,61805,1,0,0:0:0:0:
448,192,61805,1,0,0:0:0:0:
192,192,61805,1,0,0:0:0:0:
64,192,61963,1,0,0:0:0:0:
192,192,61963,1,0,0:0:0:0:
448,192,61963,1,0,0:0:0:0:
448,192,62121,1,0,0:0:0:0:
192,192,62121,1,0,0:0:0:0:
64,192,62121,1,0,0:0:0:0:
320,192,62279,1,0,0:0:0:0:
64,192,62279,1,0,0:0:0:0:
448,192,62279,1,0,0:0:0:0:
64,192,62437,1,0,0:0:0:0:
320,192,62437,1,0,0:0:0:0:
448,192,62437,1,0,0:0:0:0:
64,192,62594,1,0,0:0:0:0:
320,192,62594,1,0,0:0:0:0:
448,192,62594,1,0,0:0:0:0:
64,192,62752,1,0,0:0:0:0:
320,192,62752,1,0,0:0:0:0:
448,192,62752,1,0,0:0:0:0:
64,192,62910,1,0,0:0:0:0:
320,192,62910,1,0,0:0:0:0:
448,192,62910,1,0,0:0:0:0:
64,192,63068,1,0,0:0:0:0:
448,192,63068,1,0,0:0:0:0:
320,192,63068,1,0,0:0:0:0:
64,192,63226,1,0,0:0:0:0:
320,192,63226,1,0,0:0:0:0:
448,192,63226,1,0,0:0:0:0:
64,192,63384,1,0,0:0:0:0:
320,192,63384,1,0,0:0:0:0:
448,192,63384,1,0,0:0:0:0:
64,192,63542,128,0,63779:0:0:0:0:
192,192,63542,128,0,63779:0:0:0:0:
320,192,63542,128,0,63779:0:0:0:0:
448,192,63542,128,0,63779:0:0:0:0:
64,192,63858,1,0,0:0:0:0:
192,192,63858,1,0,0:0:0:0:
448,192,63858,1,0,0:0:0:0:
448,192,64015,128,0,64252:0:0:0:0:
320,192,64015,128,0,64252:0:0:0:0:
192,192,64015,128,0,64252:0:0:0:0:
64,192,64015,128,0,64252:0:0:0:0:
192,192,64331,1,0,0:0:0:0:
320,192,64331,1,0,0:0:0:0:
448,192,64331,1,0,0:0:0:0:
64,192,64489,128,0,64726:0:0:0:0:
192,192,64489,128,0,64726:0:0:0:0:
448,192,64489,128,0,64726:0:0:0:0:
320,192,64489,128,0,64726:0:0:0:0:
64,192,64805,128,0,64884:0:0:0:0:
192,192,64805,128,0,64884:0:0:0:0:
320,192,64805,128,0,64884:0:0:0:0:
448,192,64805,128,0,64884:0:0:0:0:
448,192,64963,128,0,65042:0:0:0:0:
320,192,64963,128,0,65042:0:0:0:0:
192,192,64963,128,0,65042:0:0:0:0:
64,192,64963,128,0,65042:0:0:0:0:
64,192,65437,1,0,0:0:0:0:
320,192,65594,1,0,0:0:0:0:
448,192,65594,1,0,0:0:0:0:
192,192,65673,1,0,0:0:0:0:
64,192,65752,128,0,65989:0:0:0:0:
320,192,65752,128,0,65989:0:0:0:0:
448,192,65752,128,0,65989:0:0:0:0:
448,192,66068,128,0,67805:0:0:0:0:
320,192,66068,1,0,0:0:0:0:
64,192,66068,1,0,0:0:0:0:
192,192,66068,1,0,0:0:0:0:
320,192,66384,1,0,0:0:0:0:
192,192,66384,1,0,0:0:0:0:
64,192,66384,1,0,0:0:0:0:
192,192,66700,1,0,0:0:0:0:
64,192,66700,1,0,0:0:0:0:
320,192,66858,1,0,0:0:0:0:
64,192,66858,1,0,0:0:0:0:
320,192,67015,1,0,0:0:0:0:
192,192,67015,1,0,0:0:0:0:
64,192,67015,1,0,0:0:0:0:
320,192,67331,1,0,0:0:0:0:
64,192,67331,1,0,0:0:0:0:
320,192,67489,1,0,0:0:0:0:
192,192,67489,1,0,0:0:0:0:
192,192,67647,1,0,0:0:0:0:
64,192,67647,1,0,0:0:0:0:
320,192,67647,1,0,0:0:0:0:
64,192,67805,128,0,68279:0:0:0:0:
320,192,67963,1,0,0:0:0:0:
192,192,67963,1,0,0:0:0:0:
320,192,68121,1,0,0:0:0:0:
448,192,68121,1,0,0:0:0:0:
448,192,68279,128,0,68594:0:0:0:0:
320,192,68279,1,0,0:0:0:0:
192,192,68279,1,0,0:0:0:0:
192,192,68437,1,0,0:0:0:0:
64,192,68437,1,0,0:0:0:0:
320,192,68594,128,0,69858:0:0:0:0:
64,192,68594,1,0,0:0:0:0:
192,192,68910,1,0,0:0:0:0:
64,192,68910,1,0,0:0:0:0:
448,192,68910,1,0,0:0:0:0:
448,192,69226,1,0,0:0:0:0:
192,192,69226,1,0,0:0:0:0:
64,192,69384,1,0,0:0:0:0:
448,192,69384,1,0,0:0:0:0:
192,192,69542,1,0,0:0:0:0:
448,192,69542,1,0,0:0:0:0:
64,192,69542,1,0,0:0:0:0:
64,192,69858,128,0,70331:0:0:0:0:
448,192,69858,1,0,0:0:0:0:
320,192,70015,1,0,0:0:0:0:
192,192,70015,1,0,0:0:0:0:
448,192,70173,1,0,0:0:0:0:
320,192,70173,1,0,0:0:0:0:
192,192,70173,1,0,0:0:0:0:
448,192,70331,128,0,71121:0:0:0:0:
320,192,70489,1,0,0:0:0:0:
64,192,70489,1,0,0:0:0:0:
64,192,70647,1,0,0:0:0:0:
192,192,70647,1,0,0:0:0:0:
64,192,70805,1,0,0:0:0:0:
192,192,70805,1,0,0:0:0:0:
320,192,70805,1,0,0:0:0:0:
320,192,70963,1,0,0:0:0:0:
192,192,70963,1,0,0:0:0:0:
64,192,71121,128,0,72384:0:0:0:0:
320,192,71121,1,0,0:0:0:0:
192,192,71121,1,0,0:0:0:0:
320,192,71437,1,0,0:0:0:0:
192,192,71437,1,0,0:0:0:0:
448,192,71437,1,0,0:0:0:0:
320,192,71752,1,0,0:0:0:0:
192,192,71752,1,0,0:0:0:0:
448,192,71910,1,0,0:0:0:0:
320,192,71910,1,0,0:0:0:0:
192,192,72068,1,0,0:0:0:0:
448,192,72068,1,0,0:0:0:0:
320,192,72068,1,0,0:0:0:0:
320,192,72384,128,0,73015:0:0:0:0:
448,192,72384,1,0,0:0:0:0:
64,192,72542,1,0,0:0:0:0:
192,192,72542,1,0,0:0:0:0:
192,192,72700,1,0,0:0:0:0:
64,192,72700,1,0,0:0:0:0:
448,192,72700,1,0,0:0:0:0:
448,192,73015,128,0,73647:0:0:0:0:
192,192,73015,1,0,0:0:0:0:
64,192,73015,1,0,0:0:0:0:
320,192,73173,1,0,0:0:0:0:
192,192,73173,1,0,0:0:0:0:
64,192,73331,1,0,0:0:0:0:
192,192,73331,1,0,0:0:0:0:
320,192,73331,1,0,0:0:0:0:
64,192,73489,1,0,0:0:0:0:
320,192,73489,1,0,0:0:0:0:
192,192,73647,128,0,74279:0:0:0:0:
64,192,73647,1,0,0:0:0:0:
448,192,73963,1,0,0:0:0:0:
64,192,73963,1,0,0:0:0:0:
320,192,73963,1,0,0:0:0:0:
320,192,74279,128,0,74910:0:0:0:0:
448,192,74279,1,0,0:0:0:0:
192,192,74437,1,0,0:0:0:0:
64,192,74437,1,0,0:0:0:0:
64,192,74594,1,0,0:0:0:0:
192,192,74594,1,0,0:0:0:0:
448,192,74594,1,0,0:0:0:0:
448,192,74910,128,0,75542:0:0:0:0:
192,192,74910,1,0,0:0:0:0:
64,192,74910,1,0,0:0:0:0:
320,192,75068,1,0,0:0:0:0:
64,192,75068,1,0,0:0:0:0:
64,192,75226,1,0,0:0:0:0:
192,192,75226,1,0,0:0:0:0:
320,192,75226,1,0,0:0:0:0:
192,192,75384,1,0,0:0:0:0:
320,192,75384,1,0,0:0:0:0:
64,192,75542,128,0,75858:0:0:0:0:
192,192,75542,1,0,0:0:0:0:
320,192,75542,1,0,0:0:0:0:
448,192,75700,1,0,0:0:0:0:
192,192,75700,1,0,0:0:0:0:
192,192,75858,1,0,0:0:0:0:
448,192,75858,1,0,0:0:0:0:
320,192,75858,1,0,0:0:0:0:
448,192,76015,1,0,0:0:0:0:
320,192,76015,1,0,0:0:0:0:
192,192,76015,1,0,0:0:0:0:
64,192,76094,1,0,0:0:0:0:
448,192,76173,128,0,76410:0:0:0:0:
320,192,76173,128,0,76410:0:0:0:0:
192,192,76173,128,0,76410:0:0:0:0:
192,192,76489,1,0,0:0:0:0:
64,192,76489,1,0,0:0:0:0:
448,192,76489,1,0,0:0:0:0:
320,192,76647,1,0,0:0:0:0:
192,192,76805,1,0,0:0:0:0:
64,192,76805,1,0,0:0:0:0:
320,192,76963,1,0,0:0:0:0:
192,192,76963,1,0,0:0:0:0:
64,192,77121,1,0,0:0:0:0:
320,192,77121,1,0,0:0:0:0:
448,192,77121,1,0,0:0:0:0:
64,192,77279,128,0,77515:0:0:0:0:
192,192,77279,128,0,77515:0:0:0:0:
448,192,77279,128,0,77515:0:0:0:0:
320,192,77594,1,0,0:0:0:0:
192,192,77594,1,0,0:0:0:0:
64,192,77752,1,0,0:0:0:0:
320,192,77752,1,0,0:0:0:0:
448,192,77752,1,0,0:0:0:0:
192,192,77910,1,0,0:0:0:0:
320,192,77989,128,0,78068:0:0:0:0:
448,192,78068,128,0,78147:0:0:0:0:
192,192,78068,1,0,0:0:0:0:
320,192,78226,128,0,78305:0:0:0:0:
64,192,78226,1,0,0:0:0:0:
448,192,78384,1,0,0:0:0:0:
192,192,78384,128,0,78463:0:0:0:0:
320,192,78384,1,0,0:0:0:0:
64,192,78542,128,0,78621:0:0:0:0:
448,192,78700,128,0,78937:0:0:0:0:
320,192,78700,128,0,78937:0:0:0:0:
192,192,78700,128,0,78937:0:0:0:0:
64,192,79015,1,0,0:0:0:0:
448,192,79015,1,0,0:0:0:0:
192,192,79015,1,0,0:0:0:0:
320,192,79173,1,0,0:0:0:0:
192,192,79331,1,0,0:0:0:0:
448,192,79331,1,0,0:0:0:0:
320,192,79489,1,0,0:0:0:0:
64,192,79489,1,0,0:0:0:0:
192,192,79647,1,0,0:0:0:0:
320,192,79647,1,0,0:0:0:0:
448,192,79647,1,0,0:0:0:0:
64,192,79805,128,0,80042:0:0:0:0:
192,192,79805,128,0,80042:0:0:0:0:
448,192,79805,128,0,80042:0:0:0:0:
320,192,80121,1,0,0:0:0:0:
192,192,80121,1,0,0:0:0:0:
320,192,80279,1,0,0:0:0:0:
448,192,80279,1,0,0:0:0:0:
64,192,80279,128,0,80594:0:0:0:0:
192,192,80594,128,0,80910:0:0:0:0:
448,192,80594,1,0,0:0:0:0:
320,192,80752,1,0,0:0:0:0:
64,192,80752,1,0,0:0:0:0:
448,192,80910,128,0,81226:0:0:0:0:
64,192,80910,1,0,0:0:0:0:
320,192,80910,1,0,0:0:0:0:
320,192,81226,1,0,0:0:0:0:
64,192,81226,1,0,0:0:0:0:
192,192,81226,1,0,0:0:0:0:
192,192,81542,1,0,0:0:0:0:
64,192,81542,1,0,0:0:0:0:
448,192,81542,1,0,0:0:0:0:
320,192,81621,1,0,0:0:0:0:
192,192,81700,1,0,0:0:0:0:
64,192,81779,1,0,0:0:0:0:
448,192,81858,1,0,0:0:0:0:
320,192,81858,1,0,0:0:0:0:
192,192,81937,1,0,0:0:0:0:
64,192,82015,1,0,0:0:0:0:
448,192,82015,1,0,0:0:0:0:
320,192,82094,1,0,0:0:0:0:
64,192,82173,1,0,0:0:0:0:
448,192,82173,1,0,0:0:0:0:
192,192,82173,1,0,0:0:0:0:
320,192,82252,1,0,0:0:0:0:
192,192,82331,1,0,0:0:0:0:
448,192,82410,1,0,0:0:0:0:
64,192,82489,128,0,82805:0:0:0:0:
320,192,82489,1,0,0:0:0:0:
448,192,82647,1,0,0:0:0:0:
192,192,82647,1,0,0:0:0:0:
448,192,82805,128,0,83121:0:0:0:0:
192,192,82805,1,0,0:0:0:0:
320,192,82805,1,0,0:0:0:0:
192,192,83121,1,0,0:0:0:0:
64,192,83121,1,0,0:0:0:0:
320,192,83226,1,0,0:0:0:0:
192,192,83279,1,0,0:0:0:0:
64,192,83279,1,0,0:0:0:0:
448,192,83331,1,0,0:0:0:0:
192,192,83437,1,0,0:0:0:0:
320,192,83437,1,0,0:0:0:0:
64,192,83542,1,0,0:0:0:0:
192,192,83594,1,0,0:0:0:0:
320,192,83594,1,0,0:0:0:0:
448,192,83647,1,0,0:0:0:0:
192,192,83752,1,0,0:0:0:0:
64,192,83752,1,0,0:0:0:0:
320,192,83752,1,0,0:0:0:0:
192,192,83910,1,0,0:0:0:0:
320,192,84068,1,0,0:0:0:0:
448,192,84068,1,0,0:0:0:0:
64,192,84068,1,0,0:0:0:0:
192,192,84226,1,0,0:0:0:0:
64,192,84384,1,0,0:0:0:0:
448,192,84384,1,0,0:0:0:0:
320,192,84542,1,0,0:0:0:0:
192,192,84542,1,0,0:0:0:0:
192,192,84700,1,0,0:0:0:0:
64,192,84700,1,0,0:0:0:0:
448,192,84700,1,0,0:0:0:0:
320,192,84858,1,0,0:0:0:0:
192,192,85015,1,0,0:0:0:0:
448,192,85015,1,0,0:0:0:0:
320,192,85173,1,0,0:0:0:0:
64,192,85173,1,0,0:0:0:0:
192,192,85331,1,0,0:0:0:0:
320,192,85331,1,0,0:0:0:0:
448,192,85331,1,0,0:0:0:0:
64,192,85489,1,0,0:0:0:0:
448,192,85489,1,0,0:0:0:0:
192,192,85647,1,0,0:0:0:0:
64,192,85647,1,0,0:0:0:0:
320,192,85726,1,0,0:0:0:0:
448,192,85726,1,0,0:0:0:0:
192,192,85805,1,0,0:0:0:0:
64,192,85805,1,0,0:0:0:0:
320,192,85884,1,0,0:0:0:0:
448,192,85884,1,0,0:0:0:0:
64,192,85963,1,0,0:0:0:0:
192,192,85963,1,0,0:0:0:0:
320,192,86042,1,0,0:0:0:0:
448,192,86042,1,0,0:0:0:0:
192,192,86121,1,0,0:0:0:0:
64,192,86121,1,0,0:0:0:0:
320,192,86200,1,0,0:0:0:0:
64,192,86279,128,0,86515:0:0:0:0:
192,192,86279,128,0,86515:0:0:0:0:
448,192,86279,128,0,86515:0:0:0:0:
320,192,86594,1,0,0:0:0:0:
448,192,86594,1,0,0:0:0:0:
64,192,86594,1,0,0:0:0:0:
192,192,86752,1,0,0:0:0:0:
64,192,86910,1,0,0:0:0:0:
320,192,86910,1,0,0:0:0:0:
448,192,86910,1,0,0:0:0:0:
192,192,87068,1,0,0:0:0:0:
320,192,87068,1,0,0:0:0:0:
64,192,87226,1,0,0:0:0:0:
192,192,87226,1,0,0:0:0:0:
448,192,87226,1,0,0:0:0:0:
320,192,87384,1,0,0:0:0:0:
64,192,87384,1,0,0:0:0:0:
192,192,87542,1,0,0:0:0:0:
320,192,87542,1,0,0:0:0:0:
448,192,87542,1,0,0:0:0:0:
64,192,87700,1,0,0:0:0:0:
192,192,87858,1,0,0:0:0:0:
320,192,87858,1,0,0:0:0:0:
448,192,87858,1,0,0:0:0:0:
64,192,88015,1,0,0:0:0:0:
448,192,88015,1,0,0:0:0:0:
320,192,88173,1,0,0:0:0:0:
192,192,88173,1,0,0:0:0:0:
64,192,88173,1,0,0:0:0:0:
448,192,88331,1,0,0:0:0:0:
192,192,88331,1,0,0:0:0:0:
320,192,88331,1,0,0:0:0:0:
448,192,88489,1,0,0:0:0:0:
64,192,88489,1,0,0:0:0:0:
320,192,88489,1,0,0:0:0:0:
192,192,88647,1,0,0:0:0:0:
64,192,88647,1,0,0:0:0:0:
448,192,88647,1,0,0:0:0:0:
320,192,88726,1,0,0:0:0:0:
192,192,88805,1,0,0:0:0:0:
64,192,88805,1,0,0:0:0:0:
448,192,88805,1,0,0:0:0:0:
320,192,88963,1,0,0:0:0:0:
448,192,89121,1,0,0:0:0:0:
64,192,89121,1,0,0:0:0:0:
192,192,89121,1,0,0:0:0:0:
320,192,89279,1,0,0:0:0:0:
448,192,89437,1,0,0:0:0:0:
64,192,89437,1,0,0:0:0:0:
192,192,89437,1,0,0:0:0:0:
320,192,89594,1,0,0:0:0:0:
192,192,89594,1,0,0:0:0:0:
64,192,89752,1,0,0:0:0:0:
320,192,89752,1,0,0:0:0:0:
448,192,89752,1,0,0:0:0:0:
192,192,89910,1,0,0:0:0:0:
448,192,89910,1,0,0:0:0:0:
320,192,90068,1,0,0:0:0:0:
192,192,90068,1,0,0:0:0:0:
64,192,90068,1,0,0:0:0:0:
448,192,90226,1,0,0:0:0:0:
192,192,90384,1,0,0:0:0:0:
320,192,90384,1,0,0:0:0:0:
64,192,90384,1,0,0:0:0:0:
448,192,90542,1,0,0:0:0:0:
64,192,90542,1,0,0:0:0:0:
192,192,90700,1,0,0:0:0:0:
320,192,90700,1,0,0:0:0:0:
448,192,90700,1,0,0:0:0:0:
64,192,90858,1,0,0:0:0:0:
192,192,90858,1,0,0:0:0:0:
448,192,90858,1,0,0:0:0:0:
320,192,90937,1,0,0:0:0:0:
192,192,91015,1,0,0:0:0:0:
64,192,91015,1,0,0:0:0:0:
448,192,91015,1,0,0:0:0:0:
320,192,91173,1,0,0:0:0:0:
448,192,91173,1,0,0:0:0:0:
64,192,91173,1,0,0:0:0:0:
192,192,91252,1,0,0:0:0:0:
64,192,91331,1,0,0:0:0:0:
320,192,91331,1,0,0:0:0:0:
448,192,91331,1,0,0:0:0:0:
192,192,91489,1,0,0:0:0:0:
64,192,91647,1,0,0:0:0:0:
320,192,91647,1,0,0:0:0:0:
448,192,91647,1,0,0:0:0:0:
192,192,91805,1,0,0:0:0:0:
320,192,91963,1,0,0:0:0:0:
448,192,91963,1,0,0:0:0:0:
64,192,91963,1,0,0:0:0:0:
192,192,92121,1,0,0:0:0:0:
448,192,92121,1,0,0:0:0:0:
320,192,92279,1,0,0:0:0:0:
192,192,92279,1,0,0:0:0:0:
64,192,92279,1,0,0:0:0:0:
448,192,92437,1,0,0:0:0:0:
64,192,92437,1,0,0:0:0:0:
192,192,92594,1,0,0:0:0:0:
320,192,92594,1,0,0:0:0:0:
448,192,92594,1,0,0:0:0:0:
64,192,92752,1,0,0:0:0:0:
192,192,92910,1,0,0:0:0:0:
320,192,92910,1,0,0:0:0:0:
448,192,92910,1,0,0:0:0:0:
64,192,93068,1,0,0:0:0:0:
320,192,93068,1,0,0:0:0:0:
448,192,93226,1,0,0:0:0:0:
192,192,93226,1,0,0:0:0:0:
64,192,93226,1,0,0:0:0:0:
320,192,93384,1,0,0:0:0:0:
192,192,93384,1,0,0:0:0:0:
320,192,93542,1,0,0:0:0:0:
448,192,93542,1,0,0:0:0:0:
64,192,93542,1,0,0:0:0:0:
192,192,93700,1,0,0:0:0:0:
64,192,93700,1,0,0:0:0:0:
448,192,93779,1,0,0:0:0:0:
320,192,93858,1,0,0:0:0:0:
192,192,93858,1,0,0:0:0:0:
64,192,93858,128,0,94015:0:0:0:0:
448,192,94015,1,0,0:0:0:0:
320,192,94173,1,0,0:0:0:0:
192,192,94173,1,0,0:0:0:0:
64,192,94173,1,0,0:0:0:0:
448,192,94331,1,0,0:0:0:0:
192,192,94331,1,0,0:0:0:0:
64,192,94410,1,0,0:0:0:0:
192,192,94489,1,0,0:0:0:0:
320,192,94489,1,0,0:0:0:0:
448,192,94489,128,0,94647:0:0:0:0:
64,192,94647,1,0,0:0:0:0:
320,192,94647,1,0,0:0:0:0:
448,192,94805,1,0,0:0:0:0:
64,192,94805,1,0,0:0:0:0:
192,192,94805,1,0,0:0:0:0:
320,192,94963,1,0,0:0:0:0:
192,192,94963,1,0,0:0:0:0:
448,192,95121,1,0,0:0:0:0:
320,192,95121,1,0,0:0:0:0:
64,192,95121,128,0,95279:0:0:0:0:
192,192,95279,1,0,0:0:0:0:
448,192,95279,1,0,0:0:0:0:
320,192,95437,1,0,0:0:0:0:
192,192,95437,1,0,0:0:0:0:
64,192,95437,1,0,0:0:0:0:
448,192,95594,1,0,0:0:0:0:
64,192,95594,1,0,0:0:0:0:
320,192,95752,1,0,0:0:0:0:
448,192,95752,1,0,0:0:0:0:
192,192,95831,1,0,0:0:0:0:
64,192,95831,1,0,0:0:0:0:
320,192,95910,1,0,0:0:0:0:
448,192,95910,1,0,0:0:0:0:
192,192,95989,1,0,0:0:0:0:
64,192,95989,1,0,0:0:0:0:
320,192,96068,1,0,0:0:0:0:
448,192,96068,1,0,0:0:0:0:
192,192,96147,1,0,0:0:0:0:
64,192,96147,1,0,0:0:0:0:
320,192,96226,1,0,0:0:0:0:
448,192,96226,1,0,0:0:0:0:
192,192,96305,1,0,0:0:0:0:
64,192,96384,128,0,96621:0:0:0:0:
320,192,96384,128,0,96621:0:0:0:0:
448,192,96384,128,0,96621:0:0:0:0:
192,192,96700,1,0,0:0:0:0:
448,192,96700,1,0,0:0:0:0:
64,192,96700,1,0,0:0:0:0:
320,192,96858,1,0,0:0:0:0:
64,192,97015,1,0,0:0:0:0:
448,192,97015,1,0,0:0:0:0:
192,192,97173,1,0,0:0:0:0:
320,192,97173,1,0,0:0:0:0:
448,192,97331,1,0,0:0:0:0:
64,192,97331,1,0,0:0:0:0:
320,192,97331,1,0,0:0:0:0:
448,192,97489,128,0,97726:0:0:0:0:
64,192,97489,128,0,97726:0:0:0:0:
192,192,97489,128,0,97726:0:0:0:0:
192,192,97805,1,0,0:0:0:0:
320,192,97805,1,0,0:0:0:0:
64,192,97963,1,0,0:0:0:0:
192,192,97963,1,0,0:0:0:0:
448,192,97963,1,0,0:0:0:0:
320,192,98121,128,0,98200:0:0:0:0:
320,192,98279,128,0,98437:0:0:0:0:
448,192,98279,128,0,98437:0:0:0:0:
192,192,98437,1,0,0:0:0:0:
64,192,98437,1,0,0:0:0:0:
448,192,98515,128,0,98673:0:0:0:0:
192,192,98594,1,0,0:0:0:0:
64,192,98594,1,0,0:0:0:0:
320,192,98752,128,0,98910:0:0:0:0:
448,192,98910,128,0,99147:0:0:0:0:
192,192,98910,128,0,99147:0:0:0:0:
64,192,98910,128,0,99147:0:0:0:0:
320,192,99226,1,0,0:0:0:0:
448,192,99226,1,0,0:0:0:0:
64,192,99226,1,0,0:0:0:0:
192,192,99384,128,0,99542:0:0:0:0:
64,192,99542,1,0,0:0:0:0:
320,192,99542,1,0,0:0:0:0:
192,192,99700,1,0,0:0:0:0:
448,192,99700,128,0,99858:0:0:0:0:
320,192,99858,1,0,0:0:0:0:
192,192,99858,1,0,0:0:0:0:
64,192,99858,1,0,0:0:0:0:
448,192,100015,128,0,100252:0:0:0:0:
320,192,100015,128,0,100252:0:0:0:0:
64,192,100015,128,0,100252:0:0:0:0:
192,192,100331,1,0,0:0:0:0:
320,192,100331,1,0,0:0:0:0:
64,192,100489,128,0,100805:0:0:0:0:
448,192,100489,128,0,100647:0:0:0:0:
192,192,100489,1,0,0:0:0:0:
320,192,100805,128,0,101121:0:0:0:0:
192,192,100805,128,0,100963:0:0:0:0:
448,192,100963,1,0,0:0:0:0:
64,192,100963,1,0,0:0:0:0:
448,192,101121,128,0,101437:0:0:0:0:
64,192,101121,1,0,0:0:0:0:
192,192,101121,128,0,101279:0:0:0:0:
320,192,101437,1,0,0:0:0:0:
64,192,101437,1,0,0:0:0:0:
192,192,101437,1,0,0:0:0:0:
192,192,101752,1,0,0:0:0:0:
64,192,101752,1,0,0:0:0:0:
448,192,101752,1,0,0:0:0:0:
320,192,101831,1,0,0:0:0:0:
192,192,101910,1,0,0:0:0:0:
64,192,101989,1,0,0:0:0:0:
448,192,102068,1,0,0:0:0:0:
320,192,102068,1,0,0:0:0:0:
192,192,102147,1,0,0:0:0:0:
64,192,102226,1,0,0:0:0:0:
448,192,102226,1,0,0:0:0:0:
320,192,102305,1,0,0:0:0:0:
64,192,102384,1,0,0:0:0:0:
448,192,102384,1,0,0:0:0:0:
192,192,102384,1,0,0:0:0:0:
320,192,102463,1,0,0:0:0:0:
192,192,102542,1,0,0:0:0:0:
64,192,102621,1,0,0:0:0:0:
448,192,102700,128,0,103015:0:0:0:0:
192,192,102700,1,0,0:0:0:0:
320,192,102700,128,0,102858:0:0:0:0:
64,192,103015,128,0,103331:0:0:0:0:
320,192,103015,1,0,0:0:0:0:
192,192,103015,128,0,103173:0:0:0:0:
448,192,103226,1,0,0:0:0:0:
320,192,103331,1,0,0:0:0:0:
192,192,103331,1,0,0:0:0:0:
64,192,103437,1,0,0:0:0:0:
192,192,103489,1,0,0:0:0:0:
320,192,103489,1,0,0:0:0:0:
448,192,103542,1,0,0:0:0:0:
192,192,103647,1,0,0:0:0:0:
64,192,103647,1,0,0:0:0:0:
320,192,103752,1,0,0:0:0:0:
192,192,103805,1,0,0:0:0:0:
64,192,103805,1,0,0:0:0:0:
448,192,103858,1,0,0:0:0:0:
192,192,103963,1,0,0:0:0:0:
64,192,103963,1,0,0:0:0:0:
320,192,103963,1,0,0:0:0:0:
64,192,104121,1,0,0:0:0:0:
448,192,104121,1,0,0:0:0:0:
64,192,104279,1,0,0:0:0:0:
192,192,104279,1,0,0:0:0:0:
448,192,104437,1,0,0:0:0:0:
320,192,104437,1,0,0:0:0:0:
192,192,104437,1,0,0:0:0:0:
64,192,104594,1,0,0:0:0:0:
448,192,104594,1,0,0:0:0:0:
448,192,104752,1,0,0:0:0:0:
192,192,104752,1,0,0:0:0:0:
64,192,104910,1,0,0:0:0:0:
320,192,104910,1,0,0:0:0:0:
192,192,104910,1,0,0:0:0:0:
448,192,105068,1,0,0:0:0:0:
64,192,105068,1,0,0:0:0:0:
192,192,105226,1,0,0:0:0:0:
320,192,105226,1,0,0:0:0:0:
448,192,105226,1,0,0:0:0:0:
64,192,105384,1,0,0:0:0:0:
320,192,105384,1,0,0:0:0:0:
192,192,105542,1,0,0:0:0:0:
320,192,105542,1,0,0:0:0:0:
448,192,105700,1,0,0:0:0:0:
192,192,105700,1,0,0:0:0:0:
64,192,105700,1,0,0:0:0:0:
64,192,105858,1,0,0:0:0:0:
320,192,105858,1,0,0:0:0:0:
64,192,106015,1,0,0:0:0:0:
448,192,106015,1,0,0:0:0:0:
192,192,106173,1,0,0:0:0:0:
320,192,106173,1,0,0:0:0:0:
448,192,106173,1,0,0:0:0:0:
320,192,106331,1,0,0:0:0:0:
64,192,106331,1,0,0:0:0:0:
192,192,106489,1,0,0:0:0:0:
64,192,106489,1,0,0:0:0:0:
448,192,106489,1,0,0:0:0:0:
320,192,106647,1,0,0:0:0:0:
192,192,106647,1,0,0:0:0:0:
64,192,106805,1,0,0:0:0:0:
192,192,106805,1,0,0:0:0:0:
320,192,106963,1,0,0:0:0:0:
448,192,106963,1,0,0:0:0:0:
64,192,107121,1,0,0:0:0:0:
448,192,107121,1,0,0:0:0:0:
192,192,107121,1,0,0:0:0:0:
64,192,107279,1,0,0:0:0:0:
320,192,107279,1,0,0:0:0:0:
192,192,107279,1,0,0:0:0:0:
448,192,107437,1,0,0:0:0:0:
320,192,107437,1,0,0:0:0:0:
192,192,107437,1,0,0:0:0:0:
64,192,107594,1,0,0:0:0:0:
320,192,107594,1,0,0:0:0:0:
448,192,107594,1,0,0:0:0:0:
448,192,107752,1,0,0:0:0:0:
192,192,107752,1,0,0:0:0:0:
64,192,107752,1,0,0:0:0:0:
320,192,107752,1,0,0:0:0:0:
192,192,107910,1,0,0:0:0:0:
320,192,107910,1,0,0:0:0:0:
64,192,107910,1,0,0:0:0:0:
448,192,107910,1,0,0:0:0:0:
320,192,108068,1,0,0:0:0:0:
192,192,108068,1,0,0:0:0:0:
64,192,108068,1,0,0:0:0:0:
448,192,108068,1,0,0:0:0:0:
448,192,108226,1,0,0:0:0:0:
64,192,108226,1,0,0:0:0:0:
320,192,108226,1,0,0:0:0:0:
192,192,108226,1,0,0:0:0:0:
448,192,108384,1,0,0:0:0:0:
64,192,108384,1,0,0:0:0:0:
320,192,108423,1,0,0:0:0:0:
192,192,108463,1,0,0:0:0:0:
64,192,108502,1,0,0:0:0:0:
448,192,108542,1,0,0:0:0:0:
320,192,108581,1,0,0:0:0:0:
192,192,108621,1,0,0:0:0:0:
64,192,108660,1,0,0:0:0:0:
448,192,108700,1,0,0:0:0:0:
320,192,108739,1,0,0:0:0:0:
192,192,108779,1,0,0:0:0:0:
64,192,108818,1,0,0:0:0:0:
448,192,108858,1,0,0:0:0:0:
320,192,108897,1,0,0:0:0:0:
192,192,108937,1,0,0:0:0:0:
64,192,108976,1,0,0:0:0:0:
320,192,109015,1,0,0:0:0:0:
448,192,109015,1,0,0:0:0:0:
448,192,109173,128,0,109331:0:0:0:0:
320,192,109331,1,0,0:0:0:0:
192,192,109331,1,0,0:0:0:0:
64,192,109331,1,0,0:0:0:0:
64,192,109489,1,0,0:0:0:0:
64,192,109647,128,0,109805:0:0:0:0:
192,192,109647,1,0,0:0:0:0:
320,192,109805,1,0,0:0:0:0:
448,192,109805,1,0,0:0:0:0:
192,192,109963,1,0,0:0:0:0:
64,192,109963,1,0,0:0:0:0:
448,192,109963,1,0,0:0:0:0:
448,192,110121,128,0,110279:0:0:0:0:
320,192,110279,1,0,0:0:0:0:
64,192,110279,1,0,0:0:0:0:
320,192,110437,1,0,0:0:0:0:
192,192,110437,1,0,0:0:0:0:
192,192,110594,128,0,110752:0:0:0:0:
64,192,110594,1,0,0:0:0:0:
448,192,110594,1,0,0:0:0:0:
320,192,110752,1,0,0:0:0:0:
448,192,110910,128,0,111068:0:0:0:0:
64,192,110910,1,0,0:0:0:0:
192,192,111068,1,0,0:0:0:0:
320,192,111068,1,0,0:0:0:0:
64,192,111226,128,0,111384:0:0:0:0:
320,192,111226,1,0,0:0:0:0:
448,192,111226,1,0,0:0:0:0:
192,192,111384,1,0,0:0:0:0:
448,192,111542,1,0,0:0:0:0:
320,192,111542,1,0,0:0:0:0:
448,192,111700,128,0,111858:0:0:0:0:
192,192,111858,1,0,0:0:0:0:
64,192,111858,1,0,0:0:0:0:
320,192,111858,1,0,0:0:0:0:
64,192,112015,1,0,0:0:0:0:
64,192,112173,128,0,112331:0:0:0:0:
320,192,112173,1,0,0:0:0:0:
192,192,112331,1,0,0:0:0:0:
448,192,112331,1,0,0:0:0:0:
64,192,112489,1,0,0:0:0:0:
448,192,112489,1,0,0:0:0:0:
320,192,112489,1,0,0:0:0:0:
320,192,112647,128,0,112805:0:0:0:0:
192,192,112805,1,0,0:0:0:0:
64,192,112805,1,0,0:0:0:0:
320,192,112963,1,0,0:0:0:0:
448,192,112963,128,0,113121:0:0:0:0:
192,192,113121,1,0,0:0:0:0:
64,192,113121,128,0,113279:0:0:0:0:
320,192,113279,1,0,0:0:0:0:
192,192,113437,1,0,0:0:0:0:
448,192,113437,128,0,113594:0:0:0:0:
320,192,113594,1,0,0:0:0:0:
64,192,113594,1,0,0:0:0:0:
192,192,113752,128,0,113910:0:0:0:0:
448,192,113752,1,0,0:0:0:0:
64,192,113752,1,0,0:0:0:0:
320,192,113910,1,0,0:0:0:0:
448,192,114068,1,0,0:0:0:0:
192,192,114068,1,0,0:0:0:0:
64,192,114068,1,0,0:0:0:0:
448,192,114226,128,0,114384:0:0:0:0:
320,192,114384,1,0,0:0:0:0:
192,192,114384,1,0,0:0:0:0:
64,192,114542,1,0,0:0:0:0:
64,192,114700,128,0,114858:0:0:0:0:
320,192,114700,1,0,0:0:0:0:
192,192,114858,1,0,0:0:0:0:
448,192,114858,1,0,0:0:0:0:
320,192,115015,1,0,0:0:0:0:
448,192,115015,1,0,0:0:0:0:
64,192,115015,1,0,0:0:0:0:
320,192,115173,128,0,115331:0:0:0:0:
64,192,115331,1,0,0:0:0:0:
448,192,115331,1,0,0:0:0:0:
192,192,115489,1,0,0:0:0:0:
192,192,115647,128,0,115805:0:0:0:0:
320,192,115647,1,0,0:0:0:0:
448,192,115647,1,0,0:0:0:0:
64,192,115805,1,0,0:0:0:0:
448,192,115805,1,0,0:0:0:0:
192,192,115963,1,0,0:0:0:0:
64,192,115963,1,0,0:0:0:0:
320,192,116042,1,0,0:0:0:0:
448,192,116042,1,0,0:0:0:0:
192,192,116121,1,0,0:0:0:0:
64,192,116121,1,0,0:0:0:0:
320,192,116200,1,0,0:0:0:0:
448,192,116200,1,0,0:0:0:0:
192,192,116279,1,0,0:0:0:0:
64,192,116279,1,0,0:0:0:0:
192,192,116437,1,0,0:0:0:0:
320,192,116437,1,0,0:0:0:0:
448,192,116594,1,0,0:0:0:0:
320,192,116594,1,0,0:0:0:0:
64,192,116594,1,0,0:0:0:0:
192,192,116752,1,0,0:0:0:0:
448,192,116752,1,0,0:0:0:0:
320,192,116910,1,0,0:0:0:0:
448,192,116910,1,0,0:0:0:0:
192,192,117068,1,0,0:0:0:0:
64,192,117068,1,0,0:0:0:0:
320,192,117068,1,0,0:0:0:0:
448,192,117226,1,0,0:0:0:0:
64,192,117226,1,0,0:0:0:0:
64,192,117384,1,0,0:0:0:0:
192,192,117384,1,0,0:0:0:0:
320,192,117542,1,0,0:0:0:0:
448,192,117542,1,0,0:0:0:0:
192,192,117542,1,0,0:0:0:0:
320,192,117700,1,0,0:0:0:0:
64,192,117700,1,0,0:0:0:0:
320,192,117858,1,0,0:0:0:0:
192,192,117858,1,0,0:0:0:0:
448,192,118015,1,0,0:0:0:0:
192,192,118015,1,0,0:0:0:0:
64,192,118015,1,0,0:0:0:0:
448,192,118173,1,0,0:0:0:0:
320,192,118173,1,0,0:0:0:0:
448,192,118331,1,0,0:0:0:0:
192,192,118331,1,0,0:0:0:0:
64,192,118489,1,0,0:0:0:0:
192,192,118489,1,0,0:0:0:0:
320,192,118489,1,0,0:0:0:0:
64,192,118647,1,0,0:0:0:0:
448,192,118647,1,0,0:0:0:0:
320,192,118647,1,0,0:0:0:0:
192,192,118805,1,0,0:0:0:0:
64,192,118805,1,0,0:0:0:0:
448,192,118805,1,0,0:0:0:0:
64,192,118963,1,0,0:0:0:0:
448,192,118963,1,0,0:0:0:0:
192,192,118963,1,0,0:0:0:0:
