osu file format v14

[General]
AudioFilename: audio.mp3
AudioLeadIn: 0
PreviewTime: 165160
Countdown: 0
SampleSet: Soft
StackLeniency: 0.7
Mode: 2
LetterboxInBreaks: 0
WidescreenStoryboard: 0

[Editor]
Bookmarks: 397,20607,40818,65133,86291,119133,140607,164923,188607,208818,233133,254291,287133,297081,304818
DistanceSpacing: 1.4
BeatDivisor: 4
GridSize: 32
TimelineZoom: 2.800005

[Metadata]
Title:brave climber
TitleUnicode:brave climber
Artist:Minase Inori
ArtistUnicode:水瀬いのり
Creator:-Joakh
Version:Greaper & Joakh's Bravery
Source:
Tags:female vocalist jpop j-pop japanese pop jrock j-rock rock Catch the Rainbow! Greaper
BeatmapID:2620851
BeatmapSetID:1254679

[Difficulty]
HPDrainRate:6
CircleSize:4
OverallDifficulty:9.4
ApproachRate:9.4
SliderMultiplier:1.9
SliderTickRate:2

[Events]
//Background and Video events
0,0,"background.jpg",0,0
//Break Periods
//Storyboard Layer 0 (Background)
//Storyboard Layer 1 (Fail)
//Storyboard Layer 2 (Pass)
//Storyboard Layer 3 (Foreground)
//Storyboard Layer 4 (Overlay)
//Storyboard Sound Samples

[TimingPoints]
402,315.789473684211,4,2,11,45,1,0
1665,314.13612565445,4,2,11,45,1,0
2293,303.030303030303,4,2,11,45,1,0
2928,315.789473684211,4,2,11,45,1,0
4349,322.58064516129,4,2,11,45,1,0
4664,315.789473684211,4,2,11,45,1,0
5454,315.789473684211,4,2,11,45,1,0
6866,315.789473684211,4,2,11,45,1,0
7348,310.880829015544,4,2,11,45,1,0
7969,315.789473684211,4,2,11,45,1,0
10174,315.789473684211,4,2,11,45,1,0
10490,315.789473684211,4,2,11,50,1,0
10490,-90.9090909090909,4,2,11,50,0,0
28016,-90.9090909090909,4,2,12,50,0,0
28174,-90.9090909090909,4,2,11,50,0,0
29595,-90.9090909090909,4,2,12,50,0,0
29911,-90.9090909090909,4,2,11,50,0,0
40332,-90.9090909090909,4,2,12,50,0,0
40490,-90.9090909090909,4,2,13,50,0,0
40806,-100,4,2,11,65,0,0
42700,-100,4,2,12,65,0,0
43016,-100,4,2,13,65,0,0
43332,-100,4,2,11,65,0,0
45858,-90.9090909090909,4,2,11,65,0,0
47753,-90.9090909090909,4,2,12,65,0,0
48069,-90.9090909090909,4,2,13,65,0,0
48227,-90.9090909090909,4,2,14,65,0,0
48385,-90.9090909090909,4,2,11,65,0,0
53437,-83.3333333333333,4,2,11,75,0,0
53911,-83.3333333333333,4,2,12,75,0,0
54542,-90.9090909090909,4,2,12,65,0,0
54700,-90.9090909090909,4,2,11,65,0,0
61648,-90.9090909090909,4,2,11,53,0,0
61963,-90.9090909090909,4,2,11,55,0,0
62279,-90.9090909090909,4,2,11,57,0,0
62595,-90.9090909090909,4,2,11,60,0,0
62911,-90.9090909090909,4,2,11,62,0,0
63227,-90.9090909090909,4,2,11,65,0,0
63542,-90.9090909090909,4,2,11,75,0,0
65753,-90.9090909090909,4,2,12,75,0,0
66068,-83.3333333333333,4,2,11,80,0,1
85647,-83.3333333333333,4,2,11,70,0,0
86279,-83.3333333333333,4,2,11,80,0,1
109016,-90.9090909090909,4,2,11,60,0,0
119121,-100,4,2,11,60,0,0
129858,-83.3333333333333,4,2,11,60,0,0
130806,-90.9090909090909,4,2,11,60,0,0
140595,-100,4,2,11,60,0,0
144385,-100,4,2,12,60,0,0
144858,-100,4,2,13,60,0,0
145332,-100,4,2,14,60,0,0
145648,-100,4,2,11,60,0,0
148490,-100,4,2,12,60,0,0
148648,-100,4,2,11,60,0,0
149595,-100,4,2,12,60,0,0
149911,-100,4,2,13,60,0,0
150227,-100,4,2,14,60,0,0
150385,-100,4,2,15,60,0,0
150700,-90.9090909090909,4,2,11,60,0,0
153700,-90.9090909090909,4,2,12,60,0,0
154648,-90.9090909090909,4,2,11,60,0,0
161437,-90.9090909090909,4,2,11,50,0,0
161753,-90.9090909090909,4,2,11,52,0,0
162069,-90.9090909090909,4,2,11,55,0,0
162385,-90.9090909090909,4,2,11,52,0,0
162700,-90.9090909090909,4,2,11,55,0,0
163016,-90.9090909090909,4,2,11,58,0,0
163174,-90.9090909090909,4,2,11,60,0,0
164595,-90.9090909090909,4,2,11,70,0,0
165227,-90.9090909090909,4,2,11,65,0,0
165858,-83.3333333333333,4,2,11,80,0,1
188595,-100,4,2,11,65,0,0
198227,-100,4,2,13,60,0,0
198385,-100,4,2,12,60,0,0
198542,-100,4,2,13,60,0,0
198700,-100,4,2,12,60,0,0
198858,-100,4,2,13,60,0,0
199016,-90.9090909090909,4,2,11,65,0,0
208806,-100,4,2,11,50,0,0
218911,-90.9090909090909,4,2,11,60,0,0
225227,-90.9090909090909,4,2,11,50,0,0
225542,-90.9090909090909,4,2,11,52,0,0
225858,-90.9090909090909,4,2,11,55,0,0
226174,-90.9090909090909,4,2,11,60,0,0
226490,-83.3333333333333,4,2,11,65,0,0
229016,-66.6666666666667,4,2,11,60,0,0
230279,-90.9090909090909,4,2,11,60,0,0
232648,-66.6666666666667,4,2,11,60,0,0
232963,-90.9090909090909,4,2,11,60,0,0
236595,-83.3333333333333,4,2,11,80,0,1
253647,-83.3333333333333,4,2,11,70,0,0
254595,-83.3333333333333,4,2,11,80,0,1
271648,-83.3333333333333,4,2,12,80,0,1
271806,-83.3333333333333,4,2,13,80,0,1
271963,-83.3333333333333,4,2,11,80,0,1
287121,-100,4,2,11,70,0,0
292174,-90.9090909090909,4,2,11,70,0,0
294227,-90.9090909090909,4,2,12,70,0,0
294385,-90.9090909090909,4,2,13,70,0,0
294542,-90.9090909090909,4,2,14,70,0,0
294700,-90.9090909090909,4,2,11,70,0,0
297069,-90.9090909090909,4,2,11,80,0,0
297858,-90.9090909090909,4,2,11,70,0,0
298490,-90.9090909090909,4,2,11,60,0,0
299121,-90.9090909090909,4,2,11,50,0,0
299753,-90.9090909090909,4,2,11,45,0,0
300385,-90.9090909090909,4,2,11,40,0,0
301016,-90.9090909090909,4,2,11,35,0,0
301648,-90.9090909090909,4,2,11,30,0,0
302279,-90.9090909090909,4,2,11,25,0,0
302911,-90.9090909090909,4,2,11,20,0,0
303542,-90.9090909090909,4,2,11,15,0,0
304174,-90.9090909090909,4,2,11,10,0,0
304806,-90.9090909090909,4,2,11,5,0,0

[Colours]
Combo1 : 251,132,135
Combo2 : 17,170,244
Combo3 : 247,224,147
Combo4 : 156,100,75

[HitObjects]
157,287,402,6,0,L|159:169,1,95,2|0,0:0|0:0,0:0:0:0:
298,189,717,1,0,0:0:0:0:
175,152,875,2,0,L|287:150,1,95,2|0,0:0|0:0,0:0:0:0:
397,140,1191,1,0,0:0:0:0:
273,122,1349,2,0,L|177:123,1,95,2|0,0:0|0:0,0:0:0:0:
40,123,1665,5,0,0:0:0:0:
178,141,1822,2,0,L|181:267,1,95,2|0,0:0|0:0,0:0:0:0:
49,246,2136,1,0,0:0:0:0:
223,249,2293,1,2,0:0:0:0:
351,246,2444,1,0,0:0:0:0:
223,249,2596,1,2,0:0:0:0:
351,246,2747,1,0,0:0:0:0:
105,171,2928,5,2,0:0:0:0:
229,168,3085,1,0,0:0:0:0:
352,164,3243,1,0,0:0:0:0:
199,107,3401,2,0,L|102:107,2,95,2|0|0,0:0|0:0|0:0,0:0:0:0:
342,54,3875,2,0,L|342:172,1,95,2|0,0:0|0:0,0:0:0:0:
211,149,4191,5,0,0:0:0:0:
351,162,4349,2,0,L|224:164,1,95,2|0,0:0|0:0,0:0:0:0:
125,164,4665,1,0,0:0:0:0:
277,227,4821,1,2,0:0:0:0:
404,226,4979,1,0,0:0:0:0:
277,227,5137,1,2,0:0:0:0:
154,223,5295,1,0,0:0:0:0:
417,289,5453,6,0,L|419:173,1,95,2|0,0:0|0:0,0:0:0:0:
270,185,5769,1,0,0:0:0:0:
415,157,5927,2,0,L|318:155,1,95,2|0,0:0|0:0,0:0:0:0:
159,160,6243,1,0,0:0:0:0:
297,161,6401,2,0,L|301:274,1,95,2|0,0:0|0:0,0:0:0:0:
438,282,6717,5,0,0:0:0:0:
319,241,6866,2,0,L|438:240,2,95,2|0|0,0:0|0:0|0:0,0:0:0:0:
167,238,7349,1,2,0:0:0:0:
40,237,7503,1,0,0:0:0:0:
40,237,7658,1,2,0:0:0:0:
167,238,7814,1,0,0:0:0:0:
450,236,7969,6,0,L|465:112,1,95,2|0,0:0|0:0,0:0:0:0:
342,130,8284,1,0,0:0:0:0:
216,104,8442,2,0,L|327:100,1,95,2|0,0:0|0:0,0:0:0:0:
428,98,8758,1,0,0:0:0:0:
280,152,8916,2,0,L|284:257,1,95,2|0,0:0|0:0,0:0:0:0:
416,195,9232,5,0,0:0:0:0:
259,199,9390,2,0,L|158:197,1,95,2|0,0:0|0:0,0:0:0:0:
33,174,9705,2,0,L|101:146,1,47.5,8|8,0:3|0:3,0:0:0:0:
308,109,9863,2,0,P|369:130|349:191,1,142.5,8|0,0:0|0:0,0:0:0:0:
300,202,10174,1,8,0:0:0:0:
159,203,10252,2,0,L|107:203,2,47.5,8|8|8,0:0|0:0|0:0,0:0:0:0:
378,162,10490,6,0,L|387:272,1,104.500003189087,4|0,0:0|0:0,0:0:0:0:
264,271,10806,1,8,0:0:0:0:
106,214,10963,2,0,L|221:210,2,104.500003189087,0|8|8,0:0|0:3|0:3,0:0:0:0:
345,218,11437,2,0,L|354:98,1,104.500003189087,8|0,0:0|0:0,0:0:0:0:
233,106,11753,5,8,0:3:0:0:
88,165,11911,2,0,L|199:166,1,104.500003189087,8|8,0:3|0:0,0:0:0:0:
318,166,12227,1,0,0:0:0:0:
68,220,12385,2,0,L|62:330,1,104.500003189087,8|8,0:3|0:3,0:0:0:0:
278,322,12700,2,0,L|146:320,1,104.500003189087,8|8,0:0|0:3,0:0:0:0:
391,174,13016,5,8,0:3:0:0:
263,174,13174,1,0,0:0:0:0:
135,174,13332,1,8,0:0:0:0:
301,239,13490,2,0,L|414:235,2,104.500003189087,0|8|8,0:0|0:3|0:3,0:0:0:0:
157,234,13963,2,0,L|165:348,1,104.500003189087,8|0,0:0|0:0,0:0:0:0:
295,332,14279,1,8,0:3:0:0:
75,241,14437,6,0,L|182:238,1,104.500003189087,8|8,0:3|0:0,0:0:0:0:
316,226,14753,1,0,0:0:0:0:
196,232,14911,2,0,L|179:111,1,104.500003189087,8|8,0:3|0:3,0:0:0:0:
251,125,15148,1,8,0:3:0:0:
465,109,15227,2,0,L|347:109,1,104.500003189087,4|0,0:0|0:0,0:0:0:0:
85,160,15542,6,0,P|24:226|106:263,1,209.000006378174,4|8,0:0|0:0,0:0:0:0:
225,241,16016,1,0,0:0:0:0:
449,196,16174,2,0,L|324:190,1,104.500003189087,8|8,0:3|0:3,0:0:0:0:
196,168,16490,1,8,0:0:0:0:
312,150,16648,2,0,L|184:147,1,104.500003189087,0|8,0:0|0:3,0:0:0:0:
111,260,16963,6,0,L|235:256,2,104.500003189087,8|8|0,0:3|0:0|0:0,0:0:0:0:
340,164,17437,2,0,L|209:163,1,104.500003189087,8|8,0:3|0:3,0:0:0:0:
455,235,17753,2,0,L|350:230,1,104.500003189087,8|8,0:0|0:3,0:0:0:0:
127,180,18069,5,12,0:0:0:0:
263,173,18227,1,8,0:3:0:0:
385,172,18385,1,8,0:3:0:0:
101,255,18542,2,0,L|227:248,2,104.500003189087,12|8|8,0:0|0:3|0:3,0:0:0:0:
372,151,19016,1,12,0:0:0:0:
248,145,19174,1,8,0:3:0:0:
112,148,19332,1,8,0:3:0:0:
347,266,19490,5,12,0:0:0:0:
225,267,19648,2,0,L|225:146,1,104.500003189087,8|8,0:3|0:3,0:0:0:0:
461,144,19963,2,0,L|328:143,1,104.500003189087,12|8,0:0|0:0,0:0:0:0:
139,142,20279,1,8,0:0:0:0:
356,143,20437,1,8,0:0:0:0:
71,84,20595,6,0,P|22:131|83:237,1,209.000006378174,4|8,0:0|0:3,0:0:0:0:
243,247,21069,2,0,L|352:239,2,104.500003189087,0|8|0,0:0|0:3|0:0,0:0:0:0:
21,238,21542,6,0,P|45:320|167:356,1,209.000006378174,8|8,0:3|0:3,0:0:0:0:
318,331,22016,2,0,L|322:217,1,104.500003189087,0|8,0:0|0:3,0:0:0:0:
210,219,22332,1,0,0:0:0:0:
461,189,22490,2,0,P|467:133|352:48,1,209.000006378174,8|8,0:3|0:3,0:0:0:0:
221,53,22963,1,4,0:3:0:0:
489,96,23121,6,0,L|495:219,1,104.500003189087,8|0,0:3|0:0,0:0:0:0:
331,203,23437,2,0,L|222:211,2,104.500003189087,8|0|8,0:3|0:0|0:3,0:0:0:0:
487,193,23911,1,0,0:0:0:0:
257,236,24069,6,0,L|136:232,1,104.500003189087
383,241,24385,2,0,L|500:248,1,104.500003189087
363,295,24700,1,8,0:3:0:0:
204,238,24858,2,0,L|191:130,1,104.500003189087,4|8,0:3|0:3,0:0:0:0:
350,156,25174,2,0,L|357:37,1,104.500003189087,4|8,0:3|0:3,0:0:0:0:
87,51,25490,2,0,L|35:47,1,52.2500015945435,8|8,0:0|0:0,0:0:0:0:
273,107,25648,6,0,L|486:87,1,209.000006378174,4|8,0:0|0:3,0:0:0:0:
322,153,26121,2,0,L|316:264,1,104.500003189087,0|8,0:0|0:3,0:0:0:0:
155,260,26437,2,0,L|146:373,1,104.500003189087,0|8,0:0|0:3,0:0:0:0:
397,354,26753,2,0,L|454:357,1,52.2500015945435,8|8,0:0|0:0,0:0:0:0:
211,203,26911,6,0,L|92:196,2,104.500003189087,8|0|8,0:3|0:0|0:3,0:0:0:0:
364,186,27385,1,4,0:3:0:0:
206,169,27542,1,8,0:3:0:0:
362,135,27700,2,0,L|476:133,2,104.500003189087,4|8|8,0:3|0:3|0:3,0:0:0:0:
309,143,28095,1,8,0:3:0:0:
99,145,28174,6,0,L|85:29,1,104.500003189087,4|0,0:0|0:0,0:0:0:0:
246,35,28490,1,8,0:3:0:0:
16,16,28648,2,0,L|19:129,1,104.500003189087,0|8,0:0|0:3,0:0:0:0:
180,129,28963,2,0,L|292:135,1,104.500003189087,0|8,0:0|0:3,0:0:0:0:
37,197,29279,2,0,L|88:204,1,52.2500015945435,8|8,0:0|0:0,0:0:0:0:
329,207,29437,6,0,L|447:218,1,104.500003189087,8|8,0:3|0:3,0:0:0:0:
378,265,29674,1,8,0:3:0:0:
137,245,29753,2,0,L|128:354,1,104.500003189087,8|8,0:3|0:3,0:0:0:0:
385,339,30069,2,0,L|496:347,1,104.500003189087,8|0,0:0|0:0,0:0:0:0:
247,283,30306,2,0,L|115:268,1,104.500003189087,8|0,0:0|0:0,0:0:0:0:
354,210,30542,1,8,0:0:0:0:
89,104,30700,6,0,P|19:160|93:244,1,209.000006378174,4|8,0:0|0:0,0:0:0:0:
181,248,31174,1,0,0:0:0:0:
24,263,31332,2,0,L|19:368,1,104.500003189087,8|8,0:3|0:3,0:0:0:0:
256,349,31648,2,0,L|367:356,1,104.500003189087,0|8,0:0|0:0,0:0:0:0:
99,311,31963,5,0,0:0:0:0:
223,291,32121,2,0,L|229:183,1,104.500003189087,8|8,0:3|0:0,0:0:0:0:
75,174,32437,1,0,0:0:0:0:
319,145,32595,2,0,L|439:135,1,104.500003189087,8|8,0:3|0:3,0:0:0:0:
179,105,32911,2,0,L|64:96,1,104.500003189087,8|0,0:0|0:0,0:0:0:0:
68,51,33121,1,0,0:0:0:0:
105,37,33174,1,0,0:0:0:0:
298,37,33227,6,0,P|352:69|286:181,1,209.000006378174,4|8,0:0|0:0,0:0:0:0:
146,185,33700,2,0,L|26:196,1,104.500003189087,0|8,0:0|0:3,0:0:0:0:
201,225,34016,2,0,L|211:343,1,104.500003189087,8|0,0:3|0:0,0:0:0:0:
63,329,34332,1,8,0:0:0:0:
318,338,34490,6,0,L|436:343,2,104.500003189087,0|8|8,0:0|0:3|0:0,0:0:0:0:
155,327,34963,1,0,0:0:0:0:
316,270,35121,2,0,L|427:270,1,104.500003189087,8|8,0:3|0:3,0:0:0:0:
159,231,35437,2,0,L|101:224,1,52.2500015945435,8|8,0:0|0:0,0:0:0:0:
346,175,35595,2,0,L|290:168,1,52.2500015945435,8|8,0:0|0:0,0:0:0:0:
28,189,35753,6,0,P|27:116|149:40,1,209.000006378174,4|8,0:0|0:0,0:0:0:0:
288,32,36227,2,0,L|296:152,1,104.500003189087,0|8,0:0|0:3,0:0:0:0:
145,138,36542,2,0,L|136:243,1,104.500003189087,8|0,0:3|0:0,0:0:0:0:
379,254,36858,1,8,0:0:0:0:
121,286,37016,6,0,L|15:293,1,104.500003189087,0|8,0:0|0:3,0:0:0:0:
173,257,37332,2,0,L|180:150,1,104.500003189087,8|0,0:0|0:0,0:0:0:0:
27,193,37648,2,0,L|18:71,1,104.500003189087,8|8,0:3|0:3,0:0:0:0:
282,77,37963,2,0,L|419:68,1,104.500003189087,8|0,0:0|0:0,0:0:0:0:
393,119,38200,1,0,0:0:0:0:
206,137,38279,6,0,P|143:188|216:277,1,209.000006378174,4|8,0:0|0:0,0:0:0:0:
363,285,38753,2,0,L|469:295,2,104.500003189087,0|8|8,0:0|0:3|0:3,0:0:0:0:
215,277,39227,1,0,0:0:0:0:
457,243,39385,6,0,L|467:133,1,104.500003189087,8|0,0:0|0:0,0:0:0:0:
309,142,39700,1,8,0:3:0:0:
16,80,39858,2,0,L|142:71,1,104.500003189087,12|8,0:0|0:3,0:0:0:0:
366,63,40174,1,8,0:0:0:0:
127,76,40332,1,8,0:3:0:0:
270,104,40490,1,8,0:3:0:0:
127,132,40648,1,8,0:3:0:0:
422,156,40806,6,0,P|484:217|414:269,1,190,4|8,0:0|0:0,0:0:0:0:
292,262,41279,1,0,0:0:0:0:
155,220,41437,2,0,L|249:215,2,95,8|8|8,0:3|0:0|0:3,0:0:0:0:
383,201,41911,2,0,L|395:95,1,95,4|8,0:0|0:3,0:0:0:0:
269,104,42227,1,0,0:0:0:0:
104,106,42385,6,0,L|92:241,1,95,8|0,0:3|0:0,0:0:0:0:
239,198,42700,2,0,L|247:292,1,95,8|8,0:3|0:3,0:0:0:0:
399,250,43016,2,0,L|392:357,1,95,8|8,0:3|0:3,0:0:0:0:
328,342,43253,1,0,0:0:0:0:
153,320,43332,6,0,P|222:300|293:294,1,142.5,4|0,0:0|0:0,0:0:0:0:
222,254,43648,2,0,L|92:237,1,95,8|0,0:3|0:0,0:0:0:0:
369,168,43963,1,8,0:3:0:0:
238,170,44121,1,8,0:3:0:0:
307,170,44200,1,0,0:0:0:0:
382,211,44279,2,0,L|401:334,1,95,0|4,0:0|0:0,0:0:0:0:
147,256,44595,6,0,L|240:241,2,95,8|8|8,0:3|0:0|0:3,0:0:0:0:
382,141,45069,1,8,0:0:0:0:
252,133,45227,1,8,0:3:0:0:
121,136,45385,1,8,0:3:0:0:
278,225,45542,1,8,0:3:0:0:
141,227,45700,1,8,0:3:0:0:
378,284,45858,6,0,P|300:275|221:276,1,156.750004783631,4|0,0:0|0:0,0:0:0:0:
294,251,46174,2,0,L|437:219,1,104.500003189087,8|0,0:3|0:0,0:0:0:0:
143,164,46490,1,8,0:3:0:0:
274,160,46648,1,8,0:0:0:0:
141,170,46806,1,8,0:3:0:0:
377,254,46963,5,12,0:0:0:0:
246,251,47121,2,0,L|250:141,1,104.500003189087,8|0,0:3|0:0,0:0:0:0:
383,152,47437,2,0,L|227:131,1,156.750004783631,8|0,0:3|0:0,0:0:0:0:
159,95,47753,2,0,L|276:75,1,104.500003189087,8|8,0:3|0:3,0:0:0:0:
400,75,48069,1,8,0:3:0:0:
235,99,48227,2,0,L|286:90,1,52.2500015945435,8|8,0:3|0:3,0:0:0:0:
474,230,48385,6,0,P|372:212|267:209,1,209.000006378174,4|8,0:0|0:3,0:0:0:0:
146,217,48858,1,0,0:0:0:0:
400,309,49016,2,0,L|405:178,1,104.500003189087,8|8,0:3|0:0,0:0:0:0:
275,190,49332,1,8,0:3:0:0:
60,195,49490,6,0,L|177:180,1,104.500003189087,12|8,0:0|0:3,0:0:0:0:
310,162,49806,1,0,0:0:0:0:
171,163,49963,1,8,0:3:0:0:
400,249,50121,2,0,L|407:187,1,52.2500015945435,8|8,0:3|0:3,0:0:0:0:
342,188,50279,1,8,0:3:0:0:
215,198,50437,1,8,0:3:0:0:
346,199,50595,1,8,0:3:0:0:
215,198,50753,1,8,0:3:0:0:
453,288,50911,6,0,P|353:262|249:271,1,209.000006378174,4|4,0:0|0:3,0:0:0:0:
392,206,51385,2,0,P|463:153|388:106,1,209.000006378174
239,114,51858,1,4,0:3:0:0:
385,114,52016,1,8,0:3:0:0:
156,145,52174,6,0,P|83:190|159:251,1,209.000006378174,0|4,0:3|0:3,0:0:0:0:
318,243,52648,2,0,P|214:229|111:242,1,209.000006378174,0|8,0:0|0:3,0:0:0:0:
367,300,53121,2,0,P|418:250|364:194,1,156.750004783631,4|0,0:0|0:0,0:0:0:0:
148,165,53437,6,0,P|250:145|391:137,1,227.999993041992,4|8,0:0|0:0,0:0:0:0:
147,304,53911,2,0,P|87:247|110:169,1,170.999994781494,4|0,0:0|0:0,0:0:0:0:
347,159,54227,2,0,P|263:141|179:155,1,170.999994781494,4|0,0:0|0:0,0:0:0:0:
389,291,54542,2,0,P|459:237|382:193,1,209.000006378174,4|8,0:0|0:3,0:0:0:0:
249,211,55016,1,4,0:0:0:0:
385,194,55174,1,0,0:0:0:0:
91,296,55332,5,8,0:3:0:0:
65,291,55371,1,0,0:0:0:0:
47,273,55411,1,8,0:3:0:0:
40,248,55450,1,0,0:0:0:0:
48,223,55490,1,8,0:3:0:0:
68,207,55529,1,0,0:0:0:0:
94,204,55569,1,8,0:3:0:0:
259,180,55648,1,8,0:0:0:0:
326,147,55727,1,8,0:0:0:0:
259,180,55806,1,8,0:0:0:0:
188,180,55885,1,8,0:0:0:0:
385,313,55963,6,0,P|449:248|372:200,1,209.000006378174,4|8,0:0|0:3,0:0:0:0:
208,212,56437,2,0,L|194:99,1,104.500003189087,0|8,0:0|0:3,0:0:0:0:
323,106,56753,1,0,0:0:0:0:
194,108,56911,1,8,0:3:0:0:
323,106,57069,1,12,0:0:0:0:
94,164,57227,6,0,L|226:166,1,104.500003189087,8|0,0:3|0:0,0:0:0:0:
86,195,57542,2,0,L|83:317,1,104.500003189087,0|8,0:3|0:0,0:0:0:0:
340,200,57858,1,8,0:3:0:0:
200,200,58016,1,8,0:3:0:0:
446,302,58174,2,0,L|455:181,1,104.500003189087,8|0,0:3|0:0,0:0:0:0:
210,213,58490,6,0,P|286:197|364:192,1,156.750004783631,4|0,0:0|0:0,0:0:0:0:
273,149,58806,2,0,L|145:140,1,104.500003189087,8|0,0:3|0:0,0:0:0:0:
40,134,59121,1,8,0:3:0:0:
276,231,59279,2,0,L|413:205,1,104.500003189087,8|8,0:0|0:3,0:0:0:0:
136,159,59595,1,0,0:0:0:0:
261,142,59753,1,8,0:3:0:0:
388,145,59911,1,0,0:0:0:0:
151,252,60069,6,0,L|298:245,1,104.500003189087,8|8,0:3|0:3,0:0:0:0:
374,197,60385,2,0,L|245:199,1,104.500003189087,8|0,0:3|0:0,0:0:0:0:
212,200,60621,1,8,0:3:0:0:
64,200,60700,1,8,0:3:0:0:
192,199,60858,1,8,0:3:0:0:
457,221,61016,6,0,P|449:297|333:340,1,209.000006378174,4|8,0:0|0:3,0:0:0:0:
199,310,61490,1,8,0:3:0:0:
417,268,61648,2,0,L|280:268,1,104.500003189087,8|8,0:0|0:0,0:0:0:0:
171,266,61963,1,8,0:0:0:0:
419,200,62121,1,8,0:0:0:0:
195,187,62279,6,0,L|324:180,1,104.500003189087,8|8,0:0|0:0,0:0:0:0:
38,266,62595,1,8,0:0:0:0:
385,238,62753,2,0,P|405:191|379:146,1,104.500003189087,8|8,0:0|0:0,0:0:0:0:
156,180,63068,1,8,0:0:0:0:
381,148,63226,1,8,0:0:0:0:
156,173,63384,1,8,0:0:0:0:
391,81,63542,6,0,P|287:50|185:67,1,209.000006378174,4|8,0:0|0:0,0:0:0:0:
418,186,64016,1,4,0:0:0:0:
169,190,64174,1,0,0:0:0:0:
420,197,64332,1,0,0:3:0:0:
140,287,64490,2,0,L|123:168,1,104.500003189087,4|8,0:0|0:3,0:0:0:0:
445,147,64806,5,12,0:0:0:0:
200,143,64963,1,8,0:0:0:0:
381,132,65437,2,0,L|383:24,1,104.500003189087,0|8,0:0|0:3,0:0:0:0:
331,21,65674,1,8,0:3:0:0:
137,26,65753,2,0,L|7:17,1,104.500003189087,4|0,0:0|0:0,0:0:0:0:
87,82,65990,1,0,0:0:0:0:
377,111,66069,6,0,L|507:119,1,113.999996520996,4|0,0:0|0:0,0:0:0:0:
207,135,66385,2,0,L|202:259,1,113.999996520996,8|0,0:0|0:0,0:0:0:0:
433,255,66700,1,8,0:3:0:0:
296,261,66858,1,8,0:3:0:0:
433,255,67016,1,8,0:0:0:0:
146,188,67174,6,0,L|31:178,1,113.999996520996,0|8,0:0|0:3,0:0:0:0:
265,135,67490,2,0,L|388:131,2,113.999996520996,0|8|0,0:0|0:0|0:0,0:0:0:0:
106,156,67963,2,0,L|99:37,1,113.999996520996,8|8,0:3|0:3,0:0:0:0:
335,47,68279,1,8,0:0:0:0:
181,50,68437,1,0,0:0:0:0:
457,54,68595,6,0,P|458:106|306:208,1,227.999993041992,8|8,0:3|0:0,0:0:0:0:
223,216,69069,1,0,0:0:0:0:
451,217,69227,2,0,L|463:335,1,113.999996520996,8|8,0:3|0:3,0:0:0:0:
207,337,69542,1,8,0:0:0:0:
494,142,69700,6,0,L|371:136,1,113.999996520996,0|8,0:0|0:3,0:0:0:0:
157,169,70016,2,0,L|149:48,1,113.999996520996,0|8,0:0|0:0,0:0:0:0:
304,56,70332,1,0,0:0:0:0:
143,55,70490,2,0,L|14:50,1,113.999996520996,8|8,0:3|0:3,0:0:0:0:
276,133,70806,2,0,L|410:141,1,113.999996520996,8|0,0:0|0:0,0:0:0:0:
67,189,71121,6,0,P|190:296|273:293,1,227.999993041992,4|8,0:0|0:0,0:0:0:0:
364,218,71595,1,0,0:0:0:0:
194,296,71753,2,0,L|189:174,1,113.999996520996,8|8,0:3|0:3,0:0:0:0:
348,163,72069,1,8,0:0:0:0:
52,154,72227,5,0,0:0:0:0:
179,142,72385,2,0,L|185:25,1,113.999996520996,8|0,0:3|0:0,0:0:0:0:
24,29,72700,2,0,L|142:21,1,113.999996520996,8|0,0:0|0:0,0:0:0:0:
370,23,73016,2,0,L|375:138,1,113.999996520996,8|8,0:3|0:3,0:0:0:0:
122,157,73332,2,0,L|114:277,1,113.999996520996,8|0,0:0|0:0,0:0:0:0:
411,191,73648,6,0,P|458:233|401:313,1,170.999994781494,8|0,0:3|0:0,0:0:0:0:
208,315,73963,2,0,L|75:323,1,113.999996520996,8|0,0:0|0:0,0:0:0:0:
341,258,74279,1,8,0:3:0:0:
198,246,74437,1,8,0:3:0:0:
353,228,74595,2,0,L|361:108,1,113.999996520996,8|0,0:0|0:0,0:0:0:0:
55,197,74911,6,0,L|51:71,1,113.999996520996,8|0,0:3|0:0,0:0:0:0:
194,73,75227,1,8,0:0:0:0:
44,55,75385,1,0,0:0:0:0:
326,69,75542,2,0,L|461:69,1,113.999996520996,4|8,0:0|0:3,0:0:0:0:
149,136,75858,1,8,0:0:0:0:
459,131,76016,2,0,L|398:140,1,56.9999982604981,8|8,0:0|0:0,0:0:0:0:
111,174,76174,6,0,P|40:213|122:295,1,227.999993041992,4|8,0:0|0:0,0:0:0:0:
277,294,76648,2,0,L|405:284,1,113.999996520996,0|8,0:0|0:3,0:0:0:0:
134,216,76963,2,0,L|10:205,1,113.999996520996,8|8,0:3|0:0,0:0:0:0:
423,200,77279,6,0,P|476:163|379:52,1,227.999993041992,4|8,0:0|0:3,0:0:0:0:
171,50,77753,2,0,L|156:173,1,113.999996520996,8|0,0:0|0:0,0:0:0:0:
311,158,78069,2,0,L|318:281,1,113.999996520996,8|8,0:3|0:3,0:0:0:0:
70,194,78385,2,0,L|52:314,1,113.999996520996,8|0,0:0|0:0,0:0:0:0:
347,310,78700,6,0,P|413:275|338:185,1,227.999993041992,4|8,0:0|0:0,0:0:0:0:
105,187,79174,2,0,L|225:174,1,113.999996520996,0|8,0:0|0:3,0:0:0:0:
71,129,79490,2,0,L|63:1,1,113.999996520996,8|8,0:3|0:0,0:0:0:0:
411,36,79806,6,0,L|170:28,1,227.999993041992,4|8,0:0|0:3,0:0:0:0:
329,85,80279,2,0,L|336:203,1,113.999996520996,8|0,0:0|0:0,0:0:0:0:
100,198,80595,1,8,0:3:0:0:
253,193,80753,1,8,0:3:0:0:
22,192,80911,2,0,L|17:316,1,113.999996520996,8|0,0:0|0:0,0:0:0:0:
303,309,81227,6,0,P|412:288|475:178,1,227.999993041992,4|8,0:0|0:0,0:0:0:0:
410,182,81621,1,0,0:0:0:0:
347,173,81700,1,0,0:0:0:0:
284,167,81779,1,0,0:0:0:0:
471,122,81858,6,0,L|468:54,1,56.9999982604981,8|0,0:3|0:0,0:0:0:0:
385,45,82016,2,0,L|323:36,1,56.9999982604981,8|0,0:3|0:0,0:0:0:0:
106,41,82174,1,8,0:0:0:0:
50,60,82253,1,0,0:0:0:0:
43,117,82332,1,0,0:0:0:0:
99,144,82411,1,0,0:0:0:0:
353,203,82490,6,0,L|483:218,1,113.999996520996,8|8,0:3|0:3,0:0:0:0:
229,236,82806,2,0,L|216:356,1,113.999996520996,8|0,0:0|0:0,0:0:0:0:
359,346,83121,1,8,0:3:0:0:
259,342,83227,1,0,0:0:0:0:
160,342,83332,1,0,0:0:0:0:
372,241,83437,2,0,L|452:237,2,75.9999976806641,8|0|0,0:0|0:0|0:0,0:0:0:0:
138,243,83753,6,0,L|128:109,1,113.999996520996,4|0,0:0|0:0,0:0:0:0:
286,125,84069,1,8,0:0:0:0:
41,72,84227,2,0,L|181:58,1,113.999996520996,0|8,0:0|0:3,0:0:0:0:
313,54,84542,1,8,0:3:0:0:
76,127,84700,1,8,0:0:0:0:
379,124,84858,6,0,L|390:243,1,113.999996520996,0|8,0:0|0:3,0:0:0:0:
234,252,85174,1,8,0:3:0:0:
469,238,85332,2,0,L|347:244,1,113.999996520996,4|8,0:0|0:3,0:0:0:0:
61,264,85648,2,0,L|58:196,1,56.9999982604981,8|8,0:3|0:3,0:0:0:0:
264,186,85806,2,0,L|341:183,1,56.9999982604981,8|8,0:0|0:0,0:0:0:0:
93,137,85963,2,0,L|172:127,1,56.9999982604981,8|8,0:3|0:3,0:0:0:0:
385,124,86121,2,0,L|326:117,1,56.9999982604981,8|8,0:0|0:0,0:0:0:0:
39,169,86279,6,0,L|32:53,1,113.999996520996,4|0,0:0|0:0,0:0:0:0:
172,59,86595,1,8,0:0:0:0:
35,57,86753,1,0,0:0:0:0:
371,194,86911,2,0,L|234:193,1,113.999996520996,8|8,0:0|0:3,0:0:0:0:
38,193,87227,1,8,0:0:0:0:
257,193,87385,1,8,0:3:0:0:
42,210,87542,6,0,L|161:206,1,113.999996520996,8|0,0:0|0:0,0:0:0:0:
298,193,87858,2,0,L|411:189,1,113.999996520996,8|8,0:0|0:3,0:0:0:0:
183,118,88174,1,8,0:0:0:0:
316,121,88332,1,8,0:3:0:0:
98,212,88490,1,8,0:0:0:0:
231,215,88648,1,8,0:3:0:0:
295,216,88727,1,8,0:3:0:0:
471,154,88806,6,0,P|358:137|251:147,1,170.999994781494,12|0,0:0|0:0,0:0:0:0:
443,192,89121,2,0,P|483:225|455:268,1,113.999996520996,8|0,0:0|0:0,0:0:0:0:
142,239,89437,2,0,L|272:236,1,113.999996520996,8|8,0:0|0:3,0:0:0:0:
483,233,89753,1,8,0:0:0:0:
228,155,89911,1,8,0:3:0:0:
379,147,90069,6,0,L|384:262,1,113.999996520996,8|0,0:0|0:0,0:0:0:0:
257,282,90385,2,0,L|381:265,1,113.999996520996,8|8,0:0|0:3,0:0:0:0:
131,237,90700,2,0,L|110:117,1,113.999996520996,8|8,0:0|0:3,0:0:0:0:
415,115,91016,1,8,0:0:0:0:
199,118,91174,1,8,0:3:0:0:
265,116,91253,1,8,0:3:0:0:
429,182,91332,6,0,P|488:240|406:281,1,170.999994781494,12|0,0:0|0:0,0:0:0:0:
268,281,91648,2,0,L|138:263,1,113.999996520996,8|0,0:0|0:0,0:0:0:0:
397,257,91963,2,0,L|412:134,1,113.999996520996,8|8,0:0|0:3,0:0:0:0:
182,113,92279,1,8,0:0:0:0:
418,185,92437,6,0,P|304:176|191:191,1,227.999993041992,8|0,0:3|0:0,0:0:0:0:
316,220,92911,2,0,L|330:333,1,113.999996520996,8|8,0:0|0:3,0:0:0:0:
199,344,93227,2,0,L|326:338,1,113.999996520996,8|8,0:0|0:3,0:0:0:0:
88,279,93542,2,0,L|57:134,1,113.999996520996,8|8,0:0|0:3,0:0:0:0:
119,163,93779,1,8,0:3:0:0:
348,139,93858,6,0,P|428:199|355:267,1,227.999993041992,12|8,0:0|0:0,0:0:0:0:
223,266,94332,1,8,0:3:0:0:
458,241,94490,2,0,P|346:218|232:219,1,227.999993041992,8|8,0:0|0:0,0:0:0:0:
103,238,94963,1,8,0:3:0:0:
366,260,95121,2,0,P|381:205|371:151,1,113.999996520996,12|8,0:0|0:3,0:0:0:0:
133,165,95437,2,0,L|4:156,1,113.999996520996,12|8,0:0|0:3,0:0:0:0:
365,197,95753,6,0,L|358:133,1,56.9999982604981,8|8,0:3|0:3,0:0:0:0:
204,241,95911,2,0,L|130:229,1,56.9999982604981,8|8,0:0|0:0,0:0:0:0:
380,202,96069,2,0,L|308:188,1,56.9999982604981,8|8,0:3|0:3,0:0:0:0:
113,189,96227,2,0,L|107:129,1,56.9999982604981,8|8,0:0|0:0,0:0:0:0:
336,77,96385,6,0,L|480:70,2,113.999996520996,4|0|8,0:0|0:0|0:0,0:0:0:0:
119,78,96858,2,0,L|232:74,1,113.999996520996,0|8,0:0|0:3,0:0:0:0:
92,137,97174,2,0,L|90:269,1,113.999996520996,8|8,0:3|0:0,0:0:0:0:
373,263,97490,2,0,P|443:193|359:140,1,227.999993041992,4|8,0:0|0:3,0:0:0:0:
205,155,97963,2,0,L|91:166,1,113.999996520996,8|0,0:0|0:0,0:0:0:0:
243,315,98279,2,0,L|354:291,1,113.999996520996,8|8,0:3|0:3,0:0:0:0:
124,247,98595,6,0,P|203:214|287:202,1,170.999994781494,8|0,0:0|0:0,0:0:0:0:
474,171,98911,2,0,L|358:147,1,113.999996520996,4|0,0:0|0:0,0:0:0:0:
144,111,99227,1,8,0:0:0:0:
362,147,99385,2,0,L|369:262,1,113.999996520996,0|8,0:0|0:3,0:0:0:0:
230,287,99700,1,8,0:3:0:0:
365,173,99858,1,8,0:0:0:0:
117,210,100016,6,0,P|215:191|366:192,1,227.999993041992,4|8,0:0|0:3,0:0:0:0:
124,219,100490,2,0,L|125:339,1,113.999996520996,8|0,0:0|0:0,0:0:0:0:
277,229,100806,2,0,L|278:97,1,113.999996520996,8|8,0:3|0:3,0:0:0:0:
45,109,101121,2,0,L|177:96,1,113.999996520996,8|0,0:0|0:0,0:0:0:0:
382,105,101437,2,0,L|409:232,1,113.999996520996,4|0,0:0|0:0,0:0:0:0:
141,267,101753,5,8,0:0:0:0:
147,211,101832,1,0,0:0:0:0:
182,167,101911,1,0,0:0:0:0:
236,150,101990,1,0,0:0:0:0:
373,151,102069,1,8,0:3:0:0:
434,138,102148,1,0,0:0:0:0:
412,76,102227,1,8,0:3:0:0:
354,74,102306,1,0,0:0:0:0:
185,95,102385,1,8,0:0:0:0:
117,72,102463,1,0,0:0:0:0:
185,95,102542,1,8,0:3:0:0:
258,89,102621,1,0,0:0:0:0:
443,114,102700,6,0,L|445:249,1,113.999996520996,4|0,0:0|0:0,0:0:0:0:
317,316,103016,2,0,L|440:291,1,113.999996520996,8|0,0:0|0:0,0:0:0:0:
185,215,103332,1,8,0:3:0:0:
273,203,103437,1,0,0:0:0:0:
362,199,103542,1,0,0:0:0:0:
103,188,103648,2,0,L|103:93,1,75.9999976806641,8|0,0:0|0:0,0:0:0:0:
179,96,103858,1,0,0:0:0:0:
441,96,103963,6,0,L|296:97,1,113.999996520996,12|8,0:0|0:3,0:0:0:0:
92,87,104279,1,8,0:3:0:0:
327,250,104437,2,0,L|440:251,1,113.999996520996,12|8,0:0|0:3,0:0:0:0:
169,155,104753,1,8,0:3:0:0:
309,153,104911,1,12,0:0:0:0:
71,157,105069,1,8,0:3:0:0:
428,251,105227,6,0,L|430:124,1,113.999996520996,8|8,0:0|0:3,0:0:0:0:
173,106,105542,1,8,0:3:0:0:
325,105,105700,1,12,0:0:0:0:
86,242,105858,1,8,0:3:0:0:
379,234,106016,1,8,0:3:0:0:
137,175,106174,2,0,L|257:173,1,113.999996520996,12|8,0:0|0:3,0:0:0:0:
35,276,106490,6,0,L|174:275,1,113.999996520996,12|8,0:0|0:3,0:0:0:0:
392,133,106806,1,8,0:3:0:0:
156,129,106963,1,8,0:0:0:0:
402,210,107121,2,0,L|408:328,1,113.999996520996,8|8,0:0|0:0,0:0:0:0:
160,249,107437,2,0,L|155:120,1,113.999996520996,8|8,0:0|0:0,0:0:0:0:
464,109,107753,2,0,L|342:108,1,113.999996520996,8|8,0:0|0:0,0:0:0:0:
110,112,108069,1,8,0:0:0:0:
355,169,108227,1,8,0:0:0:0:
78,305,108385,5,8,0:3:0:0:
72,277,108424,1,0,0:0:0:0:
74,249,108463,1,8,0:3:0:0:
86,223,108503,1,0,0:0:0:0:
104,201,108542,1,8,0:0:0:0:
129,187,108582,1,0,0:0:0:0:
156,180,108621,1,8,0:0:0:0:
370,143,108700,2,0,L|287:119,1,56.9999982604981,8|8,0:3|0:3,0:0:0:0:
124,128,108858,2,0,L|177:109,1,56.9999982604981,8|8,0:0|0:0,0:0:0:0:
387,189,109016,6,0,P|461:237|378:288,1,209.000006378174,4|8,0:0|0:0,0:0:0:0:
240,290,109490,1,0,0:0:0:0:
384,274,109648,1,8,0:3:0:0:
130,257,109806,2,0,L|254:244,2,104.500003189087,8|8|0,0:3|0:0|0:0,0:0:0:0:
346,175,110279,1,8,0:3:0:0:
217,189,110437,2,0,L|224:300,1,104.500003189087,8|8,0:3|0:0,0:0:0:0:
443,279,110753,5,0,0:0:0:0:
296,230,110911,2,0,L|412:226,1,104.500003189087,8|8,0:3|0:3,0:0:0:0:
174,179,111227,2,0,L|293:170,1,104.500003189087,8|0,0:0|0:0,0:0:0:0:
51,274,111542,5,8,0:3:0:0:
183,271,111700,1,8,0:3:0:0:
306,272,111858,1,8,0:0:0:0:
84,169,112016,2,0,L|187:157,2,104.500003189087,0|8|8,0:0|0:3|0:3,0:0:0:0:
330,111,112490,2,0,L|448:102,2,104.500003189087,8|0|8,0:0|0:0|0:3,0:0:0:0:
105,131,112963,5,8,0:3:0:0:
234,134,113121,2,0,L|245:256,1,104.500003189087,8|0,0:0|0:0,0:0:0:0:
16,240,113437,2,0,L|141:239,1,104.500003189087,8|8,0:3|0:3,0:0:0:0:
358,237,113753,2,0,L|501:235,1,104.500003189087,4|0,0:0|0:0,0:0:0:0:
181,160,114069,6,0,L|47:151,2,104.500003189087,4|0|8,0:0|0:0|0:0,0:0:0:0:
438,212,114542,2,0,L|438:100,1,104.500003189087,0|8,0:0|0:3,0:0:0:0:
324,109,114858,1,8,0:3:0:0:
104,181,115016,1,8,0:0:0:0:
238,172,115174,1,0,0:0:0:0:
374,174,115332,1,8,0:3:0:0:
74,249,115490,1,8,0:3:0:0:
208,240,115648,1,8,0:0:0:0:
344,242,115806,1,8,0:3:0:0:
90,170,115963,6,0,L|173:167,1,52.2500015945435,8|8,0:3|0:3,0:0:0:0:
321,163,116121,2,0,L|398:161,1,52.2500015945435,8|8,0:0|0:0,0:0:0:0:
192,138,116279,2,0,P|125:202|146:297,1,156.750004783631,8|0,0:3|0:0,0:0:0:0:
307,269,116595,6,0,L|438:269,1,104.500003189087,12|8,0:0|0:3,0:0:0:0:
187,220,116911,1,8,0:3:0:0:
422,187,117069,2,0,L|301:187,1,104.500003189087,12|8,0:0|0:3,0:0:0:0:
99,195,117385,1,8,0:3:0:0:
338,222,117542,2,0,L|344:330,1,104.500003189087,12|8,0:0|0:3,0:0:0:0:
103,336,117858,1,8,0:3:0:0:
328,299,118016,2,0,L|452:297,2,104.500003189087,12|8|8,0:0|0:3|0:3,0:0:0:0:
102,264,118490,5,8,0:0:0:0:
321,252,118648,1,8,0:0:0:0:
77,222,118806,1,8,0:0:0:0:
296,210,118963,1,8,0:0:0:0:
167,195,120069,2,0,L|161:92,1,95,8|0,0:3|0:0,0:0:0:0:
403,208,120385,6,0,P|448:185|387:90,1,190,4|8,0:0|0:3,0:0:0:0:
243,90,120858,2,0,L|138:80,2,95,0|8|8,0:0|0:3|0:3,0:0:0:0:
392,116,121332,2,0,L|398:226,1,95,8|0,0:3|0:0,0:0:0:0:
164,215,121648,6,0,L|61:217,2,95,8|0|8,0:3|0:0|0:3,0:0:0:0:
297,213,122121,1,8,0:3:0:0:
77,168,122279,2,0,L|66:48,1,95,8|8,0:3|0:3,0:0:0:0:
212,58,122595,1,8,0:3:0:0:
111,58,122753,1,0,0:0:0:0:
339,57,122911,6,0,P|386:88|323:186,1,190,8|8,0:3|0:3,0:0:0:0:
186,183,123385,2,0,L|174:312,1,95,0|8,0:0|0:3,0:0:0:0:
324,197,123700,2,0,L|327:298,1,95,8|8,0:3|0:3,0:0:0:0:
215,292,124016,1,0,0:0:0:0:
356,293,124174,1,8,0:3:0:0:
117,198,124332,6,0,L|15:194,2,95,8|8|8,0:3|0:3|0:3,0:0:0:0:
261,197,124806,2,0,L|362:189,1,95,8|8,0:3|0:3,0:0:0:0:
216,127,125121,2,0,L|211:73,1,47.5,8|8,0:3|0:3,0:0:0:0:
310,82,125279,2,0,L|312:27,1,47.5,8|8,0:3|0:3,0:0:0:0:
114,40,125437,6,0,P|71:77|136:179,1,190,4|8,0:0|0:3,0:0:0:0:
269,185,125911,2,0,L|280:292,1,95,0|8,0:0|0:3,0:0:0:0:
129,289,126227,2,0,L|14:301,1,95,8|8,0:3|0:3,0:0:0:0:
267,299,126542,6,0,P|314:262|241:158,1,190
139,161,127016,1,8,0:3:0:0:
283,141,127174,1,8,0:3:0:0:
140,111,127332,2,0,L|41:102,2,95,8|8|8,0:3|0:3|0:3,0:0:0:0:
359,95,127806,2,0,L|415:93,1,47.5,8|8,0:3|0:3,0:0:0:0:
216,95,127963,6,0,P|164:108|231:197,1,190,8|8,0:3|0:3,0:0:0:0:
347,200,128437,2,0,L|356:302,1,95,0|8,0:0|0:3,0:0:0:0:
129,241,128753,2,0,L|120:340,1,95,8|8,0:3|0:3,0:0:0:0:
369,327,129069,6,0,L|474:329,2,95,0|8|0,0:0|0:3|0:0,0:0:0:0:
226,313,129542,2,0,L|215:216,1,95,8|8,0:3|0:3,0:0:0:0:
454,205,129858,2,0,L|322:194,1,113.999996520996,8|0,0:0|0:0,0:0:0:0:
109,207,130095,2,0,L|262:193,1,113.999996520996,8|0,0:0|0:0,0:0:0:0:
440,170,130332,6,0,L|441:46,1,113.999996520996,8|0,0:0|0:0,0:0:0:0:
212,94,130648,2,0,L|151:89,1,56.9999982604981,8|8,0:3|0:3,0:0:0:0:
396,79,130806,2,0,L|502:72,1,104.500003189087,4|0,0:0|0:0,0:0:0:0:
342,136,131121,2,0,L|331:249,1,104.500003189087,0|8,0:0|0:3,0:0:0:0:
478,239,131437,1,0,0:0:0:0:
335,248,131595,1,8,0:0:0:0:
70,250,131753,6,0,L|64:177,1,69.6666687927247
138,170,131963,1,0,0:0:0:0:
351,161,132069,2,0,L|423:157,1,69.6666687927247,8|0,0:0|0:0,0:0:0:0:
175,91,132279,1,0,0:0:0:0:
84,82,132385,1,0,0:0:0:0:
175,91,132490,1,0,0:0:0:0:
84,82,132595,1,0,0:0:0:0:
318,98,132700,1,8,0:3:0:0:
388,116,132806,2,0,L|393:202,1,69.6666687927247
147,194,133016,6,0,L|137:309,1,104.500003189087,0|8,0:0|0:3,0:0:0:0:
290,304,133332,1,8,0:3:0:0:
53,302,133490,2,0,L|179:310,1,104.500003189087,8|0,0:0|0:0,0:0:0:0:
28,238,133806,2,0,L|20:127,1,104.500003189087,8|0,0:3|0:0,0:0:0:0:
289,122,134121,6,0,L|395:119,1,104.500003189087,8|8,0:3|0:0,0:0:0:0:
255,169,134437,1,8,0:3:0:0:
402,167,134595,1,8,0:3:0:0:
162,224,134753,2,0,L|153:336,1,104.500003189087,8|8,0:0|0:0,0:0:0:0:
380,290,135069,2,0,L|384:345,1,52.2500015945435,0|8,0:0|0:0,0:0:0:0:
307,346,135227,2,0,L|180:353,1,104.500003189087,0|8,0:0|0:0,0:0:0:0:
454,238,135542,5,0,0:0:0:0:
56,217,135858,2,0,L|51:105,1,104.500003189087,4|0,0:0|0:0,0:0:0:0:
287,97,136174,1,8,0:0:0:0:
156,95,136332,1,8,0:3:0:0:
295,134,136490,1,8,0:3:0:0:
44,139,136648,2,0,L|104:145,1,52.2500015945435,8|0,0:0|0:0,0:0:0:0:
367,180,136806,6,0,L|372:294,1,104.500003189087,0|8,0:0|0:3,0:0:0:0:
219,287,137121,2,0,L|328:292,1,104.500003189087,8|8,0:0|0:3,0:0:0:0:
174,227,137437,2,0,L|68:222,1,104.500003189087,8|8,0:0|0:3,0:0:0:0:
292,201,137753,2,0,P|315:153|295:103,1,104.500003189087,0|8,0:0|0:3,0:0:0:0:
33,115,138069,5,8,0:0:0:0:
176,105,138227,1,8,0:3:0:0:
30,74,138385,1,8,0:3:0:0:
291,65,138542,1,8,0:0:0:0:
176,49,138700,1,0,0:0:0:0:
50,41,138858,1,8,0:3:0:0:
281,14,139016,1,8,0:0:0:0:
21,131,139174,6,0,L|16:251,1,104.500003189087,8|0,0:0|0:0,0:0:0:0:
175,232,139490,1,8,0:3:0:0:
435,234,139648,2,0,L|323:228,1,104.500003189087,12|8,0:0|0:3,0:0:0:0:
93,185,139963,2,0,L|96:110,1,69.6666687927247,8|8,0:0|0:3,0:0:0:0:
185,111,140174,1,8,0:3:0:0:
389,69,140279,2,0,B|480:62,2,69.6666687927247,8|8|8,0:3|0:3|0:3,0:0:0:0:
164,80,140595,6,0,P|98:133|158:193,1,190,4|4,0:0|0:3,0:0:0:0:
294,211,141069,1,0,0:0:0:0:
166,200,141227,1,0,0:0:0:0:
331,151,141385,1,0,0:0:0:0:
460,136,141542,1,4,0:3:0:0:
334,90,141700,1,0,0:0:0:0:
72,122,141858,6,0,P|158:108|228:119,1,142.5
145,153,142174,2,0,L|17:166,1,95,4|0,0:3|0:0,0:0:0:0:
319,166,142490,2,0,L|332:297,1,95
212,265,142806,2,0,L|97:260,1,95,4|8,0:3|0:3,0:0:0:0:
156,260,143042,1,8,0:3:0:0:
366,230,143121,6,0,P|431:178|367:126,1,190,4|4,0:0|0:3,0:0:0:0:
222,162,143595,2,0,P|313:133|408:131,1,190
277,84,144069,2,0,L|170:76,1,95,4|0,0:3|0:0,0:0:0:0:
445,172,144385,6,0,P|421:259|333:277,1,190,8|0,0:3|0:0,0:0:0:0:
182,262,144858,2,0,L|151:74,1,190,8|0,0:3|0:0,0:0:0:0:
295,86,145332,1,8,0:3:0:0:
153,72,145490,1,0,0:0:0:0:
404,178,145648,6,0,P|310:170|215:171,1,190,4|4,0:0|0:3,0:0:0:0:
338,212,146121,2,0,P|363:253|349:301,1,95
202,297,146437,2,0,L|204:196,1,95,0|4,0:0|0:3,0:0:0:0:
331,206,146753,1,0,0:0:0:0:
205,187,146911,2,0,P|281:167|398:177,1,190,0|4,0:0|0:3,0:0:0:0:
283,217,147385,1,0,0:0:0:0:
433,189,147542,6,0,L|424:306,1,95
203,292,147858,1,4,0:3:0:0:
349,286,148016,1,0,0:0:0:0:
80,156,148174,5,12,0:0:0:0:
202,191,148332,1,8,0:3:0:0:
80,214,148490,1,8,0:3:0:0:
401,185,148648,1,8,0:3:0:0:
257,105,148806,1,8,0:0:0:0:
113,185,148963,1,8,0:3:0:0:
260,228,149121,1,8,0:3:0:0:
112,240,149279,1,12,0:0:0:0:
366,270,149437,5,0,0:0:0:0:
429,233,149516,1,0,0:0:0:0:
366,270,149595,1,8,0:3:0:0:
294,266,149674,1,0,0:0:0:0:
117,177,149753,2,0,L|176:174,1,47.5,8|0,0:3|0:0,0:0:0:0:
307,169,149911,2,0,L|377:162,1,47.5,8|0,0:3|0:0,0:0:0:0:
162,235,150069,5,8,0:3:0:0:
99,220,150148,1,0,0:0:0:0:
113,156,150227,1,8,0:3:0:0:
178,155,150306,1,0,0:0:0:0:
364,154,150385,1,8,0:3:0:0:
411,160,150463,1,0,0:0:0:0:
446,186,150542,1,8,0:3:0:0:
449,240,150621,1,0,0:0:0:0:
185,280,150700,6,0,P|112:229|185:177,1,209.000006378174,4|0,0:0|0:0,0:0:0:0:
332,197,151174,1,8,0:3:0:0:
184,185,151332,2,0,P|87:208|57:304,1,209.000006378174,8|0,0:0|0:0,0:0:0:0:
188,311,151806,1,8,0:3:0:0:
429,215,151963,6,0,L|325:213,2,104.500003189087,8|8|0,0:3|0:0|0:0,0:0:0:0:
176,194,152437,1,8,0:3:0:0:
309,197,152595,2,0,L|314:86,1,104.500003189087,8|8,0:0|0:3,0:0:0:0:
92,101,152911,1,8,0:0:0:0:
314,92,153069,1,8,0:0:0:0:
71,177,153227,6,0,P|81:274|177:291,1,209.000006378174,4|8,0:0|0:0,0:0:0:0:
444,255,153700,2,0,P|448:187|354:157,1,156.750004783631,4|0,0:0|0:0,0:0:0:0:
218,140,154016,2,0,L|389:114,1,156.750004783631,4|0,0:0|0:0,0:0:0:0:
131,195,154332,6,0,P|59:248|133:298,1,209.000006378174,4|8,0:0|0:3,0:0:0:0:
351,292,154806,2,0,P|281:257|145:257,1,209.000006378174,12|8,0:0|0:3,0:0:0:0:
213,247,155200,1,8,0:3:0:0:
380,231,155279,2,0,L|453:223,1,52.2500015945435,8|8,0:3|0:3,0:0:0:0:
198,179,155437,2,0,L|262:178,1,52.2500015945435,8|8,0:0|0:0,0:0:0:0:
439,132,155595,2,0,L|360:111,1,52.2500015945435,8|8,0:0|0:0,0:0:0:0:
128,125,155753,6,0,P|232:110|336:115,1,209.000006378174,4|8,0:0|0:0,0:0:0:0:
223,196,156227,2,0,L|162:196,1,52.2500015945435,8|8,0:3|0:3,0:0:0:0:
348,184,156385,2,0,L|350:323,1,104.500003189087,8|8,0:3|0:3,0:0:0:0:
227,286,156700,2,0,L|97:286,1,104.500003189087,8|0,0:0|0:0,0:0:0:0:
185,277,156937,1,0,0:0:0:0:
249,279,157016,2,0,L|353:278,1,104.500003189087,8|8,0:3|0:3,0:0:0:0:
100,171,157332,5,8,0:0:0:0:
249,171,157490,2,0,L|334:163,1,52.2500015945435,8|8,0:3|0:3,0:0:0:0:
106,113,157648,2,0,L|91:231,1,104.500003189087,8|8,0:3|0:3,0:0:0:0:
355,234,157963,2,0,L|489:194,1,104.500003189087,8|0,0:0|0:0,0:0:0:0:
403,220,158200,1,0,0:0:0:0:
156,229,158279,6,0,P|87:168|166:118,1,209.000006378174,4|8,0:0|0:0,0:0:0:0:
280,126,158753,2,0,L|367:123,1,52.2500015945435,8|8,0:3|0:3,0:0:0:0:
189,127,158911,2,0,L|72:126,1,104.500003189087,8|8,0:3|0:3,0:0:0:0:
131,129,159148,1,0,0:0:0:0:
309,222,159227,5,8,0:0:0:0:
377,211,159306,1,0,0:0:0:0:
362,142,159385,1,8,0:3:0:0:
293,138,159463,1,0,0:0:0:0:
107,159,159542,2,0,L|101:226,1,52.2500015945435,8|0,0:3|0:0,0:0:0:0:
167,232,159700,2,0,L|225:239,1,52.2500015945435,8|0,0:0|0:0,0:0:0:0:
367,258,159858,5,8,0:3:0:0:
358,207,159937,1,0,0:0:0:0:
308,173,160016,1,8,0:3:0:0:
242,174,160095,1,0,0:0:0:0:
379,298,160174,2,0,L|455:271,1,52.2500015945435,8|0,0:0|0:0,0:0:0:0:
214,277,160332,2,0,L|150:251,1,52.2500015945435,8|0,0:3|0:0,0:0:0:0:
362,219,160490,2,0,L|287:188,1,52.2500015945435,8|0,0:3|0:0,0:0:0:0:
158,199,160648,2,0,L|109:216,1,52.2500015945435,8|0,0:3|0:0,0:0:0:0:
329,124,160806,6,0,L|466:127,1,104.500003189087,4|0,0:0|0:0,0:0:0:0:
117,112,161121,2,0,L|93:242,1,104.500003189087,8|8,0:3|0:3,0:0:0:0:
324,238,161437,1,8,0:0:0:0:
186,236,161595,1,8,0:0:0:0:
417,183,161753,1,8,0:0:0:0:
184,175,161911,1,8,0:0:0:0:
420,265,162069,6,0,L|338:249,1,52.2500015945435,8|8,0:0|0:0,0:0:0:0:
214,236,162227,2,0,L|151:224,1,52.2500015945435,8|8,0:0|0:0,0:0:0:0:
375,196,162385,2,0,L|317:183,1,52.2500015945435,8|8,0:0|0:0,0:0:0:0:
175,168,162542,1,8,0:0:0:0:
112,129,162621,1,8,0:0:0:0:
175,168,162700,1,8,0:0:0:0:
258,168,162779,1,8,0:0:0:0:
437,142,162858,6,0,L|353:133,1,52.2500015945435,8|8,0:0|0:0,0:0:0:0:
206,110,163016,2,0,L|120:101,1,52.2500015945435,8|8,0:0|0:0,0:0:0:0:
346,211,163174,2,0,L|423:224,1,52.2500015945435,8|8,0:3|0:3,0:0:0:0:
166,199,163332,6,0,L|35:194,1,104.500003189087,12|8,0:0|0:3,0:0:0:0:
295,157,163648,1,8,0:3:0:0:
64,132,163806,2,0,L|168:137,1,104.500003189087,12|8,0:0|0:3,0:0:0:0:
404,162,164121,1,8,0:3:0:0:
170,140,164279,1,12,0:0:0:0:
300,147,164437,1,8,0:3:0:0:
59,195,164595,1,8,0:0:0:0:
352,218,164753,1,8,0:0:0:0:
137,206,165069,5,0,0:0:0:0:
443,237,165227,1,8,0:3:0:0:
464,224,165266,1,0,0:0:0:0:
477,204,165306,1,8,0:3:0:0:
481,181,165345,1,0,0:0:0:0:
475,158,165385,1,8,0:3:0:0:
460,140,165424,1,0,0:0:0:0:
439,129,165463,1,8,0:3:0:0:
225,105,165542,2,0,L|109:100,1,104.500003189087,8|0,0:0|0:0,0:0:0:0:
82,98,165779,1,0,0:0:0:0:
370,137,165858,6,0,L|376:256,1,113.999996520996,4|0,0:0|0:0,0:0:0:0:
133,173,166174,2,0,L|128:290,1,113.999996520996,8|0,0:0|0:0,0:0:0:0:
298,306,166490,1,8,0:3:0:0:
136,316,166648,1,8,0:3:0:0:
298,306,166806,1,8,0:0:0:0:
19,313,166963,6,0,L|17:196,1,113.999996520996,0|8,0:0|0:3,0:0:0:0:
254,199,167279,2,0,L|380:192,2,113.999996520996,8|8|0,0:3|0:0|0:0,0:0:0:0:
424,193,167753,2,0,L|432:69,1,113.999996520996,8|8,0:3|0:3,0:0:0:0:
185,74,168069,1,8,0:0:0:0:
322,71,168227,1,0,0:0:0:0:
57,85,168385,6,0,L|54:209,1,113.999996520996,8|8,0:3|0:3,0:0:0:0:
287,172,168700,2,0,L|295:294,1,113.999996520996,8|0,0:0|0:0,0:0:0:0:
111,289,169016,2,0,L|240:300,2,113.999996520996,8|8|8,0:3|0:3|0:0,0:0:0:0:
407,293,169490,6,0,L|416:166,1,113.999996520996,0|8,0:0|0:3,0:0:0:0:
254,162,169806,2,0,L|133:157,1,113.999996520996,8|8,0:3|0:0,0:0:0:0:
375,123,170121,1,0,0:0:0:0:
232,117,170279,2,0,L|228:3,1,113.999996520996,8|8,0:3|0:3,0:0:0:0:
470,110,170595,2,0,L|478:-11,1,113.999996520996,8|0,0:0|0:0,0:0:0:0:
195,31,170911,6,0,P|121:95|189:188,1,227.999993041992,4|8,0:0|0:0,0:0:0:0:
299,193,171385,1,0,0:0:0:0:
128,207,171542,2,0,L|121:320,1,113.999996520996,8|8,0:3|0:3,0:0:0:0:
270,323,171858,1,8,0:0:0:0:
36,320,172016,1,0,0:0:0:0:
316,287,172174,6,0,L|430:281,1,113.999996520996,8|8,0:3|0:3,0:0:0:0:
276,251,172490,2,0,L|156:236,1,113.999996520996,8|0,0:0|0:0,0:0:0:0:
401,197,172806,1,8,0:3:0:0:
253,182,172963,1,8,0:3:0:0:
493,161,173121,2,0,L|500:33,1,113.999996520996,8|0,0:0|0:0,0:0:0:0:
184,58,173437,6,0,P|127:88|197:202,1,227.999993041992,8|8,0:3|0:0,0:0:0:0:
339,201,173911,1,0,0:0:0:0:
58,210,174069,2,0,P|63:280|211:354,1,227.999993041992,8|8,0:3|0:0,0:0:0:0:
38,363,174542,1,0,0:0:0:0:
338,346,174700,6,0,L|466:332,1,113.999996520996,8|8,0:3|0:3,0:0:0:0:
189,279,175016,2,0,L|62:272,1,113.999996520996,12|8,0:0|0:3,0:0:0:0:
365,251,175332,2,0,L|430:244,1,56.9999982604981,8|8,0:3|0:3,0:0:0:0:
218,208,175490,2,0,L|216:149,1,56.9999982604981,8|8,0:0|0:0,0:0:0:0:
448,84,175648,2,0,L|383:76,1,56.9999982604981,8|8,0:3|0:3,0:0:0:0:
186,102,175806,2,0,L|105:86,1,56.9999982604981,8|8,0:0|0:0,0:0:0:0:
419,281,175963,6,0,P|475:239|403:126,1,227.999993041992,4|8,0:0|0:0,0:0:0:0:
249,126,176437,2,0,L|236:242,1,113.999996520996,0|8,0:0|0:3,0:0:0:0:
475,176,176753,2,0,L|483:291,1,113.999996520996,8|8,0:3|0:0,0:0:0:0:
189,303,177069,6,0,L|421:328,1,227.999993041992,4|8,0:0|0:3,0:0:0:0:
261,254,177542,2,0,L|119:246,1,113.999996520996,8|0,0:0|0:0,0:0:0:0:
145,191,177779,1,0,0:0:0:0:
349,185,177858,2,0,L|471:176,1,113.999996520996,8|8,0:3|0:3,0:0:0:0:
301,139,178174,2,0,L|179:132,1,113.999996520996,8|0,0:0|0:0,0:0:0:0:
479,75,178490,6,0,P|494:156|495:203,1,113.999996520996,4|0,0:0|0:0,0:0:0:0:
342,199,178806,1,8,0:0:0:0:
105,198,178963,2,0,L|227:208,2,113.999996520996,0|8|8,0:0|0:3|0:3,0:0:0:0:
270,247,179437,1,8,0:0:0:0:
19,243,179595,6,0,P|27:155|158:103,1,227.999993041992,4|8,0:0|0:3,0:0:0:0:
306,160,180069,2,0,L|316:36,1,113.999996520996,8|0,0:0|0:0,0:0:0:0:
151,158,180385,2,0,L|17:151,1,113.999996520996,8|8,0:3|0:3,0:0:0:0:
273,62,180700,2,0,L|142:49,1,113.999996520996,4|0,0:0|0:0,0:0:0:0:
431,14,181016,6,0,P|484:57|408:170,1,227.999993041992,4|8,0:0|0:0,0:0:0:0:
339,184,181411,1,0,0:0:0:0:
414,222,181490,1,0,0:0:0:0:
488,250,181569,1,0,0:0:0:0:
315,244,181648,6,0,L|308:306,1,56.9999982604981,8|0,0:3|0:0,0:0:0:0:
409,288,181806,2,0,L|412:353,1,56.9999982604981,8|0,0:3|0:0,0:0:0:0:
214,298,181963,1,8,0:0:0:0:
155,271,182042,1,0,0:0:0:0:
133,250,182121,1,0,0:0:0:0:
156,221,182200,1,0,0:0:0:0:
361,168,182279,6,0,L|484:158,1,113.999996520996,8|8,0:3|0:3,0:0:0:0:
235,144,182595,2,0,L|117:151,1,113.999996520996,8|8,0:0|0:3,0:0:0:0:
117,99,182832,1,0,0:0:0:0:
345,91,182911,2,0,L|402:93,1,56.9999982604981,8|8,0:3|0:3,0:0:0:0:
199,188,183069,2,0,L|133:197,1,56.9999982604981,8|8,0:0|0:0,0:0:0:0:
376,242,183227,2,0,L|314:253,1,56.9999982604981,8|0,0:0|0:0,0:0:0:0:
58,266,183385,1,8,0:3:0:0:
366,287,183542,5,12,0:0:0:0:
238,273,183700,1,8,0:3:0:0:
366,287,183858,1,8,0:3:0:0:
95,213,184016,1,12,0:0:0:0:
247,213,184174,1,8,0:3:0:0:
16,160,184332,1,8,0:3:0:0:
304,149,184490,5,12,0:0:0:0:
188,136,184648,1,8,0:3:0:0:
70,125,184806,1,8,0:3:0:0:
334,102,184963,1,12,0:0:0:0:
103,78,185121,1,8,0:3:0:0:
334,102,185279,1,8,0:3:0:0:
43,78,185437,2,0,L|38:-43,1,113.999996520996,12|8,0:0|0:3,0:0:0:0:
200,32,185753,2,0,L|321:28,1,113.999996520996,8|8,0:0|0:3,0:0:0:0:
28,180,186069,6,0,L|149:175,2,113.999996520996,12|8|8,0:0|0:3|0:3,0:0:0:0:
303,186,186542,2,0,L|314:308,1,113.999996520996,8|8,0:0|0:0,0:0:0:0:
151,220,186858,2,0,L|140:337,1,113.999996520996,8|8,0:0|0:0,0:0:0:0:
431,335,187174,5,8,0:0:0:0:
283,323,187332,1,8,0:0:0:0:
439,295,187490,1,8,0:0:0:0:
205,256,187648,1,8,0:0:0:0:
443,253,187806,1,8,0:0:0:0:
95,232,187963,2,0,L|93:171,1,56.9999982604981,8|8,0:3|0:3,0:0:0:0:
268,136,188121,2,0,L|343:129,1,56.9999982604981,8|8,0:0|0:0,0:0:0:0:
93,164,188279,1,8,0:3:0:0:
76,141,188319,1,0,0:0:0:0:
67,114,188358,1,8,0:3:0:0:
68,86,188398,1,0,0:0:0:0:
79,59,188437,1,8,0:0:0:0:
98,42,188477,1,0,0:0:0:0:
122,42,188516,1,8,0:0:0:0:
367,85,188595,6,0,L|478:81,1,95,8|8,0:3|0:3,0:0:0:0:
398,83,188832,1,8,0:3:0:0:
211,102,188911,2,0,P|146:154|210:207,1,190,4|8,0:0|0:3,0:0:0:0:
333,193,189385,1,8,0:3:0:0:
102,243,189542,2,0,L|234:240,1,95,8|0,0:0|0:0,0:0:0:0:
263,240,189779,1,0,0:0:0:0:
92,202,189858,6,0,P|32:140|94:81,1,190,8|8,0:3|0:0,0:0:0:0:
217,79,190332,1,0,0:0:0:0:
373,110,190490,2,0,L|393:213,1,95,8|8,0:3|0:3,0:0:0:0:
322,205,190727,1,0,0:0:0:0:
169,218,190806,2,0,L|154:323,1,95,8|0,0:0|0:0,0:0:0:0:
398,279,191121,6,0,L|396:204,1,63.3333333333333,8|0,0:3|0:0,0:0:0:0:
318,212,191332,1,0,0:0:0:0:
140,175,191437,1,8,0:0:0:0:
235,169,191542,1,0,0:0:0:0:
329,171,191648,1,0,0:0:0:0:
147,282,191753,1,8,0:3:0:0:
73,268,191858,1,0,0:0:0:0:
145,232,191963,1,0,0:0:0:0:
336,234,192069,1,8,0:0:0:0:
262,205,192174,1,0,0:0:0:0:
339,177,192279,1,0,0:0:0:0:
129,122,192385,5,8,0:3:0:0:
355,295,192542,1,8,0:3:0:0:
217,277,192700,1,8,0:0:0:0:
357,248,192858,1,0,0:0:0:0:
121,252,193016,6,0,L|107:131,1,95,8|8,0:3|0:3,0:0:0:0:
337,153,193332,1,8,0:0:0:0:
179,156,193490,1,8,0:3:0:0:
402,246,193648,6,0,P|309:229|214:233,1,190,4|8,0:0|0:0,0:0:0:0:
338,222,194121,2,0,L|453:220,1,95,0|8,0:0|0:3,0:0:0:0:
201,180,194437,2,0,L|134:163,1,47.5,8|0,0:3|0:0,0:0:0:0:
387,290,194595,6,0,P|457:246|394:194,1,190,8|8,0:0|0:3,0:0:0:0:
243,204,195069,1,8,0:3:0:0:
395,194,195227,1,8,0:0:0:0:
127,207,195385,1,0,0:0:0:0:
349,228,195542,2,0,P|369:271|355:321,1,95,8|8,0:3|0:3,0:0:0:0:
128,317,195858,2,0,P|77:271|137:218,1,142.5,8|0,0:0|0:0,0:0:0:0:
376,195,196174,6,0,L|492:187,2,95,8|0|8,0:3|0:0|0:0,0:0:0:0:
148,195,196648,2,0,P|242:180|337:187,1,190,0|8,0:0|0:3,0:0:0:0:
84,231,197121,2,0,L|63:348,1,95,8|8,0:0|0:3,0:0:0:0:
395,308,197437,6,0,L|408:174,1,95,4|8,0:0|0:3,0:0:0:0:
156,105,197753,1,8,0:0:0:0:
74,83,197858,1,0,0:0:0:0:
158,57,197963,1,0,0:0:0:0:
339,84,198069,6,0,L|351:173,1,47.5,8|8,0:0|0:0,0:0:0:0:
171,167,198227,2,0,L|157:229,1,47.5,8|8,0:3|0:3,0:0:0:0:
367,249,198385,1,8,0:3:0:0:
428,230,198463,1,8,0:3:0:0:
417,169,198542,1,8,0:3:0:0:
345,160,198621,1,0,0:0:0:0:
174,135,198700,1,8,0:3:0:0:
99,133,198779,1,8,0:3:0:0:
36,135,198858,1,8,0:3:0:0:
106,136,198937,1,8,0:3:0:0:
361,310,199016,6,0,P|434:259|360:208,1,209.000006378174,4|8,0:0|0:3,0:0:0:0:
126,296,199490,1,0,0:0:0:0:
268,296,199648,1,8,0:0:0:0:
39,231,199806,6,0,P|140:195|261:209,1,209.000006378174,4|0,0:0|0:0,0:0:0:0:
457,256,200279,1,8,0:0:0:0:
193,267,200437,2,0,L|192:154,1,104.500003189087
425,145,200753,2,0,L|289:136,2,104.500003189087,8|4|0,0:3|0:0|0:0,0:0:0:0:
126,124,201227,5,4,0:0:0:0:
265,120,201385,2,0,L|269:231,1,104.500003189087,0|8,0:0|0:0,0:0:0:0:
31,241,201700,2,0,L|148:237,1,104.500003189087,0|8,0:0|0:3,0:0:0:0:
273,232,202016,2,0,L|395:228,1,104.500003189087,8|8,0:3|0:0,0:0:0:0:
95,183,202332,6,0,P|23:240|100:287,1,209.000006378174,4|8,0:0|0:3,0:0:0:0:
238,282,202806,1,4,0:0:0:0:
453,218,202963,1,0,0:0:0:0:
316,214,203121,1,8,0:3:0:0:
85,197,203279,2,0,L|165:171,1,52.2500015945435,8|8,0:0|0:0,0:0:0:0:
317,257,203437,2,0,L|380:235,1,52.2500015945435,8|8,0:0|0:0,0:0:0:0:
135,146,203595,6,0,L|201:146,1,52.2500015945435,8|8,0:3|0:3,0:0:0:0:
378,212,203753,1,4,0:0:0:0:
392,159,203832,1,0,0:0:0:0:
385,107,203911,1,0,0:0:0:0:
243,88,204069,1,8,0:0:0:0:
471,282,204227,2,0,L|392:280,1,52.2500015945435,8|0,0:3|0:0,0:0:0:0:
235,274,204385,2,0,L|89:264,1,104.500003189087,8|8,0:0|0:3,0:0:0:0:
362,189,204700,1,8,0:0:0:0:
135,187,204858,1,8,0:3:0:0:
390,246,205016,6,0,L|312:248,1,52.2500015945435,8|0,0:0|0:0,0:0:0:0:
151,171,205174,2,0,L|230:171,1,52.2500015945435,8|0,0:3|0:0,0:0:0:0:
418,217,205332,2,0,L|428:73,1,104.500003189087,8|8,0:0|0:3,0:0:0:0:
195,95,205648,1,8,0:0:0:0:
335,95,205806,1,8,0:3:0:0:
61,179,205963,1,8,0:0:0:0:
201,179,206121,1,8,0:3:0:0:
450,192,206279,6,0,L|318:193,1,104.500003189087,4|8,0:0|0:3,0:0:0:0:
115,170,206595,1,8,0:3:0:0:
355,115,206753,2,0,L|478:113,1,104.500003189087,4|8,0:0|0:3,0:0:0:0:
208,107,207069,1,8,0:3:0:0:
458,162,207227,2,0,L|337:162,1,104.500003189087,4|8,0:0|0:3,0:0:0:0:
50,118,207542,1,12,0:0:0:0:
361,96,207700,6,0,B|358:73|465:0|507:114|489:207|377:207|480:180|384:192|344:232|344:232|312:192|232:168|312:208|232:208|200:115|225:0|368:72|360:98,1,627.000019134522,12|0,0:0|0:0,0:0:0:0:
100,308,208806,6,0,P|44:283|27:162,1,190,2|0,0:0|0:0,0:0:0:0:
111,161,209279,1,0,0:0:0:0:
263,167,209437,1,0,0:0:0:0:
98,127,209595,2,0,L|94:17,1,95
229,52,209911,5,0,0:0:0:0:
327,54,210069,2,0,P|378:92|335:202,1,190,2|0,0:0|0:0,0:0:0:0:
174,191,210700,2,0,L|369:205,1,190,2|0,0:0|0:0,0:0:0:0:
95,296,211332,6,0,P|99:190|179:141,1,190,2|0,0:0|0:0,0:0:0:0:
249,134,211806,2,0,L|51:123,1,190
156,71,212279,1,2,0:0:0:0:
301,67,212437,1,0,0:0:0:0:
73,61,212595,6,0,P|28:96|91:189,1,190,2|0,0:0|0:0,0:0:0:0:
316,202,213069,2,0,L|499:258,1,190,2|0,0:0|0:0,0:0:0:0:
362,364,213542,2,0,L|249:357,1,95,2|0,0:0|0:0,0:0:0:0:
412,281,213858,5,2,0:0:0:0:
213,212,214174,2,0,L|206:95,1,95
330,112,214490,2,0,L|435:104,2,95
190,109,214963,5,0,0:0:0:0:
100,113,215121,2,0,P|51:207|130:244,1,190,2|0,0:0|0:0,0:0:0:0:
376,209,215753,2,0,P|445:257|372:329,1,190,2|0,0:0|0:0,0:0:0:0:
18,342,216385,6,0,L|329:291,1,285,2|0,0:3|0:0,0:0:0:0:
72,256,217016,2,0,P|25:219|92:109,1,190,4|0,0:0|0:0,0:0:0:0:
207,114,217490,1,0,0:0:0:0:
451,34,217648,6,0,L|253:139,1,190,4|0,0:0|0:0,0:0:0:0:
416,145,218121,1,0,0:0:0:0:
197,159,218279,2,0,L|88:167,2,95,4|0|8,0:0|0:0|0:3,0:0:0:0:
343,154,218753,1,0,0:0:0:0:
92,326,218911,6,0,P|96:269|232:189,1,209.000006378174,4|0,0:0|0:0,0:0:0:0:
316,186,219385,1,8,0:3:0:0:
154,155,219542,2,0,L|48:149,2,104.500003189087,8|0|0,0:0|0:0|0:0,0:0:0:0:
16,80,220016,1,8,0:3:0:0:
281,93,220174,5,8,0:3:0:0:
156,113,220332,2,0,L|136:227,1,104.500003189087,8|0,0:0|0:0,0:0:0:0:
279,241,220648,1,8,0:3:0:0:
42,235,220806,1,8,0:0:0:0:
174,241,220963,2,0,P|230:264|153:355,1,209.000006378174,8|8,0:3|0:3,0:0:0:0:
433,350,221437,6,0,L|442:235,1,104.500003189087,4|0,0:0|0:0,0:0:0:0:
306,236,221753,1,0,0:0:0:0:
454,196,221911,1,8,0:3:0:0:
236,181,222069,1,8,0:0:0:0:
132,177,222227,2,0,P|81:141|156:44,1,209.000006378174,0|8,0:0|0:3,0:0:0:0:
415,50,222700,5,8,0:3:0:0:
179,50,222858,2,0,L|170:165,1,104.500003189087,0|8,0:0|0:3,0:0:0:0:
424,167,223174,2,0,L|365:172,1,52.2500015945435,8|8,0:0|0:0,0:0:0:0:
132,159,223332,2,0,L|127:273,1,104.500003189087,8|8,0:0|0:3,0:0:0:0:
267,271,223648,1,8,0:3:0:0:
115,286,223806,1,8,0:3:0:0:
389,301,223963,6,0,P|441:268|383:152,1,209.000006378174,12|8,0:0|0:3,0:0:0:0:
339,149,224358,1,0,0:0:0:0:
438,103,224437,1,8,0:0:0:0:
491,82,224516,1,0,0:0:0:0:
491,17,224595,1,8,0:3:0:0:
441,6,224674,1,0,0:0:0:0:
259,15,224753,2,0,L|255:75,1,52.2500015945435,8|0,0:0|0:0,0:0:0:0:
340,79,224911,2,0,L|343:136,1,52.2500015945435,8|0,0:3|0:0,0:0:0:0:
154,146,225069,2,0,L|98:151,1,52.2500015945435,8|0,0:0|0:0,0:0:0:0:
335,206,225227,6,0,L|394:209,1,52.2500015945435,8|0,0:0|0:0,0:0:0:0:
301,246,225385,2,0,L|242:242,1,52.2500015945435,8|0,0:0|0:0,0:0:0:0:
435,264,225542,2,0,L|491:275,1,52.2500015945435,8|0,0:0|0:0,0:0:0:0:
299,319,225700,1,8,0:0:0:0:
220,314,225779,1,0,0:0:0:0:
35,299,225858,2,0,L|34:216,1,52.2500015945435,8|0,0:0|0:0,0:0:0:0:
187,210,226016,2,0,L|270:208,1,52.2500015945435,8|0,0:0|0:0,0:0:0:0:
400,193,226174,1,8,0:0:0:0:
108,121,226332,2,0,L|46:113,1,52.2500015945435,8|8,0:3|0:3,0:0:0:0:
312,77,226490,5,12,0:0:0:0:
175,74,226648,1,8,0:3:0:0:
316,106,226806,1,8,0:3:0:0:
56,122,226963,2,0,L|50:239,1,113.999996520996,12|8,0:0|0:3,0:0:0:0:
322,241,227279,1,8,0:3:0:0:
61,233,227437,1,12,0:0:0:0:
189,238,227595,2,0,L|320:248,1,113.999996520996,8|8,0:3|0:3,0:0:0:0:
16,288,227911,5,12,0:0:0:0:
160,302,228069,1,8,0:3:0:0:
16,288,228227,1,8,0:3:0:0:
329,268,228385,1,12,0:0:0:0:
61,223,228542,2,0,L|59:150,1,56.9999982604981,8|8,0:0|0:0,0:0:0:0:
264,159,228700,2,0,L|330:152,1,56.9999982604981,8|8,0:0|0:0,0:0:0:0:
89,107,228858,2,0,L|147:100,1,56.9999982604981,8|8,0:3|0:3,0:0:0:0:
408,83,229016,5,2,0:0:0:0:
453,108,229095,1,0,0:0:0:0:
470,152,229174,1,0,0:0:0:0:
458,185,229227,1,0,0:0:0:0:
431,206,229279,1,0,0:0:0:0:
252,221,229332,1,0,0:0:0:0:
196,224,229411,1,0,0:0:0:0:
140,227,229490,1,0,0:0:0:0:
90,229,229568,1,0,0:0:0:0:
249,162,229648,6,0,L|255:76,1,71.2500027179719
181,80,229806,2,0,L|107:78,1,71.2500027179719
288,45,229963,2,0,L|360:50,1,71.2500027179719,2|0,0:0|0:0,0:0:0:0:
271,100,230121,1,8,0:3:0:0:
184,100,230200,1,8,0:3:0:0:
359,116,230279,6,0,L|418:124,1,52.2500015945435,12|0,0:0|0:0,0:0:0:0:
338,164,230437,2,0,L|281:162,1,52.2500015945435,8|8,0:0|0:0,0:0:0:0:
471,211,230595,2,0,L|477:275,1,52.2500015945435,8|8,0:3|0:3,0:0:0:0:
394,299,230753,2,0,L|336:308,1,52.2500015945435,8|8,0:0|0:0,0:0:0:0:
130,301,230911,6,0,L|122:217,1,52.2500015945435,8|8,0:3|0:3,0:0:0:0:
310,253,231069,2,0,L|318:189,1,52.2500015945435,8|8,0:0|0:0,0:0:0:0:
75,187,231227,2,0,L|157:183,1,52.2500015945435,8|8,0:3|0:3,0:0:0:0:
394,157,231385,2,0,L|457:150,2,52.2500015945435,8|8|8,0:0|0:0|0:3,0:0:0:0:
77,120,231700,5,8,0:0:0:0:
374,126,231858,2,0,L|384:17,1,104.500003189087,8|0,0:0|0:0,0:0:0:0:
61,25,232174,1,8,0:0:0:0:
335,22,232332,2,0,L|449:23,1,104.500003189087,8|0,0:0|0:0,0:0:0:0:
171,122,232648,6,0,L|341:138,1,142.500005435944,12|0,0:0|0:0,0:0:0:0:
93,179,232963,1,8,0:0:0:0:
398,189,233121,2,0,P|460:237|374:337,1,209.000006378174,4|0,0:0|0:0,0:0:0:0:
276,320,233595,1,0,0:0:0:0:
141,315,233753,2,0,L|140:195,1,104.500003189087
291,218,234069,6,0,P|361:153|282:105,1,209.000006378174
98,107,234700,1,0,0:0:0:0:
320,118,235016,1,8,0:3:0:0:
56,157,235174,6,0,P|36:215|120:279,1,156.750004783631,8|0,0:0|0:0,0:0:0:0:
344,268,235490,2,0,P|238:233|106:230,1,209.000006378174,8|8,0:0|0:3,0:0:0:0:
142,226,235885,1,8,0:3:0:0:
358,194,235963,5,8,0:0:0:0:
397,184,236003,1,0,0:0:0:0:
390,133,236042,1,0,0:0:0:0:
354,128,236082,1,0,0:0:0:0:
194,146,236121,1,0,0:0:0:0:
156,137,236161,1,0,0:0:0:0:
166,84,236200,1,0,0:0:0:0:
198,80,236240,1,0,0:0:0:0:
351,119,236279,2,0,L|440:115,1,52.2500015945435,8|8,0:0|0:0,0:0:0:0:
163,102,236437,2,0,L|92:92,1,52.2500015945435,8|8,0:0|0:0,0:0:0:0:
365,317,236595,6,0,P|278:330|195:316,1,170.999994781494,4|0,0:0|0:0,0:0:0:0:
274,281,236911,2,0,L|411:263,1,113.999996520996,8|0,0:0|0:0,0:0:0:0:
146,170,237227,2,0,L|280:172,1,113.999996520996,8|8,0:3|0:3,0:0:0:0:
483,178,237542,1,8,0:0:0:0:
214,289,237700,6,0,L|204:145,1,113.999996520996,0|8,0:0|0:3,0:0:0:0:
423,169,238016,2,0,L|434:44,1,113.999996520996,0|8,0:0|0:0,0:0:0:0:
209,56,238332,2,0,L|135:55,1,56.9999982604981
356,71,238490,2,0,L|478:74,1,113.999996520996,8|8,0:3|0:3,0:0:0:0:
212,197,238806,2,0,L|348:198,1,113.999996520996,8|0,0:0|0:0,0:0:0:0:
70,319,239121,6,0,P|20:253|89:208,1,170.999994781494,4|0,0:0|0:0,0:0:0:0:
274,209,239437,2,0,L|411:194,1,113.999996520996,8|0,0:0|0:0,0:0:0:0:
149,266,239753,2,0,L|146:133,1,113.999996520996,8|8,0:3|0:3,0:0:0:0:
375,149,240069,1,8,0:0:0:0:
135,141,240227,1,0,0:0:0:0:
369,200,240385,6,0,L|227:206,1,113.999996520996,8|8,0:3|0:3,0:0:0:0:
104,315,240700,2,0,L|218:319,1,113.999996520996,8|0,0:0|0:0,0:0:0:0:
354,241,241016,2,0,L|484:243,1,113.999996520996,8|8,0:3|0:3,0:0:0:0:
197,140,241332,2,0,L|332:138,1,113.999996520996,8|8,0:0|0:3,0:0:0:0:
87,247,241648,6,0,P|200:231|314:232,1,227.999993041992,8|8,0:3|0:0,0:0:0:0:
196,284,242121,1,0,0:0:0:0:
435,215,242279,1,8,0:3:0:0:
282,216,242437,1,8,0:3:0:0:
429,26,242595,2,0,L|445:158,1,113.999996520996,8|0,0:0|0:0,0:0:0:0:
206,149,242911,5,8,0:3:0:0:
346,150,243069,1,8,0:3:0:0:
129,150,243227,1,8,0:0:0:0:
346,150,243385,1,8,0:3:0:0:
84,304,243542,1,8,0:3:0:0:
91,248,243621,1,8,0:3:0:0:
129,206,243700,1,8,0:3:0:0:
184,194,243779,1,8,0:3:0:0:
359,187,243858,2,0,L|438:169,1,56.9999982604981,8|8,0:0|0:0,0:0:0:0:
174,120,244016,2,0,L|100:95,1,56.9999982604981,8|8,0:0|0:0,0:0:0:0:
384,229,244174,6,0,P|427:277|333:315,1,170.999994781494,4|0,0:0|0:0,0:0:0:0:
160,320,244490,2,0,L|129:159,1,113.999996520996,8|0,0:0|0:0,0:0:0:0:
284,189,244806,1,8,0:3:0:0:
55,172,244963,2,0,L|184:156,1,113.999996520996,8|8,0:3|0:0,0:0:0:0:
395,153,245279,6,0,P|283:135|170:143,1,227.999993041992,4|8,0:0|0:3,0:0:0:0:
170,143,245753,1,8,0:0:0:0:
316,100,245911,2,0,L|375:93,2,56.9999982604981,0|0|8,0:0|0:0|0:3,0:0:0:0:
169,112,246227,1,8,0:3:0:0:
310,78,246385,1,8,0:0:0:0:
171,128,246542,1,0,0:0:0:0:
403,168,246700,6,0,P|474:235|389:282,1,227.999993041992,4|8,0:0|0:0,0:0:0:0:
253,248,247174,1,0,0:0:0:0:
104,181,247332,1,8,0:3:0:0:
176,170,247411,1,0,0:0:0:0:
249,169,247490,1,8,0:3:0:0:
95,242,247648,1,8,0:0:0:0:
384,163,247806,6,0,P|274:136|160:137,1,227.999993041992,4|8,0:0|0:3,0:0:0:0:
311,179,248279,2,0,L|317:329,1,113.999996520996,8|0,0:0|0:0,0:0:0:0:
175,308,248595,2,0,L|309:315,1,113.999996520996,8|8,0:3|0:3,0:0:0:0:
51,228,248911,2,0,L|171:224,1,113.999996520996,8|0,0:0|0:0,0:0:0:0:
424,228,249227,6,0,P|348:176|272:160,1,170.999994781494,4|0,0:0|0:0,0:0:0:0:
201,138,249542,1,8,0:0:0:0:
272,129,249621,1,0,0:0:0:0:
344,121,249700,1,0,0:0:0:0:
273,65,249779,1,0,0:0:0:0:
53,290,249858,5,8,0:3:0:0:
63,231,249937,1,0,0:0:0:0:
111,199,250016,1,8,0:3:0:0:
175,197,250095,1,0,0:0:0:0:
335,189,250174,2,0,L|400:149,1,56.9999982604981,8|0,0:0|0:0,0:0:0:0:
162,168,250332,2,0,L|103:120,1,56.9999982604981
384,270,250490,6,0,L|246:266,1,113.999996520996,8|8,0:3|0:3,0:0:0:0:
51,179,250806,2,0,L|181:175,1,113.999996520996,8|0,0:0|0:0,0:0:0:0:
401,149,251121,1,8,0:3:0:0:
480,140,251227,1,0,0:0:0:0:
401,135,251332,1,0,0:0:0:0:
186,145,251437,1,8,0:0:0:0:
243,135,251516,1,0,0:0:0:0:
299,129,251595,1,8,0:3:0:0:
356,128,251674,1,8,0:3:0:0:
167,244,251753,6,0,L|53:240,1,113.999996520996,12|8,0:0|0:3,0:0:0:0:
317,183,252069,1,8,0:3:0:0:
80,150,252227,1,12,0:0:0:0:
215,143,252385,1,8,0:3:0:0:
356,148,252542,1,8,0:3:0:0:
109,99,252700,1,12,0:0:0:0:
375,243,252858,6,0,L|494:232,2,113.999996520996,8|8|12,0:3|0:3|0:0,0:0:0:0:
126,246,253332,2,0,L|119:118,1,113.999996520996,8|8,0:3|0:3,0:0:0:0:
362,117,253648,1,12,0:0:0:0:
133,111,253806,1,8,0:0:0:0:
207,110,253885,1,8,0:0:0:0:
411,261,253963,5,8,0:0:0:0:
438,252,254003,1,0,0:0:0:0:
457,231,254042,1,8,0:0:0:0:
462,203,254082,1,0,0:0:0:0:
452,177,254121,1,8,0:0:0:0:
429,160,254161,1,0,0:0:0:0:
401,156,254200,1,8,0:0:0:0:
97,223,254279,6,0,L|91:155,1,56.9999982604981,8|8,0:3|0:3,0:0:0:0:
263,147,254437,1,8,0:3:0:0:
342,145,254516,1,8,0:3:0:0:
84,105,254595,2,0,P|32:136|104:252,1,227.999993041992,4|8,0:0|0:0,0:0:0:0:
250,243,255069,1,8,0:3:0:0:
87,265,255227,1,8,0:0:0:0:
431,237,255385,6,0,L|439:119,1,113.999996520996,8|8,0:3|0:0,0:0:0:0:
191,112,255700,2,0,L|68:111,2,113.999996520996,8|8|8,0:3|0:0|0:3,0:0:0:0:
438,114,256174,1,8,0:0:0:0:
296,99,256332,1,8,0:3:0:0:
442,78,256490,1,8,0:0:0:0:
203,52,256648,2,0,L|134:53,1,56.9999982604981,8|8,0:3|0:3,0:0:0:0:
406,167,256806,6,0,P|469:211|385:309,1,227.999993041992,12|8,0:0|0:0,0:0:0:0:
239,301,257279,1,0,0:0:0:0:
477,272,257437,2,0,L|484:151,1,113.999996520996,8|8,0:0|0:3,0:0:0:0:
326,150,257753,1,8,0:0:0:0:
65,150,257911,2,0,L|138:146,1,56.9999982604981,8|0,0:3|0:0,0:0:0:0:
353,96,258069,6,0,L|485:88,1,113.999996520996,8|8,0:0|0:3,0:0:0:0:
173,93,258385,2,0,L|167:224,1,113.999996520996,8|8,0:0|0:3,0:0:0:0:
406,213,258700,1,8,0:0:0:0:
168,218,258858,1,8,0:3:0:0:
415,261,259016,2,0,L|426:378,1,113.999996520996,8|8,0:0|0:3,0:0:0:0:
64,230,259332,6,0,L|313:243,1,227.999993041992,12|8,0:0|0:0,0:0:0:0:
143,171,259806,1,8,0:3:0:0:
393,177,259963,2,0,L|405:57,1,113.999996520996,8|8,0:0|0:3,0:0:0:0:
242,68,260279,1,8,0:0:0:0:
490,32,260437,2,0,L|423:27,1,56.9999982604981,8|0,0:3|0:0,0:0:0:0:
170,31,260595,6,0,L|48:27,1,113.999996520996,8|8,0:0|0:3,0:0:0:0:
218,107,260911,2,0,L|344:117,1,113.999996520996,8|8,0:0|0:3,0:0:0:0:
92,122,261227,2,0,L|80:248,1,113.999996520996,8|8,0:0|0:3,0:0:0:0:
215,246,261542,1,8,0:0:0:0:
70,251,261700,1,8,0:3:0:0:
406,249,261858,6,0,P|458:209|379:83,1,227.999993041992,12|8,0:0|0:0,0:0:0:0:
250,83,262332,1,8,0:3:0:0:
407,49,262490,2,0,L|260:35,1,113.999996520996,8|8,0:0|0:3,0:0:0:0:
455,54,262806,1,8,0:0:0:0:
201,118,262963,2,0,L|138:125,1,56.9999982604981,8|0,0:3|0:0,0:0:0:0:
348,176,263121,6,0,L|488:182,1,113.999996520996,12|8,0:0|0:3,0:0:0:0:
201,118,263437,2,0,L|184:239,1,113.999996520996,8|8,0:0|0:3,0:0:0:0:
476,232,263753,2,0,L|482:302,1,56.9999982604981,8|8,0:0|0:0,0:0:0:0:
246,299,263911,2,0,L|241:359,1,56.9999982604981,8|8,0:0|0:0,0:0:0:0:
414,173,264069,2,0,L|416:97,1,56.9999982604981,8|8,0:3|0:3,0:0:0:0:
327,113,264227,2,0,L|263:103,1,56.9999982604981,8|8,0:3|0:3,0:0:0:0:
35,96,264385,6,0,L|263:75,1,227.999993041992,4|8,0:0|0:0,0:0:0:0:
109,142,264858,2,0,L|99:260,1,113.999996520996,0|8,0:0|0:3,0:0:0:0:
337,160,265174,2,0,L|453:169,1,113.999996520996,8|8,0:3|0:0,0:0:0:0:
156,234,265490,6,0,L|395:258,1,227.999993041992,4|8,0:0|0:3,0:0:0:0:
150,184,265963,1,8,0:0:0:0:
301,183,266121,1,0,0:0:0:0:
24,167,266279,2,0,L|20:51,1,113.999996520996,8|8,0:3|0:3,0:0:0:0:
183,51,266595,2,0,L|66:47,1,113.999996520996,8|0,0:0|0:0,0:0:0:0:
392,105,266911,6,0,P|426:154|320:251,1,227.999993041992,4|8,0:0|0:0,0:0:0:0:
163,315,267385,2,0,L|92:310,2,56.9999982604981,8|0|8,0:3|0:0|0:3,0:0:0:0:
305,270,267700,1,8,0:3:0:0:
145,233,267858,1,8,0:0:0:0:
469,241,268016,6,0,L|227:228,1,227.999993041992,4|8,0:0|0:3,0:0:0:0:
477,185,268490,2,0,L|486:61,1,113.999996520996,8|0,0:0|0:0,0:0:0:0:
343,64,268806,1,8,0:3:0:0:
489,51,268963,1,8,0:3:0:0:
242,75,269121,2,0,L|384:67,1,113.999996520996,8|0,0:0|0:0,0:0:0:0:
31,80,269437,6,0,L|27:202,1,113.999996520996,4|8,0:0|0:0,0:0:0:0:
88,199,269674,1,8,0:0:0:0:
259,204,269753,2,0,L|270:275,1,56.9999982604981,8|8,0:0|0:0,0:0:0:0:
177,261,269911,2,0,L|174:327,1,56.9999982604981,8|0,0:3|0:0,0:0:0:0:
258,310,270069,2,0,L|323:320,1,56.9999982604981,8|8,0:0|0:0,0:0:0:0:
110,348,270227,2,0,L|171:356,1,56.9999982604981,8|8,0:0|0:0,0:0:0:0:
460,248,270385,2,0,L|461:174,1,56.9999982604981,4|0,0:0|0:0,0:0:0:0:
260,185,270542,2,0,L|190:180,1,56.9999982604981,8|8,0:0|0:0,0:0:0:0:
467,145,270700,6,0,L|325:137,1,113.999996520996,4|8,0:0|0:0,0:0:0:0:
345,88,270937,1,8,0:0:0:0:
436,89,271016,2,0,L|440:19,1,56.9999982604981,8|8,0:0|0:0,0:0:0:0:
235,49,271174,2,0,L|176:44,1,56.9999982604981,8|8,0:3|0:3,0:0:0:0:
409,170,271332,1,8,0:0:0:0:
465,206,271411,1,8,0:3:0:0:
456,272,271490,1,8,0:3:0:0:
401,283,271569,1,8,0:3:0:0:
227,292,271648,2,0,L|219:228,1,56.9999982604981,8|8,0:3|0:3,0:0:0:0:
311,219,271806,2,0,L|312:147,1,56.9999982604981,8|8,0:3|0:3,0:0:0:0:
79,153,271963,5,12,0:0:0:0:
210,133,272121,1,8,0:3:0:0:
77,124,272279,1,8,0:3:0:0:
397,106,272437,1,12,0:0:0:0:
256,92,272595,1,8,0:3:0:0:
400,62,272753,1,8,0:3:0:0:
146,53,272911,1,12,0:0:0:0:
432,201,273069,6,0,L|437:321,1,113.999996520996,8|8,0:3|0:3,0:0:0:0:
147,303,273385,1,12,0:0:0:0:
278,310,273542,1,8,0:3:0:0:
411,312,273700,1,8,0:3:0:0:
168,232,273858,2,0,L|157:101,1,113.999996520996,12|8,0:0|0:3,0:0:0:0:
406,100,274174,1,12,0:0:0:0:
272,103,274332,1,8,0:3:0:0:
16,48,274490,6,0,L|267:41,1,227.999993041992,12|8,0:0|0:3,0:0:0:0:
104,100,274963,1,12,0:0:0:0:
249,95,275121,1,8,0:3:0:0:
16,128,275279,1,8,0:0:0:0:
248,157,275437,1,8,0:0:0:0:
480,160,275595,1,8,0:0:0:0:
137,179,275753,6,0,L|124:238,1,56.9999982604981,12|8,0:0|0:0,0:0:0:0:
304,220,275911,2,0,L|307:282,1,56.9999982604981,8|8,0:0|0:0,0:0:0:0:
100,296,276069,2,0,L|33:303,1,56.9999982604981,8|8,0:3|0:3,0:0:0:0:
334,324,276227,2,0,L|276:333,1,56.9999982604981,8|8,0:0|0:0,0:0:0:0:
45,192,276385,2,0,L|42:124,1,56.9999982604981,8|8,0:3|0:3,0:0:0:0:
118,85,276542,2,0,L|192:79,1,56.9999982604981,8|8,0:0|0:0,0:0:0:0:
407,62,276700,2,0,L|466:58,1,56.9999982604981,8|8,0:0|0:0,0:0:0:0:
166,42,276858,2,0,L|109:37,1,56.9999982604981,8|8,0:0|0:0,0:0:0:0:
429,133,277016,6,0,L|193:118,1,227.999993041992,12|8,0:0|0:0,0:0:0:0:
345,181,277490,1,0,0:0:0:0:
102,167,277648,2,0,L|88:280,1,113.999996520996,8|8,0:3|0:3,0:0:0:0:
322,293,277963,2,0,L|495:306,1,170.999994781494,8|0,0:0|0:0,0:0:0:0:
232,256,278279,5,8,0:3:0:0:
96,266,278437,1,8,0:3:0:0:
332,231,278595,2,0,P|407:196|336:108,1,227.999993041992,8|8,0:0|0:3,0:0:0:0:
188,110,279069,1,8,0:3:0:0:
442,101,279227,1,8,0:0:0:0:
61,52,279542,6,0,P|31:103|115:234,1,227.999993041992,8|8,0:3|0:0,0:0:0:0:
246,237,280016,1,0,0:0:0:0:
91,250,280174,2,0,L|80:372,1,113.999996520996,8|8,0:3|0:3,0:0:0:0:
314,337,280490,2,0,L|443:347,1,113.999996520996,8|0,0:0|0:0,0:0:0:0:
137,305,280806,5,8,0:3:0:0:
266,282,280963,1,8,0:3:0:0:
120,265,281121,2,0,L|113:144,1,113.999996520996,8|0,0:0|0:0,0:0:0:0:
350,137,281437,2,0,L|466:133,1,113.999996520996,8|8,0:3|0:3,0:0:0:0:
203,70,281753,2,0,L|346:63,1,113.999996520996,8|0,0:0|0:0,0:0:0:0:
21,42,282069,6,0,P|31:134|167:177,1,227.999993041992,4|8,0:0|0:0,0:0:0:0:
292,174,282542,1,0,0:0:0:0:
154,199,282700,2,0,L|273:214,1,113.999996520996,8|8,0:3|0:3,0:0:0:0:
274,266,282937,1,0,0:0:0:0:
102,266,283016,2,0,P|64:322|107:366,1,113.999996520996,8|0,0:0|0:0,0:0:0:0:
373,330,283332,6,0,L|379:205,1,113.999996520996,8|8,0:3|0:3,0:0:0:0:
227,202,283648,1,8,0:0:0:0:
459,181,283806,1,0,0:0:0:0:
327,170,283963,1,8,0:3:0:0:
462,133,284121,1,8,0:3:0:0:
227,115,284279,2,0,L|84:103,1,113.999996520996,8|8,0:0|0:3,0:0:0:0:
408,81,284595,6,0,P|453:116|406:205,1,170.999994781494,8|0,0:3|0:0,0:0:0:0:
178,218,284911,2,0,L|39:224,1,113.999996520996,12|0,0:0|0:0,0:0:0:0:
301,243,285227,1,8,0:3:0:0:
149,250,285385,1,8,0:3:0:0:
432,236,285542,1,12,0:0:0:0:
174,148,285700,6,0,L|171:35,1,113.999996520996,0|8,0:0|0:3,0:0:0:0:
314,22,286016,1,8,0:3:0:0:
27,20,286174,1,12,0:0:0:0:
164,27,286332,2,0,L|279:35,2,113.999996520996,0|8|8,0:0|0:3|0:3,0:0:0:0:
456,103,286806,2,0,L|465:226,1,113.999996520996,12|0,0:0|0:0,0:0:0:0:
113,309,287121,6,0,P|50:252|114:197,1,190,4|8,0:0|0:0,0:0:0:0:
353,190,287595,1,0,0:0:0:0:
223,189,287753,2,0,P|196:150|242:113,1,95,8|8,0:3|0:3,0:0:0:0:
475,201,288069,2,0,L|471:317,1,95,8|0,0:0|0:0,0:0:0:0:
254,282,288385,5,8,0:3:0:0:
116,267,288542,1,8,0:3:0:0:
254,226,288700,1,8,0:0:0:0:
100,262,288858,2,0,P|80:176|159:138,1,190,0|8,0:0|0:3,0:0:0:0:
412,214,289332,6,0,L|411:340,1,95,8|8,0:0|0:3,0:0:0:0:
270,304,289648,2,0,L|156:300,1,95,8|0,0:3|0:0,0:0:0:0:
290,229,289963,1,8,0:0:0:0:
161,212,290121,1,0,0:0:0:0:
95,195,290200,1,0,0:0:0:0:
115,135,290279,1,8,0:3:0:0:
179,131,290358,1,0,0:0:0:0:
322,129,290437,6,0,L|323:51,1,47.5,8|0,0:3|0:0,0:0:0:0:
240,87,290595,2,0,L|241:10,1,47.5,8|0,0:0|0:0,0:0:0:0:
406,279,290753,1,0,0:0:0:0:
394,223,290832,1,0,0:0:0:0:
354,184,290911,1,8,0:3:0:0:
299,175,290990,1,0,0:0:0:0:
145,277,291069,5,8,0:3:0:0:
87,235,291148,1,0,0:0:0:0:
145,277,291227,1,8,0:0:0:0:
218,278,291306,1,0,0:0:0:0:
398,275,291385,2,0,L|395:220,1,47.5
212,201,291542,2,0,L|84:182,1,95,8|8,0:3|0:3,0:0:0:0:
263,129,291858,2,0,L|356:144,1,95,8|0,0:0|0:0,0:0:0:0:
38,164,292174,6,0,P|75:261|172:269,1,209.000006378174,4|8,0:0|0:0,0:0:0:0:
381,164,292595,1,0,0:0:0:0:
454,151,292700,1,0,0:0:0:0:
380,128,292806,1,8,0:3:0:0:
185,121,292911,1,0,0:0:0:0:
261,109,293016,1,0,0:0:0:0:
339,92,293121,1,8,0:0:0:0:
261,109,293227,1,0,0:0:0:0:
185,121,293332,1,0,0:0:0:0:
377,268,293437,5,8,0:3:0:0:
431,262,293542,2,0,L|431:182,1,69.6666687927247
222,203,293753,1,8,0:0:0:0:
168,207,293858,2,0,L|164:137,1,69.6666687927247
348,120,294069,2,0,L|465:113,1,104.500003189087,8|8,0:0|0:3,0:0:0:0:
227,237,294385,2,0,L|338:229,1,104.500003189087,8|8,0:3|0:3,0:0:0:0:
91,183,294700,5,12,0:0:0:0:
216,170,294858,1,8,0:3:0:0:
89,131,295016,1,8,0:3:0:0:
371,266,295174,1,12,0:0:0:0:
239,264,295332,1,8,0:3:0:0:
369,228,295490,1,8,0:3:0:0:
130,191,295648,5,12,0:0:0:0:
268,169,295806,1,8,0:3:0:0:
423,162,295963,1,8,0:3:0:0:
157,268,296121,1,12,0:0:0:0:
292,268,296279,2,0,L|302:150,1,104.500003189087,8|8,0:3|0:3,0:0:0:0:
66,153,296595,2,0,L|192:147,1,104.500003189087,12|8,0:0|0:3,0:0:0:0:
443,151,296911,1,8,0:3:0:0:
99,108,297069,5,12,0:0:0:0:
256,192,297227,12,0,304806,0:0:0:0:
