osu file format v14

[General]
AudioFilename: Inori Minase - Yume no Tsubomi.mp3
AudioLeadIn: 0
PreviewTime: 76371
Countdown: 0
SampleSet: Soft
StackLeniency: 0.7
Mode: 3
LetterboxInBreaks: 0
SpecialStyle: 0
WidescreenStoryboard: 1

[Editor]
DistanceSpacing: 1.4
BeatDivisor: 4
GridSize: 16
TimelineZoom: 1.700001

[Metadata]
Title:Yume no Tsubomi
TitleUnicode:夢のつぼみ
Artist:Minase Inori
ArtistUnicode:水瀬いのり
Creator:Amiichii
Version:Dreaming
Source:アニメマシテ
Tags:20th birthday Innocent flower Eiko Watanabe Cheru Watanabe Cheru Oricon anime japanese 絵伊子 渡部チェル dream of bud ATing KeppSado
BeatmapID:1978988
BeatmapSetID:947509

[Difficulty]
HPDrainRate:8
CircleSize:4
OverallDifficulty:8
ApproachRate:5
SliderMultiplier:1.4
SliderTickRate:1

[Events]
//Background and Video events
0,0,"Yume no Tsubomi.jpg",0,0
//Break Periods
//Storyboard Layer 0 (Background)
//Storyboard Layer 1 (Fail)
//Storyboard Layer 2 (Pass)
//Storyboard Layer 3 (Foreground)
//Storyboard Sound Samples

[TimingPoints]
575,319.148936170213,4,2,1,30,1,0
13340,-76.9230769230769,4,2,1,30,0,0
13500,-142.857142857143,4,2,1,30,0,0
13660,-76.9230769230769,4,2,1,30,0,0
13819,-142.857142857143,4,2,1,30,0,0
13979,-100,4,2,1,30,0,0
14457,-76.9230769230769,4,2,1,30,0,0
14617,-142.857142857143,4,2,1,30,0,0
14777,-100,4,2,1,30,0,0
43340,-200,4,2,1,30,0,0
43500,-66.6666666666667,4,2,1,30,0,0
43660,-166.666666666667,4,2,1,30,0,0
43819,-71.4285714285714,4,2,1,30,0,0
43979,-100,4,2,1,30,0,0
53553,-71.4285714285714,4,2,1,30,0,0
53713,-166.666666666667,4,2,1,30,0,0
53872,-71.4285714285714,4,2,1,30,0,0
54032,-166.666666666667,4,2,1,30,0,0
54192,-100,4,2,1,30,0,0
63766,-200,4,2,1,30,0,0
63926,-66.6666666666667,4,2,1,30,0,0
64085,-200,4,2,1,30,0,0
64245,-66.6666666666667,4,2,1,30,0,0
64404,-100,4,2,1,30,0,0
77011,-100,4,2,1,30,0,1
118021,-100,4,2,1,30,0,0
130787,333.333333333333,4,2,1,30,1,0
130787,-96.1538461538461,4,2,1,30,0,0
131287,375,4,2,1,30,1,0
131287,-84.7457627118644,4,2,1,30,0,0
131849,428.571428571429,4,2,1,30,1,0
131849,-74.6268656716418,4,2,1,30,0,0

[HitObjects]
64,192,575,5,0,0:0:0:0:
448,192,575,1,0,0:0:0:0:
320,192,734,1,0,0:0:0:0:
192,192,894,1,0,0:0:0:0:
448,192,1053,1,0,0:0:0:0:
320,192,1213,1,0,0:0:0:0:
64,192,1372,1,0,0:0:0:0:
320,192,1532,1,0,0:0:0:0:
192,192,1692,1,0,0:0:0:0:
64,192,1851,1,0,0:0:0:0:
448,192,2011,1,0,0:0:0:0:
320,192,2170,1,0,0:0:0:0:
192,192,2330,1,0,0:0:0:0:
448,192,2489,1,0,0:0:0:0:
320,192,2649,1,0,0:0:0:0:
64,192,2809,1,0,0:0:0:0:
192,192,2968,1,0,0:0:0:0:
448,192,3128,1,0,0:0:0:0:
320,192,3287,1,0,0:0:0:0:
64,192,3447,1,0,0:0:0:0:
448,192,3606,1,0,0:0:0:0:
192,192,3766,1,0,0:0:0:0:
64,192,3926,1,0,0:0:0:0:
320,192,4085,1,0,0:0:0:0:
192,192,4245,1,0,0:0:0:0:
64,192,4404,1,0,0:0:0:0:
448,192,4564,1,0,0:0:0:0:
320,192,4723,1,0,0:0:0:0:
192,192,4883,1,0,0:0:0:0:
448,192,5043,1,0,0:0:0:0:
320,192,5202,1,0,0:0:0:0:
64,192,5362,128,0,5521:0:0:0:0:
192,192,5442,128,0,5601:0:0:0:0:
320,192,5521,128,0,5681:0:0:0:0:
448,192,5601,128,0,5681:0:0:0:0:
64,192,5681,128,0,6160:0:0:0:0:
192,192,5681,1,0,0:0:0:0:
320,192,5840,1,0,0:0:0:0:
192,192,6000,1,0,0:0:0:0:
320,192,6160,1,0,0:0:0:0:
448,192,6160,1,0,0:0:0:0:
192,192,6319,1,0,0:0:0:0:
64,192,6319,128,0,6638:0:0:0:0:
448,192,6479,1,0,0:0:0:0:
320,192,6638,1,0,0:0:0:0:
192,192,6798,1,0,0:0:0:0:
448,192,6798,128,0,7117:0:0:0:0:
64,192,6957,1,0,0:0:0:0:
320,192,7117,1,0,0:0:0:0:
64,192,7197,1,0,0:0:0:0:
192,192,7197,1,0,0:0:0:0:
448,192,7277,128,0,7596:0:0:0:0:
320,192,7277,1,0,0:0:0:0:
320,192,7436,1,0,0:0:0:0:
192,192,7436,1,0,0:0:0:0:
192,192,7596,1,0,0:0:0:0:
64,192,7596,128,0,7915:0:0:0:0:
448,192,7755,1,0,0:0:0:0:
320,192,7755,1,0,0:0:0:0:
448,192,7915,128,0,8048:0:0:0:0:
192,192,7915,1,0,0:0:0:0:
320,192,8048,128,0,8234:0:0:0:0:
64,192,8234,128,0,8872:0:0:0:0:
448,192,8234,1,0,0:0:0:0:
192,192,8234,1,0,0:0:0:0:
320,192,8394,1,0,0:0:0:0:
320,192,8553,1,0,0:0:0:0:
448,192,8553,1,0,0:0:0:0:
192,192,8713,1,0,0:0:0:0:
448,192,8793,1,0,0:0:0:0:
192,192,8872,1,0,0:0:0:0:
320,192,8872,1,0,0:0:0:0:
64,192,9032,1,0,0:0:0:0:
448,192,9032,128,0,9192:0:0:0:0:
320,192,9192,1,0,0:0:0:0:
192,192,9192,128,0,9351:0:0:0:0:
64,192,9351,1,0,0:0:0:0:
448,192,9351,1,0,0:0:0:0:
320,192,9351,128,0,9989:0:0:0:0:
192,192,9511,1,0,0:0:0:0:
64,192,9670,1,0,0:0:0:0:
448,192,9670,1,0,0:0:0:0:
64,192,9830,1,0,0:0:0:0:
192,192,9830,1,0,0:0:0:0:
448,192,9989,1,0,0:0:0:0:
192,192,10149,128,0,10229:0:0:0:0:
448,192,10149,128,0,10309:0:0:0:0:
64,192,10149,128,0,10309:0:0:0:0:
320,192,10229,128,0,10388:0:0:0:0:
192,192,10309,128,0,10468:0:0:0:0:
64,192,10388,128,0,10548:0:0:0:0:
320,192,10468,128,0,10628:0:0:0:0:
448,192,10468,128,0,10628:0:0:0:0:
192,192,10548,128,0,10707:0:0:0:0:
64,192,10628,128,0,10787:0:0:0:0:
448,192,10707,128,0,10787:0:0:0:0:
320,192,10787,128,0,10947:0:0:0:0:
192,192,10787,1,0,0:0:0:0:
64,192,10947,128,0,11106:0:0:0:0:
192,192,11106,1,0,0:0:0:0:
448,192,11106,128,0,11266:0:0:0:0:
64,192,11266,128,0,11426:0:0:0:0:
320,192,11426,1,0,0:0:0:0:
192,192,11426,128,0,11585:0:0:0:0:
320,192,11585,1,0,0:0:0:0:
448,192,11585,128,0,11745:0:0:0:0:
192,192,11745,1,0,0:0:0:0:
64,192,11745,1,0,0:0:0:0:
64,192,11904,128,0,12064:0:0:0:0:
192,192,11904,128,0,12064:0:0:0:0:
448,192,12064,1,0,0:0:0:0:
320,192,12064,1,0,0:0:0:0:
64,192,12223,128,0,12383:0:0:0:0:
448,192,12223,1,0,0:0:0:0:
320,192,12383,1,0,0:0:0:0:
192,192,12383,128,0,12543:0:0:0:0:
448,192,12543,1,0,0:0:0:0:
320,192,12543,128,0,12702:0:0:0:0:
64,192,12702,1,0,0:0:0:0:
192,192,12702,1,0,0:0:0:0:
192,192,12862,1,0,0:0:0:0:
448,192,12862,128,0,13021:0:0:0:0:
320,192,13021,1,0,0:0:0:0:
64,192,13021,128,0,13181:0:0:0:0:
448,192,13181,1,0,0:0:0:0:
192,192,13181,1,0,0:0:0:0:
448,192,13340,1,0,0:0:0:0:
320,192,13340,1,0,0:0:0:0:
64,192,13340,1,0,0:0:0:0:
64,192,13660,1,0,0:0:0:0:
448,192,13660,1,0,0:0:0:0:
192,192,13660,1,0,0:0:0:0:
320,192,13979,1,0,0:0:0:0:
192,192,13979,1,0,0:0:0:0:
64,192,13979,1,0,0:0:0:0:
448,192,14138,1,0,0:0:0:0:
64,192,14218,1,0,0:0:0:0:
192,192,14298,1,0,0:0:0:0:
320,192,14298,1,0,0:0:0:0:
448,192,14457,1,0,0:0:0:0:
64,192,14457,1,0,0:0:0:0:
192,192,14457,1,0,0:0:0:0:
64,192,14777,128,0,14936:0:0:0:0:
448,192,14777,1,0,0:0:0:0:
320,192,14777,1,0,0:0:0:0:
192,192,14856,128,0,15016:0:0:0:0:
320,192,14936,128,0,15016:0:0:0:0:
448,192,15096,128,0,15255:0:0:0:0:
192,192,15096,1,0,0:0:0:0:
64,192,15096,1,0,0:0:0:0:
320,192,15176,128,0,15335:0:0:0:0:
192,192,15255,128,0,15335:0:0:0:0:
448,192,15415,1,0,0:0:0:0:
320,192,15415,1,0,0:0:0:0:
64,192,15415,1,0,0:0:0:0:
192,192,15495,1,0,0:0:0:0:
448,192,15575,1,0,0:0:0:0:
320,192,15575,1,0,0:0:0:0:
64,192,15654,1,0,0:0:0:0:
192,192,15654,1,0,0:0:0:0:
448,192,15734,1,0,0:0:0:0:
320,192,15734,1,0,0:0:0:0:
192,192,15814,1,0,0:0:0:0:
64,192,15814,1,0,0:0:0:0:
448,192,15894,128,0,17170:0:0:0:0:
320,192,15894,1,0,0:0:0:0:
320,192,16213,1,0,0:0:0:0:
64,192,16213,1,0,0:0:0:0:
192,192,16213,1,0,0:0:0:0:
320,192,16372,1,0,0:0:0:0:
64,192,16532,1,0,0:0:0:0:
192,192,16532,1,0,0:0:0:0:
320,192,16692,1,0,0:0:0:0:
64,192,16851,1,0,0:0:0:0:
192,192,16851,1,0,0:0:0:0:
320,192,16851,1,0,0:0:0:0:
192,192,17011,1,0,0:0:0:0:
64,192,17011,1,0,0:0:0:0:
320,192,17170,1,0,0:0:0:0:
192,192,17170,1,0,0:0:0:0:
320,192,17489,1,0,0:0:0:0:
448,192,17489,1,0,0:0:0:0:
64,192,17489,128,0,17809:0:0:0:0:
192,192,17649,1,0,0:0:0:0:
448,192,17809,1,0,0:0:0:0:
320,192,17809,128,0,18128:0:0:0:0:
192,192,17968,1,0,0:0:0:0:
64,192,18128,1,0,0:0:0:0:
448,192,18128,1,0,0:0:0:0:
192,192,18128,128,0,18287:0:0:0:0:
448,192,18287,128,0,18447:0:0:0:0:
64,192,18447,128,0,19404:0:0:0:0:
320,192,18447,1,0,0:0:0:0:
448,192,18766,1,0,0:0:0:0:
320,192,18766,1,0,0:0:0:0:
192,192,18766,1,0,0:0:0:0:
192,192,18926,1,0,0:0:0:0:
448,192,19085,1,0,0:0:0:0:
320,192,19085,1,0,0:0:0:0:
192,192,19245,1,0,0:0:0:0:
320,192,19404,1,0,0:0:0:0:
448,192,19404,1,0,0:0:0:0:
192,192,19404,1,0,0:0:0:0:
64,192,19564,1,0,0:0:0:0:
320,192,19564,1,0,0:0:0:0:
448,192,19564,128,0,20043:0:0:0:0:
64,192,19723,1,0,0:0:0:0:
192,192,19723,1,0,0:0:0:0:
320,192,19883,1,0,0:0:0:0:
64,192,20043,1,0,0:0:0:0:
320,192,20043,1,0,0:0:0:0:
192,192,20043,1,0,0:0:0:0:
448,192,20202,1,0,0:0:0:0:
192,192,20362,1,0,0:0:0:0:
64,192,20362,128,0,20521:0:0:0:0:
320,192,20521,128,0,20681:0:0:0:0:
64,192,20681,1,0,0:0:0:0:
448,192,20681,1,0,0:0:0:0:
192,192,20681,128,0,20840:0:0:0:0:
448,192,20840,128,0,21000:0:0:0:0:
64,192,21000,1,0,0:0:0:0:
192,192,21000,1,0,0:0:0:0:
320,192,21160,128,0,21319:0:0:0:0:
448,192,21319,1,0,0:0:0:0:
192,192,21319,1,0,0:0:0:0:
64,192,21319,128,0,21479:0:0:0:0:
320,192,21638,1,0,0:0:0:0:
192,192,21638,128,0,21798:0:0:0:0:
64,192,21798,1,0,0:0:0:0:
448,192,21798,128,0,21957:0:0:0:0:
192,192,21957,1,0,0:0:0:0:
320,192,21957,1,0,0:0:0:0:
448,192,22117,1,0,0:0:0:0:
192,192,22117,1,0,0:0:0:0:
64,192,22117,1,0,0:0:0:0:
64,192,22277,1,0,0:0:0:0:
320,192,22277,1,0,0:0:0:0:
320,192,22436,1,0,0:0:0:0:
192,192,22436,1,0,0:0:0:0:
448,192,22596,1,0,0:0:0:0:
64,192,22596,1,0,0:0:0:0:
64,192,22755,1,0,0:0:0:0:
448,192,22755,1,0,0:0:0:0:
448,192,22915,1,0,0:0:0:0:
320,192,22915,1,0,0:0:0:0:
64,192,22915,1,0,0:0:0:0:
64,192,23075,1,0,0:0:0:0:
320,192,23075,1,0,0:0:0:0:
448,192,23075,1,0,0:0:0:0:
192,192,23234,1,0,0:0:0:0:
448,192,23234,1,0,0:0:0:0:
64,192,23234,1,0,0:0:0:0:
448,192,23394,1,0,0:0:0:0:
192,192,23394,1,0,0:0:0:0:
64,192,23394,1,0,0:0:0:0:
192,192,23553,128,0,23872:0:0:0:0:
64,192,23553,1,0,0:0:0:0:
320,192,23553,1,0,0:0:0:0:
64,192,23872,1,0,0:0:0:0:
320,192,23872,1,0,0:0:0:0:
448,192,23872,1,0,0:0:0:0:
192,192,24032,1,0,0:0:0:0:
64,192,24192,1,0,0:0:0:0:
448,192,24192,1,0,0:0:0:0:
320,192,24351,1,0,0:0:0:0:
64,192,24511,1,0,0:0:0:0:
192,192,24511,1,0,0:0:0:0:
448,192,24511,1,0,0:0:0:0:
320,192,24670,1,0,0:0:0:0:
64,192,24830,1,0,0:0:0:0:
192,192,24830,1,0,0:0:0:0:
448,192,24989,1,0,0:0:0:0:
64,192,25149,1,0,0:0:0:0:
320,192,25149,1,0,0:0:0:0:
192,192,25149,1,0,0:0:0:0:
448,192,25309,128,0,25468:0:0:0:0:
320,192,25388,128,0,25468:0:0:0:0:
64,192,25468,1,0,0:0:0:0:
192,192,25468,1,0,0:0:0:0:
192,192,25628,128,0,25787:0:0:0:0:
448,192,25787,1,0,0:0:0:0:
64,192,25787,1,0,0:0:0:0:
320,192,25787,1,0,0:0:0:0:
320,192,25947,128,0,26106:0:0:0:0:
64,192,26106,128,0,26426:0:0:0:0:
448,192,26106,1,0,0:0:0:0:
192,192,26266,1,0,0:0:0:0:
192,192,26426,1,0,0:0:0:0:
448,192,26426,1,0,0:0:0:0:
320,192,26426,1,0,0:0:0:0:
64,192,26585,1,0,0:0:0:0:
448,192,26745,1,0,0:0:0:0:
320,192,26745,1,0,0:0:0:0:
192,192,26904,1,0,0:0:0:0:
320,192,27064,1,0,0:0:0:0:
448,192,27064,1,0,0:0:0:0:
64,192,27064,1,0,0:0:0:0:
192,192,27223,1,0,0:0:0:0:
64,192,27383,1,0,0:0:0:0:
448,192,27383,1,0,0:0:0:0:
320,192,27543,1,0,0:0:0:0:
64,192,27702,1,0,0:0:0:0:
192,192,27702,1,0,0:0:0:0:
448,192,27702,128,0,28021:0:0:0:0:
320,192,27862,128,0,28021:0:0:0:0:
192,192,27942,128,0,28021:0:0:0:0:
64,192,28021,128,0,28340:0:0:0:0:
448,192,28181,128,0,28340:0:0:0:0:
320,192,28340,1,0,0:0:0:0:
192,192,28340,128,0,28500:0:0:0:0:
448,192,28500,1,0,0:0:0:0:
64,192,28580,1,0,0:0:0:0:
320,192,28660,128,0,28979:0:0:0:0:
192,192,28660,1,0,0:0:0:0:
64,192,28819,1,0,0:0:0:0:
448,192,28979,1,0,0:0:0:0:
64,192,28979,1,0,0:0:0:0:
192,192,28979,1,0,0:0:0:0:
320,192,29138,1,0,0:0:0:0:
64,192,29298,1,0,0:0:0:0:
448,192,29298,1,0,0:0:0:0:
192,192,29457,1,0,0:0:0:0:
64,192,29617,1,0,0:0:0:0:
448,192,29617,1,0,0:0:0:0:
320,192,29617,1,0,0:0:0:0:
192,192,29777,1,0,0:0:0:0:
64,192,29936,128,0,30255:0:0:0:0:
320,192,29936,1,0,0:0:0:0:
448,192,30096,1,0,0:0:0:0:
192,192,30255,1,0,0:0:0:0:
448,192,30255,1,0,0:0:0:0:
320,192,30255,1,0,0:0:0:0:
64,192,30415,1,0,0:0:0:0:
320,192,30575,1,0,0:0:0:0:
192,192,30575,1,0,0:0:0:0:
448,192,30734,1,0,0:0:0:0:
192,192,30894,1,0,0:0:0:0:
64,192,30894,1,0,0:0:0:0:
320,192,30894,1,0,0:0:0:0:
448,192,31053,1,0,0:0:0:0:
64,192,31213,128,0,31532:0:0:0:0:
320,192,31213,1,0,0:0:0:0:
192,192,31372,1,0,0:0:0:0:
448,192,31532,1,0,0:0:0:0:
320,192,31532,1,0,0:0:0:0:
192,192,31532,1,0,0:0:0:0:
320,192,31692,128,0,32011:0:0:0:0:
64,192,31851,1,0,0:0:0:0:
192,192,31851,1,0,0:0:0:0:
448,192,32011,1,0,0:0:0:0:
192,192,32170,128,0,32489:0:0:0:0:
64,192,32170,1,0,0:0:0:0:
320,192,32170,1,0,0:0:0:0:
448,192,32330,128,0,32489:0:0:0:0:
320,192,32489,128,0,32809:0:0:0:0:
64,192,32489,1,0,0:0:0:0:
192,192,32649,128,0,32809:0:0:0:0:
448,192,32809,1,0,0:0:0:0:
64,192,32809,1,0,0:0:0:0:
320,192,32968,1,0,0:0:0:0:
64,192,33048,1,0,0:0:0:0:
192,192,33048,1,0,0:0:0:0:
448,192,33128,128,0,33447:0:0:0:0:
320,192,33128,1,0,0:0:0:0:
64,192,33287,1,0,0:0:0:0:
320,192,33447,1,0,0:0:0:0:
64,192,33447,1,0,0:0:0:0:
192,192,33447,128,0,33766:0:0:0:0:
448,192,33606,1,0,0:0:0:0:
448,192,33766,1,0,0:0:0:0:
320,192,33766,1,0,0:0:0:0:
64,192,33766,128,0,34085:0:0:0:0:
192,192,33926,1,0,0:0:0:0:
192,192,34085,1,0,0:0:0:0:
448,192,34085,1,0,0:0:0:0:
320,192,34085,1,0,0:0:0:0:
64,192,34245,1,0,0:0:0:0:
448,192,34404,1,0,0:0:0:0:
320,192,34404,1,0,0:0:0:0:
192,192,34564,1,0,0:0:0:0:
448,192,34723,1,0,0:0:0:0:
320,192,34723,1,0,0:0:0:0:
64,192,34723,1,0,0:0:0:0:
192,192,34883,1,0,0:0:0:0:
64,192,35043,1,0,0:0:0:0:
448,192,35043,1,0,0:0:0:0:
320,192,35202,1,0,0:0:0:0:
448,192,35362,1,0,0:0:0:0:
64,192,35362,1,0,0:0:0:0:
192,192,35362,1,0,0:0:0:0:
320,192,35521,128,0,35681:0:0:0:0:
192,192,35681,1,0,0:0:0:0:
64,192,35681,128,0,35840:0:0:0:0:
448,192,35840,128,0,36000:0:0:0:0:
192,192,36000,1,0,0:0:0:0:
64,192,36000,1,0,0:0:0:0:
320,192,36000,1,0,0:0:0:0:
448,192,36160,1,0,0:0:0:0:
192,192,36319,128,0,36638:0:0:0:0:
64,192,36319,1,0,0:0:0:0:
320,192,36479,1,0,0:0:0:0:
320,192,36638,1,0,0:0:0:0:
64,192,36638,1,0,0:0:0:0:
448,192,36638,1,0,0:0:0:0:
448,192,36798,128,0,36957:0:0:0:0:
192,192,36957,1,0,0:0:0:0:
64,192,36957,1,0,0:0:0:0:
320,192,37117,128,0,37277:0:0:0:0:
64,192,37277,1,0,0:0:0:0:
192,192,37277,1,0,0:0:0:0:
448,192,37277,1,0,0:0:0:0:
64,192,37436,128,0,37596:0:0:0:0:
320,192,37596,1,0,0:0:0:0:
192,192,37596,1,0,0:0:0:0:
448,192,37755,128,0,37915:0:0:0:0:
64,192,37915,128,0,38234:0:0:0:0:
320,192,37915,1,0,0:0:0:0:
192,192,37915,1,0,0:0:0:0:
192,192,38075,128,0,38234:0:0:0:0:
320,192,38154,128,0,38234:0:0:0:0:
448,192,38234,128,0,38394:0:0:0:0:
64,192,38394,128,0,38553:0:0:0:0:
320,192,38553,1,0,0:0:0:0:
448,192,38553,1,0,0:0:0:0:
192,192,38553,1,0,0:0:0:0:
320,192,38713,128,0,38872:0:0:0:0:
64,192,38872,128,0,39192:0:0:0:0:
448,192,38872,1,0,0:0:0:0:
192,192,39032,1,0,0:0:0:0:
192,192,39192,1,0,0:0:0:0:
448,192,39192,1,0,0:0:0:0:
320,192,39192,1,0,0:0:0:0:
448,192,39351,128,0,39670:0:0:0:0:
192,192,39511,1,0,0:0:0:0:
64,192,39511,1,0,0:0:0:0:
320,192,39670,1,0,0:0:0:0:
192,192,39830,1,0,0:0:0:0:
448,192,39830,1,0,0:0:0:0:
64,192,39830,1,0,0:0:0:0:
320,192,39989,128,0,40149:0:0:0:0:
448,192,40149,128,0,40468:0:0:0:0:
64,192,40149,1,0,0:0:0:0:
192,192,40309,1,0,0:0:0:0:
192,192,40468,1,0,0:0:0:0:
320,192,40468,128,0,40787:0:0:0:0:
64,192,40468,1,0,0:0:0:0:
448,192,40628,1,0,0:0:0:0:
64,192,40787,1,0,0:0:0:0:
192,192,40787,128,0,41106:0:0:0:0:
448,192,40947,1,0,0:0:0:0:
320,192,41000,1,0,0:0:0:0:
64,192,41106,128,0,41266:0:0:0:0:
448,192,41106,1,0,0:0:0:0:
448,192,41266,128,0,41426:0:0:0:0:
192,192,41426,1,0,0:0:0:0:
320,192,41426,1,0,0:0:0:0:
448,192,41585,1,0,0:0:0:0:
192,192,41585,1,0,0:0:0:0:
64,192,41585,1,0,0:0:0:0:
320,192,41745,1,0,0:0:0:0:
64,192,41745,1,0,0:0:0:0:
448,192,41904,1,0,0:0:0:0:
320,192,41904,1,0,0:0:0:0:
192,192,41904,1,0,0:0:0:0:
448,192,42064,1,0,0:0:0:0:
64,192,42064,1,0,0:0:0:0:
320,192,42223,1,0,0:0:0:0:
64,192,42383,1,0,0:0:0:0:
192,192,42383,1,0,0:0:0:0:
320,192,42543,128,0,43181:0:0:0:0:
448,192,42543,128,0,43181:0:0:0:0:
64,192,42543,1,0,0:0:0:0:
192,192,42702,1,0,0:0:0:0:
64,192,42862,1,0,0:0:0:0:
192,192,42862,1,0,0:0:0:0:
192,192,43021,1,0,0:0:0:0:
64,192,43021,1,0,0:0:0:0:
192,192,43181,1,0,0:0:0:0:
64,192,43181,1,0,0:0:0:0:
448,192,43340,1,0,0:0:0:0:
192,192,43340,1,0,0:0:0:0:
64,192,43340,1,0,0:0:0:0:
64,192,43660,1,0,0:0:0:0:
320,192,43660,1,0,0:0:0:0:
448,192,43660,1,0,0:0:0:0:
320,192,43979,1,0,0:0:0:0:
64,192,43979,128,0,44298:0:0:0:0:
192,192,43979,1,0,0:0:0:0:
320,192,44298,1,0,0:0:0:0:
448,192,44298,1,0,0:0:0:0:
192,192,44298,1,0,0:0:0:0:
64,192,44457,1,0,0:0:0:0:
448,192,44617,128,0,45255:0:0:0:0:
192,192,44617,1,0,0:0:0:0:
320,192,44777,1,0,0:0:0:0:
64,192,44936,1,0,0:0:0:0:
192,192,44936,1,0,0:0:0:0:
320,192,44936,1,0,0:0:0:0:
64,192,45096,1,0,0:0:0:0:
192,192,45255,1,0,0:0:0:0:
320,192,45255,128,0,45894:0:0:0:0:
64,192,45415,1,0,0:0:0:0:
448,192,45575,1,0,0:0:0:0:
192,192,45575,1,0,0:0:0:0:
64,192,45575,1,0,0:0:0:0:
448,192,45734,1,0,0:0:0:0:
64,192,45894,1,0,0:0:0:0:
192,192,45894,128,0,46532:0:0:0:0:
320,192,45973,1,0,0:0:0:0:
64,192,46053,1,0,0:0:0:0:
448,192,46133,1,0,0:0:0:0:
64,192,46213,1,0,0:0:0:0:
320,192,46213,1,0,0:0:0:0:
320,192,46372,1,0,0:0:0:0:
448,192,46532,1,0,0:0:0:0:
64,192,46532,128,0,47011:0:0:0:0:
192,192,46851,1,0,0:0:0:0:
320,192,46851,1,0,0:0:0:0:
448,192,46851,1,0,0:0:0:0:
448,192,47011,128,0,47489:0:0:0:0:
320,192,47090,1,0,0:0:0:0:
192,192,47170,1,0,0:0:0:0:
64,192,47170,1,0,0:0:0:0:
320,192,47330,1,0,0:0:0:0:
64,192,47489,1,0,0:0:0:0:
320,192,47489,1,0,0:0:0:0:
192,192,47489,1,0,0:0:0:0:
192,192,47649,128,0,47809:0:0:0:0:
320,192,47729,128,0,47809:0:0:0:0:
64,192,47809,1,0,0:0:0:0:
448,192,47809,1,0,0:0:0:0:
320,192,47968,128,0,48128:0:0:0:0:
64,192,48048,128,0,48128:0:0:0:0:
192,192,48128,1,0,0:0:0:0:
448,192,48128,1,0,0:0:0:0:
64,192,48287,128,0,48447:0:0:0:0:
448,192,48367,128,0,48447:0:0:0:0:
320,192,48447,1,0,0:0:0:0:
192,192,48447,1,0,0:0:0:0:
320,192,48606,128,0,48766:0:0:0:0:
192,192,48686,128,0,48766:0:0:0:0:
64,192,48766,1,0,0:0:0:0:
448,192,48766,1,0,0:0:0:0:
320,192,48926,1,0,0:0:0:0:
64,192,49085,128,0,49404:0:0:0:0:
192,192,49085,1,0,0:0:0:0:
448,192,49245,1,0,0:0:0:0:
448,192,49404,1,0,0:0:0:0:
192,192,49404,1,0,0:0:0:0:
320,192,49404,1,0,0:0:0:0:
64,192,49564,1,0,0:0:0:0:
320,192,49723,1,0,0:0:0:0:
448,192,49723,128,0,50362:0:0:0:0:
192,192,49883,1,0,0:0:0:0:
64,192,50043,1,0,0:0:0:0:
192,192,50043,1,0,0:0:0:0:
320,192,50043,1,0,0:0:0:0:
64,192,50202,1,0,0:0:0:0:
192,192,50362,1,0,0:0:0:0:
320,192,50362,128,0,51000:0:0:0:0:
448,192,50521,1,0,0:0:0:0:
448,192,50681,1,0,0:0:0:0:
64,192,50681,1,0,0:0:0:0:
192,192,50681,1,0,0:0:0:0:
192,192,50840,1,0,0:0:0:0:
448,192,50920,1,0,0:0:0:0:
192,192,51000,1,0,0:0:0:0:
64,192,51000,128,0,51638:0:0:0:0:
448,192,51080,1,0,0:0:0:0:
320,192,51160,1,0,0:0:0:0:
192,192,51239,1,0,0:0:0:0:
320,192,51319,1,0,0:0:0:0:
448,192,51319,1,0,0:0:0:0:
320,192,51479,1,0,0:0:0:0:
448,192,51638,128,0,51957:0:0:0:0:
192,192,51638,1,0,0:0:0:0:
320,192,51798,1,0,0:0:0:0:
320,192,51957,1,0,0:0:0:0:
64,192,51957,1,0,0:0:0:0:
192,192,51957,1,0,0:0:0:0:
64,192,52117,128,0,52436:0:0:0:0:
320,192,52277,1,0,0:0:0:0:
448,192,52277,1,0,0:0:0:0:
192,192,52436,1,0,0:0:0:0:
64,192,52596,1,0,0:0:0:0:
448,192,52596,1,0,0:0:0:0:
320,192,52596,128,0,52915:0:0:0:0:
192,192,52755,1,0,0:0:0:0:
448,192,52915,1,0,0:0:0:0:
64,192,52915,1,0,0:0:0:0:
320,192,53075,1,0,0:0:0:0:
448,192,53234,1,0,0:0:0:0:
64,192,53234,128,0,53553:0:0:0:0:
192,192,53234,1,0,0:0:0:0:
320,192,53394,1,0,0:0:0:0:
192,192,53473,1,0,0:0:0:0:
448,192,53553,128,0,53872:0:0:0:0:
320,192,53553,1,0,0:0:0:0:
64,192,53872,1,0,0:0:0:0:
320,192,53872,1,0,0:0:0:0:
192,192,53872,128,0,54192:0:0:0:0:
64,192,54192,1,0,0:0:0:0:
448,192,54192,1,0,0:0:0:0:
320,192,54192,128,0,54511:0:0:0:0:
192,192,54351,1,0,0:0:0:0:
192,192,54511,1,0,0:0:0:0:
448,192,54511,1,0,0:0:0:0:
64,192,54511,1,0,0:0:0:0:
320,192,54670,1,0,0:0:0:0:
64,192,54830,1,0,0:0:0:0:
448,192,54830,1,0,0:0:0:0:
192,192,54989,1,0,0:0:0:0:
64,192,55149,1,0,0:0:0:0:
320,192,55149,1,0,0:0:0:0:
448,192,55149,1,0,0:0:0:0:
192,192,55309,1,0,0:0:0:0:
64,192,55468,1,0,0:0:0:0:
320,192,55468,1,0,0:0:0:0:
448,192,55628,1,0,0:0:0:0:
192,192,55787,1,0,0:0:0:0:
320,192,55787,1,0,0:0:0:0:
64,192,55787,128,0,56106:0:0:0:0:
448,192,55947,1,0,0:0:0:0:
192,192,56106,1,0,0:0:0:0:
320,192,56106,128,0,56426:0:0:0:0:
448,192,56186,1,0,0:0:0:0:
64,192,56266,1,0,0:0:0:0:
192,192,56346,1,0,0:0:0:0:
64,192,56426,1,0,0:0:0:0:
448,192,56426,128,0,56585:0:0:0:0:
192,192,56585,128,0,56665:0:0:0:0:
64,192,56745,1,0,0:0:0:0:
192,192,56745,128,0,57064:0:0:0:0:
320,192,56904,1,0,0:0:0:0:
64,192,57064,1,0,0:0:0:0:
320,192,57064,1,0,0:0:0:0:
448,192,57064,1,0,0:0:0:0:
192,192,57223,1,0,0:0:0:0:
64,192,57383,1,0,0:0:0:0:
448,192,57383,1,0,0:0:0:0:
320,192,57543,1,0,0:0:0:0:
448,192,57702,1,0,0:0:0:0:
64,192,57702,1,0,0:0:0:0:
192,192,57702,1,0,0:0:0:0:
64,192,57862,128,0,58021:0:0:0:0:
320,192,58021,128,0,58181:0:0:0:0:
448,192,58021,128,0,58340:0:0:0:0:
64,192,58181,128,0,58340:0:0:0:0:
320,192,58340,128,0,58500:0:0:0:0:
192,192,58340,128,0,58660:0:0:0:0:
448,192,58500,128,0,58660:0:0:0:0:
320,192,58660,128,0,58819:0:0:0:0:
64,192,58660,128,0,58979:0:0:0:0:
192,192,58819,128,0,58979:0:0:0:0:
320,192,58979,128,0,59138:0:0:0:0:
448,192,58979,128,0,59298:0:0:0:0:
64,192,59138,128,0,59298:0:0:0:0:
320,192,59298,1,0,0:0:0:0:
192,192,59298,128,0,59617:0:0:0:0:
448,192,59457,1,0,0:0:0:0:
320,192,59617,1,0,0:0:0:0:
448,192,59617,1,0,0:0:0:0:
64,192,59617,1,0,0:0:0:0:
192,192,59777,1,0,0:0:0:0:
64,192,59936,1,0,0:0:0:0:
320,192,59936,1,0,0:0:0:0:
448,192,60096,1,0,0:0:0:0:
64,192,60255,1,0,0:0:0:0:
320,192,60255,1,0,0:0:0:0:
448,192,60255,1,0,0:0:0:0:
192,192,60415,1,0,0:0:0:0:
320,192,60575,128,0,60894:0:0:0:0:
192,192,60575,1,0,0:0:0:0:
448,192,60734,1,0,0:0:0:0:
64,192,60894,1,0,0:0:0:0:
448,192,60894,1,0,0:0:0:0:
192,192,60894,1,0,0:0:0:0:
192,192,61053,128,0,61213:0:0:0:0:
320,192,61213,1,0,0:0:0:0:
64,192,61213,1,0,0:0:0:0:
192,192,61372,1,0,0:0:0:0:
64,192,61372,128,0,61532:0:0:0:0:
448,192,61372,1,0,0:0:0:0:
192,192,61532,1,0,0:0:0:0:
448,192,61532,1,0,0:0:0:0:
320,192,61532,1,0,0:0:0:0:
320,192,61692,128,0,61851:0:0:0:0:
448,192,61851,128,0,62170:0:0:0:0:
192,192,61851,1,0,0:0:0:0:
64,192,61851,1,0,0:0:0:0:
64,192,62011,1,0,0:0:0:0:
320,192,62170,1,0,0:0:0:0:
192,192,62170,1,0,0:0:0:0:
64,192,62330,128,0,62649:0:0:0:0:
448,192,62330,1,0,0:0:0:0:
192,192,62330,1,0,0:0:0:0:
448,192,62489,1,0,0:0:0:0:
320,192,62649,1,0,0:0:0:0:
64,192,62809,1,0,0:0:0:0:
192,192,62809,1,0,0:0:0:0:
448,192,62968,128,0,63287:0:0:0:0:
192,192,62968,1,0,0:0:0:0:
320,192,62968,1,0,0:0:0:0:
64,192,63287,1,0,0:0:0:0:
320,192,63287,1,0,0:0:0:0:
448,192,63447,1,0,0:0:0:0:
192,192,63447,1,0,0:0:0:0:
64,192,63606,1,0,0:0:0:0:
320,192,63606,1,0,0:0:0:0:
192,192,63766,1,0,0:0:0:0:
448,192,63766,1,0,0:0:0:0:
320,192,64085,1,0,0:0:0:0:
448,192,64085,128,0,64404:0:0:0:0:
64,192,64085,1,0,0:0:0:0:
64,192,64404,128,0,64723:0:0:0:0:
192,192,64404,1,0,0:0:0:0:
320,192,64404,1,0,0:0:0:0:
448,192,64564,128,0,64723:0:0:0:0:
192,192,64723,1,0,0:0:0:0:
320,192,64723,128,0,65043:0:0:0:0:
64,192,64883,128,0,65043:0:0:0:0:
192,192,65043,1,0,0:0:0:0:
448,192,65043,1,0,0:0:0:0:
320,192,65202,128,0,65362:0:0:0:0:
192,192,65362,128,0,65521:0:0:0:0:
64,192,65362,1,0,0:0:0:0:
448,192,65362,1,0,0:0:0:0:
448,192,65521,128,0,65681:0:0:0:0:
64,192,65681,1,0,0:0:0:0:
320,192,65681,1,0,0:0:0:0:
192,192,65840,1,0,0:0:0:0:
448,192,66000,128,0,66319:0:0:0:0:
64,192,66000,1,0,0:0:0:0:
320,192,66000,1,0,0:0:0:0:
192,192,66160,1,0,0:0:0:0:
64,192,66319,1,0,0:0:0:0:
320,192,66319,128,0,66638:0:0:0:0:
192,192,66479,1,0,0:0:0:0:
448,192,66638,1,0,0:0:0:0:
192,192,66638,1,0,0:0:0:0:
64,192,66638,128,0,66957:0:0:0:0:
320,192,66798,1,0,0:0:0:0:
448,192,66957,128,0,67277:0:0:0:0:
192,192,66957,1,0,0:0:0:0:
320,192,67117,128,0,67277:0:0:0:0:
64,192,67277,128,0,67596:0:0:0:0:
192,192,67277,1,0,0:0:0:0:
448,192,67436,128,0,67596:0:0:0:0:
320,192,67596,1,0,0:0:0:0:
192,192,67596,1,0,0:0:0:0:
64,192,67755,128,0,67915:0:0:0:0:
448,192,67915,128,0,68075:0:0:0:0:
320,192,67915,1,0,0:0:0:0:
192,192,67915,1,0,0:0:0:0:
192,192,68075,128,0,68234:0:0:0:0:
448,192,68234,1,0,0:0:0:0:
64,192,68234,1,0,0:0:0:0:
320,192,68394,1,0,0:0:0:0:
448,192,68553,128,0,68872:0:0:0:0:
192,192,68553,1,0,0:0:0:0:
64,192,68553,1,0,0:0:0:0:
320,192,68713,1,0,0:0:0:0:
192,192,68872,128,0,69192:0:0:0:0:
64,192,68872,1,0,0:0:0:0:
320,192,69032,1,0,0:0:0:0:
448,192,69192,1,0,0:0:0:0:
64,192,69192,128,0,69511:0:0:0:0:
320,192,69192,1,0,0:0:0:0:
192,192,69351,1,0,0:0:0:0:
320,192,69431,1,0,0:0:0:0:
448,192,69511,128,0,70787:0:0:0:0:
192,192,69511,1,0,0:0:0:0:
320,192,69670,1,0,0:0:0:0:
192,192,69830,1,0,0:0:0:0:
64,192,69830,1,0,0:0:0:0:
320,192,69830,1,0,0:0:0:0:
64,192,69989,1,0,0:0:0:0:
320,192,70149,1,0,0:0:0:0:
192,192,70149,1,0,0:0:0:0:
64,192,70229,1,0,0:0:0:0:
192,192,70309,1,0,0:0:0:0:
320,192,70468,1,0,0:0:0:0:
192,192,70468,1,0,0:0:0:0:
64,192,70468,1,0,0:0:0:0:
320,192,70628,1,0,0:0:0:0:
192,192,70787,1,0,0:0:0:0:
64,192,70787,128,0,72064:0:0:0:0:
320,192,70947,1,0,0:0:0:0:
320,192,71106,1,0,0:0:0:0:
192,192,71106,1,0,0:0:0:0:
448,192,71106,1,0,0:0:0:0:
192,192,71266,1,0,0:0:0:0:
448,192,71426,1,0,0:0:0:0:
320,192,71426,1,0,0:0:0:0:
192,192,71505,1,0,0:0:0:0:
448,192,71585,1,0,0:0:0:0:
320,192,71745,1,0,0:0:0:0:
192,192,71745,1,0,0:0:0:0:
448,192,71745,1,0,0:0:0:0:
320,192,71904,1,0,0:0:0:0:
448,192,72064,128,0,72383:0:0:0:0:
320,192,72064,1,0,0:0:0:0:
192,192,72064,1,0,0:0:0:0:
64,192,72383,1,0,0:0:0:0:
320,192,72383,1,0,0:0:0:0:
192,192,72383,1,0,0:0:0:0:
448,192,72463,1,0,0:0:0:0:
320,192,72543,1,0,0:0:0:0:
192,192,72622,1,0,0:0:0:0:
448,192,72702,1,0,0:0:0:0:
64,192,72702,1,0,0:0:0:0:
320,192,72782,1,0,0:0:0:0:
192,192,72862,1,0,0:0:0:0:
320,192,72942,1,0,0:0:0:0:
448,192,73021,1,0,0:0:0:0:
64,192,73021,1,0,0:0:0:0:
192,192,73021,1,0,0:0:0:0:
320,192,73101,1,0,0:0:0:0:
64,192,73181,1,0,0:0:0:0:
192,192,73261,1,0,0:0:0:0:
448,192,73340,1,0,0:0:0:0:
320,192,73340,1,0,0:0:0:0:
192,192,73420,1,0,0:0:0:0:
448,192,73500,1,0,0:0:0:0:
64,192,73580,1,0,0:0:0:0:
448,192,73660,1,0,0:0:0:0:
320,192,73660,1,0,0:0:0:0:
192,192,73660,1,0,0:0:0:0:
64,192,73739,1,0,0:0:0:0:
320,192,73819,1,0,0:0:0:0:
192,192,73899,1,0,0:0:0:0:
448,192,73979,1,0,0:0:0:0:
320,192,73979,1,0,0:0:0:0:
192,192,74138,1,0,0:0:0:0:
320,192,74218,1,0,0:0:0:0:
192,192,74298,1,0,0:0:0:0:
64,192,74298,1,0,0:0:0:0:
448,192,74298,1,0,0:0:0:0:
320,192,74378,1,0,0:0:0:0:
64,192,74457,1,0,0:0:0:0:
192,192,74537,1,0,0:0:0:0:
320,192,74617,1,0,0:0:0:0:
448,192,74617,1,0,0:0:0:0:
64,192,74617,1,0,0:0:0:0:
192,192,74777,1,0,0:0:0:0:
320,192,74856,1,0,0:0:0:0:
192,192,74936,1,0,0:0:0:0:
64,192,74936,1,0,0:0:0:0:
448,192,74936,1,0,0:0:0:0:
320,192,75016,1,0,0:0:0:0:
64,192,75096,1,0,0:0:0:0:
192,192,75096,1,0,0:0:0:0:
448,192,75096,1,0,0:0:0:0:
64,192,75255,1,0,0:0:0:0:
448,192,75255,1,0,0:0:0:0:
192,192,75335,1,0,0:0:0:0:
320,192,75415,1,0,0:0:0:0:
192,192,75495,1,0,0:0:0:0:
64,192,75575,1,0,0:0:0:0:
448,192,75575,1,0,0:0:0:0:
320,192,75575,1,0,0:0:0:0:
192,192,75654,1,0,0:0:0:0:
320,192,75734,1,0,0:0:0:0:
448,192,75734,1,0,0:0:0:0:
64,192,75734,1,0,0:0:0:0:
320,192,76053,1,0,0:0:0:0:
448,192,76053,1,0,0:0:0:0:
64,192,76053,1,0,0:0:0:0:
192,192,76053,1,0,0:0:0:0:
448,192,76213,1,0,0:0:0:0:
64,192,76213,128,0,76931:0:0:0:0:
192,192,76213,1,0,0:0:0:0:
320,192,76213,1,0,0:0:0:0:
448,192,76532,128,0,76931:0:0:0:0:
320,192,76692,128,0,76931:0:0:0:0:
192,192,76851,128,0,76931:0:0:0:0:
64,192,77011,128,0,77489:0:0:0:0:
320,192,77011,128,0,77170:0:0:0:0:
448,192,77011,128,0,77330:0:0:0:0:
192,192,77330,128,0,77489:0:0:0:0:
320,192,77489,128,0,77809:0:0:0:0:
448,192,77489,128,0,77649:0:0:0:0:
192,192,77649,128,0,77809:0:0:0:0:
64,192,77809,128,0,78128:0:0:0:0:
448,192,77809,128,0,77968:0:0:0:0:
192,192,77968,128,0,78128:0:0:0:0:
448,192,78128,128,0,78447:0:0:0:0:
320,192,78128,1,0,0:0:0:0:
64,192,78287,128,0,78447:0:0:0:0:
192,192,78447,128,0,78766:0:0:0:0:
320,192,78447,1,0,0:0:0:0:
320,192,78606,128,0,78766:0:0:0:0:
64,192,78766,128,0,78926:0:0:0:0:
448,192,78766,128,0,79085:0:0:0:0:
192,192,78926,128,0,79085:0:0:0:0:
64,192,79085,128,0,79245:0:0:0:0:
320,192,79085,128,0,79404:0:0:0:0:
448,192,79245,128,0,79404:0:0:0:0:
192,192,79404,128,0,79564:0:0:0:0:
64,192,79404,128,0,79723:0:0:0:0:
320,192,79564,128,0,79723:0:0:0:0:
192,192,79723,128,0,79883:0:0:0:0:
448,192,79723,128,0,80043:0:0:0:0:
64,192,79883,128,0,80043:0:0:0:0:
320,192,80043,128,0,80362:0:0:0:0:
192,192,80043,128,0,80202:0:0:0:0:
448,192,80202,128,0,80362:0:0:0:0:
64,192,80362,128,0,80521:0:0:0:0:
192,192,80362,128,0,80681:0:0:0:0:
320,192,80521,128,0,80601:0:0:0:0:
64,192,80601,128,0,80681:0:0:0:0:
320,192,80681,128,0,80840:0:0:0:0:
448,192,80681,128,0,81000:0:0:0:0:
192,192,80840,128,0,81000:0:0:0:0:
64,192,81000,1,0,0:0:0:0:
320,192,81000,128,0,81319:0:0:0:0:
64,192,81160,128,0,81319:0:0:0:0:
448,192,81319,128,0,81479:0:0:0:0:
192,192,81319,128,0,81638:0:0:0:0:
320,192,81479,128,0,81798:0:0:0:0:
64,192,81638,128,0,81798:0:0:0:0:
192,192,81798,128,0,81957:0:0:0:0:
448,192,81957,1,0,0:0:0:0:
320,192,81957,1,0,0:0:0:0:
448,192,82117,128,0,82277:0:0:0:0:
64,192,82117,128,0,82596:0:0:0:0:
192,192,82117,1,0,0:0:0:0:
192,192,82277,1,0,0:0:0:0:
320,192,82277,1,0,0:0:0:0:
320,192,82436,128,0,82596:0:0:0:0:
192,192,82596,128,0,82755:0:0:0:0:
448,192,82596,128,0,82915:0:0:0:0:
320,192,82755,128,0,82915:0:0:0:0:
192,192,82915,128,0,83075:0:0:0:0:
64,192,82915,128,0,83234:0:0:0:0:
320,192,83075,1,0,0:0:0:0:
192,192,83234,1,0,0:0:0:0:
448,192,83234,128,0,83553:0:0:0:0:
320,192,83394,128,0,83473:0:0:0:0:
192,192,83473,128,0,83553:0:0:0:0:
320,192,83553,128,0,83713:0:0:0:0:
64,192,83553,128,0,83872:0:0:0:0:
448,192,83713,128,0,83872:0:0:0:0:
320,192,83872,128,0,84032:0:0:0:0:
192,192,83872,128,0,84192:0:0:0:0:
64,192,84032,128,0,84192:0:0:0:0:
320,192,84192,128,0,84351:0:0:0:0:
448,192,84192,128,0,84511:0:0:0:0:
64,192,84351,128,0,84511:0:0:0:0:
320,192,84511,128,0,84670:0:0:0:0:
192,192,84511,128,0,84830:0:0:0:0:
448,192,84670,128,0,84830:0:0:0:0:
320,192,84830,128,0,84989:0:0:0:0:
64,192,84830,128,0,85149:0:0:0:0:
192,192,84989,128,0,85149:0:0:0:0:
320,192,85149,128,0,85309:0:0:0:0:
448,192,85149,128,0,85468:0:0:0:0:
64,192,85309,128,0,85468:0:0:0:0:
320,192,85468,128,0,85787:0:0:0:0:
192,192,85468,128,0,85628:0:0:0:0:
64,192,85628,128,0,85707:0:0:0:0:
448,192,85707,128,0,85787:0:0:0:0:
192,192,85787,128,0,86106:0:0:0:0:
64,192,85787,1,0,0:0:0:0:
448,192,85947,128,0,86106:0:0:0:0:
64,192,86106,128,0,86745:0:0:0:0:
320,192,86106,1,0,0:0:0:0:
192,192,86266,128,0,86426:0:0:0:0:
448,192,86426,128,0,86585:0:0:0:0:
320,192,86426,1,0,0:0:0:0:
192,192,86585,1,0,0:0:0:0:
320,192,86665,1,0,0:0:0:0:
192,192,86745,1,0,0:0:0:0:
448,192,86745,1,0,0:0:0:0:
64,192,86904,1,0,0:0:0:0:
448,192,86904,1,0,0:0:0:0:
320,192,86984,1,0,0:0:0:0:
192,192,86984,1,0,0:0:0:0:
448,192,87064,1,0,0:0:0:0:
64,192,87064,1,0,0:0:0:0:
320,192,87144,1,0,0:0:0:0:
192,192,87223,1,0,0:0:0:0:
64,192,87303,1,0,0:0:0:0:
320,192,87303,1,0,0:0:0:0:
448,192,87383,128,0,87702:0:0:0:0:
192,192,87383,1,0,0:0:0:0:
320,192,87543,1,0,0:0:0:0:
64,192,87702,1,0,0:0:0:0:
192,192,87702,1,0,0:0:0:0:
320,192,87702,1,0,0:0:0:0:
448,192,88021,1,0,0:0:0:0:
64,192,88021,1,0,0:0:0:0:
320,192,88181,1,0,0:0:0:0:
192,192,88181,1,0,0:0:0:0:
448,192,88340,1,0,0:0:0:0:
320,192,88340,1,0,0:0:0:0:
64,192,88340,1,0,0:0:0:0:
320,192,88500,1,0,0:0:0:0:
192,192,88500,1,0,0:0:0:0:
64,192,88660,1,0,0:0:0:0:
448,192,88660,1,0,0:0:0:0:
192,192,88819,1,0,0:0:0:0:
320,192,88979,1,0,0:0:0:0:
448,192,88979,1,0,0:0:0:0:
64,192,88979,1,0,0:0:0:0:
192,192,89138,1,0,0:0:0:0:
64,192,89298,1,0,0:0:0:0:
448,192,89298,128,0,89457:0:0:0:0:
320,192,89457,128,0,89617:0:0:0:0:
64,192,89617,1,0,0:0:0:0:
448,192,89617,1,0,0:0:0:0:
192,192,89617,128,0,89777:0:0:0:0:
64,192,89777,128,0,89936:0:0:0:0:
320,192,89936,1,0,0:0:0:0:
448,192,89936,128,0,90255:0:0:0:0:
192,192,90096,1,0,0:0:0:0:
320,192,90176,1,0,0:0:0:0:
64,192,90255,1,0,0:0:0:0:
192,192,90255,1,0,0:0:0:0:
320,192,90335,1,0,0:0:0:0:
64,192,90415,1,0,0:0:0:0:
192,192,90495,1,0,0:0:0:0:
448,192,90575,1,0,0:0:0:0:
320,192,90575,1,0,0:0:0:0:
192,192,90654,1,0,0:0:0:0:
448,192,90734,1,0,0:0:0:0:
64,192,90814,1,0,0:0:0:0:
320,192,90894,1,0,0:0:0:0:
448,192,90894,1,0,0:0:0:0:
192,192,90894,1,0,0:0:0:0:
64,192,90973,1,0,0:0:0:0:
448,192,91053,1,0,0:0:0:0:
192,192,91133,1,0,0:0:0:0:
320,192,91213,1,0,0:0:0:0:
64,192,91213,1,0,0:0:0:0:
448,192,91293,1,0,0:0:0:0:
192,192,91372,1,0,0:0:0:0:
320,192,91452,1,0,0:0:0:0:
64,192,91532,1,0,0:0:0:0:
448,192,91532,1,0,0:0:0:0:
192,192,91532,1,0,0:0:0:0:
320,192,91612,1,0,0:0:0:0:
64,192,91692,1,0,0:0:0:0:
192,192,91771,1,0,0:0:0:0:
448,192,91851,128,0,92011:0:0:0:0:
320,192,91851,1,0,0:0:0:0:
192,192,92011,128,0,92170:0:0:0:0:
64,192,92170,1,0,0:0:0:0:
448,192,92170,1,0,0:0:0:0:
320,192,92170,128,0,92330:0:0:0:0:
64,192,92330,128,0,92489:0:0:0:0:
192,192,92489,1,0,0:0:0:0:
448,192,92489,128,0,92809:0:0:0:0:
320,192,92569,1,0,0:0:0:0:
64,192,92649,1,0,0:0:0:0:
192,192,92729,1,0,0:0:0:0:
64,192,92809,1,0,0:0:0:0:
320,192,92809,1,0,0:0:0:0:
192,192,92888,1,0,0:0:0:0:
448,192,92968,1,0,0:0:0:0:
320,192,93048,1,0,0:0:0:0:
64,192,93128,1,0,0:0:0:0:
192,192,93128,1,0,0:0:0:0:
320,192,93207,1,0,0:0:0:0:
64,192,93287,1,0,0:0:0:0:
192,192,93367,1,0,0:0:0:0:
64,192,93447,1,0,0:0:0:0:
448,192,93447,1,0,0:0:0:0:
320,192,93447,1,0,0:0:0:0:
192,192,93606,1,0,0:0:0:0:
448,192,93766,1,0,0:0:0:0:
64,192,93766,1,0,0:0:0:0:
192,192,93846,1,0,0:0:0:0:
320,192,93926,1,0,0:0:0:0:
192,192,94005,1,0,0:0:0:0:
64,192,94085,128,0,94404:0:0:0:0:
448,192,94085,1,0,0:0:0:0:
320,192,94085,1,0,0:0:0:0:
192,192,94165,1,0,0:0:0:0:
448,192,94245,1,0,0:0:0:0:
320,192,94325,1,0,0:0:0:0:
448,192,94404,128,0,94723:0:0:0:0:
192,192,94404,1,0,0:0:0:0:
320,192,94484,1,0,0:0:0:0:
64,192,94564,1,0,0:0:0:0:
192,192,94644,1,0,0:0:0:0:
320,192,94723,128,0,95043:0:0:0:0:
64,192,94723,1,0,0:0:0:0:
192,192,94803,1,0,0:0:0:0:
448,192,94883,1,0,0:0:0:0:
192,192,94963,1,0,0:0:0:0:
64,192,95043,128,0,95362:0:0:0:0:
448,192,95043,1,0,0:0:0:0:
320,192,95202,1,0,0:0:0:0:
192,192,95282,1,0,0:0:0:0:
448,192,95362,1,0,0:0:0:0:
320,192,95362,128,0,95521:0:0:0:0:
192,192,95521,1,0,0:0:0:0:
448,192,95521,128,0,96319:0:0:0:0:
320,192,95601,1,0,0:0:0:0:
64,192,95681,1,0,0:0:0:0:
192,192,95681,1,0,0:0:0:0:
320,192,95761,1,0,0:0:0:0:
64,192,95840,1,0,0:0:0:0:
192,192,95920,1,0,0:0:0:0:
320,192,96000,1,0,0:0:0:0:
64,192,96000,1,0,0:0:0:0:
192,192,96160,1,0,0:0:0:0:
320,192,96239,1,0,0:0:0:0:
192,192,96319,1,0,0:0:0:0:
64,192,96319,1,0,0:0:0:0:
320,192,96479,1,0,0:0:0:0:
448,192,96479,1,0,0:0:0:0:
192,192,96559,1,0,0:0:0:0:
320,192,96638,1,0,0:0:0:0:
448,192,96638,1,0,0:0:0:0:
64,192,96638,1,0,0:0:0:0:
192,192,96798,1,0,0:0:0:0:
320,192,96878,1,0,0:0:0:0:
64,192,96957,1,0,0:0:0:0:
448,192,96957,1,0,0:0:0:0:
320,192,97117,1,0,0:0:0:0:
192,192,97197,1,0,0:0:0:0:
320,192,97277,1,0,0:0:0:0:
448,192,97277,1,0,0:0:0:0:
64,192,97277,1,0,0:0:0:0:
192,192,97436,1,0,0:0:0:0:
64,192,97436,128,0,97596:0:0:0:0:
448,192,97436,128,0,97755:0:0:0:0:
320,192,97596,1,0,0:0:0:0:
192,192,97596,1,0,0:0:0:0:
320,192,97755,128,0,97835:0:0:0:0:
64,192,97755,128,0,97915:0:0:0:0:
320,192,97915,1,0,0:0:0:0:
192,192,97915,128,0,97995:0:0:0:0:
448,192,97915,128,0,98075:0:0:0:0:
64,192,98075,128,0,98234:0:0:0:0:
320,192,98075,128,0,98154:0:0:0:0:
448,192,98234,128,0,98394:0:0:0:0:
192,192,98234,128,0,98314:0:0:0:0:
320,192,98394,128,0,98473:0:0:0:0:
64,192,98394,128,0,98553:0:0:0:0:
192,192,98473,1,0,0:0:0:0:
448,192,98553,1,0,0:0:0:0:
320,192,98553,1,0,0:0:0:0:
320,192,98713,128,0,98793:0:0:0:0:
192,192,98713,128,0,98872:0:0:0:0:
448,192,98872,1,0,0:0:0:0:
64,192,98872,1,0,0:0:0:0:
64,192,99032,128,0,99192:0:0:0:0:
320,192,99032,128,0,99112:0:0:0:0:
320,192,99192,1,0,0:0:0:0:
448,192,99192,128,0,99351:0:0:0:0:
192,192,99192,128,0,99271:0:0:0:0:
64,192,99351,128,0,99511:0:0:0:0:
192,192,99351,128,0,99431:0:0:0:0:
448,192,99511,128,0,99670:0:0:0:0:
320,192,99511,128,0,99590:0:0:0:0:
192,192,99670,128,0,99750:0:0:0:0:
64,192,99670,128,0,99830:0:0:0:0:
448,192,99830,1,0,0:0:0:0:
320,192,99830,128,0,99910:0:0:0:0:
192,192,99830,128,0,99989:0:0:0:0:
448,192,99989,128,0,100069:0:0:0:0:
320,192,99989,128,0,100149:0:0:0:0:
64,192,100149,128,0,100229:0:0:0:0:
448,192,100149,128,0,100309:0:0:0:0:
320,192,100309,128,0,100388:0:0:0:0:
192,192,100309,128,0,100468:0:0:0:0:
320,192,100468,1,0,0:0:0:0:
448,192,100468,128,0,100548:0:0:0:0:
64,192,100468,128,0,100628:0:0:0:0:
320,192,100628,128,0,100787:0:0:0:0:
192,192,100628,128,0,100707:0:0:0:0:
448,192,100787,128,0,100947:0:0:0:0:
64,192,100787,128,0,100867:0:0:0:0:
320,192,100947,128,0,101106:0:0:0:0:
192,192,100947,128,0,101027:0:0:0:0:
448,192,101106,1,0,0:0:0:0:
192,192,101106,1,0,0:0:0:0:
64,192,101106,1,0,0:0:0:0:
448,192,101266,128,0,101346:0:0:0:0:
320,192,101266,128,0,101426:0:0:0:0:
64,192,101426,1,0,0:0:0:0:
192,192,101426,1,0,0:0:0:0:
192,192,101585,128,0,101665:0:0:0:0:
64,192,101585,128,0,101745:0:0:0:0:
192,192,101745,1,0,0:0:0:0:
320,192,101745,128,0,101904:0:0:0:0:
448,192,101745,128,0,102064:0:0:0:0:
192,192,101904,128,0,102064:0:0:0:0:
64,192,102064,128,0,102383:0:0:0:0:
320,192,102064,128,0,102223:0:0:0:0:
192,192,102223,128,0,102383:0:0:0:0:
320,192,102383,1,0,0:0:0:0:
448,192,102383,128,0,102543:0:0:0:0:
192,192,102543,1,0,0:0:0:0:
320,192,102543,128,0,102702:0:0:0:0:
64,192,102543,128,0,102862:0:0:0:0:
448,192,102702,1,0,0:0:0:0:
192,192,102702,1,0,0:0:0:0:
192,192,102862,128,0,102942:0:0:0:0:
448,192,102862,128,0,103021:0:0:0:0:
192,192,103021,1,0,0:0:0:0:
320,192,103021,128,0,103101:0:0:0:0:
64,192,103021,128,0,103181:0:0:0:0:
448,192,103181,128,0,103340:0:0:0:0:
192,192,103181,128,0,103261:0:0:0:0:
320,192,103340,128,0,103420:0:0:0:0:
64,192,103340,128,0,103500:0:0:0:0:
448,192,103500,128,0,103660:0:0:0:0:
192,192,103500,128,0,103580:0:0:0:0:
192,192,103660,1,0,0:0:0:0:
320,192,103660,1,0,0:0:0:0:
64,192,103660,1,0,0:0:0:0:
320,192,103819,128,0,103899:0:0:0:0:
192,192,103819,128,0,103979:0:0:0:0:
448,192,103979,1,0,0:0:0:0:
64,192,103979,1,0,0:0:0:0:
448,192,104138,128,0,104298:0:0:0:0:
320,192,104138,128,0,104218:0:0:0:0:
320,192,104298,1,0,0:0:0:0:
192,192,104298,128,0,104378:0:0:0:0:
64,192,104298,128,0,104457:0:0:0:0:
448,192,104457,128,0,104537:0:0:0:0:
320,192,104457,128,0,104617:0:0:0:0:
64,192,104617,128,0,104697:0:0:0:0:
448,192,104617,128,0,104777:0:0:0:0:
320,192,104777,128,0,104856:0:0:0:0:
192,192,104777,128,0,104936:0:0:0:0:
448,192,104936,1,0,0:0:0:0:
320,192,104936,128,0,105016:0:0:0:0:
64,192,104936,128,0,105096:0:0:0:0:
448,192,105096,128,0,105255:0:0:0:0:
192,192,105096,128,0,105176:0:0:0:0:
64,192,105255,128,0,105415:0:0:0:0:
320,192,105255,128,0,105335:0:0:0:0:
320,192,105415,128,0,105575:0:0:0:0:
192,192,105415,128,0,105495:0:0:0:0:
192,192,105575,1,0,0:0:0:0:
64,192,105575,128,0,105734:0:0:0:0:
448,192,105575,128,0,105654:0:0:0:0:
192,192,105734,128,0,105814:0:0:0:0:
448,192,105734,128,0,105894:0:0:0:0:
64,192,105894,128,0,105973:0:0:0:0:
320,192,105894,128,0,106053:0:0:0:0:
448,192,106053,128,0,106133:0:0:0:0:
192,192,106053,128,0,106213:0:0:0:0:
448,192,106213,1,0,0:0:0:0:
64,192,106213,1,0,0:0:0:0:
320,192,106213,1,0,0:0:0:0:
320,192,106372,128,0,106452:0:0:0:0:
448,192,106372,128,0,106532:0:0:0:0:
64,192,106532,1,0,0:0:0:0:
192,192,106532,1,0,0:0:0:0:
192,192,106692,128,0,106771:0:0:0:0:
64,192,106692,128,0,106851:0:0:0:0:
192,192,106851,1,0,0:0:0:0:
448,192,106851,128,0,107011:0:0:0:0:
320,192,106851,128,0,106931:0:0:0:0:
64,192,107011,1,0,0:0:0:0:
192,192,107170,1,0,0:0:0:0:
448,192,107170,1,0,0:0:0:0:
320,192,107330,1,0,0:0:0:0:
64,192,107410,1,0,0:0:0:0:
192,192,107410,1,0,0:0:0:0:
448,192,107489,1,0,0:0:0:0:
320,192,107489,1,0,0:0:0:0:
192,192,107569,1,0,0:0:0:0:
448,192,107649,1,0,0:0:0:0:
64,192,107649,1,0,0:0:0:0:
192,192,107729,1,0,0:0:0:0:
320,192,107729,1,0,0:0:0:0:
448,192,107809,128,0,108128:0:0:0:0:
64,192,107809,1,0,0:0:0:0:
64,192,108128,1,0,0:0:0:0:
192,192,108128,1,0,0:0:0:0:
320,192,108128,1,0,0:0:0:0:
64,192,108287,128,0,108447:0:0:0:0:
320,192,108287,128,0,108367:0:0:0:0:
448,192,108447,128,0,108606:0:0:0:0:
192,192,108447,128,0,108527:0:0:0:0:
64,192,108606,128,0,108766:0:0:0:0:
320,192,108606,128,0,108686:0:0:0:0:
320,192,108766,1,0,0:0:0:0:
448,192,108766,128,0,108926:0:0:0:0:
192,192,108766,128,0,108846:0:0:0:0:
320,192,108926,1,0,0:0:0:0:
64,192,108926,1,0,0:0:0:0:
192,192,108926,1,0,0:0:0:0:
448,192,109085,1,0,0:0:0:0:
64,192,109085,1,0,0:0:0:0:
192,192,109245,128,0,109404:0:0:0:0:
64,192,109404,1,0,0:0:0:0:
448,192,109404,1,0,0:0:0:0:
320,192,109404,1,0,0:0:0:0:
448,192,109564,128,0,110043:0:0:0:0:
64,192,109644,128,0,109723:0:0:0:0:
192,192,109723,1,0,0:0:0:0:
320,192,109723,128,0,109883:0:0:0:0:
192,192,109883,128,0,110043:0:0:0:0:
320,192,110043,1,0,0:0:0:0:
64,192,110043,128,0,110202:0:0:0:0:
448,192,110202,128,0,110362:0:0:0:0:
64,192,110362,128,0,110681:0:0:0:0:
192,192,110362,1,0,0:0:0:0:
320,192,110362,1,0,0:0:0:0:
448,192,110681,1,0,0:0:0:0:
320,192,110681,1,0,0:0:0:0:
192,192,110681,1,0,0:0:0:0:
448,192,110840,1,0,0:0:0:0:
320,192,110840,1,0,0:0:0:0:
64,192,110840,1,0,0:0:0:0:
64,192,111000,1,0,0:0:0:0:
192,192,111000,1,0,0:0:0:0:
320,192,111160,1,0,0:0:0:0:
448,192,111160,1,0,0:0:0:0:
192,192,111160,1,0,0:0:0:0:
448,192,111319,1,0,0:0:0:0:
64,192,111319,1,0,0:0:0:0:
64,192,111479,1,0,0:0:0:0:
192,192,111479,1,0,0:0:0:0:
320,192,111479,1,0,0:0:0:0:
192,192,111638,1,0,0:0:0:0:
448,192,111638,1,0,0:0:0:0:
320,192,111798,1,0,0:0:0:0:
192,192,111957,1,0,0:0:0:0:
448,192,111957,1,0,0:0:0:0:
64,192,111957,1,0,0:0:0:0:
192,192,112117,1,0,0:0:0:0:
64,192,112277,1,0,0:0:0:0:
448,192,112277,1,0,0:0:0:0:
320,192,112277,1,0,0:0:0:0:
64,192,112436,1,0,0:0:0:0:
192,192,112436,1,0,0:0:0:0:
320,192,112516,1,0,0:0:0:0:
448,192,112516,1,0,0:0:0:0:
64,192,112596,1,0,0:0:0:0:
192,192,112596,1,0,0:0:0:0:
320,192,112676,1,0,0:0:0:0:
448,192,112755,1,0,0:0:0:0:
64,192,112755,1,0,0:0:0:0:
192,192,112835,1,0,0:0:0:0:
320,192,112835,1,0,0:0:0:0:
448,192,112915,128,0,113713:0:0:0:0:
64,192,112915,1,0,0:0:0:0:
64,192,113234,1,0,0:0:0:0:
192,192,113234,1,0,0:0:0:0:
320,192,113234,1,0,0:0:0:0:
192,192,113394,1,0,0:0:0:0:
64,192,113553,1,0,0:0:0:0:
320,192,113553,1,0,0:0:0:0:
64,192,113713,128,0,113872:0:0:0:0:
192,192,113793,128,0,113872:0:0:0:0:
448,192,113872,1,0,0:0:0:0:
320,192,113872,128,0,114032:0:0:0:0:
448,192,114032,1,0,0:0:0:0:
64,192,114032,1,0,0:0:0:0:
192,192,114032,128,0,114830:0:0:0:0:
64,192,114192,1,0,0:0:0:0:
320,192,114192,1,0,0:0:0:0:
448,192,114351,1,0,0:0:0:0:
448,192,114511,1,0,0:0:0:0:
64,192,114511,1,0,0:0:0:0:
320,192,114511,1,0,0:0:0:0:
64,192,114670,1,0,0:0:0:0:
448,192,114830,1,0,0:0:0:0:
320,192,114830,128,0,114989:0:0:0:0:
64,192,114989,128,0,115149:0:0:0:0:
448,192,115149,1,0,0:0:0:0:
192,192,115149,128,0,115309:0:0:0:0:
320,192,115309,128,0,115468:0:0:0:0:
64,192,115468,1,0,0:0:0:0:
192,192,115468,1,0,0:0:0:0:
448,192,115468,128,0,115787:0:0:0:0:
192,192,115787,1,0,0:0:0:0:
64,192,115787,1,0,0:0:0:0:
192,192,115947,1,0,0:0:0:0:
448,192,115947,1,0,0:0:0:0:
320,192,115947,128,0,116106:0:0:0:0:
64,192,116106,1,0,0:0:0:0:
448,192,116106,1,0,0:0:0:0:
192,192,116266,128,0,116426:0:0:0:0:
64,192,116346,1,0,0:0:0:0:
320,192,116426,1,0,0:0:0:0:
448,192,116426,1,0,0:0:0:0:
64,192,116585,128,0,116904:0:0:0:0:
448,192,116585,1,0,0:0:0:0:
192,192,116585,1,0,0:0:0:0:
192,192,116904,1,0,0:0:0:0:
448,192,116904,1,0,0:0:0:0:
320,192,116904,1,0,0:0:0:0:
320,192,117064,1,0,0:0:0:0:
192,192,117064,1,0,0:0:0:0:
64,192,117064,1,0,0:0:0:0:
448,192,117223,128,0,117702:0:0:0:0:
192,192,117543,128,0,117702:0:0:0:0:
320,192,117702,128,0,117782:0:0:0:0:
64,192,117702,128,0,118021:0:0:0:0:
192,192,117782,128,0,117862:0:0:0:0:
448,192,117862,128,0,117942:0:0:0:0:
320,192,117942,128,0,118021:0:0:0:0:
448,192,118021,128,0,119298:0:0:0:0:
192,192,118021,1,0,0:0:0:0:
192,192,118340,1,0,0:0:0:0:
64,192,118340,1,0,0:0:0:0:
320,192,118340,1,0,0:0:0:0:
192,192,118500,1,0,0:0:0:0:
64,192,118660,1,0,0:0:0:0:
320,192,118660,1,0,0:0:0:0:
192,192,118819,1,0,0:0:0:0:
64,192,118979,1,0,0:0:0:0:
320,192,118979,1,0,0:0:0:0:
192,192,118979,1,0,0:0:0:0:
320,192,119138,1,0,0:0:0:0:
64,192,119138,1,0,0:0:0:0:
192,192,119298,1,0,0:0:0:0:
320,192,119298,1,0,0:0:0:0:
64,192,119617,128,0,119936:0:0:0:0:
448,192,119617,1,0,0:0:0:0:
192,192,119617,1,0,0:0:0:0:
320,192,119777,1,0,0:0:0:0:
448,192,119936,1,0,0:0:0:0:
192,192,119936,128,0,120255:0:0:0:0:
320,192,120096,1,0,0:0:0:0:
448,192,120255,1,0,0:0:0:0:
64,192,120255,1,0,0:0:0:0:
320,192,120255,128,0,120415:0:0:0:0:
64,192,120415,128,0,120575:0:0:0:0:
448,192,120575,128,0,121532:0:0:0:0:
192,192,120575,1,0,0:0:0:0:
64,192,120894,1,0,0:0:0:0:
192,192,120894,1,0,0:0:0:0:
320,192,120894,1,0,0:0:0:0:
320,192,121053,1,0,0:0:0:0:
64,192,121213,1,0,0:0:0:0:
192,192,121213,1,0,0:0:0:0:
320,192,121372,1,0,0:0:0:0:
192,192,121532,1,0,0:0:0:0:
64,192,121532,1,0,0:0:0:0:
320,192,121532,1,0,0:0:0:0:
448,192,121692,1,0,0:0:0:0:
192,192,121692,1,0,0:0:0:0:
64,192,121692,128,0,122170:0:0:0:0:
448,192,121851,1,0,0:0:0:0:
320,192,121851,1,0,0:0:0:0:
192,192,122011,128,0,122170:0:0:0:0:
448,192,122170,128,0,122330:0:0:0:0:
320,192,122170,1,0,0:0:0:0:
64,192,122330,128,0,122489:0:0:0:0:
192,192,122489,1,0,0:0:0:0:
320,192,122489,1,0,0:0:0:0:
448,192,122649,128,0,122809:0:0:0:0:
320,192,122729,1,0,0:0:0:0:
192,192,122809,1,0,0:0:0:0:
64,192,122809,128,0,122968:0:0:0:0:
448,192,122968,1,0,0:0:0:0:
320,192,122968,1,0,0:0:0:0:
192,192,123048,1,0,0:0:0:0:
64,192,123048,1,0,0:0:0:0:
320,192,123128,1,0,0:0:0:0:
448,192,123128,128,0,124404:0:0:0:0:
192,192,123447,1,0,0:0:0:0:
64,192,123447,1,0,0:0:0:0:
320,192,123447,1,0,0:0:0:0:
320,192,123606,1,0,0:0:0:0:
192,192,123766,1,0,0:0:0:0:
64,192,123766,1,0,0:0:0:0:
320,192,123926,1,0,0:0:0:0:
320,192,124085,1,0,0:0:0:0:
192,192,124085,1,0,0:0:0:0:
64,192,124085,1,0,0:0:0:0:
64,192,124245,1,0,0:0:0:0:
192,192,124245,1,0,0:0:0:0:
192,192,124404,1,0,0:0:0:0:
320,192,124404,1,0,0:0:0:0:
64,192,124723,128,0,125043:0:0:0:0:
448,192,124723,1,0,0:0:0:0:
320,192,124723,1,0,0:0:0:0:
192,192,124883,1,0,0:0:0:0:
320,192,125043,128,0,125362:0:0:0:0:
448,192,125043,1,0,0:0:0:0:
192,192,125202,1,0,0:0:0:0:
192,192,125362,128,0,125521:0:0:0:0:
448,192,125362,1,0,0:0:0:0:
64,192,125362,1,0,0:0:0:0:
448,192,125521,128,0,125681:0:0:0:0:
320,192,125681,1,0,0:0:0:0:
64,192,125681,128,0,126638:0:0:0:0:
192,192,126000,1,0,0:0:0:0:
320,192,126000,1,0,0:0:0:0:
448,192,126000,1,0,0:0:0:0:
192,192,126160,1,0,0:0:0:0:
320,192,126319,1,0,0:0:0:0:
448,192,126319,1,0,0:0:0:0:
192,192,126479,1,0,0:0:0:0:
192,192,126638,1,0,0:0:0:0:
448,192,126638,1,0,0:0:0:0:
320,192,126638,1,0,0:0:0:0:
448,192,126798,128,0,127277:0:0:0:0:
320,192,126798,1,0,0:0:0:0:
64,192,126798,1,0,0:0:0:0:
192,192,126957,1,0,0:0:0:0:
64,192,126957,1,0,0:0:0:0:
320,192,127117,1,0,0:0:0:0:
192,192,127277,1,0,0:0:0:0:
320,192,127277,1,0,0:0:0:0:
64,192,127277,1,0,0:0:0:0:
448,192,127436,1,0,0:0:0:0:
64,192,127596,128,0,127755:0:0:0:0:
192,192,127596,1,0,0:0:0:0:
320,192,127755,128,0,127915:0:0:0:0:
192,192,127915,128,0,128075:0:0:0:0:
448,192,127915,1,0,0:0:0:0:
64,192,127915,1,0,0:0:0:0:
448,192,128075,128,0,128234:0:0:0:0:
192,192,128234,1,0,0:0:0:0:
64,192,128234,1,0,0:0:0:0:
320,192,128394,128,0,128553:0:0:0:0:
64,192,128553,128,0,128713:0:0:0:0:
192,192,128553,1,0,0:0:0:0:
448,192,128553,1,0,0:0:0:0:
448,192,128713,128,0,128872:0:0:0:0:
192,192,128872,128,0,129032:0:0:0:0:
320,192,128872,1,0,0:0:0:0:
448,192,129032,128,0,129192:0:0:0:0:
64,192,129032,1,0,0:0:0:0:
192,192,129192,1,0,0:0:0:0:
64,192,129192,128,0,129351:0:0:0:0:
320,192,129192,1,0,0:0:0:0:
192,192,129351,1,0,0:0:0:0:
320,192,129351,1,0,0:0:0:0:
448,192,129351,1,0,0:0:0:0:
448,192,129511,1,0,0:0:0:0:
64,192,129511,1,0,0:0:0:0:
192,192,129670,128,0,129830:0:0:0:0:
320,192,129830,1,0,0:0:0:0:
64,192,129830,1,0,0:0:0:0:
448,192,129830,128,0,129989:0:0:0:0:
64,192,129989,128,0,130149:0:0:0:0:
320,192,130149,1,0,0:0:0:0:
448,192,130149,1,0,0:0:0:0:
192,192,130229,1,0,0:0:0:0:
448,192,130309,1,0,0:0:0:0:
64,192,130309,1,0,0:0:0:0:
192,192,130388,1,0,0:0:0:0:
320,192,130388,1,0,0:0:0:0:
64,192,130468,1,0,0:0:0:0:
448,192,130468,1,0,0:0:0:0:
192,192,130548,1,0,0:0:0:0:
320,192,130548,1,0,0:0:0:0:
64,192,130628,1,0,0:0:0:0:
448,192,130628,1,0,0:0:0:0:
320,192,130707,1,0,0:0:0:0:
192,192,130707,1,0,0:0:0:0:
64,192,130787,128,0,131287:0:0:0:0:
448,192,130787,1,0,0:0:0:0:
192,192,130953,1,0,0:0:0:0:
320,192,130953,1,0,0:0:0:0:
448,192,131120,1,0,0:0:0:0:
320,192,131120,1,0,0:0:0:0:
448,192,131287,128,0,131662:0:0:0:0:
320,192,131287,1,0,0:0:0:0:
192,192,131287,1,0,0:0:0:0:
64,192,131474,1,0,0:0:0:0:
320,192,131662,1,0,0:0:0:0:
192,192,131849,128,0,135849:0:0:0:0:
448,192,131849,128,0,133134:0:0:0:0:
64,192,131849,128,0,135813:0:0:0:0:
320,192,133134,1,0,0:0:0:0:
320,192,133491,128,0,135884:0:0:0:0:
448,192,133563,128,0,135920:0:0:0:0:
