osu file format v14

[General]
AudioFilename: audio.mp3
AudioLeadIn: 0
PreviewTime: 257136
Countdown: 0
SampleSet: Soft
StackLeniency: 0.3
Mode: 0
LetterboxInBreaks: 0
WidescreenStoryboard: 0

[Editor]
Bookmarks: 400,10505,20610,33242,43347,53452,63557,73663,83768,93873,103978,114084,124189,134294,144400,154505,164610,174715,184821,194926,205031,215136,225242,234715,244820,257451,267557,277662,287767,297872,307978,318083,328188,345872
DistanceSpacing: 1.3
BeatDivisor: 4
GridSize: 4
TimelineZoom: 1

[Metadata]
Title:Yakusoku no Asterism
TitleUnicode:約束のアステリズム
Artist:Minase Inori
ArtistUnicode:水瀬いのり
Creator:Andrea
Version:Constellation
Source:
Tags:Catch the Rainbow! Inorin Sekai Sekaii Sekai-nyan osuplayer111 Elements Garden Ryutaro Fujinaga 藤永龍太郎 jpop j-pop pop collab collaboration japanese Marathon Female vocalist
BeatmapID:2637848
BeatmapSetID:1269340

[Difficulty]
HPDrainRate:7
CircleSize:5
OverallDifficulty:8
ApproachRate:9
SliderMultiplier:1.6
SliderTickRate:1

[Events]
//Background and Video events
0,0,"bginorin.jpg",0,0
Video,-900,"Video.avi"
//Break Periods
//Storyboard Layer 0 (Background)
//Storyboard Layer 1 (Fail)
//Storyboard Layer 2 (Pass)
//Storyboard Layer 3 (Foreground)
//Storyboard Layer 4 (Overlay)
//Storyboard Sound Samples

[TimingPoints]
390,315.789473684211,4,2,1,50,1,0
390,-125,4,2,1,50,0,0
2916,-125,4,2,2,50,0,0
4495,-125,4,2,1,50,0,0
10100,-125,4,2,1,5,0,0
10179,-125,4,2,1,50,0,0
10416,-125,4,2,1,5,0,0
10495,-100,4,2,2,60,0,0
10811,-100,4,2,1,60,0,0
15547,-100,4,2,2,60,0,0
15863,-100,4,2,1,60,0,0
20600,-100,4,2,2,60,0,0
20758,-100,4,2,1,60,0,0
25653,-100,4,2,2,60,0,0
25811,-100,4,2,1,60,0,0
28179,-100,4,2,2,60,0,0
28337,-100,4,2,1,60,0,0
33232,-125,4,2,2,50,0,0
33390,-125,4,2,1,50,0,0
38284,-125,4,2,2,50,0,0
38442,-125,4,2,1,50,0,0
43337,-111.111111111111,4,2,2,55,0,0
43653,-111.111111111111,4,2,1,55,0,0
48390,-111.111111111111,4,2,2,55,0,0
48547,-111.111111111111,4,2,1,55,0,0
53126,-125,4,2,1,55,0,0
53363,-111.111111111111,4,2,1,5,0,0
53442,-100,4,2,2,60,0,0
53758,-100,4,2,1,60,0,0
58495,-100,4,2,2,60,0,0
58811,-100,4,2,1,60,0,0
63547,-100,4,2,2,60,0,0
63705,-100,4,2,1,60,0,0
65995,-100,4,2,1,5,0,0
66074,-100,4,2,1,60,0,0
68600,-100,4,2,2,60,0,0
68916,-100,4,2,1,60,0,0
71363,-100,4,2,1,5,0,0
71442,-100,4,2,1,60,0,0
73337,-100,4,2,1,50,0,0
82968,-100,4,2,1,40,0,0
83758,-100,4,2,1,50,0,0
91337,-100,4,2,1,60,0,0
91574,-100,4,2,1,5,0,0
91653,-100,4,2,1,60,0,0
93390,-125,4,2,1,60,0,0
93547,-125,4,2,1,5,0,0
93863,-90.9090909090909,4,2,2,80,0,1
94021,-90.9090909090909,4,2,1,80,0,1
97021,-90.9090909090909,4,2,2,80,0,1
99074,-90.9090909090909,4,2,1,80,0,1
102074,-90.9090909090909,4,2,2,80,0,1
104126,-90.9090909090909,4,2,1,80,0,1
107126,-90.9090909090909,4,2,2,80,0,1
109337,-90.9090909090909,4,2,1,80,0,1
114074,-90.9090909090909,4,2,2,80,0,1
114390,-90.9090909090909,4,2,1,80,0,1
124179,-100,4,2,2,70,0,0
124337,-100,4,2,1,70,0,0
129232,-100,4,2,2,70,0,0
129390,-100,4,2,1,70,0,0
134284,-111.111111111111,4,2,2,60,0,0
134600,-111.111111111111,4,2,1,60,0,0
139337,-111.111111111111,4,2,2,60,0,0
139653,-111.111111111111,4,2,1,60,0,0
144390,-111.111111111111,4,2,2,60,0,0
144705,-111.111111111111,4,2,1,60,0,0
149442,-111.111111111111,4,2,2,60,0,0
149758,-111.111111111111,4,2,1,60,0,0
151968,-125,4,2,1,50,0,0
154416,-125,4,2,1,5,0,0
154495,-100,4,2,1,60,0,0
188679,-100,4,2,1,5,0,0
188758,-100,4,2,1,60,0,0
190100,-100,4,2,1,5,0,0
190179,-100,4,2,1,60,0,0
194916,-125,4,2,2,60,0,0
199495,-125,4,2,1,40,0,0
199968,-125,4,2,2,60,0,0
200126,-125,4,2,2,50,0,0
201232,-125,4,2,2,45,0,0
202495,-125,4,2,2,40,0,0
203758,-125,4,2,2,35,0,0
204705,-125,4,2,1,50,0,0
205021,-111.111111111111,4,2,2,50,0,0
205179,-111.111111111111,4,2,1,50,0,0
209995,-111.111111111111,4,2,1,5,0,0
210074,-111.111111111111,4,2,2,50,0,0
210232,-111.111111111111,4,2,1,50,0,0
212600,-111.111111111111,4,2,2,50,0,0
212916,-111.111111111111,4,2,1,50,0,0
213863,-111.111111111111,4,2,2,50,0,0
214179,-111.111111111111,4,2,1,50,0,0
215126,-100,4,2,2,60,0,0
215284,-100,4,2,1,60,0,0
217653,-100,4,2,2,60,0,0
217811,-100,4,2,1,60,0,0
220179,-100,4,2,2,60,0,0
220495,-100,4,2,1,60,0,0
222705,-100,4,2,2,60,0,0
222863,-100,4,2,1,60,0,0
225232,-100,4,2,2,60,0,0
225547,-100,4,2,1,60,0,0
227442,-100,4,2,2,60,0,0
227758,-100,4,2,1,60,0,0
229179,-100,4,2,1,50,0,0
229337,-100,4,2,1,60,0,0
229968,-100,4,2,2,60,0,0
230284,-100,4,2,1,60,0,0
232179,-100,4,2,2,60,0,0
232337,-100,4,2,1,60,0,0
234705,315.789473684211,4,2,2,60,1,0
234705,-100,4,2,2,60,0,0
235020,-100,4,2,1,60,0,0
239757,-100,4,2,2,60,0,0
240073,-100,4,2,1,60,0,0
244810,-100,4,2,2,60,0,0
244968,-100,4,2,1,60,0,0
249862,-100,4,2,2,60,0,0
250178,-100,4,2,1,60,0,0
256257,-100,4,2,1,5,0,0
256336,-100,4,2,1,60,0,0
257441,-111.111111111111,4,2,2,50,0,0
257757,-111.111111111111,4,2,1,50,0,0
260599,-111.111111111111,4,2,2,50,0,0
260915,-111.111111111111,4,2,1,50,0,0
261231,-111.111111111111,4,2,2,50,0,0
261547,-111.111111111111,4,2,1,50,0,0
261862,-111.111111111111,4,2,2,50,0,0
262178,-111.111111111111,4,2,1,50,0,0
262494,-111.111111111111,4,2,2,50,0,0
262652,-111.111111111111,4,2,1,50,0,0
265652,-111.111111111111,4,2,2,50,0,0
265968,-111.111111111111,4,2,1,50,0,0
266283,-111.111111111111,4,2,2,50,0,0
266599,-111.111111111111,4,2,1,50,0,0
266915,-111.111111111111,4,2,2,50,0,0
267073,-111.111111111111,4,2,1,50,0,0
267547,-100,4,2,1,60,0,0
270705,-100,4,2,2,60,0,0
270862,-100,4,2,1,60,0,0
271336,-100,4,2,2,60,0,0
271652,-100,4,2,1,60,0,0
271968,-100,4,2,2,60,0,0
272283,-100,4,2,1,60,0,0
272836,-100,4,2,1,5,0,0
272915,-100,4,2,1,60,0,0
277020,-125,4,2,1,60,0,0
277099,-125,4,2,1,5,0,0
277652,-90.9090909090909,4,2,2,80,0,1
277810,-90.9090909090909,4,2,1,80,0,1
280810,-90.9090909090909,4,2,2,80,0,1
282862,-90.9090909090909,4,2,1,80,0,1
285862,-90.9090909090909,4,2,2,80,0,1
286652,-90.9090909090909,4,2,2,70,0,1
287757,-90.9090909090909,4,2,2,80,0,1
287915,-90.9090909090909,4,2,1,80,0,1
290915,-90.9090909090909,4,2,2,80,0,1
293126,-90.9090909090909,4,2,1,80,0,1
297862,-90.9090909090909,4,2,2,80,0,1
298178,-90.9090909090909,4,2,1,80,0,1
307968,-90.9090909090909,4,2,2,80,0,1
308126,-90.9090909090909,4,2,1,80,0,1
318073,-100,4,2,2,70,0,0
318389,-100,4,2,1,70,0,0
323126,-100,4,2,2,70,0,0
323441,-100,4,2,1,70,0,0
328178,-100,4,2,2,70,0,0
328336,-100,4,2,1,70,0,0
333231,-100,4,2,2,70,0,0
333389,-100,4,2,1,70,0,0
335757,-100,4,2,2,70,0,0
335915,-100,4,2,1,70,0,0
340810,-125,4,2,2,70,0,0
340889,-125,4,2,1,50,0,0
342073,-125,4,2,1,40,0,0
343336,-125,4,2,1,30,0,0
344599,-125,4,2,1,20,0,0
345231,-125,4,2,1,10,0,0
345862,-100,4,2,1,5,0,0

[Colours]
Combo1 : 234,174,149
Combo2 : 150,160,233
SliderBorder : 234,174,149
SliderTrackOverride : 150,160,233

[HitObjects]
228,52,390,6,0,P|256:39|284:52,1,64,2|0,0:0|0:0,0:0:0:0:
344,120,705,1,0,0:0:0:0:
344,120,863,1,0,0:0:0:0:
284,188,1021,2,0,P|255:201|227:188,1,64,2|0,0:0|0:0,0:0:0:0:
168,120,1337,1,0,0:0:0:0:
168,120,1495,1,0,0:0:0:0:
132,200,1653,6,0,L|100:264,1,64,2|0,0:0|0:0,0:0:0:0:
64,336,1968,1,0,0:0:0:0:
64,336,2126,1,0,0:0:0:0:
160,344,2284,2,0,L|192:280,1,64,2|0,0:0|0:0,0:0:0:0:
228,208,2600,1,0,0:0:0:0:
228,208,2758,1,0,0:0:0:0:
352,248,2916,6,0,P|404:279|456:248,1,128,2|0,0:0|0:0,0:0:0:0:
456,136,3390,2,0,P|404:105|352:136,1,128,2|0,0:0|0:0,0:0:0:0:
256,192,3863,2,0,B|196:216|196:168|132:192,1,128,2|0,0:0|0:0,0:0:0:0:
168,331,4337,2,0,P|155:303|169:275,2,64,2|0|0,0:0|0:0|0:0,0:0:0:0:
256,356,4811,1,2,0:0:0:0:
256,356,4968,1,0,0:0:0:0:
343,331,5126,2,0,P|356:303|343:275,1,64
256,192,5442,6,0,B|232:132|280:132|256:68,1,128,2|0,0:0|0:0,0:0:0:0:
172,36,5916,2,0,P|121:5|68:35,1,128,2|0,0:0|0:0,0:0:0:0:
120,108,6390,1,2,0:0:0:0:
80,231,6547,1,0,0:0:0:0:
184,155,6705,1,0,0:0:0:0:
55,155,6863,1,0,0:0:0:0:
160,231,7021,6,0,P|147:259|160:287,1,64,2|0,0:0|0:0,0:0:0:0:
228,344,7337,2,0,P|256:356|284:343,1,64
351,287,7653,2,0,P|364:259|352:231,1,64,2|0,0:0|0:0,0:0:0:0:
256,192,7968,1,2,0:0:0:0:
256,192,8047,12,0,10100,0:0:0:0:
256,192,10179,6,0,B|239:228|239:228|244:244|244:244|227:280,1,96,8|0,0:0|0:0,0:0:0:0:
208,316,10495,6,0,B|150:297|150:297|119:266|119:266|65:248,1,160,6|8,0:0|0:0,0:0:0:0:
168,192,10968,1,0,0:0:0:0:
12,304,11126,2,0,L|100:336,1,80,2|0,3:0|0:0,0:0:0:0:
168,192,11442,2,0,B|185:156|185:156|168:120,1,80,8|0,0:0|0:0,0:0:0:0:
248,216,11758,2,0,B|290:148|290:148|248:80,1,160,2|8,3:0|0:0,0:0:0:0:
392,140,12232,1,0,0:0:0:0:
308,264,12390,2,0,L|356:188,1,80,2|0,3:0|0:0,0:0:0:0:
300,24,12705,2,0,L|348:100,1,80,8|0,0:0|0:0,0:0:0:0:
112,152,13021,6,0,B|192:124|192:180|268:152,1,160,2|8,3:0|0:0,0:0:0:0:
144,220,13495,1,0,0:0:0:0:
232,76,13653,2,0,P|195:60|159:75,1,80,2|0,3:0|0:0,0:0:0:0:
71,219,13968,2,0,P|107:234|143:219,1,80,8|0,0:0|0:0,0:0:0:0:
256,380,14284,5,2,3:0:0:0:
210,238,14442,1,0,0:0:0:0:
330,325,14600,1,8,0:0:0:0:
181,325,14758,1,0,0:0:0:0:
302,238,14916,2,0,L|400:248,1,80,2|0,3:0|0:0,0:0:0:0:
181,325,15232,2,0,L|101:316,1,80,8|8,0:0|0:0,0:0:0:0:
56,260,15468,1,8,0:0:0:0:
56,260,15547,6,0,B|56:216|21:192|21:192|56:168|56:124,1,160,6|8,0:0|0:0,0:0:0:0:
216,192,16021,1,0,0:0:0:0:
132,228,16179,2,0,B|115:192|115:192|132:156,1,80,2|0,3:0|0:0,0:0:0:0:
292,156,16495,2,0,B|309:192|309:192|292:228,1,80,8|0,0:0|0:0,0:0:0:0:
376,260,16811,2,0,B|376:216|411:192|411:192|376:168|376:124,1,160,2|8,3:0|0:0,0:0:0:0:
496,192,17284,1,0,0:0:0:0:
375,123,17442,2,0,P|338:107|302:122,1,80,2|0,3:0|0:0,0:0:0:0:
303,260,17758,2,0,P|339:275|375:259,1,80,8|0,0:0|0:0,0:0:0:0:
96,192,18074,6,0,B|176:164|176:220|252:192,1,160,2|8,3:0|0:0,0:0:0:0:
136,264,18547,1,0,0:0:0:0:
208,116,18705,1,2,3:0:0:0:
136,264,18863,1,0,0:0:0:0:
208,116,19021,2,0,B|208:88|208:88|204:84|204:84|212:84|212:84|208:80|208:80|208:48,1,80,8|0,0:0|0:0,0:0:0:0:
376,192,19337,6,0,B|393:228|393:228|376:264,1,80,12|0,0:0|0:0,0:0:0:0:
136,264,19653,2,0,B|119:228|119:228|136:192,1,80,12|0,0:0|0:0,0:0:0:0:
256,96,19968,1,8,0:0:0:0:
376,192,20126,1,8,0:0:0:0:
361,228,20205,1,8,0:0:0:0:
326,244,20284,1,8,0:0:0:0:
289,231,20363,1,8,0:0:0:0:
273,196,20442,1,8,0:0:0:0:
285,159,20521,1,8,0:0:0:0:
320,141,20600,5,14,0:0:0:0:
416,80,20758,1,0,0:0:0:0:
320,20,20916,2,0,B|264:20|264:20|224:40|224:40|164:40,1,160,8|2,0:0|3:0,0:0:0:0:
124,144,21390,1,0,0:0:0:0:
15,172,21547,1,8,0:0:0:0:
44,281,21705,1,0,0:0:0:0:
152,252,21863,6,0,B|197:284|197:284|219:323|219:323|268:357,1,160,2|8,3:0|0:0,0:0:0:0:
267,357,22337,1,0,0:0:0:0:
344,228,22495,2,0,P|359:191|344:155,1,80,2|0,3:0|0:0,0:0:0:0:
267,27,22811,1,8,0:0:0:0:
344,155,22968,2,0,B|424:127|424:183|500:155,1,160,2|0,0:0|0:0,0:0:0:0:
422,27,23442,6,0,B|342:55|342:-1|266:27,1,160,8|2,0:0|3:0,0:0:0:0:
266,26,23916,1,0,0:0:0:0:
136,28,24074,2,0,B|119:64|119:64|136:100,1,80,8|0,0:0|0:0,0:0:0:0:
196,228,24390,2,0,P|256:272|316:228,1,160,2|8,3:0|0:0,0:0:0:0:
256,128,24863,1,0,0:0:0:0:
256,128,25021,1,2,3:0:0:0:
316,227,25179,2,0,L|356:303,1,80,12|0,0:0|0:0,0:0:0:0:
256,364,25495,1,12,0:0:0:0:
196,227,25653,6,0,L|156:303,1,80,14|0,0:0|0:0,0:0:0:0:
256,128,25968,2,0,B|312:128|312:128|352:148|352:148|412:148,1,160,8|2,0:0|3:0,0:0:0:0:
411,148,26442,1,0,0:0:0:0:
269,204,26600,2,0,B|229:204|229:204|193:228,1,80,8|0,0:0|0:0,0:0:0:0:
64,152,26916,2,0,L|208:65,1,160,2|8,3:0|0:0,0:0:0:0:
311,69,27390,1,2,0:0:0:0:
201,69,27547,1,8,0:0:0:0:
311,69,27705,5,8,0:0:0:0:
350,77,27784,1,8,0:0:0:0:
384,96,27863,1,8,0:0:0:0:
411,125,27942,1,8,0:0:0:0:
429,161,28021,1,8,0:0:0:0:
434,201,28100,1,8,0:0:0:0:
428,240,28179,5,14,0:0:0:0:
308,356,28337,1,10,0:0:0:0:
308,356,28495,1,10,0:0:0:0:
340,176,28653,5,8,0:0:0:0:
220,292,28811,1,10,0:0:0:0:
220,292,28968,1,10,0:0:0:0:
256,104,29126,5,12,0:0:0:0:
136,220,29284,1,10,0:0:0:0:
136,220,29442,2,0,P|96:220|64:196,1,80,10|8,0:0|0:0,0:0:0:0:
184,81,29758,6,0,P|224:81|256:105,1,80,2|0,0:0|0:0,0:0:0:0:
376,192,30074,1,8,0:0:0:0:
255,281,30232,1,8,0:0:0:0:
255,281,30311,1,8,0:0:0:0:
255,281,30390,1,8,0:0:0:0:
392,336,30547,1,8,0:0:0:0:
392,336,30626,1,8,0:0:0:0:
392,336,30705,5,12,0:0:0:0:
376,192,30863,1,10,0:0:0:0:
376,192,31021,1,10,0:0:0:0:
255,281,31179,2,0,B|219:298|219:298|183:281,1,80,8|0,0:0|0:0,0:0:0:0:
376,192,31495,2,0,B|412:175|412:175|448:192,1,80,2|8,0:0|0:0,0:0:0:0:
256,172,31811,5,4,0:0:0:0:
308,11,31968,1,2,0:0:0:0:
171,110,32126,1,0,0:0:0:0:
340,110,32284,1,8,0:0:0:0:
204,11,32442,1,2,0:0:0:0:
204,11,32600,5,8,0:0:0:0:
256,172,32758,1,8,0:0:0:0:
256,172,32837,1,8,0:0:0:0:
256,172,32916,1,8,0:0:0:0:
308,11,33074,1,8,0:0:0:0:
308,11,33153,1,8,0:0:0:0:
308,11,33232,6,0,L|380:24,1,64,14|0,0:0|0:0,0:0:0:0:
204,11,33547,2,0,L|132:24,1,64,2|0,0:1|0:0,0:0:0:0:
172,110,33863,1,2,0:1:0:0:
172,110,34021,2,0,L|46:133,1,128
78,34,34495,2,0,L|226:6,1,128,2|2,0:1|0:1,0:0:0:0:
208,264,35126,2,0,L|82:287,1,128,2|2,0:1|0:1,0:0:0:0:
16,192,35600,1,2,0:1:0:0:
16,192,35679,1,2,0:1:0:0:
16,192,35758,6,0,B|1:164|1:164|16:136,1,64,2|0,0:1|0:0,0:0:0:0:
72,56,36074,1,2,0:1:0:0:
72,56,36232,2,0,P|124:25|176:56,1,128
256,108,36705,2,0,L|256:172,1,64,2|0,0:1|0:0,0:0:0:0:
204,272,37021,2,0,B|244:272|256:243|256:243|264:272|308:272,1,128,2|2,0:1|0:1,0:0:0:0:
256,348,37495,1,0,0:0:0:0:
204,192,37653,2,0,P|256:161|308:192,1,128,2|2,0:1|0:1,0:0:0:0:
228,88,38126,1,2,0:1:0:0:
228,88,38205,1,2,0:1:0:0:
228,88,38284,6,0,P|256:75|284:88,1,64,2|0,0:0|0:0,0:0:0:0:
204,192,38600,2,0,P|176:205|148:192,1,64,2|0,0:1|0:0,0:0:0:0:
228,64,38916,2,0,P|256:51|284:64,1,64,2|0,0:1|0:0,0:0:0:0:
204,208,39232,2,0,P|176:221|148:208,1,64,2|0,0:1|0:0,0:0:0:0:
304,160,39547,2,0,B|368:136|368:184|428:160,1,128,2|2,0:1|0:1,0:0:0:0:
292,280,40179,2,0,B|228:304|228:256|168:280,1,128,2|2,0:1|0:1,0:0:0:0:
56,192,40653,1,2,0:1:0:0:
56,192,40732,1,2,0:1:0:0:
56,192,40811,6,0,P|84:205|112:192,1,64,2|0,0:1|0:0,0:0:0:0:
200,100,41126,2,0,P|171:86|143:99,1,64,2|0,0:1|0:0,0:0:0:0:
232,192,41442,2,0,P|260:205|288:192,1,64,2|0,0:1|0:0,0:0:0:0:
380,100,41758,2,0,P|352:88|324:101,1,64,2|0,0:1|0:0,0:0:0:0:
416,192,42074,2,0,L|396:328,1,128,2|2,0:1|0:1,0:0:0:0:
228,368,42705,2,0,L|246:241,1,128,2|8,0:1|0:0,0:0:0:0:
256,128,43179,1,0,0:0:0:0:
140,192,43337,6,0,B|72:216|72:168|0:192,1,143.999995605469,6|2,0:0|3:1,0:0:0:0:
104,120,43811,1,0,0:0:0:0:
32,264,43968,2,0,P|18:296|32:328,1,71.9999978027344,2|0,3:1|0:0,0:0:0:0:
104,120,44284,2,0,P|164:86|224:120,1,143.999995605469,2|2,3:1|3:1,0:0:0:0:
312,168,44758,1,0,0:0:0:0:
360,80,44916,1,2,3:1:0:0:
272,32,45074,1,0,0:0:0:0:
223,119,45232,2,0,P|191:133|159:119,1,71.9999978027344,2|0,3:1|0:0,0:0:0:0:
360,80,45547,6,0,P|420:46|480:80,1,143.999995605469,2|2,3:1|3:1,0:0:0:0:
420,160,46021,1,0,0:0:0:0:
479,79,46179,1,2,3:1:0:0:
420,160,46337,2,0,B|444:232|396:232|420:300,1,143.999995605469
348,200,46811,1,2,3:1:0:0:
492,268,46968,1,0,0:0:0:0:
348,200,47126,2,0,P|316:186|284:200,1,71.9999978027344,2|0,3:1|0:0,0:0:0:0:
160,272,47442,6,0,B|130:229|130:229|124:194|124:194|92:148,1,143.999995605469,2|2,3:1|3:1,0:0:0:0:
92,147,47916,1,0,0:0:0:0:
208,208,48074,2,0,L|248:272,1,71.9999978027344,2|0,3:1|0:0,0:0:0:0:
52,232,48390,2,0,L|12:168,1,71.9999978027344,2|0,0:0|0:0,0:0:0:0:
135,14,48705,1,2,3:1:0:0:
22,96,48863,1,0,0:0:0:0:
161,96,49021,1,2,3:1:0:0:
48,14,49179,1,0,0:0:0:0:
92,148,49337,6,0,B|124:194|124:194|130:229|130:229|160:272,1,143.999995605469,2|2,3:1|3:1,0:0:0:0:
160,272,49811,1,0,0:0:0:0:
352,272,49968,2,0,P|366:304|352:336,1,71.9999978027344,2|0,3:1|0:0,0:0:0:0:
160,336,50284,2,0,P|146:304|160:272,1,71.9999978027344,2|0,3:1|0:0,0:0:0:0:
308,208,50600,1,2,3:1:0:0:
204,208,50758,1,0,0:0:0:0:
200,108,50916,6,0,B|244:108|260:77|260:77|272:108|320:108,1,143.999995605469,2|2,3:1|3:1,0:0:0:0:
192,28,51390,1,0,0:0:0:0:
320,28,51547,2,0,P|356:28|388:52,1,71.9999978027344,2|0,3:1|0:0,0:0:0:0:
192,28,51863,2,0,P|156:28|124:52,1,71.9999978027344,2|0,3:1|0:0,0:0:0:0:
256,108,52179,2,0,B|280:180|232:180|256:248,1,143.999995605469,2|2,3:1|3:1,0:0:0:0:
184,148,52653,1,0,0:0:0:0:
328,216,52811,2,0,P|364:216|392:236,1,71.9999978027344,2|0,3:1|0:0,0:0:0:0:
344,356,53126,6,0,P|296:356|260:328,1,96,8|0,0:0|0:0,0:0:0:0:
228,296,53442,6,0,L|64:304,1,160,6|8,0:0|0:0,0:0:0:0:
168,376,53916,1,0,0:0:0:0:
68,228,54074,2,0,L|147:224,1,80,2|0,3:0|0:0,0:0:0:0:
100,144,54390,2,0,L|20:147,1,80,8|0,0:0|0:0,0:0:0:0:
188,76,54705,2,0,B|256:118|256:118|324:76,1,160,2|8,3:0|0:0,0:0:0:0:
256,8,55179,1,0,0:0:0:0:
220,192,55337,2,0,B|256:209|256:209|292:192,1,80,2|0,3:0|0:0,0:0:0:0:
420,276,55653,2,0,B|384:259|384:259|348:276,1,80,8|0,0:0|0:0,0:0:0:0:
64,191,55968,6,0,B|144:163|144:219|220:191,1,160,2|8,3:0|0:0,0:0:0:0:
104,272,56442,1,0,0:0:0:0:
104,112,56600,2,0,P|67:96|31:111,1,80,2|0,3:0|0:0,0:0:0:0:
32,273,56916,2,0,P|68:287|104:271,1,80,8|0,0:0|0:0,0:0:0:0:
220,191,57232,2,0,B|144:219|144:163|64:191,1,160,2|8,3:0|0:0,0:0:0:0:
316,222,57705,5,0,0:0:0:0:
316,60,57863,1,2,3:0:0:0:
220,191,58021,1,0,0:0:0:0:
374,141,58179,1,8,0:0:0:0:
220,91,58337,1,8,0:0:0:0:
220,91,58416,1,8,0:0:0:0:
220,91,58495,6,0,B|164:91|164:91|124:111|124:111|64:111,1,160,6|8,0:0|0:0,0:0:0:0:
180,164,58968,1,0,0:0:0:0:
104,40,59126,2,0,L|16:40,1,80,2|0,3:0|0:0,0:0:0:0:
180,164,59442,2,0,L|268:164,1,80,8|0,0:0|0:0,0:0:0:0:
188,348,59758,2,0,B|232:348|256:313|256:313|280:348|324:348,1,160,2|8,3:0|0:0,0:0:0:0:
256,232,60232,1,0,0:0:0:0:
188,348,60390,2,0,B|171:312|171:312|188:276,1,80,2|0,3:0|0:0,0:0:0:0:
324,276,60705,2,0,B|341:312|341:312|324:348,1,80,8|0,0:0|0:0,0:0:0:0:
256,232,61021,6,0,B|228:156|284:156|256:76,1,160,2|8,3:0|0:0,0:0:0:0:
328,196,61495,1,0,0:0:0:0:
192,116,61653,2,0,P|155:100|119:115,1,80,2|0,3:0|0:0,0:0:0:0:
119,269,61968,2,0,P|156:283|192:268,1,80,8|0,0:0|0:0,0:0:0:0:
64,192,62284,2,0,L|232:192,1,160,2|8,3:0|0:0,0:0:0:0:
360,192,62758,1,0,0:0:0:0:
224,192,62916,5,2,3:0:0:0:
296,80,63074,1,0,0:0:0:0:
360,192,63232,1,8,0:0:0:0:
348,230,63311,1,8,0:0:0:0:
336,268,63390,1,8,0:0:0:0:
324,306,63468,1,8,0:0:0:0:
312,344,63547,6,0,P|275:359|239:344,1,80,6|0,0:0|0:0,0:0:0:0:
151,192,63863,2,0,P|187:176|223:191,1,80,8|0,0:0|0:0,0:0:0:0:
132,344,64179,2,0,P|95:359|59:344,1,80,2|0,3:0|0:0,0:0:0:0:
151,192,64495,2,0,B|176:137|176:137|211:109|211:109|235:59,1,160,8|2,0:0|3:0,0:0:0:0:
240,200,64968,1,0,0:0:0:0:
152,40,65126,1,8,0:0:0:0:
245,206,65284,1,8,0:0:0:0:
245,206,65363,1,8,0:0:0:0:
245,206,65442,2,0,P|281:221|317:205,1,80,2|0,3:0|0:0,0:0:0:0:
364,28,65758,2,0,L|416:144,1,120,8|0,0:0|0:0,0:0:0:0:
388,204,66074,6,0,P|352:219|316:204,1,80,2|0,3:0|0:0,0:0:0:0:
256,72,66390,1,8,0:0:0:0:
195,204,66547,1,8,0:0:0:0:
195,204,66626,1,8,0:0:0:0:
195,204,66705,2,0,P|159:219|124:204,1,80,2|0,3:0|0:0,0:0:0:0:
176,28,67021,2,0,L|150:112,1,80,8|0,0:0|0:0,0:0:0:0:
336,28,67337,2,0,L|362:112,1,80,2|0,3:0|0:0,0:0:0:0:
195,204,67653,5,8,0:0:0:0:
317,204,67811,1,8,0:0:0:0:
317,204,67890,1,8,0:0:0:0:
317,204,67968,2,0,P|360:204|392:224,1,80,2|0,3:0|0:0,0:0:0:0:
348,356,68284,2,0,P|305:356|273:336,1,80,8|0,0:0|0:0,0:0:0:0:
195,204,68600,6,0,B|151:204|127:169|127:169|103:204|59:204,1,160,6|8,0:0|0:0,0:0:0:0:
207,120,69074,1,0,0:0:0:0:
47,120,69232,2,0,P|31:83|46:47,1,80,2|0,3:0|0:0,0:0:0:0:
207,47,69547,2,0,P|222:83|206:119,1,80,8|0,0:0|0:0,0:0:0:0:
196,288,69863,6,0,P|256:332|316:288,1,160,2|8,3:0|0:0,0:0:0:0:
352,176,70337,1,0,0:0:0:0:
397,27,70495,1,2,3:0:0:0:
447,173,70653,1,0,0:0:0:0:
320,84,70811,1,8,0:0:0:0:
476,82,70968,1,0,0:0:0:0:
352,176,71126,2,0,B|308:176|308:176|276:164|276:164|232:164,1,120,2|0,3:0|0:0,0:0:0:0:
192,164,71442,6,0,P|176:200|191:236,1,80,12|0,0:0|0:0,0:0:0:0:
320,84,71758,2,0,P|335:47|320:11,1,80,2|0,3:0|0:0,0:0:0:0:
164,164,72074,2,0,P|148:200|163:236,1,80,12|0,0:0|0:0,0:0:0:0:
348,84,72390,2,0,P|363:47|348:11,1,80,2|8,3:0|0:0,0:0:0:0:
348,11,72705,1,8,0:0:0:0:
164,11,72863,5,8,0:0:0:0:
164,11,72942,1,8,0:0:0:0:
163,11,73021,2,0,P|148:47|164:84,1,80,10|0,0:0|0:0,0:0:0:0:
256,148,73337,1,8,0:3:0:0:
256,148,73495,1,8,0:3:0:0:
324,276,73653,6,0,B|256:318|256:318|188:276,1,160,4|2,0:0|3:1,0:0:0:0:
256,148,74126,1,0,0:0:0:0:
324,276,74284,2,0,L|360:192,1,80,2|0,3:1|0:0,0:0:0:0:
187,275,74600,2,0,L|151:191,1,80,2|0,3:1|0:0,0:0:0:0:
188,100,74916,2,0,B|232:100|256:65|256:65|280:100|324:100,1,160,2|2,3:1|3:1,0:0:0:0:
256,192,75390,1,2,0:0:0:0:
188,100,75547,2,0,P|173:64|188:28,1,80,2|0,3:1|0:0,0:0:0:0:
324,27,75863,2,0,P|339:63|324:99,1,80,2|0,3:1|0:0,0:0:0:0:
256,192,76179,5,4,3:2:0:0:
208,340,76337,1,0,0:0:0:0:
333,249,76495,1,2,3:1:0:0:
178,249,76653,1,2,0:0:0:0:
304,340,76811,2,0,B|340:323|340:323|376:340,1,80,2|0,3:1|0:0,0:0:0:0:
208,340,77126,2,0,B|172:323|172:323|136:340,1,80,2|0,3:1|0:0,0:0:0:0:
256,192,77442,6,0,B|228:116|284:116|256:36,1,160,2|2,3:1|3:1,0:0:0:0:
328,152,77916,1,2,0:0:0:0:
188,72,78074,2,0,L|96:84,1,80,2|0,3:1|0:0,0:0:0:0:
68,180,78390,2,0,L|147:169,1,80,2|0,3:1|0:0,0:0:0:0:
324,304,78705,2,0,B|256:262|256:262|188:304,1,160,4|2,3:2|3:1,0:0:0:0:
256,352,79179,1,2,0:0:0:0:
220,196,79337,2,0,B|256:179|256:179|292:196,1,80,2|0,3:1|0:0,0:0:0:0:
184,108,79653,2,0,P|168:71|183:35,1,80,2|0,3:1|0:0,0:0:0:0:
104,168,79968,6,0,L|256:84,1,160,2|2,3:1|3:1,0:0:0:0:
352,28,80442,1,2,0:0:0:0:
368,128,80600,2,0,L|288:176,1,80,2|0,3:1|0:0,0:0:0:0:
408,224,80916,2,0,L|476:182,1,80,2|0,3:1|0:0,0:0:0:0:
320,308,81232,1,2,3:1:0:0:
196,236,81390,1,0,0:0:0:0:
320,308,81547,2,0,P|335:344|319:380,1,80,2|2,3:1|0:0,0:0:0:0:
196,236,81863,6,0,P|180:199|195:163,1,80,2|0,3:1|0:0,0:0:0:0:
296,84,82179,1,2,3:1:0:0:
195,163,82337,1,2,0:0:0:0:
296,84,82495,2,0,L|136:64,1,160,2|2,3:1|3:1,0:0:0:0:
195,163,82968,1,8,0:3:0:0:
247,324,83126,1,8,0:3:0:0:
299,163,83284,1,8,0:3:0:0:
162,262,83442,1,8,0:3:0:0:
331,262,83600,1,8,0:3:0:0:
195,163,83758,6,0,P|116:164|72:104,1,160,4|2,0:0|3:1,0:0:0:0:
196,20,84232,1,2,0:0:0:0:
196,20,84390,2,0,L|156:100,1,80,2|0,3:1|0:0,0:0:0:0:
316,20,84705,2,0,L|356:100,1,80,2|0,3:1|0:0,0:0:0:0:
404,192,85021,1,2,3:1:0:0:
351,91,85179,1,0,0:0:0:0:
404,192,85337,2,0,B|432:272|376:272|404:348,1,160,2|2,3:1|3:1,0:0:0:0:
476,308,85811,1,0,0:0:0:0:
336,236,85968,2,0,P|299:251|263:236,1,80,2|0,3:1|0:0,0:0:0:0:
179,88,86284,6,0,B|119:88|119:88|79:108|79:108|23:108,1,160,4|2,3:2|3:1,0:0:0:0:
24,108,86758,1,2,0:0:0:0:
140,164,86916,2,0,B|184:164|184:164|216:184,1,80,2|0,3:1|0:0,0:0:0:0:
308,244,87232,1,2,3:1:0:0:
200,268,87390,2,0,L|296:124,1,160,2|0,0:0|0:0,0:0:0:0:
344,36,87863,1,2,3:1:0:0:
444,88,88021,1,2,0:0:0:0:
388,186,88179,1,2,3:1:0:0:
288,134,88337,1,0,0:0:0:0:
444,88,88495,2,0,B|461:52|461:52|444:16,1,80,2|0,3:1|0:0,0:0:0:0:
288,134,88811,6,0,B|246:202|246:202|288:270,1,160,4|2,3:2|3:1,0:0:0:0:
224,86,89284,1,2,0:0:0:0:
224,86,89442,2,0,L|180:158,1,80,2|0,3:1|0:0,0:0:0:0:
224,318,89758,2,0,L|180:246,1,80,2|0,3:1|0:0,0:0:0:0:
26,154,90074,2,0,B|106:126|106:182|182:154,1,160,2|2,3:1|3:1,0:0:0:0:
68,224,90547,1,2,0:0:0:0:
148,84,90705,2,0,P|133:48|148:12,1,80,2|0,3:1|0:0,0:0:0:0:
363,11,91021,2,0,P|379:47|364:84,1,80,2|0,3:1|0:0,0:0:0:0:
256,192,91337,6,0,B|236:248|276:248|256:312,1,120,12|0,0:0|0:0,0:0:0:0:
256,352,91653,1,8,0:0:0:0:
256,352,91811,1,8,0:0:0:0:
324,220,91968,1,8,0:0:0:0:
324,220,92126,1,8,0:0:0:0:
188,280,92284,6,0,P|144:280|116:256,1,80,8|8,0:0|0:0,0:0:0:0:
116,216,92521,1,8,0:0:0:0:
116,216,92600,2,0,L|152:144,1,80,8|8,0:0|0:0,0:0:0:0:
168,105,92837,1,8,0:0:0:0:
168,105,92916,2,0,P|212:105|240:129,1,80,8|8,0:0|0:0,0:0:0:0:
271,154,93153,1,8,0:0:0:0:
271,154,93232,1,8,0:0:0:0:
464,192,93390,6,0,B|438:244|438:244|403:272|403:272|379:323,1,160,8|0,0:0|0:0,0:0:0:0:
336,340,93863,6,0,B|296:358|296:358|256:340,1,88.000002685547,6|0,0:0|0:0,0:0:0:0:
156,264,94179,1,8,0:0:0:0:
255,339,94337,1,0,0:0:0:0:
156,264,94495,2,0,B|138:224|138:224|156:184,1,88.000002685547,2|0,3:0|0:0,0:0:0:0:
256,100,94811,1,8,0:0:0:0:
156,183,94968,1,0,0:0:0:0:
256,100,95126,6,0,L|436:76,1,176.000005371094,2|8,3:0|0:0,0:0:0:0:
316,12,95600,1,0,0:0:0:0:
400,160,95758,2,0,L|304:172,1,88.000002685547,2|0,3:0|0:0,0:0:0:0:
316,12,96074,2,0,L|403:1,1,88.000002685547,8|0,0:0|0:0,0:0:0:0:
476,116,96390,2,0,B|476:168|512:192|512:192|476:216|476:268,1,176.000005371094,2|8,3:0|0:0,0:0:0:0:
316,192,96863,1,0,0:0:0:0:
400,152,97021,6,0,B|418:192|418:192|400:232,1,88.000002685547,2|0,0:0|0:0,0:0:0:0:
240,232,97337,2,0,B|222:192|222:192|240:152,1,88.000002685547,8|0,0:0|0:0,0:0:0:0:
360,304,97653,2,0,B|320:322|320:322|280:304,1,88.000002685547,2|0,0:0|0:0,0:0:0:0:
280,80,97968,2,0,B|320:62|320:62|360:80,1,88.000002685547,8|0,0:0|0:0,0:0:0:0:
148,72,98284,1,2,0:0:0:0:
80,192,98442,1,0,0:0:0:0:
212,192,98600,1,8,0:0:0:0:
153,77,98758,1,8,0:0:0:0:
153,77,98837,1,8,0:0:0:0:
153,77,98916,6,0,P|112:61|72:76,1,88.000002685547,6|0,0:0|0:0,0:0:0:0:
0,191,99232,2,0,P|40:206|80:191,1,88.000002685547,8|0,0:0|0:0,0:0:0:0:
52,348,99547,1,2,3:0:0:0:
151,273,99705,1,0,0:0:0:0:
52,348,99863,2,0,P|36:307|51:267,1,88.000002685547,8|0,0:0|0:0,0:0:0:0:
136,112,100179,6,0,B|180:112|180:112|208:76,1,88.000002685547,2|0,3:0|0:0,0:0:0:0:
376,112,100495,2,0,B|332:112|332:112|317:97|304:77,1,88.000002685547,8|0,0:0|0:0,0:0:0:0:
216,188,100811,2,0,B|256:170|256:170|296:188,1,88.000002685547,2|0,3:0|0:0,0:0:0:0:
296,296,101126,2,0,B|256:314|256:314|216:296,1,88.000002685547,8|0,0:0|0:0,0:0:0:0:
180,120,101442,2,0,B|256:76|256:76|332:120,1,176.000005371094,2|8,3:0|0:0,0:0:0:0:
128,52,101916,1,0,0:0:0:0:
128,52,102074,6,0,L|208:8,1,88.000002685547,2|0,0:0|0:0,0:0:0:0:
384,52,102390,2,0,L|304:8,1,88.000002685547,8|0,0:0|0:0,0:0:0:0:
256,268,102705,1,2,0:0:0:0:
201,98,102863,1,0,0:0:0:0:
344,203,103021,1,8,0:0:0:0:
167,203,103179,1,0,0:0:0:0:
311,98,103337,1,2,0:0:0:0:
256,268,103495,5,8,0:0:0:0:
256,268,103574,1,8,0:0:0:0:
256,268,103653,1,8,0:0:0:0:
201,98,103811,1,8,0:0:0:0:
201,98,103890,1,8,0:0:0:0:
201,98,103968,6,0,P|156:96|120:68,1,88.000002685547,6|0,0:0|0:0,0:0:0:0:
311,98,104284,2,0,P|356:96|392:68,1,88.000002685547,8|0,0:0|0:0,0:0:0:0:
256,176,104600,2,0,B|284:264|224:264|256:348,1,176.000005371094,2|8,3:0|0:0,0:0:0:0:
180,220,105074,1,0,0:0:0:0:
332,308,105232,2,0,P|372:323|412:308,1,88.000002685547,2|0,3:0|0:0,0:0:0:0:
180,220,105547,2,0,P|140:205|100:220,1,88.000002685547,8|0,0:0|0:0,0:0:0:0:
256,176,105863,5,2,3:0:0:0:
308,13,106021,1,0,0:0:0:0:
170,113,106179,1,8,0:0:0:0:
341,113,106337,1,0,0:0:0:0:
204,12,106495,2,0,P|116:12|56:76,1,176.000005371094,2|8,3:0|0:0,0:0:0:0:
20,172,106968,1,0,0:0:0:0:
112,320,107126,6,0,B|152:338|152:338|192:320,1,88.000002685547,2|0,0:0|0:0,0:0:0:0:
296,208,107442,2,0,B|256:190|256:190|216:208,1,88.000002685547,8|0,0:0|0:0,0:0:0:0:
320,320,107758,2,0,B|360:338|360:338|400:320,1,88.000002685547,2|0,0:0|0:0,0:0:0:0:
296,208,108074,1,8,0:0:0:0:
301,36,108232,1,0,0:0:0:0:
397,177,108390,1,2,0:0:0:0:
236,119,108547,1,0,0:0:0:0:
400,72,108705,1,8,0:0:0:0:
296,208,108863,1,8,0:0:0:0:
296,208,108942,1,8,0:0:0:0:
296,208,109021,6,0,B|244:208|220:244|220:244|196:208|144:208,1,176.000005371094,6|8,0:0|0:0,0:0:0:0:
304,304,109495,1,0,0:0:0:0:
304,304,109653,2,0,L|347:382,1,88.000002685547,2|0,3:0|0:0,0:0:0:0:
296,208,109968,1,8,0:0:0:0:
236,100,110126,1,0,0:0:0:0:
344,40,110284,1,2,3:0:0:0:
403,148,110442,1,0,0:0:0:0:
296,208,110600,6,0,B|266:221|266:221|261:219|261:219|265:226|265:226|259:224|259:224|227:240,1,88.000002685547,8|0,0:0|0:0,0:0:0:0:
344,40,110916,2,0,B|373:26|373:26|378:28|378:28|374:21|374:21|380:23|380:23|412:7,1,88.000002685547,2|0,3:0|0:0,0:0:0:0:
403,148,111232,1,8,0:0:0:0:
403,148,111390,1,0,0:0:0:0:
236,100,111547,6,0,P|168:52|99:99,1,176.000005371094,4|8,3:2|0:0,0:0:0:0:
167,243,112021,1,0,0:0:0:0:
167,243,112179,2,0,P|181:202|166:162,1,88.000002685547,2|0,3:0|0:0,0:0:0:0:
256,304,112495,2,0,P|241:344|256:384,1,88.000002685547,8|0,0:0|0:0,0:0:0:0:
384,232,112811,5,12,0:0:0:0:
445,42,112968,1,2,0:0:0:0:
284,159,113126,1,8,0:0:0:0:
483,159,113284,1,2,0:0:0:0:
322,42,113442,1,8,0:0:0:0:
500,176,113600,5,8,0:0:0:0:
500,176,113679,1,8,0:0:0:0:
500,176,113758,1,8,0:0:0:0:
260,176,113916,1,8,0:0:0:0:
260,176,113995,1,8,0:0:0:0:
260,176,114074,6,0,B|176:208|176:148|88:176,1,176.000005371094,6|8,0:0|0:0,0:0:0:0:
216,108,114547,1,0,0:0:0:0:
124,244,114705,2,0,P|108:284|123:324,1,88.000002685547,2|0,3:0|0:0,0:0:0:0:
256,376,115021,2,0,P|270:335|255:295,1,88.000002685547,8|0,0:0|0:0,0:0:0:0:
124,244,115337,1,2,3:0:0:0:
255,295,115495,1,0,0:0:0:0:
256,168,115653,6,0,L|348:176,1,88.000002685547,8|8,0:0|0:0,0:0:0:0:
392,252,115890,1,8,0:0:0:0:
392,252,115968,2,0,L|300:244,1,88.000002685547,2|0,3:0|0:0,0:0:0:0:
256,168,116284,1,8,0:0:0:0:
332,48,116442,1,8,0:0:0:0:
332,48,116521,1,8,0:0:0:0:
332,48,116600,6,0,B|280:48|256:12|256:12|232:48|180:48,1,176.000005371094,4|8,3:2|0:0,0:0:0:0:
256,168,117074,1,0,0:0:0:0:
332,48,117232,2,0,B|350:88|350:88|332:128,1,88.000002685547,2|0,3:0|0:0,0:0:0:0:
179,128,117547,2,0,B|161:88|161:88|179:48,1,88.000002685547,8|0,0:0|0:0,0:0:0:0:
256,324,117863,1,2,3:0:0:0:
256,168,118021,1,0,0:0:0:0:
178,246,118179,1,8,0:0:0:0:
333,246,118337,1,0,0:0:0:0:
178,246,118495,2,0,P|137:231|116:194,1,88.000002685547,2|0,3:0|0:0,0:0:0:0:
333,246,118811,2,0,P|373:231|394:194,1,88.000002685547,8|0,0:0|0:0,0:0:0:0:
332,336,119126,6,0,B|280:336|256:372|256:372|232:336|180:336,1,176.000005371094,4|8,3:2|0:0,0:0:0:0:
256,232,119600,1,0,0:0:0:0:
400,296,119758,2,0,B|418:336|418:336|400:376,1,88.000002685547,2|0,3:0|0:0,0:0:0:0:
112,376,120074,2,0,B|94:336|94:336|112:296,1,88.000002685547,8|0,0:0|0:0,0:0:0:0:
324,296,120390,2,0,B|342:336|342:336|324:376,1,88.000002685547,2|0,3:0|0:0,0:0:0:0:
189,376,120705,2,0,B|171:336|171:336|189:296,1,88.000002685547,8|0,0:0|0:0,0:0:0:0:
256,192,121021,5,2,3:0:0:0:
201,22,121179,1,0,0:0:0:0:
344,127,121337,1,8,0:0:0:0:
167,127,121495,1,0,0:0:0:0:
311,22,121653,6,0,B|366:29|366:29|414:60|414:60|477:69,1,176.000005371094,4|8,3:2|0:0,0:0:0:0:
476,68,122126,1,8,0:0:0:0:
344,127,122284,1,8,0:0:0:0:
344,127,122442,1,8,0:0:0:0:
201,22,122600,1,8,0:0:0:0:
201,22,122758,1,8,0:0:0:0:
256,192,122916,1,8,0:0:0:0:
256,192,123074,1,8,0:0:0:0:
311,22,123232,6,0,L|408:52,1,88.000002685547,4|8,0:0|0:0,0:0:0:0:
436,60,123468,1,8,0:0:0:0:
436,60,123547,1,8,0:0:0:0:
496,184,123705,1,8,0:0:0:0:
496,184,123784,1,8,0:0:0:0:
496,184,123863,1,8,0:0:0:0:
392,276,124021,1,8,0:0:0:0:
392,276,124100,1,8,0:0:0:0:
392,276,124179,6,0,L|300:248,1,80,6|0,0:0|0:0,0:0:0:0:
212,220,124495,1,2,3:0:0:0:
136,80,124653,2,0,P|121:44|136:8,1,80,12|0,0:0|3:0,0:0:0:0:
256,128,124968,1,2,0:0:0:0:
375,7,125126,2,0,P|391:43|376:80,1,80,12|0,0:0|0:0,0:0:0:0:
256,128,125442,1,2,3:0:0:0:
196,320,125600,6,0,P|160:335|124:320,1,80,12|0,0:0|3:0,0:0:0:0:
256,220,125916,1,2,0:0:0:0:
388,319,126074,2,0,P|352:335|315:320,1,80,8|0,0:0|0:0,0:0:0:0:
256,220,126390,1,10,0:0:0:0:
336,48,126547,1,8,0:0:0:0:
336,48,126626,1,8,0:0:0:0:
336,48,126705,6,0,B|353:84|353:84|336:120,1,80,12|0,0:0|0:0,0:0:0:0:
256,220,127021,1,2,3:0:0:0:
176,48,127179,2,0,B|159:84|159:84|176:120,1,80,12|0,0:0|3:0,0:0:0:0:
256,220,127495,1,2,0:0:0:0:
256,376,127653,1,8,0:0:0:0:
176,296,127811,1,0,0:0:0:0:
336,296,127968,6,0,P|376:296|408:272,1,80,2|0,3:0|0:0,0:0:0:0:
488,192,128284,1,8,0:0:0:0:
407,110,128442,1,0,0:0:0:0:
407,110,128521,1,8,0:0:0:0:
407,110,128600,2,0,P|375:87|336:88,1,80,2|8,0:0|0:0,0:0:0:0:
304,112,128837,1,8,0:0:0:0:
276,140,128916,1,8,0:0:0:0:
248,169,128995,1,8,0:0:0:0:
221,198,129074,1,8,0:0:0:0:
194,227,129153,1,8,0:0:0:0:
166,256,129232,6,0,L|108:316,1,80,14|0,0:0|0:0,0:0:0:0:
32,240,129547,1,2,3:0:0:0:
160,364,129705,2,0,L|218:304,1,80,12|0,0:0|3:0,0:0:0:0:
280,228,130021,1,2,0:0:0:0:
356,144,130179,2,0,P|392:129|428:144,1,80,8|0,0:0|0:0,0:0:0:0:
504,228,130495,1,2,3:0:0:0:
356,112,130653,6,0,P|392:97|428:112,1,80,12|2,0:0|3:0,0:0:0:0:
504,228,130968,1,0,0:0:0:0:
280,228,131126,1,12,0:0:0:0:
216,356,131284,1,8,0:0:0:0:
216,356,131363,1,8,0:0:0:0:
216,356,131442,1,8,0:0:0:0:
112,256,131600,1,8,0:0:0:0:
112,256,131679,1,8,0:0:0:0:
112,256,131758,6,0,P|75:271|39:256,1,80,12|0,0:0|0:0,0:0:0:0:
172,192,132074,1,2,3:0:0:0:
39,127,132232,2,0,P|75:112|112:128,1,80,12|2,0:0|3:0,0:0:0:0:
200,60,132547,1,0,0:0:0:0:
312,60,132705,1,8,0:0:0:0:
340,192,132863,5,12,0:0:0:0:
340,192,133021,2,0,L|384:360,1,160,2|8,3:0|0:0,0:0:0:0:
276,284,133495,1,2,0:0:0:0:
444,244,133653,1,8,0:0:0:0:
248,260,133811,1,8,0:0:0:0:
248,260,133890,1,8,0:0:0:0:
248,260,133968,1,8,0:0:0:0:
460,208,134126,1,8,0:0:0:0:
460,208,134205,1,8,0:0:0:0:
460,208,134284,6,0,L|424:64,1,143.999995605469,6|2,0:0|3:1,0:0:0:0:
320,32,134758,1,0,0:0:0:0:
320,32,134916,2,0,L|336:108,1,71.9999978027344,2|0,3:1|0:0,0:0:0:0:
224,180,135232,2,0,P|256:194|288:180,1,71.9999978027344,2|0,3:1|0:0,0:0:0:0:
177,102,135547,2,0,L|192:32,1,71.9999978027344,2|0,3:1|0:0,0:0:0:0:
88,72,135863,2,0,L|73:142,1,71.9999978027344,2|0,3:1|0:0,0:0:0:0:
136,256,136179,2,0,L|150:185,1,71.9999978027344,2|0,3:1|0:0,0:0:0:0:
56,232,136495,1,2,3:1:0:0:
216,264,136653,1,0,0:0:0:0:
56,232,136811,6,0,L|21:371,1,143.999995605469,2|2,3:1|3:1,0:0:0:0:
136,256,137284,1,0,0:0:0:0:
216,200,137442,2,0,B|232:232|232:232|216:264,1,71.9999978027344,2|0,3:1|0:0,0:0:0:0:
56,232,137758,2,0,B|40:200|40:200|56:168,1,71.9999978027344,2|0,3:1|0:0,0:0:0:0:
180,80,138074,2,0,B|132:80|120:111|120:111|104:80|60:80,1,143.999995605469,2|2,3:1|3:1,0:0:0:0:
120,0,138547,1,0,0:0:0:0:
180,80,138705,2,0,L|220:144,1,71.9999978027344,2|0,3:1|0:0,0:0:0:0:
280,224,139021,1,2,3:1:0:0:
356,132,139179,1,2,0:1:0:0:
356,132,139258,1,2,0:1:0:0:
356,132,139337,6,0,P|416:98|476:132,1,143.999995605469,2|2,0:0|3:1,0:0:0:0:
412,236,139811,1,0,0:0:0:0:
475,131,139968,2,0,P|488:98|474:66,1,71.9999978027344,2|0,3:1|0:0,0:0:0:0:
356,67,140284,2,0,P|341:99|355:131,1,71.9999978027344,2|0,3:1|0:0,0:0:0:0:
394,305,140600,2,0,L|414:225,1,71.9999978027344,2|0,3:1|0:0,0:0:0:0:
316,240,140916,2,0,L|298:309,1,71.9999978027344,2|0,3:1|0:0,0:0:0:0:
118,305,141232,2,0,L|98:225,1,71.9999978027344,2|0,3:1|0:0,0:0:0:0:
196,240,141547,2,0,L|213:309,1,71.9999978027344,2|0,3:1|0:0,0:0:0:0:
256,192,141863,6,0,B|232:124|280:124|256:52,1,143.999995605469,2|2,3:1|3:1,0:0:0:0:
328,156,142337,1,0,0:0:0:0:
188,84,142495,2,0,P|155:69|123:83,1,71.9999978027344,2|0,3:1|0:0,0:0:0:0:
120,192,142811,2,0,P|152:205|184:191,1,71.9999978027344,2|0,3:1|0:0,0:0:0:0:
327,191,143126,2,0,P|359:205|392:192,1,71.9999978027344,2|0,3:1|0:0,0:0:0:0:
388,83,143442,2,0,P|356:69|324:84,1,71.9999978027344,2|0,3:1|0:0,0:0:0:0:
208,144,143758,5,2,3:1:0:0:
327,191,143916,1,0,0:0:0:0:
324,83,144074,1,2,3:1:0:0:
212,240,144232,1,2,0:1:0:0:
212,240,144311,1,2,0:1:0:0:
212,240,144390,6,0,P|152:274|92:240,1,143.999995605469,6|2,0:0|3:1,0:0:0:0:
152,160,144863,1,0,0:0:0:0:
152,160,145021,2,0,L|152:88,1,71.9999978027344,2|0,3:1|0:0,0:0:0:0:
240,36,145337,2,0,P|299:2|359:36,1,143.999995605469,2|2,3:1|3:1,0:0:0:0:
436,104,145811,1,0,0:0:0:0:
436,104,145968,2,0,P|450:136|435:168,1,71.9999978027344,2|0,3:1|0:0,0:0:0:0:
328,300,146284,2,0,P|314:268|329:236,1,71.9999978027344,2|0,3:1|0:0,0:0:0:0:
435,167,146600,6,0,B|363:191|363:143|295:167,1,143.999995605469,2|2,3:1|3:1,0:0:0:0:
196,136,147074,1,0,0:0:0:0:
103,96,147232,1,2,3:1:0:0:
63,189,147390,1,0,0:0:0:0:
156,228,147547,2,0,P|141:259|155:291,1,71.9999978027344,2|0,3:1|0:0,0:0:0:0:
252,260,147863,2,0,B|304:260|304:260|336:276|336:276|392:276,1,143.999995605469,2|2,3:1|3:1,0:0:0:0:
392,276,148337,1,0,0:0:0:0:
284,332,148495,2,0,B|248:332|248:332|216:348,1,71.9999978027344,2|0,3:1|0:0,0:0:0:0:
364,204,148811,6,0,B|400:204|400:204|432:188,1,71.9999978027344,2|0,3:1|0:0,0:0:0:0:
452,88,149126,1,2,3:1:0:0:
452,88,149284,1,0,0:0:0:0:
316,64,149442,2,0,P|256:30|196:64,1,143.999995605469,2|2,0:0|3:1,0:0:0:0:
256,144,149916,1,0,0:0:0:0:
321,223,150074,2,0,P|335:254|321:286,1,71.9999978027344,2|0,3:1|0:0,0:0:0:0:
191,287,150390,2,0,P|177:254|191:223,1,71.9999978027344,2|0,3:1|0:0,0:0:0:0:
256,144,150705,6,0,B|232:72|280:72|256:4,1,143.999995605469,2|2,3:1|3:1,0:0:0:0:
328,104,151179,1,0,0:0:0:0:
188,40,151337,2,0,P|156:26|124:41,1,71.9999978027344,2|0,3:1|0:0,0:0:0:0:
328,104,151653,2,0,P|360:118|392:103,1,71.9999978027344,2|0,3:1|0:0,0:0:0:0:
444,188,151968,6,0,P|360:228|276:188,1,192,2|0,0:0|0:0,0:0:0:0:
216,112,152600,2,0,P|132:72|48:112,1,192,2|0,0:0|0:0,0:0:0:0:
132,160,153232,2,0,B|92:252|164:252|132:348,1,192,2|0,0:0|0:0,0:0:0:0:
132,346,153863,1,2,0:0:0:0:
380,346,154179,2,0,P|430:346|461:316,1,96,8|0,0:0|0:0,0:0:0:0:
480,276,154495,6,0,L|432:104,1,160,4|8,0:0|0:0,0:0:0:0:
392,16,154968,1,0,0:0:0:0:
320,108,155126,2,0,L|344:187,1,80,2|0,3:0|0:0,0:0:0:0:
220,260,155442,2,0,P|256:275|292:260,1,80,8|0,0:0|0:0,0:0:0:0:
320,336,155758,2,0,P|256:368|184:328,1,160,2|8,3:0|0:0,0:0:0:0:
140,220,156232,1,0,0:0:0:0:
184,328,156390,2,0,L|84:352,1,80,2|0,3:0|0:0,0:0:0:0:
62,238,156705,6,0,L|139:219,1,80,8|0,0:0|0:0,0:0:0:0:
256,192,157021,1,2,3:0:0:0:
139,219,157179,1,0,0:0:0:0:
336,155,157337,2,0,P|351:191|336:228,1,80,8|0,0:0|0:0,0:0:0:0:
220,296,157653,2,0,P|256:311|292:296,1,80,2|0,3:0|0:0,0:0:0:0:
176,228,157968,2,0,P|160:191|175:155,1,80,8|0,0:0|0:0,0:0:0:0:
256,40,158284,6,0,B|228:120|284:120|256:196,1,160,2|8,3:0|0:0,0:0:0:0:
320,80,158758,1,0,0:0:0:0:
175,154,158916,2,0,B|158:118|158:118|175:82,1,80,2|0,3:0|0:0,0:0:0:0:
312,156,159232,2,0,B|329:192|329:192|312:228,1,80,8|8,0:0|0:0,0:0:0:0:
375,260,159468,1,8,0:0:0:0:
375,260,159547,6,0,B|417:192|417:192|375:124,1,160,4|8,3:2|0:0,0:0:0:0:
448,308,160021,1,0,0:0:0:0:
448,308,160179,2,0,L|484:232,1,80,2|0,3:0|0:0,0:0:0:0:
448,76,160495,2,0,L|482:148,1,80,8|0,0:0|0:0,0:0:0:0:
364,192,160811,1,2,3:0:0:0:
293,263,160968,1,0,0:0:0:0:
222,192,161126,1,8,0:0:0:0:
293,122,161284,1,0,0:0:0:0:
293,263,161442,2,0,L|228:312,1,80,2|0,3:0|0:0,0:0:0:0:
293,122,161758,6,0,L|358:73,1,80,8|8,0:0|0:0,0:0:0:0:
284,32,161995,1,8,0:0:0:0:
284,32,162074,2,0,L|220:80,1,80,8|0,0:0|0:0,0:0:0:0:
296,212,162390,2,0,L|361:163,1,80,8|0,0:0|0:0,0:0:0:0:
220,204,162705,2,0,L|171:139,1,80,2|0,3:0|0:0,0:0:0:0:
356,40,163021,2,0,L|405:105,1,80,8|0,0:0|0:0,0:0:0:0:
472,196,163337,5,2,3:0:0:0:
404,103,163495,1,8,0:0:0:0:
400,218,163653,2,0,P|440:218|472:194,1,80,2|0,0:0|0:0,0:0:0:0:
300,156,163968,1,0,3:0:0:0:
404,103,164126,1,12,0:0:0:0:
400,218,164284,1,2,0:0:0:0:
300,156,164442,1,12,0:0:0:0:
316,328,164600,6,0,P|256:372|195:328,1,160,4|8,0:0|0:0,0:0:0:0:
320,244,165074,1,0,0:0:0:0:
192,244,165232,2,0,P|152:244|120:220,1,80,2|0,3:0|0:0,0:0:0:0:
180,72,165547,2,0,B|236:72|236:72|276:92|276:92|336:92,1,160,8|2,0:0|3:0,0:0:0:0:
335,92,166021,1,0,0:0:0:0:
212,144,166179,2,0,B|172:144|172:144|136:164,1,80,8|0,0:0|0:0,0:0:0:0:
296,20,166495,2,0,B|336:20|336:20|372:0,1,80,2|0,3:0|0:0,0:0:0:0:
212,144,166811,6,0,B|251:183|251:183|265:226|265:226|308:268,1,160,8|2,0:0|3:0,0:0:0:0:
396,336,167284,1,0,0:0:0:0:
484,268,167442,2,0,P|499:232|484:196,1,80,8|0,0:0|0:0,0:0:0:0:
384,80,167758,2,0,P|369:116|384:152,1,80,2|0,3:0|0:0,0:0:0:0:
464,56,168074,2,0,L|304:56,1,160,8|2,0:0|3:0,0:0:0:0:
304,56,168547,1,0,0:0:0:0:
200,96,168705,5,8,0:0:0:0:
116,211,168863,1,0,0:0:0:0:
116,68,169021,1,2,3:0:0:0:
200,184,169179,1,8,0:0:0:0:
200,184,169337,1,8,0:0:0:0:
64,140,169495,1,8,0:0:0:0:
64,140,169653,6,0,L|8:304,1,160,8|8,0:0|0:0,0:0:0:0:
12,291,170126,1,0,0:0:0:0:
200,256,170284,2,0,P|215:220|200:184,1,80,2|0,3:0|0:0,0:0:0:0:
292,72,170600,2,0,P|256:57|220:72,1,80,8|0,0:0|0:0,0:0:0:0:
448,181,170916,6,0,P|380:218|313:183,1,160,2|8,3:0|0:0,0:0:0:0:
292,72,171390,1,0,0:0:0:0:
312,182,171547,2,0,L|272:254,1,80,2|0,3:0|0:0,0:0:0:0:
348,380,171863,2,0,L|388:308,1,80,8|0,0:0|0:0,0:0:0:0:
312,182,172179,6,0,P|232:182|176:130,1,160,4|8,3:2|0:0,0:0:0:0:
152,20,172653,1,0,0:0:0:0:
152,20,172811,1,2,3:0:0:0:
360,20,172968,2,0,P|400:20|432:44,1,80,8|8,0:0|0:0,0:0:0:0:
380,180,173284,2,0,P|340:180|308:156,1,80,2|8,0:0|0:0,0:0:0:0:
256,24,173600,5,8,0:0:0:0:
256,24,173679,1,8,0:0:0:0:
256,24,173758,1,8,0:0:0:0:
204,157,173916,1,8,0:0:0:0:
204,157,173995,1,8,0:0:0:0:
204,157,174074,1,8,0:0:0:0:
128,12,174232,5,8,0:0:0:0:
128,12,174311,1,8,0:0:0:0:
128,12,174390,1,8,0:0:0:0:
79,145,174547,1,8,0:0:0:0:
79,145,174626,1,8,0:0:0:0:
79,145,174705,6,0,B|57:196|57:196|23:225|23:225|0:280,1,160,12|2,0:0|3:0,0:0:0:0:
76,384,175179,2,0,B|97:332|97:332|131:303|131:303|155:248,1,160,12|2,0:0|0:0,0:0:0:0:
292,176,175653,2,0,B|256:159|256:159|220:176,1,80,12|0,0:0|0:0,0:0:0:0:
188,80,175968,1,2,3:0:0:0:
324,80,176126,2,0,B|256:38|256:38|188:80,1,160,12|2,0:0|0:0,0:0:0:0:
96,160,176600,1,8,0:0:0:0:
76,48,176758,1,8,0:0:0:0:
76,48,176837,1,8,0:0:0:0:
76,48,176916,2,0,L|-8:96,1,80,12|2,0:0|0:0,0:0:0:0:
26,199,177232,6,0,L|110:151,1,80,12|0,0:0|0:0,0:0:0:0:
196,108,177547,1,2,3:0:0:0:
244,212,177705,2,0,P|259:248|244:284,1,80,12|0,0:0|3:0,0:0:0:0:
128,352,178021,1,2,0:0:0:0:
26,271,178179,2,0,P|10:234|25:198,1,80,12|0,0:0|0:0,0:0:0:0:
96,108,178495,1,2,3:0:0:0:
244,212,178653,6,0,L|324:180,1,80,12|0,0:0|3:0,0:0:0:0:
428,144,178968,1,2,0:0:0:0:
384,236,179126,1,12,0:0:0:0:
340,104,179284,1,8,0:0:0:0:
340,104,179363,1,8,0:0:0:0:
340,104,179442,1,8,0:0:0:0:
480,220,179600,1,8,0:0:0:0:
480,220,179679,1,8,0:0:0:0:
480,220,179758,6,0,B|480:264|515:288|515:288|480:312|480:356,1,160,12|2,0:0|3:0,0:0:0:0:
328,280,180232,1,0,0:0:0:0:
408,252,180390,2,0,B|425:288|425:288|408:324,1,80,8|2,0:0|0:0,0:0:0:0:
328,280,180705,1,0,3:0:0:0:
256,196,180863,1,8,0:0:0:0:
184,280,181021,2,0,B|167:316|167:316|184:352,1,80,2|8,0:0|0:0,0:0:0:0:
328,352,181337,2,0,B|345:316|345:316|328:280,1,80,2|0,3:0|0:0,0:0:0:0:
256,196,181653,5,8,0:0:0:0:
324,112,181811,1,0,0:0:0:0:
256,196,181968,2,0,L|184:148,1,80,2|0,3:0|0:0,0:0:0:0:
92,80,182284,1,4,0:0:0:0:
189,151,182442,1,8,0:0:0:0:
200,40,182600,1,0,3:0:0:0:
92,80,182758,1,2,0:0:0:0:
200,40,182916,6,0,L|266:84,1,80,8|0,0:0|0:0,0:0:0:0:
376,144,183232,1,2,3:0:0:0:
266,84,183390,1,8,0:0:0:0:
376,144,183547,2,0,B|376:188|411:212|411:212|376:236|376:280,1,160,0|2,0:0|3:0,0:0:0:0:
256,280,184021,1,0,0:0:0:0:
125,376,184179,1,8,0:0:0:0:
175,222,184337,1,4,0:0:0:0:
225,376,184495,1,2,3:0:0:0:
225,376,184653,1,0,0:0:0:0:
94,280,184811,6,0,P|52:280|16:248,1,80,12|0,0:0|0:0,0:0:0:0:
8,148,185126,1,2,3:0:0:0:
128,32,185284,2,0,P|170:32|206:64,1,80,12|0,0:0|3:0,0:0:0:0:
256,152,185600,1,2,0:0:0:0:
383,31,185758,2,0,P|344:31|312:53,1,80,12|0,0:0|0:0,0:0:0:0:
256,152,186074,1,2,3:0:0:0:
192,268,186232,6,0,B|192:308|192:308|168:344,1,80,8|0,0:0|3:0,0:0:0:0:
256,376,186547,1,2,0:0:0:0:
320,268,186705,2,0,B|320:308|320:308|344:344,1,80,8|8,0:0|0:0,0:0:0:0:
380,356,186942,1,8,0:0:0:0:
419,359,187021,1,8,0:0:0:0:
459,363,187100,1,8,0:0:0:0:
499,367,187179,1,8,0:0:0:0:
500,188,187337,6,0,P|515:152|500:116,1,80,12|0,0:0|0:0,0:0:0:0:
404,52,187653,1,0,3:0:0:0:
308,115,187811,2,0,P|292:151|307:187,1,80,8|2,0:0|0:0,0:0:0:0:
404,252,188126,1,0,0:0:0:0:
308,115,188284,1,12,0:0:0:0:
240,24,188442,6,0,P|192:24|132:64,1,120,2|0,0:0|0:0,0:0:0:0:
104,92,188758,2,0,L|168:160,1,80,12|0,0:0|3:0,0:0:0:0:
164,312,189074,1,2,0:0:0:0:
164,312,189232,2,0,L|100:244,1,80,12|2,0:0|0:0,0:0:0:0:
108,97,189547,1,8,0:0:0:0:
108,97,189705,1,0,0:0:0:0:
256,192,189863,2,0,B|312:168|312:208|372:192,1,120,12|0,0:0|0:0,0:0:0:0:
288,264,190179,5,8,0:0:0:0:
288,264,190337,1,8,0:0:0:0:
344,120,190495,1,8,0:0:0:0:
344,120,190653,1,8,0:0:0:0:
196,76,190811,1,8,0:0:0:0:
196,76,190968,1,8,0:0:0:0:
140,220,191126,5,8,0:0:0:0:
288,264,191284,1,8,0:0:0:0:
288,264,191363,1,8,0:0:0:0:
288,264,191442,2,0,P|328:264|360:240,1,80,8|8,0:0|0:0,0:0:0:0:
196,76,191758,2,0,P|156:76|124:100,1,80,8|8,0:0|0:0,0:0:0:0:
140,220,192074,2,0,P|140:260|164:292,1,80,8|8,0:0|0:0,0:0:0:0:
372,164,192390,6,0,P|372:124|348:92,1,80,12|0,0:0|0:0,0:0:0:0:
162,92,192705,1,2,0:0:0:0:
162,92,192863,2,0,P|139:124|140:164,1,80,12|0,0:0|0:0,0:0:0:0:
256,12,193179,1,2,0:0:0:0:
256,157,193337,2,0,B|256:185|256:185|252:189|252:189|260:189|260:189|256:193|256:193|256:225,1,80,12|8,0:0|0:0,0:0:0:0:
256,372,193653,5,8,0:0:0:0:
431,283,193811,1,8,0:0:0:0:
431,283,193890,1,8,0:0:0:0:
431,283,193968,1,8,0:0:0:0:
431,101,194126,1,8,0:0:0:0:
431,101,194205,1,8,0:0:0:0:
431,101,194284,5,8,0:0:0:0:
256,12,194442,1,8,0:0:0:0:
256,12,194521,1,8,0:0:0:0:
256,12,194600,1,8,0:0:0:0:
81,101,194758,1,8,0:0:0:0:
81,101,194837,1,8,0:0:0:0:
81,101,194916,6,0,B|40:166|51:225|69:259|69:259|11:275|11:275|49:317|49:317|31:359|31:359|82:348|82:348|112:374|112:374|128:335|128:335|165:304|224:285|268:297|339:319|339:319|373:254|447:253|451:129|435:85|342:40|293:74|256:111|256:111|201:99|129:107|107:173|142:245|142:245|222:222|335:175|500:82|500:82|489:221,1,1856,14|0,0:0|0:0,0:0:0:0:
489,217,199968,1,14,0:0:0:0:
256,192,200126,12,2,204705,0:0:0:0:
224,148,205021,6,0,P|256:134|288:148,1,71.9999978027344,6|0,0:0|0:0,0:0:0:0:
316,232,205337,2,0,P|256:265|196:231,1,143.999995605469,2|2,0:1|0:1,0:0:0:0:
132,172,205811,1,0,0:0:0:0:
68,116,205968,1,2,0:1:0:0:
132,60,206126,2,0,B|180:60|180:60|220:40|220:40|276:40,1,143.999995605469
360,40,206600,2,0,P|396:40|424:60,1,71.9999978027344,2|0,0:1|0:0,0:0:0:0:
484,120,206916,2,0,L|416:252,1,143.999995605469,2|2,0:1|0:1,0:0:0:0:
418,248,207390,1,0,0:0:0:0:
296,296,207547,6,0,L|364:164,1,143.999995605469,2|2,0:1|0:1,0:0:0:0:
418,248,208021,2,0,L|352:376,1,143.999995605469
296,296,208495,1,2,0:1:0:0:
296,296,208653,1,0,0:0:0:0:
361,167,208811,5,2,0:1:0:0:
319,39,208968,1,0,0:0:0:0:
427,118,209126,1,2,0:1:0:0:
294,118,209284,1,0,0:0:0:0:
402,39,209442,2,0,P|434:25|466:39,1,71.9999978027344,2|0,0:1|0:0,0:0:0:0:
500,156,209758,2,0,L|464:264,1,107.999996704102,2|0,0:1|0:0,0:0:0:0:
456,296,210074,6,0,P|424:310|392:296,1,71.9999978027344,2|0,0:0|0:0,0:0:0:0:
340,224,210390,1,2,0:1:0:0:
340,224,210547,1,0,0:0:0:0:
288,152,210705,2,0,P|255:138|223:152,1,71.9999978027344,2|0,0:1|0:0,0:0:0:0:
172,224,211021,1,2,0:1:0:0:
172,224,211179,2,0,L|92:88,1,143.999995605469
187,89,211653,2,0,L|224:153,1,71.9999978027344,2|0,0:1|0:0,0:0:0:0:
340,144,211968,2,0,P|399:110|459:143,1,143.999995605469,2|2,0:1|0:1,0:0:0:0:
459,143,212442,1,0,0:0:0:0:
459,241,212600,6,0,P|399:274|339:240,1,143.999995605469,2|2,0:0|0:1,0:0:0:0:
256,192,213074,1,0,0:0:0:0:
256,192,213232,2,0,B|188:216|188:168|116:192,1,143.999995605469,2|2,0:1|0:1,0:0:0:0:
156,264,213705,1,0,0:0:0:0:
156,264,213863,2,0,B|132:192|180:192|156:124,1,143.999995605469,2|2,0:0|0:1,0:0:0:0:
324,44,214495,5,2,0:1:0:0:
366,172,214653,1,0,0:0:0:0:
407,44,214811,1,8,0:0:0:0:
299,123,214968,1,2,0:3:0:0:
432,123,215126,5,14,0:0:0:0:
256,192,215284,1,8,0:0:0:0:
256,192,215600,5,8,0:0:0:0:
432,261,215758,1,8,0:0:0:0:
432,261,216074,5,8,0:0:0:0:
256,364,216232,1,8,0:0:0:0:
256,364,216547,5,8,0:0:0:0:
80,261,216705,1,8,0:0:0:0:
80,261,217021,6,0,B|63:225|63:225|80:189,1,80,8|0,0:0|0:0,0:0:0:0:
172,68,217337,2,0,B|189:104|189:104|172:140,1,80,8|8,0:0|0:0,0:0:0:0:
256,48,217574,1,8,0:0:0:0:
256,48,217653,5,14,0:0:0:0:
400,192,217811,1,8,0:0:0:0:
400,192,218126,5,8,0:0:0:0:
256,336,218284,1,8,0:0:0:0:
256,336,218600,5,8,0:0:0:0:
112,192,218758,1,8,0:0:0:0:
112,192,219074,5,8,0:0:0:0:
220,136,219232,2,0,B|256:119|256:119|292:136,1,80,8|0,0:0|0:0,0:0:0:0:
292,248,219547,2,0,B|256:265|256:265|220:248,1,80,8|0,0:0|0:0,0:0:0:0:
220,56,219863,2,0,B|256:39|256:39|292:56,1,80,8|0,0:0|0:0,0:0:0:0:
324,312,220179,6,0,B|256:354|256:354|188:312,1,160,14|8,0:0|0:0,0:0:0:0:
256,232,220653,1,8,0:0:0:0:
324,312,220811,2,0,P|339:348|324:384,1,80,8|8,0:0|0:0,0:0:0:0:
188,384,221126,2,0,P|173:348|188:312,1,80,8|8,0:0|0:0,0:0:0:0:
320,188,221442,1,8,0:0:0:0:
320,188,221600,1,8,0:0:0:0:
200,128,221758,5,8,0:0:0:0:
200,128,221916,1,8,0:0:0:0:
43,86,222074,1,8,0:0:0:0:
145,211,222232,1,8,0:0:0:0:
137,50,222390,1,8,0:0:0:0:
49,186,222547,1,8,0:0:0:0:
138,27,222705,5,10,0:0:0:0:
149,241,222863,1,8,0:0:0:0:
149,241,222942,1,8,0:0:0:0:
149,241,223021,1,8,0:0:0:0:
13,75,223179,1,8,0:0:0:0:
13,75,223258,1,8,0:0:0:0:
13,75,223337,1,8,0:0:0:0:
222,131,223495,1,8,0:0:0:0:
222,131,223574,1,8,0:0:0:0:
222,131,223653,1,8,0:0:0:0:
20,204,223811,1,8,0:0:0:0:
20,204,223890,1,8,0:0:0:0:
20,204,223968,5,8,0:0:0:0:
128,356,224126,1,8,0:0:0:0:
256,224,224284,1,8,0:0:0:0:
256,224,224363,1,8,0:0:0:0:
256,224,224442,1,8,0:0:0:0:
384,356,224600,1,8,0:0:0:0:
384,356,224679,1,8,0:0:0:0:
384,356,224758,1,8,0:0:0:0:
492,204,224916,1,12,0:0:0:0:
492,204,225074,1,8,0:0:0:0:
388,48,225232,6,0,B|328:48|328:48|288:28|288:28|232:28,1,160,14|2,0:0|3:0,0:0:0:0:
108,92,225705,2,0,B|168:92|168:92|208:112|208:112|264:112,1,160,12|2,0:0|0:0,0:0:0:0:
408,188,226179,2,0,P|423:224|408:260,1,80,12|0,0:0|0:0,0:0:0:0:
219,347,226495,1,2,3:0:0:0:
219,347,226653,2,0,P|255:362|291:347,1,80,12|0,0:0|3:0,0:0:0:0:
105,260,226968,1,2,0:0:0:0:
85,78,227126,1,12,0:0:0:0:
5,179,227284,1,0,0:0:0:0:
186,161,227442,6,0,B|266:133|266:189|342:161,1,160,14|2,0:0|3:0,0:0:0:0:
224,232,227916,2,0,P|208:268|223:304,1,80,12|0,0:0|3:0,0:0:0:0:
324,356,228232,1,2,0:0:0:0:
223,304,228390,1,8,0:0:0:0:
341,161,228547,6,0,P|356:124|341:88,1,80,12|2,0:0|3:0,0:0:0:0:
256,12,228863,1,0,0:0:0:0:
171,161,229021,2,0,P|155:124|170:88,1,80,8|8,0:0|0:3,0:0:0:0:
256,12,229337,1,8,0:0:0:0:
256,192,229495,2,0,B|256:220|256:220|252:224|252:224|260:224|260:224|256:228|256:228|256:260,1,80,12|0,0:0|3:0,0:0:0:0:
256,372,229811,1,2,0:0:0:0:
144,252,229968,6,0,P|64:252|12:192,1,160,14|2,0:0|3:0,0:0:0:0:
80,52,230442,2,0,P|160:52|212:112,1,160,8|2,0:3|0:0,0:0:0:0:
340,228,230916,2,0,P|356:265|341:301,1,80,12|0,0:0|0:0,0:0:0:0:
256,372,231232,1,2,3:0:0:0:
144,252,231390,2,0,P|128:215|143:179,1,80,12|0,0:0|3:0,0:0:0:0:
254,300,231705,2,0,P|270:337|255:373,1,80,2|8,0:0|0:0,0:0:0:0:
144,252,232021,1,2,0:0:0:0:
176,92,232179,6,0,L|200:8,1,80,14|0,0:0|0:0,0:0:0:0:
314,15,232495,1,2,3:0:0:0:
440,132,232653,1,12,0:0:0:0:
440,132,232811,2,0,P|484:192|440:252,1,160,2|8,3:0|0:0,0:0:0:0:
256,192,233284,2,0,L|336:192,1,80,12|2,0:0|3:0,0:0:0:0:
256,336,233600,5,8,0:0:0:0:
256,336,233679,1,8,0:0:0:0:
256,336,233758,1,8,0:0:0:0:
124,264,233916,1,8,0:0:0:0:
124,264,233995,1,8,0:0:0:0:
124,264,234074,1,8,0:0:0:0:
124,120,234232,1,8,0:0:0:0:
124,120,234311,1,8,0:0:0:0:
124,120,234390,1,8,0:0:0:0:
256,48,234547,1,8,0:0:0:0:
256,48,234626,1,8,0:0:0:0:
256,48,234705,6,0,B|336:20|336:76|412:48,1,160,14|8,0:0|0:0,0:0:0:0:
279,120,235178,2,0,B|199:148|199:92|123:120,1,160,2|0,0:0|0:0,0:0:0:0:
220,224,235652,2,0,B|256:207|256:207|292:224,1,80,8|0,0:0|0:0,0:0:0:0:
324,328,235968,2,0,B|280:328|256:293|256:293|232:328|188:328,1,160,2|8,3:0|0:0,0:0:0:0:
324,244,236441,1,0,0:0:0:0:
152,192,236599,2,0,P|136:228|151:264,1,80,2|0,3:0|0:0,0:0:0:0:
196,116,236915,2,0,P|159:100|123:115,1,80,8|0,0:0|0:0,0:0:0:0:
240,192,237231,6,0,L|228:24,1,160,2|8,3:0|0:0,0:0:0:0:
376,88,237705,2,0,L|387:247,1,160,2|0,0:0|0:0,0:0:0:0:
456,128,238178,2,0,L|449:33,1,80,8|0,0:0|0:0,0:0:0:0:
304,144,238494,2,0,L|311:239,1,80,2|0,3:0|0:0,0:0:0:0:
312,344,238810,1,8,0:0:0:0:
309,223,238968,1,0,0:0:0:0:
184,296,239126,2,0,L|178:216,1,80,2|0,3:0|0:0,0:0:0:0:
168,84,239441,1,8,0:0:0:0:
178,216,239599,1,0,0:0:0:0:
428,144,239757,6,0,B|360:102|360:102|292:144,1,160,6|8,0:0|0:0,0:0:0:0:
178,216,240231,2,0,B|254:188|254:244|334:216,1,160,2|0,0:0|0:0,0:0:0:0:
116,252,240705,2,0,B|99:216|99:216|116:180,1,80,8|0,0:0|0:0,0:0:0:0:
20,180,241020,2,0,B|3:216|3:216|20:252,2,80,2|0|8,3:0|0:0|0:0,0:0:0:0:
116,68,241494,1,0,0:0:0:0:
212,180,241652,2,0,B|229:216|229:216|212:252,1,80,2|0,3:0|0:0,0:0:0:0:
256,312,241889,1,0,0:0:0:0:
256,312,241968,2,0,B|288:312|288:312|292:316|292:316|292:308|292:308|296:312|296:312|324:312,1,80,8|0,0:0|0:0,0:0:0:0:
464,132,242283,6,0,B|404:132|404:132|364:112|364:112|308:112,1,160,4|8,3:2|0:0,0:0:0:0:
136,172,242757,2,0,B|196:172|196:172|236:192|236:192|292:192,1,160,2|0,0:0|0:0,0:0:0:0:
172,260,243231,2,0,P|135:244|99:259,1,80,8|0,0:0|0:0,0:0:0:0:
291,192,243547,5,8,0:0:0:0:
447,79,243705,1,2,0:0:0:0:
388,263,243862,1,8,0:0:0:0:
328,79,244020,1,2,0:0:0:0:
483,192,244178,1,8,0:0:0:0:
312,64,244336,5,8,0:0:0:0:
312,64,244415,1,8,0:0:0:0:
312,64,244494,1,8,0:0:0:0:
388,288,244652,1,8,0:0:0:0:
388,288,244731,1,8,0:0:0:0:
388,288,244810,6,0,L|316:340,1,80,6|0,0:0|0:0,0:0:0:0:
189,334,245126,1,8,0:0:0:0:
189,334,245283,2,0,P|108:336|52:284,1,160,2|0,0:0|0:0,0:0:0:0:
16,228,245678,1,0,0:0:0:0:
16,228,245757,2,0,P|1:192|16:156,1,80,8|0,0:0|0:0,0:0:0:0:
108,68,246073,5,2,3:0:0:0:
220,132,246231,1,0,0:0:0:0:
220,132,246310,1,0,0:0:0:0:
220,132,246389,2,0,P|256:147|292:132,1,80,8|0,0:0|0:0,0:0:0:0:
352,96,246626,1,0,0:0:0:0:
352,96,246705,2,0,L|408:164,1,80,2|0,3:0|0:0,0:0:0:0:
344,340,247020,2,0,L|288:272,1,80,8|0,0:0|0:0,0:0:0:0:
218,278,247257,1,0,0:0:0:0:
218,278,247336,6,0,L|168:340,1,80,4|0,3:2|0:0,0:0:0:0:
256,192,247652,1,8,0:0:0:0:
256,192,247810,2,0,B|228:112|284:112|256:36,1,160,2|0,0:0|0:0,0:0:0:0:
328,148,248283,1,8,0:0:0:0:
184,72,248441,1,0,0:0:0:0:
184,72,248520,1,0,0:0:0:0:
184,72,248599,6,0,P|147:56|111:72,1,80,2|0,3:0|0:0,0:0:0:0:
28,144,248915,1,8,0:0:0:0:
112,216,249073,1,2,0:0:0:0:
112,216,249152,1,0,0:0:0:0:
112,216,249231,2,0,P|148:231|184:216,1,80,0|0,3:0|0:0,0:0:0:0:
256,92,249547,1,8,0:0:0:0:
328,216,249705,1,8,0:0:0:0:
328,216,249783,1,8,0:0:0:0:
328,216,249862,6,0,L|408:364,1,160,6|8,0:0|0:0,0:0:0:0:
428,220,250336,1,2,0:0:0:0:
428,220,250415,1,0,0:0:0:0:
428,220,250494,2,0,L|468:292,1,80,0|0,3:0|0:0,0:0:0:0:
472,104,250810,2,0,L|432:32,1,80,8|0,0:0|0:0,0:0:0:0:
332,88,251126,1,2,3:0:0:0:
180,88,251283,1,0,0:0:0:0:
180,88,251362,1,0,0:0:0:0:
180,88,251441,6,0,P|140:88|108:116,1,80,8|0,0:0|0:0,0:0:0:0:
176,248,251757,2,0,P|216:248|248:220,1,80,2|0,3:0|0:0,0:0:0:0:
180,88,252073,1,8,0:0:0:0:
332,88,252231,1,8,0:0:0:0:
332,88,252310,1,8,0:0:0:0:
332,88,252389,6,0,L|368:164,1,80,12|0,0:0|0:0,0:0:0:0:
416,260,252705,1,2,3:0:0:0:
304,84,252862,6,0,L|340:160,1,80,8|0,0:0|3:0,0:0:0:0:
388,256,253178,1,2,0:0:0:0:
272,76,253336,6,0,L|308:152,1,80,12|0,0:0|0:0,0:0:0:0:
356,248,253652,1,2,3:0:0:0:
240,68,253810,6,0,L|276:144,1,80,8|0,0:0|3:0,0:0:0:0:
324,240,254126,1,2,0:0:0:0:
256,360,254283,1,8,0:0:0:0:
188,240,254441,1,8,0:0:0:0:
188,240,254520,1,8,0:0:0:0:
188,240,254599,2,0,P|148:240|116:264,1,80,8|8,0:0|0:0,0:0:0:0:
60,304,254836,1,8,0:0:0:0:
60,304,254915,6,0,L|12:232,1,80,12|0,0:0|0:0,0:0:0:0:
64,80,255231,1,2,3:0:0:0:
64,80,255389,2,0,L|112:152,1,80,12|0,0:0|3:0,0:0:0:0:
188,240,255705,1,2,0:0:0:0:
188,240,255862,1,8,0:0:0:0:
324,240,256020,6,0,B|380:220|380:264|440:240,1,120,12|0,0:0|0:0,0:0:0:0:
440,239,256336,1,8,0:0:0:0:
404,172,256494,1,8,0:0:0:0:
404,172,256652,1,8,0:0:0:0:
348,312,256810,1,8,0:0:0:0:
348,312,256968,1,8,0:0:0:0:
208,260,257126,1,8,0:0:0:0:
208,260,257283,1,8,0:0:0:0:
264,120,257441,6,0,B|196:144|196:96|124:120,1,143.999995605469,6|2,0:0|0:1,0:0:0:0:
20,196,257915,1,0,0:0:0:0:
20,196,258073,2,0,B|88:172|88:220|160:196,1,143.999995605469,2|2,0:1|0:1,0:0:0:0:
52,264,258547,1,0,0:0:0:0:
8,120,258705,2,0,B|40:104|40:104|72:120,1,71.9999978027344,2|0,0:1|0:0,0:0:0:0:
116,264,259020,2,0,B|84:280|84:280|52:264,1,71.9999978027344,2|0,0:1|0:0,0:0:0:0:
144,124,259336,2,0,B|176:108|176:108|208:124,1,71.9999978027344,2|0,0:1|0:0,0:0:0:0:
256,264,259652,2,0,B|224:280|224:280|192:264,1,71.9999978027344,2|0,0:1|0:0,0:0:0:0:
340,132,259968,2,0,B|340:176|309:192|309:192|340:204|340:252,1,143.999995605469,2|2,0:1|0:1,0:0:0:0:
172,252,260599,6,0,B|172:204|203:192|203:192|172:176|172:132,1,143.999995605469,2|2,0:0|0:1,0:0:0:0:
315,47,261073,1,0,0:0:0:0:
315,47,261231,2,0,P|255:14|196:48,1,143.999995605469,2|2,0:0|0:1,0:0:0:0:
196,160,261705,1,0,0:0:0:0:
196,160,261862,2,0,P|255:193|315:160,1,143.999995605469,2|2,0:0|0:1,0:0:0:0:
400,88,262336,1,0,0:0:0:0:
392,192,262494,6,0,P|387:226|359:246,1,71.9999978027344,2|0,0:0|0:0,0:0:0:0:
224,296,262810,2,0,P|256:309|288:295,1,71.9999978027344,2|0,0:1|0:0,0:0:0:0:
153,246,263126,2,0,P|124:226|120:192,1,71.9999978027344,2|0,0:1|0:0,0:0:0:0:
180,104,263441,2,0,P|212:89|244:103,1,71.9999978027344,2|0,0:1|0:0,0:0:0:0:
288,198,263757,2,0,L|152:246,1,143.999995605469,2|2,0:1|0:1,0:0:0:0:
152,245,264231,1,0,0:0:0:0:
240,291,264389,2,0,L|376:243,1,143.999995605469,2|2,0:1|0:1,0:0:0:0:
375,243,264862,1,0,0:0:0:0:
476,140,265020,2,0,B|426:193|426:193|476:244,1,143.999995605469,4|2,0:0|0:1,0:0:0:0:
376,140,265652,6,0,B|326:193|326:193|376:244,1,143.999995605469,2|2,0:0|0:1,0:0:0:0:
196,316,266126,1,0,0:0:0:0:
196,316,266283,2,0,B|244:316|256:347|256:347|272:316|316:316,1,143.999995605469,2|2,0:0|0:1,0:0:0:0:
224,220,266757,1,0,0:0:0:0:
224,220,266915,2,0,B|256:236|256:236|288:220,1,71.9999978027344,2|0,0:0|0:0,0:0:0:0:
288,116,267231,2,0,B|256:100|256:100|224:116,1,71.9999978027344,2|0,0:1|0:0,0:0:0:0:
52,112,267547,6,0,L|196:32,1,160,4|2,0:0|3:1,0:0:0:0:
321,34,268020,1,0,0:0:0:0:
321,34,268178,2,0,L|396:76,1,80,2|0,3:1|0:0,0:0:0:0:
492,124,268494,2,0,P|507:160|492:196,1,80,2|0,3:1|0:0,0:0:0:0:
392,340,268810,2,0,P|377:304|392:268,1,80,2|0,3:1|0:0,0:0:0:0:
292,188,269126,2,0,P|256:173|220:188,1,80,2|0,3:1|0:0,0:0:0:0:
120,267,269441,2,0,P|135:303|120:339,1,80,2|0,3:1|0:0,0:0:0:0:
256,340,269757,1,2,3:1:0:0:
256,340,269915,1,0,0:0:0:0:
256,228,270073,6,0,B|228:152|284:152|256:72,1,160,2|2,3:1|3:1,0:0:0:0:
324,188,270547,1,0,0:0:0:0:
188,112,270705,2,0,P|151:96|115:111,1,80,2|0,0:0|0:0,0:0:0:0:
324,188,271020,2,0,P|360:203|396:188,1,80,2|0,3:1|0:0,0:0:0:0:
384,104,271336,2,0,L|456:256,1,160,2|2,0:0|3:1,0:0:0:0:
392,332,271810,1,2,0:1:0:0:
392,332,271889,1,2,0:1:0:0:
392,332,271968,2,0,L|320:180,1,160,2|2,0:0|3:1,0:0:0:0:
272,88,272441,1,0,0:0:0:0:
104,88,272599,6,0,P|40:88|-4:128,1,120,4|0,0:0|0:0,0:0:0:0:
73,162,272915,1,8,0:0:0:0:
73,162,273073,1,8,0:0:0:0:
132,276,273231,1,8,0:0:0:0:
132,276,273389,1,8,0:0:0:0:
246,218,273547,1,8,0:0:0:0:
246,218,273705,1,8,0:0:0:0:
188,104,273862,5,8,0:0:0:0:
188,104,274020,1,8,0:0:0:0:
132,276,274178,1,8,0:0:0:0:
132,276,274336,1,8,0:0:0:0:
73,162,274494,1,8,0:0:0:0:
73,162,274652,1,8,0:0:0:0:
246,218,274810,1,8,0:0:0:0:
246,218,274968,1,8,0:0:0:0:
188,104,275126,6,8,L|224:80,3,40
260,92,275441,2,8,L|296:68,3,40
332,80,275757,2,8,L|368:56,3,40
404,44,276073,1,8,0:0:0:0:
428,75,276152,1,8,0:0:0:0:
445,111,276231,1,8,0:0:0:0:
453,150,276310,1,8,0:0:0:0:
452,190,276389,5,8,0:0:0:0:
412,183,276467,1,8,0:0:0:0:
372,185,276546,1,8,0:0:0:0:
334,195,276625,1,8,0:0:0:0:
298,214,276704,1,8,0:0:0:0:
268,240,276783,1,8,0:0:0:0:
244,271,276862,1,8,0:0:0:0:
227,308,276941,1,8,0:0:0:0:
210,343,277020,6,0,P|145:311|133:172,1,224,8|0,0:0|0:0,0:0:0:0:
144,132,277652,6,0,B|184:114|184:114|224:132,1,88.000002685547,6|0,0:0|0:0,0:0:0:0:
320,224,277968,1,8,0:0:0:0:
224,132,278126,1,0,0:0:0:0:
320,224,278283,2,0,B|360:242|360:242|400:224,1,88.000002685547,2|0,3:0|0:0,0:0:0:0:
284,288,278599,1,8,0:0:0:0:
352,144,278757,1,0,0:0:0:0:
284,288,278915,6,0,B|360:332|360:332|436:288,1,176.000005371094,2|8,3:0|0:0,0:0:0:0:
352,144,279389,1,0,0:0:0:0:
284,288,279547,2,0,P|244:303|204:288,1,88.000002685547,2|0,3:0|0:0,0:0:0:0:
92,168,279862,2,0,P|132:153|172:168,1,88.000002685547,8|0,0:0|0:0,0:0:0:0:
64,260,280178,6,0,L|48:72,1,176.000005371094,2|8,3:0|0:0,0:0:0:0:
120,8,280652,1,0,0:0:0:0:
216,56,280810,2,0,B|256:38|256:38|296:56,1,88.000002685547,2|0,0:0|0:0,0:0:0:0:
296,328,281126,2,0,B|256:346|256:346|216:328,1,88.000002685547,8|0,0:0|0:0,0:0:0:0:
392,232,281441,6,0,B|410:192|410:192|392:152,1,88.000002685547,2|0,0:0|0:0,0:0:0:0:
120,152,281757,2,0,B|102:192|102:192|120:232,1,88.000002685547,8|0,0:0|0:0,0:0:0:0:
256,269,282073,1,2,0:0:0:0:
178,192,282231,1,0,0:0:0:0:
256,114,282389,1,8,0:0:0:0:
333,192,282547,1,8,0:0:0:0:
333,192,282626,1,8,0:0:0:0:
333,192,282705,6,0,L|376:108,1,88.000002685547,6|0,0:0|0:0,0:0:0:0:
178,192,283020,2,0,L|135:276,1,88.000002685547,8|0,0:0|0:0,0:0:0:0:
256,114,283336,2,0,L|172:71,1,88.000002685547,2|0,3:0|0:0,0:0:0:0:
256,272,283652,2,0,L|334:311,1,88.000002685547,8|0,0:0|0:0,0:0:0:0:
452,368,283968,1,2,3:0:0:0:
334,311,284126,1,0,0:0:0:0:
452,368,284283,6,0,P|467:327|452:287,1,88.000002685547,8|0,0:0|0:0,0:0:0:0:
368,152,284599,2,0,P|353:192|368:232,1,88.000002685547,2|0,3:0|0:0,0:0:0:0:
484,196,284915,1,8,0:0:0:0:
368,152,285073,1,0,0:0:0:0:
484,196,285231,2,0,L|452:16,1,176.000005371094,2|8,3:0|0:0,0:0:0:0:
346,66,285705,1,0,0:0:0:0:
346,66,285862,6,0,L|370:162,1,88.000002685547,2|0,0:0|0:0,0:0:0:0:
276,252,286178,2,0,L|252:156,1,88.000002685547,8|0,0:0|0:0,0:0:0:0:
180,304,286494,1,2,0:0:0:0:
360,232,286652,1,8,0:0:0:0:
360,232,286731,1,8,0:0:0:0:
360,232,286810,1,8,0:0:0:0:
152,320,286968,1,8,0:0:0:0:
152,320,287047,1,8,0:0:0:0:
152,320,287126,1,10,0:0:0:0:
384,212,287283,5,8,0:0:0:0:
384,212,287362,1,8,0:0:0:0:
384,212,287441,1,8,0:0:0:0:
124,336,287599,1,8,0:0:0:0:
124,336,287678,1,8,0:0:0:0:
124,336,287757,6,0,P|109:296|124:256,1,88.000002685547,6|0,0:0|0:0,0:0:0:0:
296,184,288073,2,0,P|255:168|215:183,1,88.000002685547,8|0,0:0|0:0,0:0:0:0:
387,255,288389,2,0,P|402:295|388:336,1,88.000002685547,2|0,3:0|0:0,0:0:0:0:
256,260,288705,1,8,0:0:0:0:
256,260,288862,2,0,L|256:84,1,176.000005371094,2|0,0:0|0:0,0:0:0:0:
152,104,289336,6,0,B|134:64|134:64|152:24,1,88.000002685547,8|0,0:0|0:0,0:0:0:0:
360,24,289652,2,0,B|378:64|378:64|360:104,1,88.000002685547,2|0,3:0|0:0,0:0:0:0:
256,84,289968,1,8,0:0:0:0:
256,84,290126,1,0,0:0:0:0:
188,256,290283,2,0,P|256:303|324:256,1,176.000005371094,2|8,3:0|0:0,0:0:0:0:
324,255,290757,1,0,0:0:0:0:
203,13,290915,5,2,0:0:0:0:
256,176,291073,1,0,0:0:0:0:
308,13,291231,1,8,0:0:0:0:
170,113,291389,1,0,0:0:0:0:
341,113,291547,2,0,B|386:145|386:145|415:194|415:194|468:231,1,176.000005371094,2|8,0:0|0:0,0:0:0:0:
467,230,292020,1,0,0:0:0:0:
328,196,292178,2,0,L|248:140,1,88.000002685547,2|0,0:0|0:0,0:0:0:0:
344,20,292494,2,0,L|424:76,1,88.000002685547,8|0,0:0|0:0,0:0:0:0:
255,145,292810,6,0,B|209:112|209:112|180:63|180:63|127:26,1,176.000005371094,6|8,0:0|0:0,0:0:0:0:
128,27,293283,1,0,0:0:0:0:
64,108,293441,2,0,P|48:148|63:188,1,88.000002685547,2|0,3:0|0:0,0:0:0:0:
164,344,293757,2,0,P|179:303|164:263,1,88.000002685547,8|0,0:0|0:0,0:0:0:0:
256,192,294073,1,2,3:0:0:0:
256,192,294231,1,0,0:0:0:0:
347,263,294389,2,0,P|332:303|348:344,1,88.000002685547,8|0,0:0|0:0,0:0:0:0:
448,188,294705,2,0,P|463:148|448:108,1,88.000002685547,2|0,3:0|0:0,0:0:0:0:
384,27,295020,1,8,0:0:0:0:
384,27,295178,1,0,0:0:0:0:
332,160,295336,6,0,B|280:160|256:196|256:196|232:160|180:160,1,176.000005371094,4|8,3:2|0:0,0:0:0:0:
256,88,295810,1,0,0:0:0:0:
256,88,295968,2,0,L|256:264,1,176.000005371094,2|8,3:0|0:0,0:0:0:0:
256,368,296441,1,8,0:0:0:0:
296,352,296520,1,8,0:0:0:0:
336,335,296599,5,12,0:0:0:0:
336,335,296757,1,2,0:0:0:0:
484,276,296915,1,12,0:0:0:0:
484,276,297073,1,2,0:0:0:0:
424,128,297231,1,12,0:0:0:0:
424,128,297389,1,2,0:0:0:0:
276,187,297547,1,12,0:0:0:0:
336,335,297705,1,8,0:0:0:0:
336,335,297783,1,8,0:0:0:0:
336,335,297862,6,0,B|252:367|252:307|164:335,1,176.000005371094,6|8,0:0|0:0,0:0:0:0:
116,188,298336,1,0,0:0:0:0:
116,188,298494,2,0,L|68:292,1,88.000002685547,2|0,3:0|0:0,0:0:0:0:
0,176,298810,2,0,L|48:72,1,88.000002685547,8|0,0:0|0:0,0:0:0:0:
168,72,299126,1,2,3:0:0:0:
116,188,299283,1,0,0:0:0:0:
256,156,299441,6,0,P|296:141|336:156,1,88.000002685547,8|8,0:0|0:0,0:0:0:0:
296,228,299678,1,8,0:0:0:0:
296,228,299757,2,0,P|256:243|216:228,1,88.000002685547,8|2,0:0|0:0,0:0:0:0:
212,88,300073,1,8,0:0:0:0:
336,304,300231,1,8,0:0:0:0:
336,304,300310,1,8,0:0:0:0:
336,304,300389,6,0,P|255:335|175:304,1,176.000005371094,4|8,0:0|0:0,0:0:0:0:
124,192,300862,1,0,0:0:0:0:
175,304,301020,2,0,L|83:352,1,88.000002685547,2|0,3:0|0:0,0:0:0:0:
124,192,301336,2,0,L|216:144,1,88.000002685547,8|0,0:0|0:0,0:0:0:0:
472,192,301652,2,0,B|388:224|388:164|300:192,1,176.000005371094,2|8,3:0|0:0,0:0:0:0:
424,124,302126,1,0,0:0:0:0:
336,260,302283,2,0,P|320:300|335:340,1,88.000002685547,2|0,3:0|0:0,0:0:0:0:
424,124,302599,2,0,P|439:83|424:43,1,88.000002685547,8|8,0:0|0:0,0:0:0:0:
356,84,302836,1,8,0:0:0:0:
356,84,302915,6,0,B|272:116|272:56|184:84,1,176.000005371094,4|8,3:2|0:0,0:0:0:0:
56,160,303389,1,0,0:0:0:0:
184,83,303547,2,0,L|120:20,1,88.000002685547,2|0,3:0|0:0,0:0:0:0:
56,160,303862,2,0,L|118:221,1,88.000002685547,8|8,0:0|0:0,0:0:0:0:
180,272,304099,1,8,0:0:0:0:
180,272,304178,6,0,B|232:272|256:236|256:236|280:272|332:272,1,176.000005371094,8|8,0:0|0:0,0:0:0:0:
256,128,304652,1,2,0:0:0:0:
332,272,304810,2,0,P|347:312|332:352,1,88.000002685547,0|0,3:0|0:0,0:0:0:0:
180,352,305126,2,0,P|164:311|179:271,1,88.000002685547,8|8,0:0|0:0,0:0:0:0:
256,312,305362,1,8,0:0:0:0:
256,312,305441,5,4,3:2:0:0:
256,224,305599,1,8,0:0:0:0:
184,96,305757,1,8,0:0:0:0:
184,96,305915,1,8,0:0:0:0:
328,96,306073,1,8,0:0:0:0:
328,96,306231,1,8,0:0:0:0:
164,192,306389,1,8,0:0:0:0:
164,192,306547,1,8,0:0:0:0:
348,192,306705,1,8,0:0:0:0:
164,192,306862,5,8,0:0:0:0:
169,235,306941,1,8,0:0:0:0:
188,275,307020,1,8,0:0:0:0:
218,306,307099,1,8,0:0:0:0:
256,328,307178,1,8,0:0:0:0:
299,336,307257,1,8,0:0:0:0:
343,331,307336,1,8,0:0:0:0:
383,313,307415,1,8,0:0:0:0:
415,284,307494,1,8,0:0:0:0:
437,246,307573,1,8,0:0:0:0:
447,203,307652,1,8,0:0:0:0:
443,160,307731,1,8,0:0:0:0:
426,119,307810,1,8,0:0:0:0:
397,86,307889,1,8,0:0:0:0:
359,63,307968,6,0,L|292:8,1,88.000002685547,14|0,0:0|0:0,0:0:0:0:
290,7,308283,1,2,3:0:0:0:
204,136,308441,2,0,L|136:80,1,88.000002685547,12|0,0:0|3:0,0:0:0:0:
48,16,308757,1,2,0:0:0:0:
220,124,308915,2,0,L|152:68,1,88.000002685547,12|0,0:0|0:0,0:0:0:0:
64,0,309231,1,2,3:0:0:0:
76,152,309389,1,12,0:0:0:0:
76,152,309547,6,0,L|212:264,1,176.000005371094,2|8,3:0|0:0,0:0:0:0:
296,328,310020,1,0,0:0:0:0:
296,328,310178,1,2,3:0:0:0:
440,232,310336,1,8,0:0:0:0:
440,232,310415,1,8,0:0:0:0:
440,232,310494,6,0,P|455:192|440:152,1,88.000002685547,12|0,0:0|0:0,0:0:0:0:
392,56,310810,1,2,3:0:0:0:
216,144,310968,2,0,P|256:159|296:144,1,88.000002685547,12|0,0:0|3:0,0:0:0:0:
392,56,311283,1,2,0:0:0:0:
176,212,311441,2,0,P|256:243|336:212,1,176.000005371094,12|2,0:0|3:0,0:0:0:0:
296,64,311915,1,12,0:0:0:0:
296,64,312073,6,0,P|255:48|215:63,1,88.000002685547,0|2,3:0|0:0,0:0:0:0:
216,232,312389,2,0,P|256:247|296:232,1,88.000002685547,12|0,0:0|0:0,0:0:0:0:
164,148,312705,1,8,0:0:0:0:
164,148,312862,1,2,0:0:0:0:
348,148,313020,6,0,P|436:148|492:212,1,176.000005371094,12|2,0:0|3:0,0:0:0:0:
344,312,313494,2,0,L|392:232,1,88.000002685547,12|2,0:0|3:0,0:0:0:0:
232,280,313810,1,0,0:0:0:0:
232,280,313968,2,0,L|184:360,1,88.000002685547,12|0,0:0|0:0,0:0:0:0:
120,208,314283,2,0,L|168:128,1,88.000002685547,2|8,3:0|0:0,0:0:0:0:
256,40,314599,1,2,3:0:0:0:
256,40,314757,1,0,0:0:0:0:
347,132,314915,2,0,B|435:159|400:208|487:230,1,176.000005371094,12|8,0:0|0:0,0:0:0:0:
336,216,315389,1,2,0:0:0:0:
496,148,315547,6,0,P|511:108|496:68,1,88.000002685547,12|8,0:0|0:0,0:0:0:0:
356,16,315862,1,8,0:0:0:0:
356,16,316020,1,8,0:0:0:0:
256,128,316178,1,8,0:0:0:0:
256,128,316336,1,8,0:0:0:0:
156,16,316494,1,8,0:0:0:0:
156,16,316652,1,8,0:0:0:0:
344,96,316810,5,8,0:0:0:0:
344,96,316968,1,8,0:0:0:0:
168,96,317126,1,8,0:0:0:0:
168,96,317283,1,8,0:0:0:0:
372,180,317441,1,8,0:0:0:0:
256,288,317599,1,8,0:0:0:0:
256,288,317678,1,8,0:0:0:0:
256,288,317757,1,8,0:0:0:0:
140,180,317915,1,8,0:0:0:0:
140,180,317994,1,8,0:0:0:0:
140,180,318073,6,0,B|98:248|98:248|140:316,1,160,6|8,0:0|0:0,0:0:0:0:
16,244,318547,1,0,0:0:0:0:
208,284,318705,2,0,B|191:248|191:248|208:212,1,80,2|0,3:0|0:0,0:0:0:0:
304,212,319020,2,0,B|321:248|321:248|304:284,1,80,8|0,0:0|0:0,0:0:0:0:
372,180,319336,2,0,B|414:248|414:248|372:316,1,160,2|8,3:0|0:0,0:0:0:0:
504,248,319810,1,0,0:0:0:0:
428,376,319968,2,0,L|476:300,1,80,2|0,3:0|0:0,0:0:0:0:
428,120,320283,2,0,L|476:196,1,80,8|0,0:0|0:0,0:0:0:0:
332,76,320599,6,0,B|256:104|256:48|176:76,1,160,2|8,3:0|0:0,0:0:0:0:
288,8,321073,1,0,0:0:0:0:
176,156,321231,2,0,P|212:141|248:156,1,80,2|0,3:0|0:0,0:0:0:0:
164,236,321547,2,0,P|128:251|92:236,1,80,8|0,0:0|0:0,0:0:0:0:
210,378,321862,1,2,3:0:0:0:
164,236,322020,1,0,0:0:0:0:
284,323,322178,5,8,0:0:0:0:
135,323,322336,1,0,0:0:0:0:
256,236,322494,2,0,L|354:246,1,80,2|0,3:0|0:0,0:0:0:0:
428,144,322810,2,0,L|348:135,1,80,8|8,0:0|0:0,0:0:0:0:
296,80,323047,1,8,0:0:0:0:
296,80,323126,6,0,B|236:69|236:69|200:42|200:42|145:33,1,160,6|8,3:2|0:0,0:0:0:0:
280,4,323599,1,0,0:0:0:0:
88,96,323757,2,0,L|186:114,1,80,2|0,3:0|0:0,0:0:0:0:
244,228,324073,2,0,P|259:192|244:156,1,80,8|0,0:0|0:0,0:0:0:0:
216,304,324389,2,0,B|275:314|275:314|311:341|311:341|366:350,1,160,2|8,3:0|0:0,0:0:0:0:
232,380,324862,1,0,0:0:0:0:
373,252,325020,2,0,B|390:216|390:216|373:180,1,80,2|0,3:0|0:0,0:0:0:0:
292,108,325336,2,0,B|256:91|256:91|220:108,1,80,8|0,0:0|0:0,0:0:0:0:
139,180,325652,5,12,0:0:0:0:
219,108,325810,1,0,0:0:0:0:
139,180,325968,2,0,B|122:216|122:216|139:252,1,80,8|0,0:0|0:0,0:0:0:0:
220,320,326283,1,2,3:0:0:0:
139,252,326441,1,0,0:0:0:0:
220,320,326599,2,0,B|256:337|256:337|292:320,1,80,8|0,0:0|0:0,0:0:0:0:
256,232,326915,1,2,3:0:0:0:
373,252,327073,5,8,0:0:0:0:
390,212,327152,1,8,0:0:0:0:
392,172,327231,1,8,0:0:0:0:
382,134,327310,1,8,0:0:0:0:
361,100,327389,1,8,0:0:0:0:
332,73,327468,1,8,0:0:0:0:
296,56,327547,1,8,0:0:0:0:
256,51,327626,1,8,0:0:0:0:
216,56,327705,1,8,0:0:0:0:
180,73,327783,1,8,0:0:0:0:
151,100,327862,1,8,0:0:0:0:
130,134,327941,1,8,0:0:0:0:
120,172,328020,1,8,0:0:0:0:
122,212,328099,1,8,0:0:0:0:
139,252,328178,6,0,L|168:336,1,80,14|0,0:0|0:0,0:0:0:0:
230,224,328494,2,0,L|176:64,1,160,8|2,0:0|3:0,0:0:0:0:
308,28,328968,1,0,0:0:0:0:
308,28,329126,2,0,P|344:13|380:28,1,80,8|0,0:0|0:0,0:0:0:0:
480,128,329441,2,0,B|447:173|447:173|408:195|408:195|374:244,1,160,2|8,3:0|0:0,0:0:0:0:
374,243,329915,1,0,0:0:0:0:
360,368,330073,2,0,B|392:322|392:322|431:300|431:300|465:251,1,160,2|8,3:0|0:0,0:0:0:0:
396,116,330547,1,0,0:0:0:0:
396,116,330705,6,0,P|359:100|323:115,1,80,2|0,3:0|0:0,0:0:0:0:
220,240,331020,2,0,B|144:268|144:212|64:240,1,160,8|2,0:0|3:0,0:0:0:0:
180,172,331494,1,0,0:0:0:0:
104,308,331652,2,0,P|119:344|104:380,1,80,8|0,0:0|0:0,0:0:0:0:
180,172,331968,2,0,P|135:112|179:51,1,160,2|8,3:0|0:0,0:0:0:0:
333,51,332441,2,0,P|348:87|333:123,1,80,0|2,0:0|3:0,0:0:0:0:
256,248,332757,1,12,0:0:0:0:
333,123,332915,1,8,0:0:0:0:
256,248,333073,1,12,0:0:0:0:
333,123,333231,6,0,L|377:51,1,80,6|0,3:2|0:0,0:0:0:0:
388,200,333547,2,0,L|471:61,1,160,8|2,0:0|3:0,0:0:0:0:
336,129,334020,1,0,0:0:0:0:
336,129,334178,2,0,L|377:60,1,80,8|0,0:0|0:0,0:0:0:0:
204,24,334494,2,0,P|122:22|66:82,1,160,2|8,3:0|0:0,0:0:0:0:
96,176,334968,1,2,0:0:0:0:
176,320,335126,5,8,0:0:0:0:
256,176,335283,1,8,0:0:0:0:
256,176,335362,1,8,0:0:0:0:
256,176,335441,1,8,0:0:0:0:
336,320,335599,1,8,0:0:0:0:
336,320,335678,1,8,0:0:0:0:
336,320,335757,6,0,P|372:335|408:319,1,80,14|0,0:0|0:0,0:0:0:0:
476,192,336073,1,2,3:0:0:0:
476,192,336231,1,8,0:0:0:0:
408,64,336389,2,0,P|372:48|336:64,1,80,2|0,3:0|0:0,0:0:0:0:
220,192,336705,2,0,P|256:207|292:191,1,80,12|0,0:0|0:0,0:0:0:0:
336,63,337020,1,2,3:0:0:0:
336,63,337178,1,8,0:0:0:0:
176,63,337336,5,2,3:0:0:0:
176,63,337494,1,0,0:0:0:0:
56,136,337652,1,8,0:0:0:0:
56,136,337810,1,2,0:0:0:0:
128,256,337968,1,8,0:0:0:0:
128,256,338126,1,0,0:0:0:0:
248,183,338283,6,0,L|304:248,1,80,12|0,0:0|0:0,0:0:0:0:
372,320,338599,1,2,3:0:0:0:
256,152,338757,6,0,L|312:217,1,80,12|0,0:0|3:0,0:0:0:0:
380,289,339073,1,2,0:0:0:0:
380,289,339231,1,8,0:0:0:0:
264,124,339389,6,0,L|320:189,1,80,12|0,0:0|3:0,0:0:0:0:
388,261,339705,1,8,0:0:0:0:
488,160,339862,1,8,0:0:0:0:
488,160,340020,1,8,0:0:0:0:
388,60,340178,1,8,0:0:0:0:
388,60,340336,1,8,0:0:0:0:
288,161,340494,1,8,0:0:0:0:
288,161,340652,1,8,0:0:0:0:
388,261,340810,1,14,0:0:0:0:
256,192,340889,12,0,345862,0:0:0:0:
