osu file format v14

[General]
AudioFilename: audio.mp3
AudioLeadIn: 0
PreviewTime: 573962
Countdown: 0
SampleSet: Soft
StackLeniency: 0.5
Mode: 0
LetterboxInBreaks: 0
EpilepsyWarning: 1
WidescreenStoryboard: 1

[Editor]
Bookmarks: 4773,46137,105158,142694,179413,218907,259727,291696,326092,358867,390512,424314,475218,529475,573554,615742,667571,718947
DistanceSpacing: 1.4
BeatDivisor: 4
GridSize: 4
TimelineZoom: 3.108798

[Metadata]
Title:Songs Compilation
TitleUnicode:Songs Compilation
Artist:Minase Inori
ArtistUnicode:水瀬いのり
Creator:_kotachi_
Version:Eternity Future
Source:
Tags:アイマイモコ Aimaimoko harmony ribbon Will 魔法少女 チノ Mahou shoujo Chino Ready Steady Go! Shoo-Bee-Doo-Wap-Wap! ハートノイロ heart no iro Million Futures Never Ending Fantasy 新作のしあわせはこちら! Shinsaku no Shiawase wa kochira! Step Up! ココロはMerry-Go-Round Kokoro wa Merry go Round Wishing Lucky Clover Catch the Rainbow MELODY FLAG 星屑のコントレイル Hoshikuzu no Contrail 夢のつぼみ Yume no tsubomi ディアンサ Diansa レム Rem innocent flower BLUE COMPASS
BeatmapID:2003644
BeatmapSetID:957074

[Difficulty]
HPDrainRate:4
CircleSize:3.8
OverallDifficulty:8.7
ApproachRate:9.3
SliderMultiplier:1.84
SliderTickRate:1

[Events]
//Background and Video events
0,0,"BG.jpg",0,0
//Break Periods
2,39258,43909
2,97218,101765
2,133088,137157
2,166146,170614
2,204210,208320
2,245997,248297
2,272918,277112
2,302582,306965
2,334534,338486
2,363926,368075
2,394774,398920
2,433959,438317
2,483871,488373
2,527093,531060
2,563638,567928
2,609561,613869
2,660096,664286
//Storyboard Layer 0 (Background)
//Storyboard Layer 1 (Fail)
//Storyboard Layer 2 (Pass)
//Storyboard Layer 3 (Foreground)
//Storyboard Layer 4 (Overlay)
//Storyboard Sound Samples

[TimingPoints]
1164,451.127819548872,4,2,1,70,1,0
4773,-100,4,2,1,70,0,0
24622,-117.647058823529,4,2,1,70,0,0
24960,-133.333333333333,4,2,1,5,0,0
25073,-100,4,2,1,70,0,0
28570,-100,4,2,1,5,0,0
28682,-100,4,2,1,70,0,0
42712,437.956204379562,4,2,1,60,1,0
51252,-133.333333333333,4,2,1,70,0,0
52128,-133.333333333333,4,2,1,50,0,0
52292,-133.333333333333,4,2,1,50,0,0
52347,-133.333333333333,4,2,1,70,0,0
52566,-133.333333333333,4,2,2,70,0,0
53222,-133.333333333333,4,2,1,70,0,0
54536,-133.333333333333,4,2,3,70,0,0
54974,-100,4,2,1,70,0,0
68113,-100,4,2,2,70,0,0
68551,-100,4,2,3,70,0,0
68770,-100,4,2,1,70,0,0
75558,-100,4,2,3,70,0,0
75777,-100,4,2,1,70,0,0
81252,-100,4,2,1,50,0,0
81471,-83.3333333333333,4,2,1,55,0,0
81690,-76.9230769230769,4,2,1,60,0,0
81909,-66.6666666666667,4,2,1,65,0,0
82128,-100,4,2,1,70,0,0
82566,-133.333333333333,4,2,1,60,0,0
82894,-133.333333333333,4,2,1,5,0,0
83003,-133.333333333333,4,2,1,60,0,0
88040,-111.111111111111,4,2,1,65,0,0
89573,-111.111111111111,4,2,3,65,0,0
90011,-100,4,2,1,70,0,0
94171,-100,4,2,2,70,0,0
94609,-100,4,2,1,70,0,0
100990,379.746835443038,4,2,1,70,1,0
103838,-100,4,2,2,70,0,0
104217,-100,4,2,1,70,0,0
104977,-100,4,2,3,70,0,0
105357,-100,4,2,1,70,0,0
114660,-100,4,2,2,70,0,0
114850,-100,4,2,1,70,0,0
116749,-100,4,2,2,70,0,0
117319,-100,4,2,1,70,0,0
122825,-100,4,2,2,70,0,0
123205,-100,4,2,1,70,0,0
128141,-133.333333333333,4,2,1,70,0,0
129755,-133.333333333333,4,2,1,5,0,0
129850,-133.333333333333,4,2,1,70,0,0
131179,-100,4,2,1,70,0,0
137711,352.941176470588,4,2,1,60,1,0
137711,-133.333333333333,4,2,1,60,0,0
138063,-117.647058823529,4,2,2,60,0,0
138416,-105.263157894737,4,2,1,60,0,0
138769,-95.2380952380952,4,2,2,60,0,0
139122,-111.111111111111,4,2,1,60,0,0
140534,-111.111111111111,4,2,2,60,0,0
141946,-200,4,2,2,60,0,0
142211,-200,4,2,2,5,0,0
142299,-100,4,2,2,60,0,0
142563,-100,4,2,2,5,0,0
142652,-100,4,2,2,60,0,0
143005,-66.6666666666667,4,2,3,60,0,0
143269,-66.6666666666667,4,2,3,5,0,0
143358,-100,4,2,1,70,0,0
153946,-66.6666666666667,4,2,1,70,0,0
154299,-83.3333333333333,4,2,1,70,0,0
154652,-100,4,2,1,70,0,0
157475,-100,4,2,2,70,0,0
157652,-100,4,2,1,70,0,0
165240,-66.6666666666667,4,2,1,70,0,0
165593,-100,4,2,1,70,0,0
171168,315.789473684211,4,2,1,70,1,0
176773,-100,4,2,1,5,0,0
176852,-100,4,2,1,70,0,0
179852,-100,4,2,2,70,0,0
180168,-100,4,2,1,70,0,0
186799,-100,4,2,2,70,0,0
187431,-100,4,2,1,70,0,0
189957,-100,4,2,2,70,0,0
190273,-100,4,2,1,70,0,0
193115,-100,4,2,2,70,0,0
193431,-100,4,2,1,70,0,0
195957,-66.6666666666667,4,2,1,70,0,0
196036,-66.6666666666667,4,2,1,5,0,0
196115,-133.333333333333,4,2,1,70,0,0
196352,-133.333333333333,4,2,1,5,0,0
196431,-100,4,2,1,70,0,0
200931,-100,4,2,1,5,0,0
201010,-66.6666666666667,4,2,1,70,0,0
201089,-66.6666666666667,4,2,1,5,0,0
201168,-133.333333333333,4,2,1,70,0,0
201404,-133.333333333333,4,2,1,5,0,0
201483,-100,4,2,1,70,0,0
208874,461.538461538462,4,2,1,35,1,0
210720,-133.333333333333,4,2,1,35,0,0
211066,-133.333333333333,4,2,1,5,0,0
211181,-100,4,2,1,40,0,0
211527,-100,4,2,1,5,0,0
211643,-66.6666666666667,4,2,1,50,0,0
215450,-66.6666666666667,4,2,1,5,0,0
215566,-66.6666666666667,4,2,1,60,0,0
215681,-66.6666666666667,4,2,1,5,0,0
215797,-66.6666666666667,4,2,1,70,0,0
215912,-66.6666666666667,4,2,1,5,0,0
216027,-66.6666666666667,4,2,1,70,0,0
216258,-58.8235294117647,4,2,1,70,0,0
219258,-58.8235294117647,4,2,3,70,0,0
219720,-58.8235294117647,4,2,1,70,0,0
230104,-133.333333333333,4,2,1,70,0,0
230566,-100,4,2,1,70,0,0
231027,-58.8235294117647,4,2,1,70,0,0
234028,-58.8235294117647,4,2,3,70,0,0
234489,-58.8235294117647,4,2,1,70,0,0
248851,331.491712707182,4,2,1,70,1,0
253491,-200,4,2,1,70,0,0
254154,-100,4,2,1,70,0,0
257967,-100,4,2,2,70,0,0
258298,-100,4,2,1,70,0,0
260618,-100,4,2,2,70,0,0
260950,-100,4,2,1,70,0,0
270066,-133.333333333333,4,2,1,70,0,0
270729,-117.647058823529,4,2,2,70,0,0
271226,-117.647058823529,4,2,1,70,0,0
271392,-100,4,2,1,70,0,0
276644,340.909090909091,4,2,1,70,1,0
279200,-100,4,2,2,70,0,0
279541,-100,4,2,1,70,0,0
289428,-100,4,2,2,70,0,0
289769,-100,4,2,1,70,0,0
296416,-83.3333333333333,4,2,1,70,0,0
299825,-100,4,2,1,70,0,0
301019,-100,4,2,2,70,0,0
302382,-100,4,2,1,70,0,0
307519,335.195530726257,4,2,1,70,1,0
310200,-100,4,2,2,70,0,0
311876,-100,4,2,1,70,0,0
312546,-66.6666666666667,4,2,1,70,0,0
312798,-66.6666666666667,4,2,1,5,0,0
312882,-100,4,2,1,70,0,0
320926,-83.3333333333333,4,2,1,70,0,0
321429,-83.3333333333333,4,2,2,70,0,0
322100,-83.3333333333333,4,2,1,70,0,0
323608,-100,4,2,1,70,0,0
331653,-83.3333333333333,4,2,1,70,0,0
333999,-100,4,2,1,70,0,0
336298,342.857142857143,4,2,1,70,1,0
341440,-66.6666666666667,4,2,3,70,0,0
341698,-66.6666666666667,4,2,3,5,0,0
341783,-100,4,2,1,70,0,0
352412,-100,4,2,3,70,0,0
352755,-100,4,2,1,70,0,0
353012,-100,4,2,1,5,0,0
353098,-100,4,2,1,70,0,0
360983,-100,4,2,2,70,0,0
362355,-100,4,2,1,70,0,0
363383,-66.6666666666667,4,2,3,70,0,0
363640,-66.6666666666667,4,2,1,5,0,0
363726,-66.6666666666667,4,2,1,70,0,0
368629,324.324324324324,4,2,1,70,1,0
370250,-66.6666666666667,4,2,1,70,0,0
370493,-66.6666666666667,4,2,1,5,0,0
370574,-100,4,2,1,70,0,0
373493,-83.3333333333333,4,2,1,70,0,0
373737,-83.3333333333333,4,2,1,5,0,0
373818,-100,4,2,1,70,0,0
379250,-100,4,2,1,5,0,0
379331,-100,4,2,1,70,0,0
381845,-100,4,2,1,5,0,0
381926,-100,4,2,1,70,0,0
382737,-86.9565217391304,4,2,1,70,0,0
383385,-86.9565217391304,4,2,2,70,0,0
383547,-86.9565217391304,4,2,1,70,0,0
384196,-100,4,2,1,70,0,0
393115,-100,4,2,2,70,0,0
393277,-100,4,2,1,70,0,0
399474,428.571428571429,4,2,1,70,1,0
399474,-133.333333333333,4,2,1,70,0,0
400545,-100,4,2,1,70,0,0
400759,-83.3333333333333,4,2,1,70,0,0
400974,-66.6666666666667,4,2,1,70,0,0
402902,-58.8235294117647,4,2,1,70,0,0
428616,-100,4,2,1,70,0,0
429474,-100,4,2,2,70,0,0
430331,-100,4,2,1,70,0,0
432045,-100,4,2,1,5,0,0
432259,-50,4,2,1,70,0,0
438871,800,4,2,1,35,1,0
450671,-100,4,2,1,5,0,0
450871,-83.3333333333333,4,2,1,40,0,0
451471,-83.3333333333333,4,2,1,5,0,0
451671,-66.6666666666667,4,2,1,70,0,1
477271,-100,4,2,12,50,0,0
477371,-100,4,2,12,5,0,0
479671,-100,4,2,95,70,0,0
480471,-100,4,2,95,5,0,0
482871,-100,4,2,95,70,0,0
483671,-100,4,2,12,50,0,0
488927,338.983050847458,4,2,1,55,1,0
488927,-111.111111111111,4,2,1,55,0,0
493842,-99.9999999999999,4,2,1,55,0,0
494350,-99.9999999999999,4,2,2,60,0,0
497062,-99.9999999999999,4,2,1,70,0,0
506723,-99.9999999999999,4,2,2,70,0,0
507232,-133.333333333333,4,2,2,70,0,0
507910,-100,4,2,1,70,0,0
521469,-133.333333333333,4,2,1,70,0,0
524689,-100,4,2,1,70,0,0
530289,331.491712707182,4,2,1,70,1,0
532940,-333.333333333333,4,2,1,70,0,0
534266,-133.333333333333,4,2,1,50,0,0
535592,-133.333333333333,4,2,2,50,0,0
539570,-133.333333333333,4,2,1,50,0,0
539902,-133.333333333333,4,2,2,50,0,0
542222,-100,4,2,2,70,0,0
543548,-133.333333333333,4,2,2,70,0,0
543880,-133.333333333333,4,2,2,5,0,0
544211,-100,4,2,1,70,0,0
555482,-133.333333333333,4,2,1,70,0,0
556974,-133.333333333333,4,2,2,70,0,0
558134,-133.333333333333,4,2,1,70,0,0
562112,-100,4,2,2,70,0,0
563438,-100,4,2,1,70,0,0
568482,329.67032967033,4,2,1,70,1,0
568811,-100,4,2,1,50,0,0
569800,-100,4,2,1,55,0,0
570130,-100,4,2,1,60,0,0
570460,-100,4,2,1,65,0,0
570789,-100,4,2,1,70,0,0
574251,-100,4,2,2,70,0,0
574910,-133.333333333333,4,2,1,70,0,0
575405,-133.333333333333,4,2,1,5,0,0
576723,-100,4,2,1,70,0,0
578372,-100,4,2,2,70,0,0
578413,-100,4,2,1,50,0,0
578701,-100,4,2,1,70,0,0
579031,-100,4,2,1,70,0,1
586449,-100,4,2,2,70,0,1
586943,-100,4,2,1,70,0,1
601943,-100,4,2,2,70,0,1
602767,-100,4,2,1,70,0,1
605734,-100,4,2,2,70,0,1
607877,-100,4,2,1,70,0,1
608042,-133.333333333333,4,2,1,70,0,1
609361,-100,4,2,1,70,0,0
614423,315.789473684211,4,2,1,70,1,0
616949,-100,4,2,2,70,0,0
618844,-100,4,2,2,40,0,0
619475,-117.647058823529,4,2,1,70,0,0
622001,-100,4,2,1,70,0,0
628949,-100,4,2,2,50,0,0
629580,-100,4,2,1,70,0,0
634633,-117.647058823529,4,2,1,70,0,0
639686,-100,4,2,1,70,0,0
640001,-66.6666666666667,4,2,1,70,0,0
641107,-66.6666666666667,4,2,2,70,0,0
641580,-66.6666666666667,4,2,2,50,0,0
641896,-66.6666666666667,4,2,2,70,0,0
642212,-100,4,2,1,70,0,0
649159,-100,4,2,2,70,0,0
649791,-100,4,2,1,70,0,0
657370,-100,4,2,2,70,0,0
659738,-100,4,2,1,70,0,0
664840,319.148936170213,4,2,1,70,1,0
665318,-100,4,2,2,70,0,0
665637,-133.333333333333,4,2,1,70,0,0
667393,-133.333333333333,4,2,1,50,0,0
669627,-133.333333333333,4,2,1,60,0,0
671222,-133.333333333333,4,2,2,50,0,0
671861,-133.333333333333,4,2,2,60,0,0
672340,-133.333333333333,4,2,2,70,0,0
673137,-133.333333333333,4,2,1,40,0,0
673616,-90.9090909090909,4,2,1,70,0,1
703776,-90.9090909090909,4,2,2,70,0,1
704414,-90.9090909090909,4,2,1,70,0,1
716861,-90.9090909090909,4,2,2,70,0,1
717180,-90.9090909090909,4,2,1,70,0,1
721967,-66.6666666666667,4,2,1,70,0,1
722286,-100,4,2,1,70,0,1
735050,333.333333333333,4,2,1,70,1,0
735571,368.098159509202,4,2,1,70,1,0
736031,-100,4,2,1,5,0,0
736107,434.782608695652,4,2,1,100,1,0
736215,-100,4,2,1,25,0,0

[Colours]
Combo1 : 182,108,255
Combo2 : 153,153,255
Combo3 : 1,203,254
Combo4 : 255,119,255

[HitObjects]
139,51,4773,6,0,L|148:142,1,92,12|8,0:0|0:1,0:0:0:0:
348,103,5224,2,0,L|338:195,1,92,8|8,0:0|0:1,0:0:0:0:
162,339,5675,1,8,0:0:0:0:
252,163,5900,1,8,0:1:0:0:
72,215,6126,1,8,0:0:0:0:
253,279,6351,1,8,0:1:0:0:
312,89,6577,6,0,P|356:76|400:65,1,92,8|0,0:0|0:0,0:0:0:0:
342,299,7028,2,0,P|297:287|252:278,1,92,8|8,0:0|0:1,0:0:0:0:
59,321,7479,1,8,0:0:0:0:
219,188,7705,1,8,0:1:0:0:
219,188,7818,1,8,0:0:0:0:
219,188,7930,1,0,3:0:0:0:
0,96,8156,1,12,0:0:0:0:
321,141,9509,5,8,0:1:0:0:
346,57,9735,1,8,0:3:0:0:
346,57,9848,2,0,L|391:62,2,46,4|8|0,0:3|0:1|0:0,0:0:0:0:
225,83,10186,6,0,L|240:283,1,184,12|8,0:1|0:0,0:0:0:0:
92,359,10863,2,0,P|73:317|66:271,1,92,10|0,0:1|0:0,0:0:0:0:
150,132,11314,1,10,0:1:0:0:
150,293,11539,1,8,0:0:0:0:
39,172,11765,1,2,0:0:0:0:
233,229,11991,5,10,0:1:0:0:
220,30,12216,1,2,0:0:0:0:
133,149,12442,1,8,0:0:0:0:
312,78,12667,2,0,P|363:65|410:55,1,92,10|0,0:1|0:0,0:0:0:0:
300,238,13118,1,10,0:1:0:0:
389,139,13344,1,8,0:0:0:0:
417,315,13570,1,2,0:0:0:0:
218,231,13795,6,0,B|118:210|145:289|43:271,1,184,10|8,0:1|0:0,0:0:0:0:
57,99,14472,2,0,P|65:144|69:189,1,92,10|0,0:1|0:0,0:0:0:0:
171,101,14923,2,0,P|175:59|184:10,1,92,10|8,0:1|0:0,0:0:0:0:
410,154,15374,6,0,B|358:126|358:126|237:163,1,184,10|8,0:1|0:1,0:0:0:0:
121,270,16051,1,8,0:0:0:0:
299,233,16276,1,10,0:1:0:0:
295,267,16389,1,8,0:0:0:0:
292,301,16502,1,8,0:1:0:0:
223,151,16727,1,8,0:1:0:0:
392,238,16953,1,8,0:0:0:0:
202,317,17179,5,10,0:0:0:0:
202,317,17291,1,10,0:0:0:0:
202,317,17404,2,0,P|156:306|111:298,1,92,12|0,0:1|0:0,0:0:0:0:
40,237,17742,1,2,0:0:0:0:
46,227,17855,2,0,P|90:216|135:208,1,92,8|2,0:0|0:0,0:0:0:0:
289,247,18306,1,10,0:1:0:0:
231,65,18532,1,8,0:1:0:0:
154,213,18757,1,8,0:0:0:0:
308,112,18983,1,2,0:0:0:0:
384,283,19209,6,0,L|407:182,1,92,10|8,0:1|0:1,0:0:0:0:
438,91,19547,1,2,0:0:0:0:
433,99,19660,2,0,P|384:116|337:117,1,92,8|2,0:0|0:0,0:0:0:0:
216,21,20111,1,10,0:1:0:0:
264,187,20336,1,8,0:1:0:0:
359,22,20562,1,8,0:0:0:0:
237,167,20788,1,2,0:0:0:0:
115,28,21013,6,0,P|131:94|149:216,1,184,10|8,0:1|0:0,0:0:0:0:
16,189,21690,1,8,0:1:0:0:
46,345,21915,2,0,P|99:320|149:324,1,92,2|8,0:0|0:1,0:0:0:0:
211,359,22254,1,2,0:0:0:0:
211,359,22367,2,0,L|217:255,1,92,8|10,0:0|0:1,0:0:0:0:
232,43,22818,5,12,0:0:0:0:
326,189,23043,1,8,0:1:0:0:
157,128,23269,1,10,0:0:0:0:
367,51,23494,1,10,0:1:0:0:
367,51,23607,1,8,0:0:0:0:
367,51,23720,1,8,0:1:0:0:
254,134,23945,5,12,0:0:0:0:
459,172,24171,1,8,0:3:0:0:
459,172,24284,1,8,0:3:0:0:
459,172,24397,1,4,0:3:0:0:
264,97,24622,6,0,P|270:135|279:218,1,117.30000223732,12|0,0:1|0:0,0:0:0:0:
315,327,25073,5,8,0:0:0:0:
315,327,25299,2,0,B|219:359|236:276|134:313,1,184,10|8,0:1|0:1,0:0:0:0:
19,201,25976,2,0,P|30:250|39:301,1,92,8|2,0:0|0:0,0:0:0:0:
165,186,26427,5,8,0:1:0:0:
25,93,26652,1,2,0:0:0:0:
159,208,26878,1,8,0:0:0:0:
136,7,27103,2,0,P|119:63|109:104,1,92,10|0,0:1|0:0,0:0:0:0:
278,37,27554,1,10,0:1:0:0:
253,221,27780,1,8,0:0:0:0:
195,95,28006,1,2,0:0:0:0:
334,195,28231,6,0,P|396:177|483:159,1,138,10|0,0:1|0:0,0:0:0:0:
486,161,28682,1,8,0:0:0:0:
368,330,28908,2,0,P|325:321|277:311,1,92,10|0,0:1|0:0,0:0:0:0:
86,335,29359,1,10,0:1:0:0:
187,231,29585,1,8,0:0:0:0:
35,139,29810,6,0,P|59:203|95:317,1,184,10|8,0:1|0:1,0:0:0:0:
155,135,30487,1,8,0:0:0:0:
294,264,30712,1,10,0:1:0:0:
327,255,30825,1,8,0:0:0:0:
360,246,30938,1,8,0:1:0:0:
164,230,31163,1,8,0:1:0:0:
297,80,31389,2,0,P|287:125|279:176,1,92,12|8,0:0|0:1,0:0:0:0:
64,155,31840,6,0,P|74:200|82:251,1,92,12|0,0:1|0:1,0:0:0:0:
76,331,32179,1,2,0:0:0:0:
76,331,32291,2,0,P|124:318|171:313,1,92,8|2,0:0|0:0,0:0:0:0:
251,345,32630,1,8,0:0:0:0:
251,345,32742,2,0,P|296:339|340:327,1,92,2|8,0:0|0:1,0:0:0:0:
426,171,33194,2,0,P|380:176|336:188,1,92,8|8,0:0|0:1,0:0:0:0:
225,39,33645,6,0,L|238:129,1,92,10|0,0:1|0:0,0:0:0:0:
287,345,34096,2,0,L|273:254,1,92,8|0,0:0|0:0,0:0:0:0:
193,209,34434,1,8,0:0:0:0:
193,209,34547,2,0,L|103:223,1,92,10|8,0:1|0:1,0:0:0:0:
318,174,34998,2,0,L|409:161,1,92,10|0,0:0|0:0,0:0:0:0:
281,22,35449,5,12,0:1:0:0:
242,147,35675,1,0,0:0:0:0:
178,16,35900,5,8,0:0:0:0:
222,157,36126,1,8,0:1:0:0:
83,51,36351,5,8,0:0:0:0:
213,181,36577,1,8,0:1:0:0:
28,218,36803,5,8,0:0:0:0:
213,207,37028,1,2,0:0:0:0:
105,348,37254,6,0,P|168:321|235:304,2,138,12|8|8,0:0|0:0|0:0,0:0:0:0:
228,182,38156,6,0,P|294:199|358:226,1,138,12|8,0:0|0:0,0:0:0:0:
444,193,38607,2,0,L|498:181,2,46,8|8|8,0:0|0:0|0:3,0:0:0:0:
361,23,39058,5,12,0:1:0:0:
70,56,44463,5,12,0:0:0:0:
70,56,44901,2,0,L|86:161,1,92,8|8,0:0|0:1,0:0:0:0:
163,58,45339,2,0,L|179:163,1,92,8|8,0:0|0:1,0:0:0:0:
256,60,45777,2,0,L|272:165,1,92,8|8,0:0|0:1,0:0:0:0:
300,321,46215,6,0,L|399:308,1,92,8|8,0:0|0:1,0:0:0:0:
487,168,46653,2,0,L|395:156,1,92,8|8,0:0|0:1,0:0:0:0:
317,100,46982,1,8,0:1:0:0:
317,100,47091,2,0,L|308:197,1,92,8|8,0:0|0:1,0:0:0:0:
198,348,47529,2,0,L|189:256,1,92,8|8,0:0|0:1,0:0:0:0:
182,28,47967,5,8,0:0:0:0:
91,196,48186,1,8,0:1:0:0:
241,119,48405,1,8,0:0:0:0:
86,35,48624,1,8,0:1:0:0:
86,35,48733,1,8,0:1:0:0:
86,35,48843,1,8,0:0:0:0:
185,225,49062,1,8,0:1:0:0:
262,12,49281,1,8,0:0:0:0:
62,112,49500,1,8,0:1:0:0:
359,150,49719,5,8,0:0:0:0:
173,18,49938,1,8,0:1:0:0:
163,247,50157,1,8,0:0:0:0:
379,185,50376,5,0,3:0:0:0:
379,185,50485,1,8,0:1:0:0:
379,185,50595,2,0,L|386:132,1,46,8|0,0:0|3:1,0:0:0:0:
252,44,50814,2,0,L|258:89,1,46,8|8,0:1|0:1,0:0:0:0:
279,264,51033,5,8,0:0:0:0:
431,57,51252,2,0,B|477:105|477:105|455:258,1,207.000007896424,12|0,0:1|0:0,0:0:0:0:
436,333,52128,6,0,L|433:351,3,17.2500006580353,8|8|8|8,0:0|0:0|0:0|0:0,0:0:0:0:
430,321,52347,1,8,0:0:0:0:
312,260,52566,2,0,P|261:272|179:298,1,138.000005264282,6|2,0:0|0:0,0:0:0:0:
5,160,53222,6,0,B|61:138|104:171|104:171|115:112|170:93,1,207.000007896424,12|0,0:1|0:0,0:0:0:0:
254,156,54098,6,0,P|316:146|400:141,1,138.000005264282,2|14,0:0|0:0,0:0:0:0:
400,138,54974,6,0,B|299:104|323:188|219:158,1,184,12|12,0:1|0:0,0:0:0:0:
102,93,55631,1,2,0:0:0:0:
65,231,55850,2,0,P|57:284|50:342,1,92,8|2,0:1|0:0,0:0:0:0:
225,159,56288,2,0,P|219:113|212:67,1,92,8|2,0:0|0:0,0:0:0:0:
410,155,56726,6,0,L|396:245,1,92,8|2,0:1|0:0,0:0:0:0:
264,349,57164,1,8,0:0:0:0:
316,177,57383,1,2,0:0:0:0:
422,334,57602,2,0,P|469:323|512:317,1,92,8|2,0:1|0:0,0:0:0:0:
316,177,58040,2,0,P|271:166|225:160,1,92,8|2,0:0|0:0,0:0:0:0:
79,253,58478,6,0,B|130:264|130:264|110:133,1,184,8|8,0:1|0:0,0:0:0:0:
29,37,59135,1,2,0:0:0:0:
186,80,59354,2,0,P|231:67|276:62,1,92,8|2,0:1|0:0,0:0:0:0:
99,151,59792,2,0,P|53:143|7:141,1,92,8|2,0:0|0:0,0:0:0:0:
220,294,60230,6,0,P|225:248|230:202,1,92,8|2,0:1|0:0,0:0:0:0:
361,54,60668,2,0,P|365:99|371:145,1,92,8|2,0:0|0:0,0:0:0:0:
492,308,61106,1,8,0:1:0:0:
492,308,61215,2,0,L|400:301,1,92,8|0,0:0|0:0,0:0:0:0:
402,287,61544,2,0,L|310:293,1,92,8|2,0:0|0:0,0:0:0:0:
136,347,61982,6,0,P|75:305|79:196,1,184,12|8,0:1|0:0,0:0:0:0:
186,54,62639,1,2,0:0:0:0:
219,145,62857,2,0,B|117:174|146:88|31:119,1,184,8|8,0:1|0:0,0:0:0:0:
183,236,63514,1,2,0:0:0:0:
205,39,63733,6,0,P|250:28|295:19,1,92,8|2,0:1|0:0,0:0:0:0:
463,134,64171,2,0,P|418:123|373:114,1,92,8|2,0:0|0:0,0:0:0:0:
449,343,64609,2,0,P|480:309|511:275,1,92,8|2,0:1|0:0,0:0:0:0:
279,222,65047,2,0,P|292:265|306:309,1,92,8|2,0:0|0:0,0:0:0:0:
277,88,65485,6,0,P|203:112|101:146,1,184,8|8,0:1|0:0,0:0:0:0:
131,45,66142,1,2,0:0:0:0:
185,242,66361,2,0,P|177:292|172:333,1,92,8|2,0:1|0:0,0:0:0:0:
274,173,66799,1,8,0:0:0:0:
68,228,67018,2,0,P|86:212|103:199,1,46,2|0,0:0|0:0,0:0:0:0:
237,69,67237,5,12,0:1:0:0:
295,277,67456,1,2,0:0:0:0:
168,151,67675,1,8,0:0:0:0:
352,68,67894,2,0,L|320:105,1,46,2|2,0:0|0:0,0:0:0:0:
208,233,68113,5,6,0:0:0:0:
151,26,68332,1,8,0:3:0:0:
309,181,68551,1,14,0:0:0:0:
113,144,68770,5,4,0:3:0:0:
113,144,68879,1,4,0:3:0:0:
113,144,68989,2,0,P|104:235|98:327,1,184,12|8,0:1|0:0,0:0:0:0:
228,209,69646,1,2,0:0:0:0:
314,358,69865,2,0,P|360:349|404:340,1,92,8|2,0:1|0:0,0:0:0:0:
487,184,70303,2,0,P|441:174|396:165,1,92,8|2,0:0|0:0,0:0:0:0:
242,118,70741,6,0,P|235:162|228:208,1,92,8|2,0:1|0:0,0:0:0:0:
174,28,71179,1,8,0:0:0:0:
330,99,71398,1,2,0:0:0:0:
151,144,71617,2,0,P|105:151|61:162,1,92,8|2,0:1|0:0,0:0:0:0:
203,301,72055,2,0,P|248:294|293:284,1,92,8|2,0:0|0:0,0:0:0:0:
409,104,72493,6,0,B|350:115|350:115|312:160|312:160|243:175,1,184,8|8,0:1|0:0,0:0:0:0:
128,27,73149,1,2,0:0:0:0:
158,201,73368,2,0,P|164:156|177:112,1,92,8|2,0:1|0:0,0:0:0:0:
188,312,73806,2,0,P|152:306|97:298,1,92,8|2,0:0|0:0,0:0:0:0:
343,159,74244,6,0,P|351:212|356:256,1,92,10|0,0:1|0:0,0:0:0:0:
363,257,74573,1,8,0:1:0:0:
363,257,74682,2,0,P|411:249|455:242,1,92,12|0,0:0|0:0,0:0:0:0:
467,119,75120,5,12,0:0:0:0:
409,331,75339,1,8,0:1:0:0:
343,159,75558,5,14,0:0:0:0:
505,323,75777,1,2,0:0:0:0:
283,278,75996,6,0,P|236:267|91:257,1,184,12|8,0:1|0:0,0:0:0:0:
206,136,76653,1,2,0:0:0:0:
62,165,76872,2,0,B|77:224|77:224|56:273|56:273|76:347,1,184,8|8,0:1|0:0,0:0:0:0:
192,231,77529,1,2,0:0:0:0:
118,85,77748,6,0,L|26:76,1,92,8|2,0:1|0:0,0:0:0:0:
192,231,78186,2,0,L|204:139,1,92,8|2,0:0|0:0,0:0:0:0:
341,32,78624,2,0,L|353:123,1,92,8|2,0:1|0:0,0:0:0:0:
499,223,79062,2,0,L|407:214,1,92,8|2,0:0|0:0,0:0:0:0:
261,310,79500,6,0,B|209:282|209:282|78:316,1,184,8|8,0:1|0:0,0:0:0:0:
232,189,80157,1,2,0:0:0:0:
72,106,80376,2,0,L|63:197,1,92,8|2,0:1|0:0,0:0:0:0:
240,280,80814,2,0,L|231:188,1,92,8|2,0:0|0:0,0:0:0:0:
411,109,81252,6,0,P|427:104|440:101,2,30.6666666666667,14|2|2,0:1|0:0|0:0,0:0:0:0:
409,194,81471,6,0,P|424:202|438:217,2,36.7999988769532,10|2|2,0:0|0:0|0:0,0:0:0:0:
338,274,81690,6,0,P|339:291|337:315,2,39.8666648417156,2|2|2,0:0|0:0|0:0,0:0:0:0:
228,304,81909,6,0,P|213:314|188:324,2,46.0000017547608,10|2|2,0:1|0:0|0:0,0:0:0:0:
110,238,82128,6,0,L|116:145,1,92,8|8,0:0|0:3,0:0:0:0:
239,198,82566,6,0,L|223:88,1,103.500003948212,4|0,0:3|0:1,0:0:0:0:
249,182,83003,6,0,B|328:158|310:215|390:190,1,138.000005264282,12|2,0:1|0:0,0:0:0:0:
460,142,83660,1,8,0:1:0:0:
479,288,83879,2,0,P|469:216|468:150,1,138.000005264282,8|2,0:0|0:0,0:0:0:0:
382,191,84536,1,8,0:1:0:0:
391,42,84755,6,0,L|279:55,1,103.500003948212,8|8,0:1|0:1,0:0:0:0:
276,48,85193,2,0,L|200:42,1,69.0000026321412,10|8,0:1|0:1,0:0:0:0:
95,78,85631,1,8,0:0:0:0:
95,195,85850,1,2,0:0:0:0:
207,232,86069,1,2,0:0:0:0:
275,137,86288,1,8,0:1:0:0:
207,42,86507,6,0,L|192:184,1,138.000005264282,8|2,0:1|0:0,0:0:0:0:
294,110,87164,1,8,0:1:0:0:
277,284,87383,5,8,0:0:0:0:
313,113,87602,1,8,0:1:0:0:
469,216,87821,5,8,0:0:0:0:
331,18,88040,2,0,P|405:11|501:4,1,165.599994946289,12|8,0:1|0:0,0:0:0:0:
313,113,88697,2,0,P|273:107|231:100,1,82.7999974731446,8|8,0:3|0:1,0:0:0:0:
111,166,89135,1,8,0:0:0:0:
176,21,89354,1,8,0:1:0:0:
88,163,89573,2,0,P|64:220|54:246,1,82.7999974731446,14|0,0:0|0:0,0:0:0:0:
204,346,90011,6,0,B|303:378|288:297|380:333,1,184,12|8,0:1|0:0,0:0:0:0:
503,223,90668,2,0,P|490:283|484:319,1,92,2|8,0:0|0:1,0:0:0:0:
487,118,91106,1,2,0:0:0:0:
344,231,91325,1,8,0:0:0:0:
357,51,91544,6,0,P|378:103|393:141,1,92,2|8,0:0|0:1,0:0:0:0:
406,298,91982,1,2,0:0:0:0:
211,174,92201,2,0,P|255:160|300:149,1,92,8|2,0:0|0:0,0:0:0:0:
409,320,92639,2,0,P|363:313|317:310,1,92,8|2,0:1|0:0,0:0:0:0:
162,357,93076,1,8,0:0:0:0:
267,183,93295,1,2,0:0:0:0:
76,263,93514,6,0,L|42:76,1,184,12|2,0:1|0:0,0:0:0:0:
177,20,94171,6,0,B|280:-3|261:71|352:47,1,184,6|2,0:0|0:0,0:0:0:0:
464,195,94828,6,0,P|416:202|358:217,1,92,12|0,0:1|0:0,0:0:0:0:
265,318,95266,1,2,0:0:0:0:
292,164,95485,1,12,0:0:0:0:
392,344,95704,1,8,0:1:0:0:
307,246,95923,1,0,0:0:0:0:
464,195,96142,1,8,0:0:0:0:
326,260,96361,1,8,0:1:0:0:
410,110,96580,1,12,0:0:0:0:
479,314,96799,1,0,0:0:0:0:
464,195,97018,5,12,0:1:0:0:
38,188,102319,6,0,B|148:159|107:236|217:207,1,184,12|8,0:1|0:1,0:0:0:0:
169,30,102888,2,0,P|172:75|178:121,1,92,8|0,0:0|0:0,0:0:0:0:
178,121,103173,1,0,3:0:0:0:
178,121,103268,1,8,0:0:0:0:
370,64,103458,1,8,0:3:0:0:
292,212,103648,1,8,0:0:0:0:
278,1,103838,5,6,0:0:0:0:
278,1,104217,5,2,0:0:0:0:
295,25,104407,5,2,0:0:0:0:
322,40,104597,5,2,0:0:0:0:
352,40,104787,5,2,0:0:0:0:
292,212,104977,5,2,0:0:0:0:
307,224,105357,6,0,B|208:198|235:280|127:256,1,184,12|10,0:1|0:1,0:0:0:0:
28,106,105926,1,8,0:0:0:0:
161,177,106116,1,2,0:0:0:0:
146,18,106306,2,0,P|128:60|115:104,1,92,10|8,0:1|0:1,0:0:0:0:
222,250,106686,1,8,0:0:0:0:
348,128,106876,6,0,P|394:118|455:107,1,92,2|8,0:0|0:1,0:0:0:0:
235,43,107255,1,2,0:0:0:0:
289,186,107445,2,0,P|304:234|309:330,1,138,8|0,0:0|3:0,0:0:0:0:
305,339,107825,1,10,0:1:0:0:
487,254,108015,2,0,P|441:243|381:236,1,92,10|8,0:1|0:0,0:0:0:0:
206,130,108395,6,0,P|182:169|160:210,1,92,2|8,0:0|0:1,0:0:0:0:
296,94,108774,1,2,0:0:0:0:
222,289,108964,1,8,0:0:0:0:
113,108,109154,1,2,0:0:0:0:
289,186,109344,2,0,P|336:173|389:163,2,92,8|10|8,0:1|0:1|0:0,0:0:0:0:
192,23,109914,6,0,P|327:45|391:51,1,184,12|8,0:1|0:1,0:0:0:0:
504,12,110483,2,0,L|488:105,1,92,10|0,0:0|0:0,0:0:0:0:
488,102,110768,1,0,3:0:0:0:
488,102,110863,1,10,0:1:0:0:
511,275,111053,1,8,0:1:0:0:
346,217,111243,1,8,0:0:0:0:
314,227,111338,1,2,0:0:0:0:
288,250,111433,1,2,0:0:0:0:
273,280,111527,1,2,0:0:0:0:
271,315,111622,6,0,P|177:304|75:298,1,184,12|8,0:1|0:0,0:0:0:0:
129,100,112192,2,0,P|137:148|141:195,1,92,2|8,0:1|0:1,0:0:0:0:
286,65,112572,1,10,0:1:0:0:
317,254,112762,2,0,P|321:208|328:162,1,92,8|2,0:0|0:0,0:0:0:0:
456,38,113141,6,0,P|496:92|503:160,1,138,10|0,0:1|0:0,0:0:0:0:
496,183,113521,1,8,0:0:0:0:
352,268,113711,2,0,L|336:360,1,92,2|8,0:0|0:1,0:0:0:0:
294,135,114091,1,8,0:1:0:0:
145,225,114281,2,0,P|158:269|170:313,1,92,8|2,0:0|0:0,0:0:0:0:
428,138,114660,6,0,P|370:110|292:113,1,138,6|0,0:0|0:0,0:0:0:0:
280,122,115040,2,0,L|260:229,1,92,8|0,0:0|0:0,0:0:0:0:
133,333,115420,5,8,0:1:0:0:
183,149,115610,1,10,0:1:0:0:
326,279,115800,1,8,0:0:0:0:
7,264,115990,6,0,L|190:237,1,184,12|8,0:1|0:1,0:0:0:0:
347,297,116559,1,8,0:0:0:0:
387,62,116749,6,0,P|308:104|296:194,1,184,6|8,0:0|0:0,0:0:0:0:
365,313,117319,1,8,0:3:0:0:
394,165,117508,6,0,B|329:152|329:152|281:164|281:164|206:150,1,184,12|8,0:1|0:1,0:0:0:0:
95,43,118078,1,8,0:0:0:0:
137,227,118268,1,2,0:0:0:0:
206,68,118458,1,8,0:1:0:0:
66,162,118648,2,0,P|30:193|-2:226,1,92,10|8,0:1|0:0,0:0:0:0:
148,364,119027,6,0,L|142:268,1,92,2|8,0:0|0:1,0:0:0:0:
136,116,119407,1,2,0:0:0:0:
279,213,119597,2,0,P|349:192|393:186,1,92,8|2,0:0|0:0,0:0:0:0:
381,188,119882,1,0,3:0:0:0:
394,189,119977,1,8,0:1:0:0:
280,18,120167,2,0,P|272:64|268:119,1,92,10|8,0:1|0:0,0:0:0:0:
313,296,120546,1,2,0:0:0:0:
182,191,120736,5,8,0:1:0:0:
315,204,120926,1,2,0:0:0:0:
114,249,121116,1,8,0:0:0:0:
195,71,121306,2,0,L|204:136,1,46,2|0,3:1|3:0,0:0:0:0:
229,289,121496,1,8,0:1:0:0:
134,19,121686,2,0,P|177:-3|230:0,1,92,10|8,0:1|0:0,0:0:0:0:
446,106,122065,6,0,B|398:107|368:73|368:73|317:67|268:123,1,184,12|8,0:1|0:1,0:0:0:0:
236,257,122635,1,8,0:0:0:0:
60,90,122825,2,0,B|109:65|109:65|178:82|189:159,1,184,6|10,0:0|0:1,0:0:0:0:
115,340,123395,2,0,P|76:331|22:319,1,92,8|2,0:0|0:0,0:0:0:0:
18,240,123679,1,0,3:0:0:0:
18,240,123774,6,0,P|66:212|116:212,1,92,12|0,0:1|0:0,0:0:0:0:
228,250,124154,1,8,0:0:0:0:
209,56,124344,2,0,P|206:101|197:147,1,92,2|8,0:0|0:1,0:0:0:0:
142,298,124724,1,10,0:1:0:0:
106,90,124914,1,8,0:0:0:0:
228,250,125103,1,0,0:0:0:0:
301,81,125293,6,0,P|333:51|375:26,2,92,8|2|8,0:1|0:0|0:0,0:0:0:0:
425,262,125863,1,2,3:2:0:0:
425,262,125958,1,0,3:0:0:0:
425,262,126053,2,0,L|440:165,1,92,8|10,0:1|0:1,0:0:0:0:
225,105,126433,1,8,0:0:0:0:
441,146,126622,1,2,0:0:0:0:
266,214,126812,6,0,P|220:218|177:237,1,92,8|0,0:1|0:0,0:0:0:0:
61,107,127192,2,0,P|107:106|151:120,1,92,8|0,0:0|0:0,0:0:0:0:
245,296,127572,5,8,0:1:0:0:
92,186,127762,1,8,0:3:0:0:
314,122,127952,1,8,0:0:0:0:
171,7,128141,6,0,L|222:218,1,207.000007896424,12|0,0:1|0:0,0:0:0:0:
424,34,129471,6,0,P|433:86|441:142,1,103.500003948212,2|0,0:0|0:0,0:0:0:0:
439,50,129850,6,0,B|369:33|380:92|304:70,1,138.000005264282,12|0,0:1|0:0,0:0:0:0:
127,30,130610,2,0,L|140:119,2,69.0000026321412,8|4|8,0:3|0:3|0:0,0:0:0:0:
79,220,131179,6,0,P|129:195|257:161,1,184,12|8,0:1|0:0,0:0:0:0:
471,199,131749,1,8,0:1:0:0:
457,190,131844,2,0,L|478:286,1,92,8|8,0:0|0:0,0:0:0:0:
403,332,132129,5,8,0:3:0:0:
443,180,132319,1,4,0:3:0:0:
287,128,132508,1,8,0:3:0:0:
272,159,132603,1,8,0:3:0:0:
271,193,132698,1,4,0:3:0:0:
283,225,132793,1,4,0:3:0:0:
306,251,132888,5,12,0:1:0:0:
123,76,137711,6,0,P|96:99|73:124,1,69.0000026321412,12|0,0:1|0:0,0:0:0:0:
158,161,138063,6,0,P|146:199|135:237,1,78.2000014915467,6|0,0:0|0:0,0:0:0:0:
241,207,138416,6,0,P|249:250|261:292,1,87.3999976661683,12|0,0:1|0:0,0:0:0:0:
333,219,138769,6,0,P|367:259|400:293,1,96.5999970520021,6|0,0:0|0:0,0:0:0:0:
133,69,139475,5,8,0:1:0:0:
73,123,139652,1,0,0:0:0:0:
165,147,139828,5,8,0:3:0:0:
136,236,140005,1,8,0:1:0:0:
238,191,140181,5,4,0:3:0:0:
260,292,140358,1,0,0:0:0:0:
297,92,140534,6,0,L|467:74,1,165.599994946289,6|8,0:0|0:0,0:0:0:0:
238,191,141063,2,0,L|68:173,1,165.599994946289,6|8,0:0|0:0,0:0:0:0:
194,6,141593,2,0,L|215:95,1,82.7999974731446,6|0,0:0|0:0,0:0:0:0:
212,314,141946,6,0,L|199:243,1,69,6|0,0:0|0:0,0:0:0:0:
165,178,142299,6,0,B|243:151|224:210|298:182,1,138
386,180,142652,6,0,P|404:170|432:164,1,46,2|0,0:3|0:0,0:0:0:0:
335,256,142828,6,0,P|352:266|368:287,1,46,0|0,3:0|0:0,0:0:0:0:
200,247,143005,6,0,B|253:279|253:279|230:135,1,207.000007896424,2|0,0:0|0:0,0:0:0:0:
213,50,143358,5,12,0:1:0:0:
407,53,143534,2,0,P|445:30|492:15,1,92,2|8,0:0|0:0,0:0:0:0:
230,135,143887,1,2,0:0:0:0:
451,195,144063,5,8,0:1:0:0:
324,80,144240,2,0,P|319:126|317:172,1,92,2|8,0:1|0:0,0:0:0:0:
490,15,144593,1,2,0:0:0:0:
245,35,144769,6,0,B|141:29|184:112|71:98,1,184,10|8,0:1|0:0,0:0:0:0:
15,29,145299,1,2,0:0:0:0:
35,217,145475,5,8,0:1:0:0:
101,18,145652,1,2,0:0:0:0:
214,189,145828,5,8,0:0:0:0:
0,112,146005,1,2,0:0:0:0:
230,166,146181,5,8,0:1:0:0:
102,336,146358,2,0,P|106:290|114:244,1,92,2|8,0:0|0:0,0:0:0:0:
285,333,146711,1,2,0:0:0:0:
245,146,146887,5,8,0:1:0:0:
364,271,147063,2,0,P|408:260|454:254,1,92,2|8,0:0|0:0,0:0:0:0:
196,249,147416,1,2,0:0:0:0:
319,97,147593,6,0,B|388:107|388:107|420:145|420:145|483:155,1,184,10|8,0:1|0:0,0:0:0:0:
470,65,148122,1,2,0:0:0:0:
370,234,148299,5,8,0:1:0:0:
393,26,148475,1,2,0:0:0:0:
483,155,148652,5,8,0:0:0:0:
314,7,148828,1,2,0:0:0:0:
281,222,149005,5,8,0:1:0:0:
502,146,149181,2,0,P|491:194|481:235,1,92,2|8,0:0|0:0,0:0:0:0:
319,97,149534,1,2,0:0:0:0:
376,330,149711,5,8,0:1:0:0:
410,108,149887,2,0,P|399:156|389:197,1,92,2|8,0:0|0:0,0:0:0:0:
248,46,150240,1,2,0:0:0:0:
178,253,150416,6,0,B|132:210|132:210|161:92,1,184,10|8,0:1|0:0,0:0:0:0:
248,46,150946,1,2,0:0:0:0:
292,226,151122,5,8,0:1:0:0:
242,57,151299,1,2,0:0:0:0:
198,269,151475,5,8,0:0:0:0:
315,116,151652,1,2,0:0:0:0:
376,285,151828,6,0,P|388:329|394:374,1,92,10|0,0:1|0:0,0:0:0:0:
165,347,152181,2,0,P|171:302|184:258,1,92,8|0,0:0|0:0,0:0:0:0:
403,102,152534,2,0,P|415:146|421:191,1,92,10|0,0:1|0:0,0:0:0:0:
139,139,152887,2,0,P|145:94|158:50,1,92,8|0,0:0|0:0,0:0:0:0:
340,207,153240,5,10,0:1:0:0:
222,116,153416,1,2,0:0:0:0:
270,334,153593,1,8,0:0:0:0:
318,118,153769,5,0,3:0:0:0:
318,118,153858,1,0,3:0:0:0:
318,118,153946,2,0,B|346:114|346:114|360:117|360:117|386:113,1,69.0000026321412,8|8,0:3|0:3,0:0:0:0:
232,219,154122,2,0,B|204:215|204:215|190:218|190:218|163:214,1,69.0000026321412,8|8,0:3|0:3,0:0:0:0:
137,54,154299,6,0,B|144:85|144:85|143:108,1,55.1999983154297,4|4,0:3|0:3,0:0:0:0:
27,230,154475,2,0,B|20:199|20:199|20:175,1,55.1999983154297,8|8,0:1|0:1,0:0:0:0:
61,95,154652,5,12,0:1:0:0:
118,280,154828,2,0,P|107:328|99:370,1,92,2|8,0:0|0:0,0:0:0:0:
182,199,155181,1,2,0:0:0:0:
288,341,155358,5,8,0:1:0:0:
90,188,155534,2,0,P|43:172|-4:158,1,92,2|8,0:0|0:0,0:0:0:0:
220,122,155887,1,2,0:0:0:0:
197,321,156063,6,0,P|255:255|346:268,1,184,10|8,0:1|0:0,0:0:0:0:
288,341,156593,1,2,0:0:0:0:
181,205,156769,5,8,0:1:0:0:
293,357,156946,1,2,0:0:0:0:
318,152,157122,5,8,0:0:0:0:
197,321,157299,1,2,0:0:0:0:
151,111,157475,5,6,0:0:0:0:
327,244,157652,2,0,P|377:233|435:226,1,92,2|8,0:0|0:0,0:0:0:0:
214,310,158005,1,2,0:0:0:0:
236,112,158181,5,8,0:1:0:0:
96,231,158358,2,0,P|51:221|-3:213,1,92,2|8,0:0|0:0,0:0:0:0:
233,306,158711,1,2,0:0:0:0:
133,124,158887,6,0,P|221:114|321:91,1,184,10|8,0:1|0:0,0:0:0:0:
389,33,159416,1,2,0:0:0:0:
297,206,159593,5,8,0:1:0:0:
305,7,159769,1,2,0:0:0:0:
415,206,159946,5,8,0:0:0:0:
383,13,160122,1,2,0:0:0:0:
284,220,160299,6,0,L|191:210,1,92,12|0,0:1|0:0,0:0:0:0:
75,265,160652,1,0,3:0:0:0:
274,39,161005,1,0,3:0:0:0:
382,321,161358,1,0,3:0:0:0:
310,132,161711,6,0,L|217:122,1,92,0|0,3:0|0:0,0:0:0:0:
339,289,162063,2,0,L|432:279,1,92,0|0,3:0|0:0,0:0:0:0:
305,120,162416,2,0,L|212:110,1,92,0|0,3:0|0:0,0:0:0:0:
347,303,162769,2,0,L|440:293,1,92,0|0,3:0|0:0,0:0:0:0:
467,58,163122,5,12,3:1:0:0:
436,180,163299,1,0,0:0:0:0:
349,43,163475,5,0,0:0:0:0:
406,169,163652,1,0,3:0:0:0:
246,99,163828,5,0,3:0:0:0:
379,174,164005,1,0,3:0:0:0:
204,245,164181,5,0,3:0:0:0:
358,195,164358,1,0,3:0:0:0:
141,127,164534,5,12,3:1:0:0:
141,127,164622,1,0,3:0:0:0:
141,127,164710,2,0,L|145:176,1,46,0|0,0:0|3:0,0:0:0:0:
200,290,164887,1,0,3:0:0:0:
200,290,164975,1,0,3:0:0:0:
200,290,165063,2,0,L|204:241,1,46,0|0,0:0|3:0,0:0:0:0:
79,233,165240,6,0,B|52:238|52:238|43:245|43:245|13:251,1,69.0000026321412,0|0,3:0|0:0,0:0:0:0:
75,108,165416,2,0,B|105:115|105:115|114:122|114:122|141:127,1,69.0000026321412,0|0,3:0|3:0,0:0:0:0:
203,244,165593,6,0,P|225:238|249:233,1,46,8|8,3:0|3:0,0:0:0:0:
282,155,165769,2,0,P|304:161|326:165,1,46,4|4,3:0|3:0,0:0:0:0:
417,235,165946,5,12,0:1:0:0:
183,267,171168,6,0,L|137:259,1,46,12|0,0:0|0:0,0:0:0:0:
119,351,171325,2,0,L|164:358,1,46,0|0,3:0|3:0,0:0:0:0:
249,331,171483,5,8,0:0:0:0:
274,292,171562,1,0,0:0:0:0:
277,246,171641,1,0,3:0:0:0:
258,205,171720,1,0,3:0:0:0:
223,177,171799,5,0,3:0:0:0:
198,138,171878,1,0,3:0:0:0:
195,92,171957,1,8,0:0:0:0:
214,51,172036,1,0,0:0:0:0:
249,23,172115,6,0,L|299:28,1,46,8|8,0:0|0:0,0:0:0:0:
365,77,172273,2,0,L|410:72,1,46,0|0,3:0|3:0,0:0:0:0:
491,12,172431,5,12,0:1:0:0:
411,213,172746,6,0,L|405:168,3,46,0|0|0|0,3:0|3:0|3:0|3:0,0:0:0:0:
467,279,173062,5,8,0:0:0:0:
426,299,173141,1,8,0:0:0:0:
381,297,173220,1,8,0:0:0:0:
342,273,173299,1,8,0:0:0:0:
322,233,173378,1,8,0:0:0:0:
302,193,173457,1,8,0:0:0:0:
263,169,173536,1,8,0:0:0:0:
218,167,173615,1,8,0:0:0:0:
178,188,173694,6,0,P|129:208|87:228,1,92,12|0,0:1|0:0,0:0:0:0:
325,97,174010,2,0,P|332:52|342:7,1,92,8|0,0:0|0:0,0:0:0:0:
233,268,174325,6,0,P|225:313|215:358,1,92,10|8,0:1|0:1,0:0:0:0:
60,68,174641,2,0,P|108:88|151:108,1,92,8|0,0:0|0:0,0:0:0:0:
290,196,174957,6,0,P|331:178|376:165,1,92,10|0,0:1|0:0,0:0:0:0:
247,40,175273,1,8,0:0:0:0:
233,268,175431,1,2,0:0:0:0:
139,86,175589,1,8,0:1:0:0:
376,165,175746,2,0,P|425:155|473:148,1,92,10|8,0:1|0:0,0:0:0:0:
256,349,176062,6,0,B|159:368|192:281|73:305,1,184,12|8,0:1|0:1,0:0:0:0:
4,137,176536,2,0,P|72:133|140:121,1,138,8|0,0:0|0:0,0:0:0:0:
163,115,176852,2,0,L|144:205,1,92,10|8,0:1|0:1,0:0:0:0:
96,42,177168,1,8,0:0:0:0:
257,128,177325,6,0,P|345:102|436:87,1,184,10|8,0:1|0:1,0:0:0:0:
512,224,177799,1,8,0:0:0:0:
360,180,177957,1,0,0:0:0:0:
512,62,178115,1,10,0:1:0:0:
428,242,178273,1,8,0:1:0:0:
349,17,178431,1,8,0:0:0:0:
200,212,178589,6,0,B|153:157|67:182|67:182|93:222,1,184,12|8,0:1|0:1,0:0:0:0:
203,344,179062,1,8,0:0:0:0:
278,164,179220,2,0,P|325:142|373:132,1,92,2|8,0:0|0:1,0:0:0:0:
465,270,179536,2,0,P|453:314|441:359,1,92,10|8,0:1|0:0,0:0:0:0:
203,344,179852,6,0,P|156:279|205:187,1,184,6|8,0:0|0:1,0:0:0:0:
362,115,180325,1,8,0:0:0:0:
214,84,180483,2,0,P|168:81|122:80,1,92,2|8,0:1|0:1,0:0:0:0:
347,197,180799,1,10,0:1:0:0:
313,2,180957,1,8,0:0:0:0:
195,192,181115,5,0,3:0:0:0:
195,192,181194,1,0,3:0:0:0:
195,192,181273,2,0,B|152:158|91:175|91:175|81:217|49:235,1,184,12|8,0:1|0:0,0:0:0:0:
0,72,181746,2,0,P|5:120|13:164,1,92,2|8,0:0|0:1,0:0:0:0:
129,351,182062,2,0,P|136:305|143:260,1,92,10|8,0:1|0:0,0:0:0:0:
99,159,182378,1,10,0:1:0:0:
310,222,182536,5,8,1:3:0:0:
39,323,182694,1,4,1:3:0:0:
39,323,183010,6,0,L|230:303,1,184,12|8,0:0|0:0,0:0:0:0:
240,317,183404,5,8,0:0:0:0:
240,317,183483,2,0,L|296:312,1,46,8|8,0:0|0:0,0:0:0:0:
319,139,183641,2,0,L|373:132,1,46,4|4,0:3|0:3,0:0:0:0:
467,300,183799,6,0,L|455:204,1,92,12|0,0:1|0:0,0:0:0:0:
303,36,184115,2,0,P|297:83|292:127,1,92,8|0,0:0|0:0,0:0:0:0:
208,323,184431,6,0,P|253:329|298:337,1,92,10|8,0:1|0:1,0:0:0:0:
118,120,184746,2,0,P|72:117|26:115,1,92,8|0,0:0|0:0,0:0:0:0:
72,308,185062,5,10,0:1:0:0:
210,165,185220,1,0,0:0:0:0:
202,298,185378,1,8,0:0:0:0:
139,86,185536,1,2,0:0:0:0:
291,197,185694,1,8,0:1:0:0:
168,2,185852,2,0,P|123:0|80:17,1,92,10|8,0:1|0:0,0:0:0:0:
279,107,186168,1,2,0:0:0:0:
81,205,186325,5,10,0:1:0:0:
75,239,186404,1,0,3:0:0:0:
69,273,186483,1,8,0:0:0:0:
63,307,186562,1,8,0:0:0:0:
57,341,186641,1,8,0:0:0:0:
279,107,186799,2,0,L|388:93,1,92,6|0,0:0|0:0,0:0:0:0:
148,352,187115,2,0,L|39:338,1,92,6|0,0:0|0:0,0:0:0:0:
442,170,187431,6,0,P|426:260|415:352,1,184,12|8,0:1|0:1,0:0:0:0:
197,205,187904,2,0,L|288:193,1,92,8|0,0:0|0:0,0:0:0:0:
243,305,188220,1,8,0:1:0:0:
161,111,188378,1,10,0:1:0:0:
311,194,188536,1,8,0:0:0:0:
97,188,188694,6,0,L|151:10,1,184,12|8,0:1|0:1,0:0:0:0:
336,97,189168,2,0,P|288:106|245:118,1,92,8|0,0:0|0:0,0:0:0:0:
166,281,189483,1,8,0:1:0:0:
311,194,189641,1,10,0:1:0:0:
137,114,189799,1,8,0:0:0:0:
255,272,189957,6,0,B|300:311|300:311|425:282,1,184,6|8,0:0|0:1,0:0:0:0:
506,156,190431,1,8,0:0:0:0:
338,20,190589,2,0,L|348:116,1,92,2|8,0:0|0:1,0:0:0:0:
444,50,190904,1,10,0:1:0:0:
255,131,191062,1,8,0:0:0:0:
426,249,191220,6,0,B|323:228|357:315|242:291,1,184,12|8,0:1|0:1,0:0:0:0:
58,124,191694,2,0,P|101:102|163:93,1,92,8|0,0:0|0:0,0:0:0:0:
112,325,192010,2,0,P|121:279|129:234,1,92,10|8,0:1|0:1,0:0:0:0:
237,40,192325,2,0,P|245:85|254:130,1,92,8|0,0:0|0:0,0:0:0:0:
426,249,192641,5,10,0:1:0:0:
328,75,192799,1,8,0:1:0:0:
278,297,192957,1,8,0:0:0:0:
420,58,193115,6,0,L|223:38,1,184,6|8,0:0|0:0,0:0:0:0:
86,214,193589,1,8,0:3:0:0:
120,211,193668,1,8,0:3:0:0:
149,193,193746,1,4,0:3:0:0:
167,164,193825,1,4,0:3:0:0:
170,130,193904,6,0,P|158:88|143:41,1,92,12|8,0:1|0:1,0:0:0:0:
154,290,194220,1,8,0:0:0:0:
265,150,194378,1,10,0:1:0:0:
92,134,194536,6,0,P|43:128|-10:124,1,92,2|8,0:0|0:1,0:0:0:0:
224,232,194852,1,8,0:0:0:0:
144,42,195010,1,2,0:0:0:0:
283,163,195168,6,0,L|405:145,2,92,10|8|8,0:1|0:1|0:0,0:0:0:0:
438,312,195641,2,0,P|431:262|423:213,1,92,10|0,0:1|0:0,0:0:0:0:
325,62,195957,6,0,L|395:51,1,69.0000026321412,12|0,0:0|0:0,0:0:0:0:
224,232,196115,6,0,L|115:217,1,103.500003948212,12|0,0:0|0:0,0:0:0:0:
45,272,196431,6,0,L|28:181,1,92,12|8,0:1|0:1,0:0:0:0:
89,40,196746,1,8,0:0:0:0:
226,130,196904,2,0,P|270:117|315:108,1,92,10|0,0:1|0:0,0:0:0:0:
126,316,197220,2,0,P|81:303|36:294,1,92,10|8,0:1|0:0,0:0:0:0:
224,115,197536,5,8,0:1:0:0:
224,115,197615,1,8,0:1:0:0:
224,115,197694,1,12,0:0:0:0:
260,269,197852,1,8,0:1:0:0:
294,37,198010,5,12,0:0:0:0:
242,250,198168,1,8,0:1:0:0:
209,16,198325,5,12,0:0:0:0:
398,124,198483,1,8,0:1:0:0:
129,146,198641,5,12,0:0:0:0:
415,105,198799,1,8,0:0:0:0:
415,105,198878,1,8,0:0:0:0:
414,105,198957,2,0,P|424:150|432:196,1,92,12|8,0:1|0:1,0:0:0:0:
263,159,199273,1,8,0:0:0:0:
372,25,199431,1,8,0:1:0:0:
246,174,199589,6,0,P|236:219|228:265,1,92,2|8,0:0|0:1,0:0:0:0:
191,90,199904,1,8,0:0:0:0:
326,226,200062,1,2,0:0:0:0:
151,207,200220,6,0,P|107:220|64:236,1,92,10|8,0:1|0:1,0:0:0:0:
263,159,200536,1,8,0:0:0:0:
219,351,200694,2,0,P|297:336|366:330,1,138,10|0,0:1|0:0,0:0:0:0:
434,364,201010,6,0,L|441:293,1,69.0000026321412,12|0,0:0|0:0,0:0:0:0:
256,70,201168,6,0,L|272:184,1,103.500003948212,12|0,0:0|0:0,0:0:0:0:
344,205,201483,5,10,1:1:0:0:
302,190,201562,1,8,0:0:0:0:
257,197,201641,1,8,0:0:0:0:
222,226,201720,1,8,0:0:0:0:
205,268,201799,2,0,L|156:257,1,46,10|8,1:1|0:0,0:0:0:0:
66,348,201957,2,0,L|115:336,1,46,10|8,0:0|0:0,0:0:0:0:
149,185,202115,5,10,1:1:0:0:
143,139,202194,1,8,0:0:0:0:
137,93,202273,1,8,0:0:0:0:
131,48,202352,1,8,0:0:0:0:
125,2,202431,1,8,0:0:0:0:
310,149,202589,6,0,B|378:137|378:137|426:165|426:165|498:155,1,184,12|4,0:1|1:3,0:0:0:0:
446,62,203062,1,8,1:3:0:0:
366,273,203220,1,8,0:1:0:0:
251,42,203378,5,12,0:0:0:0:
251,42,203694,1,8,0:0:0:0:
220,58,203773,1,8,0:0:0:0:
186,65,203852,1,8,0:0:0:0:
152,62,203931,1,8,0:0:0:0:
120,50,204010,1,12,0:1:0:0:
184,96,208874,5,2,0:0:0:0:
191,117,209797,1,2,0:0:0:0:
197,136,210720,6,0,L|317:125,1,103.500003948212,2|0,0:0|0:0,0:0:0:0:
318,161,211181,6,0,L|175:149,1,138
95,83,211643,6,0,P|65:144|86:212,1,138.000005264282,2|8,0:0|0:1,0:0:0:0:
156,265,211989,1,8,0:1:0:0:
156,265,212104,2,0,L|228:267,1,69.0000026321412,12|0,0:0|0:0,0:0:0:0:
321,268,212335,1,2,0:0:0:0:
453,19,212566,6,0,P|417:75|351:87,1,138.000005264282,12|0,0:1|0:0,0:0:0:0:
229,49,212912,6,0,P|296:51|339:102,1,138.000005264282,4|0,0:3|0:0,0:0:0:0:
369,180,213258,6,0,B|362:146|362:146|365:135|365:135|360:100,1,69.0000026321412,8|0,0:1|0:0,0:0:0:0:
251,253,213489,6,0,P|286:309|352:321,1,138.000005264282,12|0,0:1|0:0,0:0:0:0:
225,239,213835,6,0,P|157:241|114:292,1,138.000005264282,4|0,0:3|0:0,0:0:0:0:
251,225,214181,6,0,B|258:191|258:191|255:180|255:180|260:145,1,69.0000026321412,8|0,0:1|0:0,0:0:0:0:
102,47,214412,6,0,P|101:84|185:128,1,138.000005264282,12|0,0:1|0:0,0:0:0:0:
274,52,214758,1,8,0:3:0:0:
267,89,214874,2,0,L|257:160,1,69.0000026321412,4|0,0:3|0:0,0:0:0:0:
425,49,215104,2,0,L|435:120,1,69.0000026321412,8|0,0:1|0:0,0:0:0:0:
485,316,215335,6,0,L|417:302,1,69.0000026321412,12|0,0:0|0:0,0:0:0:0:
359,215,215566,2,0,L|291:228,1,69.0000026321412,10|0,0:1|0:0,0:0:0:0:
235,342,215797,6,0,P|187:336|158:323,1,69.0000026321412,10|0,0:0|0:0,0:0:0:0:
93,192,216027,2,0,P|58:194|26:205,1,69.0000026321412,8|8,0:0|0:0,0:0:0:0:
9,231,216258,6,0,B|42:199|42:199|17:68,1,156.400002983093,12|2,0:1|0:0,0:0:0:0:
100,39,216604,1,0,0:0:0:0:
100,39,216720,2,0,L|188:26,1,78.2000014915467,12|0,0:0|0:0,0:0:0:0:
261,69,216950,2,0,L|338:80,1,78.2000014915467,2|0,0:0|0:0,0:0:0:0:
439,23,217181,6,0,P|466:95|461:172,1,156.400002983093,8|2,0:1|0:0,0:0:0:0:
401,244,217527,1,0,0:0:0:0:
401,244,217643,1,8,0:0:0:0:
159,175,217874,2,0,L|236:159,1,78.2000014915467,2|0,0:0|0:0,0:0:0:0:
257,78,218104,6,0,L|288:247,1,156.400002983093,8|2,0:1|0:0,0:0:0:0:
309,326,218450,1,0,0:0:0:0:
309,326,218566,2,0,P|263:339|227:338,1,78.2000014915467,8|0,0:0|0:0,0:0:0:0:
149,284,218797,2,0,P|110:285|72:296,1,78.2000014915467,2|0,0:0|0:0,0:0:0:0:
2,357,219027,5,8,0:1:0:0:
52,132,219258,2,0,P|50:171|48:210,1,78.2000014915467,2|0,0:0|0:0,0:0:0:0:
230,122,219489,2,0,P|197:100|164:79,1,78.2000014915467,10|0,0:0|0:0,0:0:0:0:
149,284,219720,2,0,P|183:266|218:248,1,78.2000014915467,2|0,0:0|0:0,0:0:0:0:
387,109,219950,6,0,P|309:100|232:86,1,156.400002983093,8|2,0:1|0:0,0:0:0:0:
320,199,220297,1,0,0:0:0:0:
320,199,220412,2,0,P|398:190|475:176,1,156.400002983093,8|2,0:0|0:0,0:0:0:0:
512,308,220758,1,0,0:0:0:0:
512,308,220874,2,0,L|426:297,1,78.2000014915467,8|0,0:1|0:0,0:0:0:0:
342,351,221104,2,0,L|264:341,1,78.2000014915467,2|0,0:0|0:0,0:0:0:0:
218,247,221335,1,8,0:0:0:0:
44,344,221566,5,2,0:0:0:0:
44,344,221681,1,0,0:0:0:0:
44,344,221797,2,0,L|31:263,1,78.2000014915467,8|0,0:1|0:0,0:0:0:0:
150,140,222027,2,0,L|137:217,1,78.2000014915467,2|0,0:0|0:0,0:0:0:0:
14,145,222258,2,0,L|1:64,1,78.2000014915467,8|0,0:0|0:0,0:0:0:0:
242,54,222489,2,0,L|229:131,1,78.2000014915467,2|0,0:0|0:0,0:0:0:0:
268,197,222720,5,8,0:1:0:0:
334,238,222835,1,0,0:0:0:0:
411,242,222950,1,2,0:0:0:0:
482,210,223066,1,2,0:0:0:0:
502,193,223181,6,0,L|491:110,1,78.2000014915467,8|2,0:0|0:2,0:0:0:0:
500,22,223412,1,2,0:0:0:0:
507,37,223643,6,0,B|450:48|450:48|422:35|422:35|353:48,1,156.400002983093,12|2,0:1|0:0,0:0:0:0:
333,137,223989,1,0,0:0:0:0:
333,137,224104,2,0,B|390:126|390:126|418:139|418:139|487:126,1,156.400002983093,8|2,0:0|0:0,0:0:0:0:
510,218,224450,1,0,0:0:0:0:
510,218,224566,2,0,L|425:232,1,78.2000014915467,8|0,0:1|0:0,0:0:0:0:
356,291,224797,2,0,L|267:283,1,78.2000014915467,2|0,0:0|0:0,0:0:0:0:
198,227,225027,1,8,0:0:0:0:
339,48,225258,5,2,0:0:0:0:
339,48,225374,1,0,0:0:0:0:
339,48,225489,2,0,L|326:203,1,156.400002983093,8|2,0:1|0:0,0:0:0:0:
356,291,225835,1,0,0:0:0:0:
356,291,225950,2,0,L|381:369,1,78.2000014915467,8|0,0:0|0:0,0:0:0:0:
494,241,226181,2,0,L|419:219,1,78.2000014915467,2|0,0:0|0:0,0:0:0:0:
252,232,226412,6,0,B|146:257|146:257|175:207,1,156.400002983093,8|2,0:1|0:0,0:0:0:0:
231,139,226758,1,0,0:0:0:0:
231,139,226874,2,0,B|244:99|244:99|231:64,1,78.2000014915467,8|0,0:0|0:0,0:0:0:0:
106,26,227104,2,0,B|93:59|93:59|106:99,1,78.2000014915467,2|0,0:0|0:0,0:0:0:0:
252,232,227335,6,0,L|422:206,1,156.400002983093,12|2,0:1|0:0,0:0:0:0:
493,257,227681,1,0,0:0:0:0:
493,257,227797,2,0,L|501:177,1,78.2000014915467,8|0,0:0|0:0,0:0:0:0:
426,37,228027,2,0,L|433:114,1,78.2000014915467,12|0,0:0|0:0,0:0:0:0:
298,251,228258,6,0,B|267:245|267:245|253:248|253:248|215:243,2,78.2000014915467,8|8|8,0:1|0:3|0:3,0:0:0:0:
216,129,228604,5,0,0:0:0:0:
216,129,228720,2,0,B|187:144|187:144|178:155|178:155|149:168,2,78.2000014915467,8|4|4,0:1|0:3|0:3,0:0:0:0:
461,101,229181,5,12,0:0:0:0:
413,175,229297,1,8,0:0:0:0:
461,248,229412,1,8,0:0:0:0:
413,323,229527,1,8,0:0:0:0:
461,101,229758,5,8,0:0:0:0:
413,323,229989,1,8,0:0:0:0:
478,258,230104,5,8,0:0:0:0:
269,325,230335,1,2,0:0:0:0:
281,192,230566,6,0,L|270:236,1,46,12|0,0:3|0:0,0:0:0:0:
269,325,230797,2,0,L|279:369,1,46,2|0,0:0|0:0,0:0:0:0:
270,237,231027,6,0,B|234:212|234:212|125:245,1,156.400002983093,12|2,0:1|0:0,0:0:0:0:
42,186,231374,1,0,0:0:0:0:
42,186,231489,2,0,P|30:223|22:261,1,78.2000014915467,12|0,0:0|0:0,0:0:0:0:
129,141,231720,2,0,P|123:103|116:63,1,78.2000014915467,2|0,0:0|0:0,0:0:0:0:
237,127,231950,6,0,L|399:105,1,156.400002983093,8|2,0:1|0:0,0:0:0:0:
487,95,232297,1,0,0:0:0:0:
487,95,232412,1,8,0:0:0:0:
410,311,232643,2,0,L|398:233,1,78.2000014915467,2|0,0:0|0:0,0:0:0:0:
322,142,232874,6,0,B|237:128|264:194|178:181,1,156.400002983093,8|2,0:1|0:0,0:0:0:0:
92,156,233220,1,0,0:0:0:0:
92,156,233335,2,0,P|97:194|102:233,1,78.2000014915467,8|0,0:0|0:0,0:0:0:0:
205,25,233566,2,0,P|200:63|196:102,1,78.2000014915467,2|0,0:0|0:0,0:0:0:0:
41,58,233797,5,8,0:1:0:0:
256,151,234027,2,0,P|225:126|195:101,1,78.2000014915467,2|0,0:0|0:0,0:0:0:0:
284,238,234258,2,0,P|321:224|357:209,1,78.2000014915467,10|0,0:0|0:0,0:0:0:0:
194,213,234489,2,0,P|188:251|182:289,1,78.2000014915467,2|0,0:0|0:0,0:0:0:0:
398,360,234720,6,0,P|378:289|355:205,1,156.400002983093,8|2,0:1|0:0,0:0:0:0:
394,123,235066,1,0,0:0:0:0:
451,49,235181,2,0,P|412:44|262:33,1,156.400002983093,8|2,0:0|0:0,0:0:0:0:
204,62,235527,1,0,0:0:0:0:
185,51,235643,2,0,L|191:131,1,78.2000014915467,8|0,0:1|0:0,0:0:0:0:
267,192,235874,2,0,L|261:269,1,78.2000014915467,2|0,0:0|0:0,0:0:0:0:
164,345,236104,2,0,L|158:267,1,78.2000014915467,8|0,0:0|0:0,0:0:0:0:
354,267,236335,2,0,L|348:344,1,78.2000014915467,2|0,0:0|0:0,0:0:0:0:
267,193,236566,6,0,P|333:156|425:169,1,156.400002983093,8|2,0:1|0:0,0:0:0:0:
468,89,236912,1,0,0:0:0:0:
468,89,237027,2,0,P|431:73|379:70,1,78.2000014915467,8|0,0:0|0:0,0:0:0:0:
266,192,237258,2,0,L|252:269,1,78.2000014915467,2|0,0:0|0:0,0:0:0:0:
225,127,237489,5,8,0:1:0:0:
152,104,237604,1,0,0:0:0:0:
82,134,237720,1,2,0:0:0:0:
49,210,237835,6,0,L|63:302,1,78.2000014915467,2|8,0:0|0:0,0:0:0:0:
234,247,238066,1,2,0:0:0:0:
240,262,238181,2,0,L|226:354,1,78.2000014915467,2|4,0:0|0:3,0:0:0:0:
380,171,238412,6,0,P|399:251|418:336,1,156.400002983093,12|2,0:1|0:0,0:0:0:0:
489,165,238758,1,0,0:0:0:0:
494,169,238874,2,0,P|485:209|475:244,1,78.2000014915467,8|0,0:0|0:0,0:0:0:0:
365,153,239104,2,0,P|354:115|346:77,1,78.2000014915467,2|0,0:0|0:0,0:0:0:0:
421,6,239335,6,0,P|342:45|259:3,1,156.400002983093,8|2,0:1|0:0,0:0:0:0:
218,107,239681,1,0,0:0:0:0:
89,110,239797,2,0,P|168:71|251:113,1,156.400002983093,8|2,0:0|0:0,0:0:0:0:
268,181,240143,1,0,0:0:0:0:
264,197,240258,6,0,L|250:284,1,78.2000014915467,8|0,0:1|0:0,0:0:0:0:
130,260,240489,2,0,L|144:347,1,78.2000014915467,2|0,0:0|0:0,0:0:0:0:
287,220,240720,2,0,L|273:307,1,78.2000014915467,8|0,0:0|0:0,0:0:0:0:
449,359,240950,2,0,L|436:281,1,78.2000014915467,2|0,0:0|0:0,0:0:0:0:
475,93,241181,5,8,0:1:0:0:
287,220,241412,2,0,L|198:192,1,78.2000014915467,12|0,0:0|0:0,0:0:0:0:
117,202,241643,5,8,0:3:0:0:
120,212,241758,1,8,0:3:0:0:
166,112,241874,5,4,0:3:0:0:
163,122,241989,1,4,0:3:0:0:
96,35,242104,6,0,P|165:17|268:127,1,234.60000447464,12|0,0:1|0:0,0:0:0:0:
259,202,242566,2,0,L|252:110,1,78.2000014915467,8|0,0:0|0:0,0:0:0:0:
230,303,242797,6,0,B|306:320|358:253|358:253|381:299|427:306,1,234.60000447464,12|0,0:1|0:0,0:0:0:0:
509,277,243258,2,0,P|499:313|488:358,1,78.2000014915467,8|0,0:1|0:0,0:0:0:0:
430,223,243489,2,0,P|420:185|411:148,1,78.2000014915467,8|0,0:0|0:0,0:0:0:0:
493,103,243720,2,0,P|502:65|512:27,1,78.2000014915467,8|0,0:1|0:0,0:0:0:0:
366,31,243950,5,8,0:0:0:0:
398,121,244066,1,8,0:0:0:0:
308,153,244181,1,8,0:0:0:0:
276,63,244297,1,8,0:0:0:0:
255,49,244527,5,8,0:0:0:0:
263,254,244758,1,8,0:0:0:0:
263,254,244874,6,0,P|167:227|81:267,1,156.400002983093,8|0,0:1|0:0,0:0:0:0:
50,309,245220,6,0,L|28:233,1,78.2000014915467,8|8,3:0|0:0,0:0:0:0:
65,146,245450,5,8,0:3:0:0:
53,158,245566,1,8,0:3:0:0:
276,63,245797,5,12,0:1:0:0:
419,279,248851,5,12,0:0:0:0:
285,231,249016,1,2,0:0:0:0:
406,149,249182,1,8,0:0:0:0:
320,319,249348,1,2,0:0:0:0:
283,144,249513,2,0,P|239:158|207:191,1,92,8|8,0:0|0:1,0:0:0:0:
120,311,249845,2,0,L|97:218,1,92,8|8,0:0|0:1,0:0:0:0:
38,160,250094,5,8,0:1:0:0:
38,160,250176,1,12,0:0:0:0:
207,191,250342,1,8,0:1:0:0:
168,32,250508,1,8,3:1:0:0:
98,222,250674,1,8,0:0:0:0:
286,168,250839,1,8,0:0:0:0:
131,113,251005,1,8,0:0:0:0:
284,293,251171,1,8,0:0:0:0:
338,43,251337,1,8,0:0:0:0:
190,197,251502,5,10,0:1:0:0:
417,77,253491,6,0,P|408:143|399:228,1,138,12|0,0:0|0:0,0:0:0:0:
493,44,254154,6,0,B|398:11|406:100|308:65,1,184,12|8,0:1|0:0,0:0:0:0:
167,35,254652,2,0,P|121:27|75:22,1,92,2|8,0:0|0:1,0:0:0:0:
212,228,254983,2,0,L|228:128,1,92,10|8,0:1|0:0,0:0:0:0:
39,338,255315,6,0,P|134:318|181:309,1,138,12|0,0:1|0:0,0:0:0:0:
195,321,255646,2,0,L|295:329,1,92,10|8,0:1|0:0,0:0:0:0:
427,192,255978,1,2,0:0:0:0:
258,248,256143,1,8,0:1:0:0:
432,319,256309,1,10,0:1:0:0:
340,126,256475,2,0,L|331:232,1,92,8|0,0:0|0:0,0:0:0:0:
345,32,256806,6,0,B|277:51|277:51|251:87|251:87|180:106,1,184,12|8,0:1|0:0,0:0:0:0:
85,186,257304,1,2,0:0:0:0:
51,16,257469,2,0,B|36:52|36:52|52:112,1,92,8|8,0:1|0:1,0:0:0:0:
209,192,257801,1,8,0:0:0:0:
50,298,257967,6,0,B|105:255|182:273|182:273|146:311,1,184,6|8,0:0|0:1,0:0:0:0:
68,181,258464,1,8,0:0:0:0:
142,325,258630,1,2,0:0:0:0:
230,166,258795,1,8,0:1:0:0:
141,351,258961,2,0,P|187:341|241:333,1,92,10|8,0:1|0:0,0:0:0:0:
426,325,259292,5,0,3:0:0:0:
420,328,259375,1,0,3:0:0:0:
414,331,259458,2,0,B|367:302|367:302|349:232|412:177,1,184,12|8,0:1|0:0,0:0:0:0:
503,57,259955,2,0,P|511:108|512:148,1,92,0|8,0:0|0:1,0:0:0:0:
299,167,260287,1,10,0:1:0:0:
419,105,260453,1,8,0:0:0:0:
239,20,260618,6,0,B|131:0|169:87|44:62,1,184,2|10,0:0|0:1,0:0:0:0:
210,124,261116,1,8,0:0:0:0:
60,213,261281,2,0,P|37:269|26:303,1,92,2|8,0:0|0:1,0:0:0:0:
228,366,261613,2,0,P|222:319|215:274,1,92,10|8,0:1|0:0,0:0:0:0:
121,145,261944,1,2,0:0:0:0:
317,285,262110,6,0,P|337:195|359:101,1,184,10|8,0:1|0:0,0:0:0:0:
475,266,262607,2,0,P|497:313|513:352,1,92,2|8,0:0|0:1,0:0:0:0:
489,161,262939,1,10,0:1:0:0:
313,261,263105,2,0,P|275:250|223:239,1,92,8|0,0:0|0:0,0:0:0:0:
74,320,263436,6,0,B|31:341|31:341|-11:272|43:216,1,184,10|8,0:1|0:0,0:0:0:0:
187,128,263933,1,0,0:0:0:0:
71,34,264099,6,0,L|80:125,1,92,8|0,0:0|0:0,0:0:0:0:
125,204,264348,1,8,0:0:0:0:
125,204,264431,2,0,L|116:257,1,46,8|8,0:3|0:3,0:0:0:0:
187,128,264596,2,0,L|180:83,1,46,4|4,0:3|0:3,0:0:0:0:
294,222,264762,6,0,P|395:192|489:177,1,184,12|8,0:1|0:0,0:0:0:0:
313,21,265259,2,0,P|299:65|292:118,1,92,2|8,0:0|0:1,0:0:0:0:
361,294,265591,2,0,L|350:338,2,46,10|2|8,0:1|0:0|0:0,0:0:0:0:
137,193,265922,6,0,P|155:260|169:334,1,138,12|0,0:1|0:0,0:0:0:0:
165,349,266254,2,0,P|120:337|75:329,1,92,10|8,0:1|0:0,0:0:0:0:
265,151,266585,2,0,P|256:199|248:241,1,92,2|8,0:0|0:1,0:0:0:0:
176,47,266917,1,10,0:1:0:0:
50,192,267083,2,0,P|42:146|33:101,1,92,8|8,0:0|0:1,0:0:0:0:
252,262,267414,6,0,P|321:250|388:241,1,138,12|0,0:1|0:0,0:0:0:0:
409,227,267746,2,0,P|434:234|460:246,1,46,8|0,0:0|0:0,0:0:0:0:
225,71,267911,5,8,0:0:0:0:
340,347,268243,5,8,0:0:0:0:
408,199,268409,1,8,0:1:0:0:
228,276,268574,6,0,P|181:268|41:252,1,184,12|10,0:1|0:1,0:0:0:0:
185,117,269071,6,0,P|197:164|202:197,2,61.3333333333333,8|2|2,0:0|0:0|0:0,0:0:0:0:
123,341,269403,6,0,L|141:270,2,61.3333333333333,10|2|2,0:1|0:0|0:0,0:0:0:0:
245,252,269734,5,8,0:3:0:0:
252,261,269845,2,0,L|267:320,1,61.3333333333333,2|2,0:0|0:0,0:0:0:0:
92,209,270066,6,0,P|191:180|290:148,1,207.000007896424,12|0,0:1|0:0,0:0:0:0:
394,19,270729,6,0,B|407:70|377:105|377:105|402:151|402:151|378:201|397:249,1,234.60000447464,6|8,0:0|0:3,0:0:0:0:
451,322,271309,1,8,0:3:0:0:
458,308,271392,6,0,L|352:326,1,92,12|0,0:1|0:0,0:0:0:0:
176,253,271723,1,8,0:1:0:0:
281,370,271889,1,2,0:0:0:0:
293,203,272055,1,8,0:0:0:0:
297,157,272138,1,8,0:0:0:0:
302,111,272221,1,8,0:1:0:0:
306,65,272304,1,8,0:1:0:0:
311,19,272386,2,0,L|248:35,1,46,8|0,0:0|0:0,0:0:0:0:
130,71,272552,5,8,0:0:0:0:
107,65,272635,1,8,0:0:0:0:
85,59,272718,1,4,0:0:0:0:
132,106,277666,6,0,L|124:153,3,46,10|2|2|2,0:1|0:0|0:0|0:0,0:0:0:0:
118,182,278007,5,12,0:1:0:0:
396,49,278859,5,8,0:0:0:0:
338,283,279030,1,8,0:0:0:0:
250,108,279200,6,0,B|354:91|323:158|427:141,1,184,6|8,0:0|1:3,0:0:0:0:
338,283,279712,2,0,L|343:316,6,23,8|2|2|2|10|2|2,1:3|0:0|0:0|0:0|0:0|0:0|0:0,0:0:0:0:
293,210,280053,1,8,0:1:0:0:
256,235,280138,1,0,0:0:0:0:
214,253,280223,1,8,0:0:0:0:
169,257,280308,1,8,0:0:0:0:
124,248,280394,2,0,L|111:187,1,46,8|8,0:0|0:0,0:0:0:0:
255,70,280564,2,0,L|246:115,1,46,8|8,0:0|0:0,0:0:0:0:
178,354,280734,6,0,P|253:340|366:331,1,184,12|8,0:1|0:0,0:0:0:0:
456,346,281246,1,10,0:1:0:0:
373,157,281416,2,0,P|367:115|360:58,1,92,2|8,0:0|0:1,0:0:0:0:
264,324,281757,1,8,0:0:0:0:
373,157,281928,6,0,P|353:198|337:241,1,92,10|0,0:1|0:0,0:0:0:0:
268,131,282269,1,10,0:1:0:0:
426,240,282439,1,8,0:0:0:0:
360,65,282609,1,2,0:0:0:0:
234,226,282780,5,8,0:1:0:0:
396,139,282950,1,8,0:1:0:0:
212,226,283121,2,0,L|153:213,1,46,8|2,0:0|0:0,0:0:0:0:
217,53,283291,2,0,L|276:40,1,46,2|2,0:0|0:0,0:0:0:0:
399,158,283462,5,8,0:1:0:0:
239,131,283632,1,10,0:1:0:0:
441,59,283803,1,8,0:0:0:0:
336,269,283973,2,0,P|380:258|427:251,1,92,10|0,0:1|0:0,0:0:0:0:
264,209,284314,1,10,0:1:0:0:
399,345,284484,1,8,0:0:0:0:
372,147,284655,1,2,0:0:0:0:
249,301,284825,6,0,L|147:287,2,92,8|10|8,0:1|0:1|0:0,0:0:0:0:
184,120,285337,2,0,P|97:133|68:215,1,184,10|8,0:1|0:1,0:0:0:0:
249,301,285848,2,0,L|340:288,1,92,8|0,0:0|0:0,0:0:0:0:
444,159,286189,5,8,0:1:0:0:
444,159,286359,1,8,0:1:0:0:
304,78,286530,2,0,L|321:168,1,92,8|8,0:0|0:1,0:0:0:0:
237,313,286871,2,0,L|137:291,1,92,2|8,0:0|0:1,0:0:0:0:
38,139,287212,2,0,L|138:117,1,92,10|8,0:0|0:1,0:0:0:0:
208,154,287467,1,8,0:1:0:0:
208,154,287553,5,10,0:0:0:0:
344,86,287723,1,0,0:1:0:0:
205,119,287894,5,10,0:0:0:0:
378,175,288064,1,8,0:1:0:0:
170,269,288234,5,10,0:0:0:0:
395,159,288405,1,0,0:0:0:0:
169,247,288575,5,8,0:0:0:0:
429,318,288746,1,8,0:1:0:0:
336,70,288916,5,12,0:1:0:0:
301,232,289087,1,8,0:3:0:0:
301,232,289172,1,8,0:3:0:0:
301,232,289257,1,8,0:3:0:0:
201,67,289428,6,0,B|96:45|132:133|6:110,1,184,6|4,0:0|0:3,0:0:0:0:
46,18,289939,1,8,0:0:0:0:
200,149,290109,6,0,P|246:152|292:157,1,92,12|0,0:1|0:0,0:0:0:0:
109,264,290450,1,8,0:1:0:0:
30,113,290621,2,0,L|40:167,1,46,8|8,0:0|0:0,0:0:0:0:
100,309,290791,2,0,L|108:263,1,46,8|8,0:1|0:1,0:0:0:0:
156,30,290962,5,8,0:0:0:0:
243,349,291217,5,8,0:0:0:0:
383,97,291473,5,8,0:0:0:0:
279,237,291644,6,0,P|325:229|375:223,1,92,12|8,0:1|0:1,0:0:0:0:
511,219,291984,1,8,0:0:0:0:
398,26,292155,2,0,B|384:60|384:60|397:113,1,92,10|8,0:1|0:1,0:0:0:0:
510,306,292496,2,0,B|524:272|524:272|512:219,1,92,10|8,0:1|0:0,0:0:0:0:
273,153,292837,6,0,B|215:167|215:167|186:223|186:223|123:241,1,184,10|8,0:1|0:1,0:0:0:0:
183,78,293348,1,8,0:0:0:0:
269,239,293519,1,10,0:1:0:0:
107,144,293689,5,10,0:1:0:0:
306,57,293859,1,8,0:1:0:0:
270,258,294030,1,8,0:0:0:0:
174,57,294200,1,2,0:0:0:0:
381,175,294371,6,0,P|428:166|478:160,1,92,10|8,0:1|0:1,0:0:0:0:
284,56,294712,1,8,0:0:0:0:
173,233,294882,2,0,P|161:279|156:324,1,92,10|0,0:1|0:0,0:0:0:0:
300,146,295223,2,0,P|294:100|283:55,1,92,10|8,0:1|0:0,0:0:0:0:
57,74,295564,6,0,P|114:66|202:160,1,184,12|8,0:1|0:1,0:0:0:0:
48,316,296075,1,8,0:0:0:0:
99,168,296246,5,8,0:1:0:0:
99,168,296331,1,8,0:1:0:0:
99,168,296416,2,0,L|211:180,1,110.399996630859,12|0,0:0|0:0,0:0:0:0:
148,64,296672,6,0,L|26:72,1,110.399996630859,8|0,0:3|0:0,0:0:0:0:
25,184,296928,6,0,L|81:192,1,55.1999983154297,4|0,0:3|0:0,0:0:0:0:
241,257,297098,5,12,0:1:0:0:
99,168,297269,1,8,0:1:0:0:
284,72,297439,1,8,0:0:0:0:
114,187,297609,1,8,0:1:0:0:
339,185,297780,6,0,L|346:299,1,110.399996630859,8|0,0:0|0:0,0:0:0:0:
210,353,298036,6,0,L|224:236,1,110.399996630859,8|0,0:3|0:0,0:0:0:0:
114,187,298291,6,0,L|124:262,1,55.1999983154297,4|0,0:3|0:0,0:0:0:0:
194,354,298462,5,12,0:1:0:0:
238,170,298632,1,8,0:1:0:0:
348,276,298803,1,8,0:0:0:0:
256,77,298973,1,8,0:1:0:0:
377,189,299144,6,0,L|488:166,1,110.399996630859,8|0,0:3|0:0,0:0:0:0:
364,95,299399,6,0,L|250:76,1,110.399996630859,4|0,0:3|0:0,0:0:0:0:
321,252,299655,6,0,L|330:324,1,55.1999983154297,4|0,0:3|0:0,0:0:0:0:
214,357,299825,5,8,0:0:0:0:
243,206,299996,1,4,0:3:0:0:
327,306,300166,5,4,0:3:0:0:
219,196,300337,1,8,0:3:0:0:
376,121,300507,5,8,0:1:0:0:
122,207,300678,1,8,0:3:0:0:
376,121,300848,1,4,0:3:0:0:
167,44,301019,6,0,L|208:227,1,184,6|10,0:0|0:0,0:0:0:0:
386,94,301530,1,10,0:0:0:0:
316,298,301700,1,10,0:0:0:0:
122,207,301871,1,10,0:0:0:0:
116,240,301956,1,8,0:0:0:0:
110,274,302041,1,8,0:0:0:0:
104,308,302126,1,8,0:0:0:0:
98,342,302212,1,8,0:0:0:0:
297,165,302382,5,12,0:1:0:0:
117,65,307519,6,0,L|230:54,1,92,12|0,0:0|0:0,0:0:0:0:
389,136,307854,2,0,L|297:144,1,92,8|0,0:0|0:0,0:0:0:0:
154,247,308189,1,8,0:0:0:0:
208,56,308356,1,8,0:1:0:0:
261,276,308524,1,8,0:0:0:0:
208,76,308692,1,8,0:1:0:0:
55,220,308859,5,8,0:0:0:0:
263,154,309027,1,0,0:0:0:0:
100,56,309194,1,12,0:0:0:0:
154,247,309362,1,0,0:0:0:0:
304,68,309530,5,8,0:1:0:0:
261,276,309697,1,8,0:0:0:0:
450,103,309865,5,12,0:0:0:0:
453,137,309949,1,8,0:0:0:0:
457,171,310032,1,8,0:0:0:0:
461,205,310116,1,8,0:0:0:0:
465,240,310200,5,10,0:0:0:0:
304,68,310368,1,8,0:0:0:0:
261,276,310535,5,8,0:0:0:0:
446,72,310703,1,8,0:0:0:0:
446,72,311038,2,0,L|432:130,1,46,2|2,0:0|0:0,0:0:0:0:
382,328,311206,5,8,0:0:0:0:
253,184,311373,1,8,0:0:0:0:
142,313,311541,5,8,0:0:0:0:
364,166,311708,1,8,0:0:0:0:
261,276,311876,5,0,0:0:0:0:
259,253,311960,1,2,0:0:0:0:
257,230,312044,1,2,0:0:0:0:
255,207,312127,1,2,0:0:0:0:
253,184,312211,2,0,L|248:131,1,46,2|2,0:0|0:0,0:0:0:0:
125,22,312379,2,0,L|120:67,1,46,8|10,0:1|0:1,0:0:0:0:
85,193,312546,6,0,B|134:225|134:225|174:140|108:86,1,207.000007896424,12|0,0:0|0:0,0:0:0:0:
38,59,312882,6,0,B|142:17|119:99|222:57,1,184,12|8,0:1|0:0,0:0:0:0:
357,0,313384,1,2,0:0:0:0:
379,178,313552,2,0,P|331:161|281:146,1,92,10|8,0:1|0:1,0:0:0:0:
161,211,313887,1,8,0:0:0:0:
303,69,314055,1,2,0:0:0:0:
292,307,314222,6,0,P|383:280|486:255,1,184,10|8,0:1|0:0,0:0:0:0:
480,78,314725,2,0,P|414:95|379:152,1,138,10|0,0:1|0:0,0:0:0:0:
379,178,315060,1,8,0:1:0:0:
195,34,315228,2,0,P|228:78|247:119,1,92,8|2,0:0|0:0,0:0:0:0:
141,290,315563,6,0,B|105:230|105:230|151:112,1,184,10|8,0:1|0:0,0:0:0:0:
280,231,316066,1,2,0:0:0:0:
130,311,316234,2,0,P|93:301|32:289,1,92,10|8,0:1|0:1,0:0:0:0:
209,184,316569,1,8,0:0:0:0:
22,117,316736,1,2,0:0:0:0:
197,209,316904,6,8,L|287:190,1,92,10|8,0:1|0:1,0:0:0:0:
122,103,317239,1,8,0:0:0:0:
154,319,317407,2,0,P|227:303|359:285,1,184,10|8,0:1|0:1,0:0:0:0:
511,221,317910,2,0,P|496:264|487:309,1,92,8|2,0:0|0:0,0:0:0:0:
495,65,318245,6,0,B|395:46|428:141|307:114,1,184,12|8,0:1|0:0,0:0:0:0:
170,53,318748,1,2,0:0:0:0:
212,214,318915,2,0,P|223:173|237:125,1,92,10|8,0:1|0:1,0:0:0:0:
52,227,319250,2,0,P|64:271|76:315,1,92,8|2,0:0|0:0,0:0:0:0:
212,214,319586,5,10,0:1:0:0:
35,203,319753,1,8,0:1:0:0:
236,125,319921,1,8,0:0:0:0:
6,64,320088,2,0,P|63:48|140:137,1,184,14|8,0:1|0:1,0:0:0:0:
91,312,320591,2,0,L|-4:298,1,92,8|2,0:0|0:0,0:0:0:0:
244,222,320926,6,0,L|407:196,1,165.599994946289,14|0,0:1|0:0,0:0:0:0:
483,205,321262,2,0,L|416:215,1,55.1999983154297,10|0,0:0|0:0,0:0:0:0:
307,62,321429,2,0,P|360:78|419:88,1,110.399996630859,6|0,0:0|0:0,0:0:0:0:
338,350,321764,2,0,P|389:328|446:312,1,110.399996630859,6|8,0:0|0:0,0:0:0:0:
120,222,322100,6,0,B|239:176|217:275|335:229,1,220.799993261719,12|8,0:1|0:1,0:0:0:0:
432,120,322602,1,8,0:0:0:0:
473,237,322770,1,8,0:1:0:0:
348,80,322937,5,8,0:0:0:0:
316,246,323105,1,8,0:0:0:0:
318,264,323189,1,8,0:0:0:0:
320,282,323273,1,8,0:0:0:0:
322,300,323356,1,8,0:0:0:0:
325,319,323440,1,8,0:0:0:0:
327,337,323524,1,8,0:0:0:0:
329,355,323608,6,0,L|238:340,1,92,12|0,0:1|0:0,0:0:0:0:
120,222,323943,2,0,L|211:207,1,92,8|0,0:0|0:0,0:0:0:0:
383,187,324278,1,8,0:0:0:0:
238,340,324446,1,8,0:1:0:0:
306,127,324613,1,8,0:0:0:0:
438,249,324781,1,8,0:1:0:0:
359,38,324949,5,8,0:0:0:0:
297,248,325116,1,8,0:1:0:0:
257,44,325284,1,8,0:0:0:0:
445,126,325451,1,8,0:1:0:0:
445,126,325535,1,8,0:1:0:0:
445,126,325619,1,8,0:0:0:0:
216,181,325787,1,8,0:1:0:0:
354,17,325954,2,0,L|344:118,1,92,8|0,0:0|0:0,0:0:0:0:
219,298,326289,6,0,L|209:206,1,92,8|0,0:0|0:0,0:0:0:0:
163,45,326625,1,8,0:0:0:0:
94,209,326792,1,8,0:1:0:0:
94,209,326876,1,8,0:1:0:0:
94,209,326960,2,0,P|43:199|-6:193,1,92,8|8,0:0|0:1,0:0:0:0:
163,45,327295,2,0,P|207:32|252:23,1,92,8|0,0:0|0:1,0:0:0:0:
397,215,327630,5,12,0:1:0:0:
227,119,327798,1,8,0:1:0:0:
439,50,327965,1,12,0:0:0:0:
301,263,328133,2,0,P|307:197|319:79,1,184,12|8,0:1|0:1,0:0:0:0:
319,79,328552,1,8,0:1:0:0:
319,79,328636,1,8,0:0:0:0:
448,138,328803,1,8,0:1:0:0:
293,279,328971,6,0,B|228:266|228:266|182:288|182:288|83:268,1,184,12|8,0:1|0:0,0:0:0:0:
26,126,329474,1,2,0:0:0:0:
193,103,329641,2,0,P|177:148|162:192,1,92,10|8,0:1|0:1,0:0:0:0:
273,361,329977,1,8,0:0:0:0:
256,173,330144,1,2,0:0:0:0:
164,340,330312,5,10,0:1:0:0:
370,270,330479,1,10,0:1:0:0:
162,189,330647,1,8,0:0:0:0:
365,104,330815,6,0,P|313:68|192:77,1,184,12|8,0:1|0:1,0:0:0:0:
53,192,331317,1,2,0:0:0:0:
61,185,331401,1,2,0:0:0:0:
68,167,331485,1,2,0:0:0:0:
66,137,331569,1,2,0:0:0:0:
44,113,331653,6,0,L|75:294,1,165.599994946289,12|0,0:1|0:0,0:0:0:0:
91,301,331988,2,0,P|68:295|34:294,1,55.1999983154297,8|0,0:0|0:0,0:0:0:0:
231,245,332155,2,0,P|222:299|213:365,1,110.399996630859,12|0,0:0|0:0,0:0:0:0:
236,124,332491,2,0,P|184:143|123:168,1,110.399996630859,12|0,0:0|0:0,0:0:0:0:
402,218,332826,6,0,P|394:163|372:-9,1,220.799993261719,12|8,0:1|0:0,0:0:0:0:
231,245,333329,1,8,0:0:0:0:
231,245,333664,5,2,0:0:0:0:
194,226,333748,1,2,0:0:0:0:
153,224,333831,1,10,0:0:0:0:
114,238,333915,1,10,0:0:0:0:
84,266,333999,2,0,L|75:210,1,46,10|2,0:0|0:0,0:0:0:0:
121,91,334167,2,0,L|128:136,1,46,2|2,0:0|0:0,0:0:0:0:
170,349,334334,5,12,0:1:0:0:
298,249,339040,5,12,0:1:0:0:
213,134,339212,1,8,0:1:0:0:
198,234,339383,1,8,0:1:0:0:
313,149,339555,1,8,0:1:0:0:
322,333,339726,5,8,0:1:0:0:
119,116,339898,1,8,0:1:0:0:
411,172,340069,1,8,0:1:0:0:
141,298,340240,1,8,0:1:0:0:
285,38,340412,1,10,0:1:0:0:
411,172,341098,6,0,L|438:170,6,23,2|2|2|2|2|2|0,0:0|0:0|0:0|0:0|0:0|0:0|0:0,0:0:0:0:
429,89,341440,6,0,L|413:295,1,207.000007896424,2|0,0:0|0:0,0:0:0:0:
420,317,341783,6,0,P|375:305|330:298,1,92,12|0,0:1|0:0,0:0:0:0:
165,249,342126,2,0,P|210:241|254:230,1,92,8|0,0:0|0:0,0:0:0:0:
307,34,342469,1,8,0:1:0:0:
148,148,342640,1,2,0:0:0:0:
339,182,342812,1,8,0:0:0:0:
206,37,342983,1,2,0:0:0:0:
182,263,343155,6,0,P|120:251|-3:236,1,184,8|8,0:1|0:0,0:0:0:0:
179,145,343669,1,2,0:0:0:0:
64,27,343840,1,8,0:1:0:0:
64,27,343926,1,8,0:0:0:0:
64,27,344012,1,2,0:0:0:0:
277,111,344183,2,0,P|329:101|373:94,1,92,8|2,0:0|0:0,0:0:0:0:
207,312,344526,6,0,P|161:304|116:295,1,92,10|0,0:1|0:0,0:0:0:0:
158,95,344869,2,0,P|112:102|67:111,1,92,8|0,0:0|0:0,0:0:0:0:
318,235,345212,1,10,0:1:0:0:
106,204,345383,2,0,P|60:211|15:220,1,92,2|8,0:0|0:0,0:0:0:0:
295,116,345726,6,0,P|366:125|394:132,1,92,2|8,0:0|0:1,0:0:0:0:
472,309,346069,1,2,0:0:0:0:
318,235,346240,1,8,0:0:0:0:
502,138,346412,1,2,0:0:0:0:
365,333,346583,5,10,0:1:0:0:
365,333,346669,1,8,0:0:0:0:
365,333,346755,1,2,0:0:0:0:
213,160,346926,2,0,P|218:204|227:250,1,92,8|0,0:0|0:0,0:0:0:0:
226,39,347269,6,0,B|127:20|160:98|52:76,1,184,12|8,0:1|0:0,0:0:0:0:
213,160,347783,1,2,0:0:0:0:
28,216,347955,2,0,P|84:195|117:185,1,92,10|0,0:1|0:0,0:0:0:0:
293,269,348298,2,0,P|237:248|204:238,1,92,8|0,0:0|0:0,0:0:0:0:
321,43,348640,6,0,P|403:75|416:162,1,184,10|8,0:1|0:0,0:0:0:0:
206,238,349155,1,2,0:0:0:0:
344,132,349326,1,10,0:1:0:0:
344,132,349412,1,8,0:0:0:0:
344,132,349498,1,2,0:0:0:0:
332,349,349669,2,0,L|321:246,1,92,8|2,0:0|0:0,0:0:0:0:
187,140,350012,6,0,B|125:156|75:171|75:171|15:124,1,184,12|8,0:1|0:0,0:0:0:0:
96,48,350526,1,2,0:0:0:0:
225,226,350698,6,0,B|181:293|214:366|214:366|265:326,1,184,12|8,0:1|0:0,0:0:0:0:
324,278,351212,1,2,0:0:0:0:
106,316,351383,5,8,0:3:0:0:
106,316,351469,1,0,0:0:0:0:
106,316,351555,2,0,L|98:262,1,46,0|0,3:0|3:0,0:0:0:0:
174,101,351726,1,4,0:3:0:0:
174,101,351812,1,0,0:0:0:0:
174,101,351898,2,0,L|166:155,1,46,8|8,3:0|3:0,0:0:0:0:
240,256,352069,5,4,0:3:0:0:
278,279,352155,1,8,0:3:0:0:
324,278,352240,1,8,0:3:0:0:
362,254,352326,1,8,0:3:0:0:
382,213,352412,2,0,L|373:155,1,46,14|0,0:0|0:0,0:0:0:0:
325,32,352583,2,0,L|317:77,1,46,0|0,3:0|3:0,0:0:0:0:
301,309,352755,6,0,P|388:291|456:283,1,138,12|0,0:1|0:0,0:0:0:0:
456,288,353098,2,0,L|473:180,1,92,8|0,0:0|0:0,0:0:0:0:
325,32,353440,1,8,0:1:0:0:
382,213,353612,1,2,0:0:0:0:
445,20,353783,1,8,0:0:0:0:
300,153,353955,1,2,0:0:0:0:
156,18,354126,6,0,P|168:101|178:214,1,184,8|8,0:1|0:0,0:0:0:0:
134,353,354640,2,0,L|36:333,1,92,2|8,0:0|0:1,0:0:0:0:
23,317,354898,1,8,0:0:0:0:
23,317,354983,1,2,0:0:0:0:
264,240,355155,2,0,P|274:299|287:360,1,92,8|2,0:0|0:0,0:0:0:0:
117,109,355498,6,0,P|162:118|208:126,1,92,10|0,0:1|0:0,0:0:0:0:
440,220,355840,2,0,P|394:227|349:236,1,92,8|0,0:0|0:0,0:0:0:0:
335,55,356183,1,10,0:1:0:0:
237,285,356355,2,0,P|245:332|257:391,1,92,2|8,0:0|0:0,0:0:0:0:
334,126,356698,6,0,L|319:31,1,92,2|8,0:0|0:1,0:0:0:0:
206,194,357040,1,2,0:0:0:0:
395,224,357212,1,8,0:0:0:0:
237,93,357383,1,2,0:0:0:0:
303,289,357555,5,10,0:1:0:0:
303,289,357640,1,8,0:0:0:0:
303,289,357726,1,2,0:0:0:0:
425,131,357898,2,0,P|467:109|507:90,1,92,8|0,0:0|0:0,0:0:0:0:
373,327,358240,6,0,B|269:349|306:273|195:295,1,184,12|8,0:1|0:0,0:0:0:0:
44,339,358755,1,0,0:0:0:0:
101,166,358926,2,0,P|114:233|119:260,1,92,10|0,0:1|0:0,0:0:0:0:
24,103,359269,2,0,P|67:73|134:69,1,92,8|0,0:0|0:0,0:0:0:0:
320,183,359612,6,0,B|305:111|305:111|273:85|273:85|257:6,1,184,12|8,0:1|0:0,0:0:0:0:
421,122,360126,1,2,0:0:0:0:
230,167,360298,1,8,0:1:0:0:
230,167,360383,1,8,0:0:0:0:
230,167,360469,1,2,0:0:0:0:
409,296,360640,2,0,B|424:265|424:265|412:209,1,92,8|2,0:0|0:0,0:0:0:0:
174,73,360983,5,6,0:0:0:0:
261,263,361155,1,2,0:0:0:0:
275,58,361326,1,2,0:0:0:0:
136,230,361498,1,2,0:0:0:0:
198,38,361669,5,6,0:0:0:0:
198,331,361840,1,2,0:0:0:0:
24,93,362012,1,2,0:0:0:0:
302,183,362183,1,2,0:0:0:0:
24,274,362355,1,12,0:1:0:0:
24,274,363212,5,8,0:1:0:0:
219,147,363383,2,0,L|163:353,1,207.000007896424,14|0,0:0|0:0,0:0:0:0:
97,165,363726,5,12,0:1:0:0:
157,59,368629,6,0,P|167:146|177:241,1,184,12|8,0:1|0:0,0:0:0:0:
136,359,369115,1,0,0:0:0:0:
66,183,369277,2,0,P|50:223|34:269,1,92,10|8,0:1|0:1,0:0:0:0:
188,145,369601,2,0,P|174:101|157:59,1,92,8|0,0:0|0:0,0:0:0:0:
51,17,369926,5,10,0:1:0:0:
51,17,370088,1,8,0:1:0:0:
188,145,370250,2,0,B|334:117|334:117|285:85,1,207.000007896424,12|0,0:0|0:0,0:0:0:0:
365,49,370574,5,8,0:1:0:0:
362,83,370656,1,8,0:1:0:0:
359,117,370737,1,8,0:0:0:0:
356,152,370818,1,8,0:0:0:0:
353,186,370899,2,0,L|365:243,1,46,8|8,0:0|0:0,0:0:0:0:
250,338,371061,2,0,L|240:292,1,46,8|8,0:0|0:0,0:0:0:0:
192,114,371223,5,12,0:1:0:0:
192,114,372358,5,8,0:1:0:0:
192,114,372439,1,8,0:1:0:0:
192,114,372520,1,8,0:0:0:0:
325,204,372683,1,8,0:1:0:0:
298,47,372845,1,8,0:1:0:0:
228,244,373007,5,8,0:0:0:0:
433,203,373169,1,8,0:1:0:0:
192,114,373331,5,8,0:1:0:0:
192,114,373412,1,8,0:1:0:0:
192,114,373493,2,0,B|144:77|74:94|74:94|109:138,1,165.599994946289,12|0,0:0|0:0,0:0:0:0:
152,187,373818,6,0,P|136:231|101:369,1,184,12|12,0:1|0:0,0:0:0:0:
39,184,374304,5,0,0:0:0:0:
224,276,374466,2,0,B|298:266|298:266|339:290|339:290|424:277,1,184,8|8,0:1|0:0,0:0:0:0:
508,161,374953,1,2,0:0:0:0:
338,99,375115,6,0,P|348:145|357:200,1,92,10|8,0:1|0:1,0:0:0:0:
206,366,375439,2,0,P|213:320|223:275,1,92,8|0,0:0|0:0,0:0:0:0:
140,101,375764,2,0,P|94:106|50:121,1,92,10|8,0:1|0:1,0:0:0:0:
11,315,376088,1,8,0:0:0:0:
113,199,376250,1,0,0:0:0:0:
206,366,376412,6,0,P|251:358|296:350,1,92,10|0,0:1|0:0,0:0:0:0:
203,214,376737,2,0,P|158:206|112:198,1,92,8|0,0:0|0:0,0:0:0:0:
291,56,377061,2,0,P|306:99|317:152,1,92,10|8,0:1|0:1,0:0:0:0:
413,351,377385,2,0,P|422:306|437:262,1,92,8|0,0:0|0:0,0:0:0:0:
512,97,377710,6,0,P|468:93|420:102,1,92,10|8,0:1|0:1,0:0:0:0:
218,269,378034,2,0,P|263:266|306:251,1,92,8|0,0:0|0:0,0:0:0:0:
171,39,378358,2,0,B|127:57|113:104|113:104|74:75|23:84,1,184,10|8,0:1|0:0,0:0:0:0:
6,295,378845,5,0,3:0:0:0:
6,295,378926,1,0,3:0:0:0:
6,295,379007,2,0,P|39:255|147:238,1,138,12|0,0:1|0:0,0:0:0:0:
140,236,379331,2,0,L|129:345,1,92,12|0,0:0|0:0,0:0:0:0:
293,155,379656,2,0,L|283:63,1,92,10|8,0:1|0:1,0:0:0:0:
408,204,379980,1,12,0:0:0:0:
205,180,380142,1,2,0:0:0:0:
395,93,380304,6,0,P|444:85|497:72,1,92,10|8,0:1|0:1,0:0:0:0:
395,300,380629,2,0,P|350:289|304:282,1,92,8|8,0:0|0:1,0:0:0:0:
109,332,380953,1,2,0:0:0:0:
213,159,381115,1,8,0:1:0:0:
230,351,381277,1,8,0:0:0:0:
124,160,381439,2,0,L|116:208,1,46,0|0,3:0|3:0,0:0:0:0:
22,344,381601,6,0,P|-4:283|11:217,1,138,12|0,0:1|0:0,0:0:0:0:
25,203,381926,2,0,L|15:105,1,92,8|0,0:0|0:0,0:0:0:0:
197,23,382250,1,10,0:1:0:0:
199,223,382412,1,8,0:1:0:0:
121,121,382574,1,8,0:0:0:0:
333,42,382737,6,0,B|392:-6|492:28|492:28|448:67,1,211.60000403595,12|10,0:1|0:1,0:0:0:0:
329,194,383223,1,8,0:0:0:0:
197,23,383385,2,0,P|147:13|88:9,1,105.800002017975,6|8,0:0|0:0,0:0:0:0:
6,202,383710,5,8,0:0:0:0:
6,202,383791,1,8,0:0:0:0:
6,202,383872,2,0,L|12:259,1,52.9000010089875,8|8,0:3|0:3,0:0:0:0:
154,365,384034,2,0,L|159:312,1,52.9000010089875,4|4,0:3|0:3,0:0:0:0:
241,140,384196,6,0,B|207:112|157:130|157:130|135:154|135:154|101:136|67:145,1,184,12|12,0:1|0:0,0:0:0:0:
257,272,384683,5,0,0:0:0:0:
269,56,384845,2,0,P|329:120|305:204,1,184,10|8,0:1|0:0,0:0:0:0:
155,99,385331,1,2,0:0:0:0:
367,106,385493,6,0,P|416:93|470:79,1,92,10|8,0:1|0:1,0:0:0:0:
257,272,385818,2,0,P|208:259|154:245,1,92,8|0,0:0|0:0,0:0:0:0:
436,206,386142,2,0,P|449:260|456:303,1,92,10|8,0:1|0:1,0:0:0:0:
279,374,386466,1,8,0:0:0:0:
337,194,386629,1,0,0:0:0:0:
129,336,386791,6,0,P|133:295|139:237,1,92,10|0,0:1|0:0,0:0:0:0:
281,139,387115,2,0,P|276:93|271:47,1,92,8|0,0:0|0:0,0:0:0:0:
412,235,387439,2,0,P|399:286|388:338,1,92,10|8,0:1|0:1,0:0:0:0:
206,176,387764,2,0,P|217:220|227:265,1,92,8|0,0:0|0:0,0:0:0:0:
387,57,388088,6,0,P|347:47|296:38,1,92,10|8,0:1|0:1,0:0:0:0:
115,157,388412,2,0,P|159:167|204:175,1,92,8|0,0:0|0:0,0:0:0:0:
120,12,388737,1,10,0:1:0:0:
22,189,388899,1,8,0:1:0:0:
179,88,389061,1,8,0:0:0:0:
199,284,389223,5,0,3:3:0:0:
199,284,389304,1,0,3:3:0:0:
199,284,389385,2,0,B|267:271|267:271|311:295|311:295|385:281,1,184,12|12,0:1|0:0,0:0:0:0:
482,168,389872,1,0,0:0:0:0:
365,58,390034,2,0,P|353:118|346:163,1,92,10|8,0:1|0:1,0:0:0:0:
179,87,390358,2,0,P|188:132|195:177,1,92,10|0,0:0|0:0,0:0:0:0:
101,323,390683,6,0,P|19:292|12:205,1,184,8|8,0:1|0:0,0:0:0:0:
95,102,391169,1,8,0:1:0:0:
202,262,391331,2,0,P|245:248|290:238,1,92,2|8,0:0|0:1,0:0:0:0:
373,120,391656,2,0,P|417:129|461:144,1,92,8|0,0:0|0:0,0:0:0:0:
366,310,391980,5,12,0:1:0:0:
261,118,392142,1,0,0:0:0:0:
202,262,392304,1,8,0:0:0:0:
373,120,392466,1,0,0:0:0:0:
167,167,392629,5,8,0:1:0:0:
370,221,392791,1,8,0:1:0:0:
275,18,392953,1,8,0:0:0:0:
223,241,393115,1,6,0:0:0:0:
390,98,393277,6,0,P|436:89|480:81,1,92,2|8,0:0|0:1,0:0:0:0:
216,266,393601,2,0,P|170:257|120:251,1,92,12|8,0:0|0:1,0:0:0:0:
306,125,393926,5,8,0:0:0:0:
312,158,394007,1,0,0:0:0:0:
318,192,394088,1,8,0:0:0:0:
324,226,394169,1,8,0:0:0:0:
330,260,394250,2,0,L|336:306,1,46,8|0,0:0|0:0,0:0:0:0:
171,180,394412,2,0,L|187:119,1,46,8|4,0:3|0:3,0:0:0:0:
300,12,394574,5,12,0:1:0:0:
281,105,399474,6,0,P|367:100|335:181,1,207.000007896424,12|0,0:1|0:0,0:0:0:0:
204,303,400331,6,0,L|200:349,1,34.5000013160706,4|0,0:3|0:0,0:0:0:0:
110,278,400545,6,0,P|95:297|78:323,1,46,4|0,0:3|0:0,0:0:0:0:
80,185,400759,6,0,P|57:188|24:197,1,55.1999983154297,4|0,0:3|0:0,0:0:0:0:
127,95,400974,6,0,P|58:64|-9:39,1,138.000005264282,12|0,0:1|0:0,0:0:0:0:
299,18,401402,5,2,0:0:0:0:
299,18,401509,1,2,0:0:0:0:
299,18,401616,2,0,L|305:86,1,69.0000026321412,2|0,0:0|0:0,0:0:0:0:
391,57,401831,2,0,L|385:125,1,69.0000026321412,2|0,0:0|0:0,0:0:0:0:
232,152,402045,6,0,P|265:161|297:172,1,69.0000026321412,8|8,0:0|0:0,0:0:0:0:
478,181,402259,2,0,P|444:190|412:201,1,69.0000026321412,8|8,0:0|0:0,0:0:0:0:
292,263,402474,6,0,L|298:331,1,69.0000026321412,10|2,0:1|0:0,0:0:0:0:
407,297,402688,2,0,L|401:365,1,69.0000026321412,4|4,0:3|0:3,0:0:0:0:
199,371,402902,6,0,P|166:301|190:229,1,156.400002983093,12|0,0:1|0:0,0:0:0:0:
259,169,403224,1,0,0:0:0:0:
259,169,403331,2,0,L|248:84,1,78.2000014915467,8|0,0:0|0:0,0:0:0:0:
138,17,403545,2,0,L|127:94,1,78.2000014915467,2|0,0:0|0:0,0:0:0:0:
189,229,403759,6,0,P|144:292|70:307,1,156.400002983093,10|0,0:1|0:0,0:0:0:0:
0,248,404081,1,2,0:0:0:0:
0,248,404188,2,0,L|21:167,1,78.2000014915467,8|0,0:0|0:0,0:0:0:0:
126,94,404402,5,2,0:0:0:0:
126,94,404509,1,0,0:0:0:0:
126,94,404616,2,0,B|217:65|191:134|294:103,1,156.400002983093,10|0,0:1|0:0,0:0:0:0:
353,57,404938,1,0,0:0:0:0:
353,57,405045,2,0,P|356:97|369:149,1,78.2000014915467,8|0,0:0|0:0,0:0:0:0:
417,214,405259,2,0,P|414:252|405:291,1,78.2000014915467,2|0,0:0|0:0,0:0:0:0:
272,345,405474,6,0,P|323:290|396:305,1,156.400002983093,8|2,0:1|0:0,0:0:0:0:
272,362,405795,1,0,0:0:0:0:
272,362,405902,2,0,L|171:344,1,78.2000014915467,8|0,0:0|0:0,0:0:0:0:
139,271,406116,2,0,L|62:284,1,78.2000014915467,2|2,0:0|0:0,0:0:0:0:
202,169,406331,6,0,B|298:191|298:191|350:156,1,156.400002983093,10|2,0:1|0:0,0:0:0:0:
445,109,406652,1,2,0:0:0:0:
449,125,406759,2,0,P|448:166|444:205,1,78.2000014915467,8|0,0:0|0:0,0:0:0:0:
369,348,406974,2,0,P|365:309|364:270,1,78.2000014915467,2|0,0:0|0:0,0:0:0:0:
346,158,407188,6,0,P|265:144|176:132,1,156.400002983093,10|2,0:1|0:0,0:0:0:0:
101,124,407509,1,2,0:0:0:0:
101,124,407616,2,0,P|141:120|200:102,1,78.2000014915467,8|0,0:0|0:0,0:0:0:0:
292,43,407831,2,0,B|327:25|327:25|375:38,1,78.2000014915467,2|0,0:0|0:0,0:0:0:0:
498,83,408045,6,0,L|472:243,1,156.400002983093,8|2,0:1|0:0,0:0:0:0:
402,302,408366,1,2,0:0:0:0:
489,329,408474,2,0,P|455:321|412:319,1,78.2000014915467,8|0,0:0|0:0,0:0:0:0:
308,348,408688,2,0,P|268:346|230:338,1,78.2000014915467,2|0,0:0|0:0,0:0:0:0:
178,232,408902,5,8,0:1:0:0:
122,303,409009,1,8,0:0:0:0:
32,306,409116,2,0,P|67:290|107:282,1,78.2000014915467,2|0,0:0|0:0,0:0:0:0:
135,161,409331,2,0,P|171:174|205:197,1,78.2000014915467,8|0,0:0|0:0,0:0:0:0:
306,129,409545,2,0,P|322:164|330:204,1,78.2000014915467,2|0,0:0|0:0,0:0:0:0:
462,182,409759,6,0,L|420:360,1,156.400002983093,12|2,0:1|0:0,0:0:0:0:
334,361,410081,1,0,0:0:0:0:
334,361,410188,2,0,L|253:344,1,78.2000014915467,8|0,0:0|0:0,0:0:0:0:
207,246,410402,2,0,P|167:248|130:262,1,78.2000014915467,2|0,0:0|0:0,0:0:0:0:
2,356,410616,6,0,B|37:322|37:322|24:213,1,156.400002983093,8|2,0:1|0:0,0:0:0:0:
11,116,410938,1,0,0:0:0:0:
11,116,411045,2,0,P|50:132|99:142,1,78.2000014915467,8|0,0:0|0:0,0:0:0:0:
149,25,411259,2,0,P|111:34|74:49,1,78.2000014915467,2|0,0:0|0:0,0:0:0:0:
184,160,411474,6,0,P|283:144|351:138,1,156.400002983093,8|2,0:1|0:0,0:0:0:0:
416,85,411795,1,0,0:0:0:0:
416,85,411902,2,0,L|426:173,1,78.2000014915467,8|0,0:0|0:0,0:0:0:0:
405,296,412116,6,0,B|381:331|381:331|365:211,1,156.400002983093,2|8,0:0|0:1,0:0:0:0:
290,284,412438,1,0,3:0:0:0:
290,284,412545,2,0,P|251:275|213:267,1,78.2000014915467,2|0,0:0|0:0,0:0:0:0:
110,289,412759,2,0,L|121:373,1,78.2000014915467,8|0,0:0|0:0,0:0:0:0:
18,241,412974,2,0,L|28:163,1,78.2000014915467,2|0,0:0|0:0,0:0:0:0:
0,45,413188,6,0,B|91:25|63:84|150:63,1,156.400002983093,10|2,0:1|0:0,0:0:0:0:
231,23,413509,1,2,0:0:0:0:
317,48,413616,2,0,L|403:31,1,78.2000014915467,8|0,0:0|0:0,0:0:0:0:
487,126,413831,2,0,L|410:141,1,78.2000014915467,2|0,0:0|0:0,0:0:0:0:
359,266,414045,6,0,L|445:249,1,78.2000014915467,10|0,0:1|0:0,0:0:0:0:
266,168,414259,2,0,P|193:157|104:146,1,156.400002983093,2|8,0:0|0:0,0:0:0:0:
30,186,414581,1,0,0:0:0:0:
39,193,414688,2,0,L|29:110,1,78.2000014915467,2|0,0:0|0:0,0:0:0:0:
39,291,414902,6,0,P|111:279|199:263,1,156.400002983093,10|8,0:1|0:0,0:0:0:0:
286,273,415224,1,8,0:0:0:0:
285,350,415331,2,0,L|271:265,1,78.2000014915467,10|0,0:1|0:0,0:0:0:0:
381,163,415545,2,0,L|366:240,1,78.2000014915467,8|0,0:3|0:0,0:0:0:0:
366,334,415759,5,4,0:3:0:0:
456,363,415866,1,4,0:3:0:0:
511,287,415974,1,8,0:3:0:0:
456,211,416081,1,8,0:3:0:0:
366,240,416188,2,0,L|351:163,1,78.2000014915467,4|8,0:3|0:1,0:0:0:0:
334,72,416402,1,4,0:3:0:0:
330,84,416509,1,4,0:3:0:0:
407,39,416616,6,0,L|235:23,1,156.400002983093,12|2,0:1|0:0,0:0:0:0:
164,1,416938,1,0,0:0:0:0:
155,89,417045,2,0,P|166:52|177:12,1,78.2000014915467,8|0,0:0|0:0,0:0:0:0:
49,81,417259,2,0,P|60:121|70:156,1,78.2000014915467,2|0,0:0|0:0,0:0:0:0:
130,248,417474,6,0,P|78:194|2:203,1,156.400002983093,10|0,0:1|0:0,0:0:0:0:
3,340,417795,2,0,P|40:330|79:326,1,78.2000014915467,2|8,0:0|0:0,0:0:0:0:
158,239,418009,1,0,0:0:0:0:
158,239,418116,2,0,P|191:259|221:284,1,78.2000014915467,2|0,0:0|0:0,0:0:0:0:
351,214,418331,6,0,L|307:377,1,156.400002983093,8|2,0:1|0:0,0:0:0:0:
432,251,418652,1,0,0:0:0:0:
436,263,418759,2,0,L|454:343,1,78.2000014915467,8|0,0:0|0:0,0:0:0:0:
352,134,418974,2,0,L|334:210,1,78.2000014915467,2|0,0:0|0:0,0:0:0:0:
442,47,419188,2,0,L|363:31,1,78.2000014915467,8|0,0:1|0:0,0:0:0:0:
181,167,419402,6,0,P|200:197|223:233,1,78.2000014915467,2|0,0:0|0:0,0:0:0:0:
244,70,419616,2,0,P|260:38|280:0,1,78.2000014915467,8|0,0:0|0:0,0:0:0:0:
129,62,419831,2,0,P|93:63|50:65,1,78.2000014915467,2|0,0:0|0:0,0:0:0:0:
2,301,420045,6,0,P|85:278|157:273,1,156.400002983093,10|2,0:1|0:0,0:0:0:0:
240,323,420366,1,2,0:0:0:0:
242,233,420474,2,0,L|256:316,1,78.2000014915467,8|0,0:0|0:0,0:0:0:0:
384,351,420688,2,0,L|398:274,1,78.2000014915467,2|0,0:0|0:0,0:0:0:0:
478,158,420902,6,0,P|406:186|333:164,1,156.400002983093,8|2,0:1|0:0,0:0:0:0:
252,106,421224,1,2,0:0:0:0:
253,117,421331,2,0,P|179:94|108:123,1,156.400002983093,8|2,0:0|0:0,0:0:0:0:
41,192,421652,1,0,0:0:0:0:
36,182,421759,6,0,P|29:221|28:283,1,78.2000014915467,8|0,0:1|0:0,0:0:0:0:
249,235,421974,2,0,P|255:273|258:312,1,78.2000014915467,2|0,0:0|0:0,0:0:0:0:
155,362,422188,2,0,P|157:322|164:284,1,78.2000014915467,8|0,0:0|0:0,0:0:0:0:
350,170,422402,2,0,P|357:208|360:248,1,78.2000014915467,2|0,0:0|0:0,0:0:0:0:
138,128,422616,2,0,P|140:88|147:50,1,78.2000014915467,8|0,0:1|0:0,0:0:0:0:
263,22,422831,5,8,0:0:0:0:
350,22,422938,1,8,0:0:0:0:
393,96,423045,1,8,0:0:0:0:
350,170,423152,1,8,0:3:0:0:
263,170,423259,1,4,0:3:0:0:
220,96,423366,1,8,0:1:0:0:
263,22,423474,6,0,B|346:56|408:1|408:1|435:48|485:52,1,234.60000447464,12|0,0:1|0:0,0:0:0:0:
508,155,423902,2,0,B|476:160|476:160|467:167|467:167|433:173,1,78.2000014915467,12|0,0:0|0:0,0:0:0:0:
358,256,424116,1,2,0:0:0:0:
358,256,424224,1,0,0:0:0:0:
358,256,424331,2,0,B|300:244|300:244|263:255|263:255|184:235,1,156.400002983093,8|2,0:1|0:0,0:0:0:0:
116,253,424652,1,0,0:0:0:0:
116,253,424759,2,0,B|128:292|128:292|117:328,1,78.2000014915467,8|0,0:0|0:0,0:0:0:0:
51,181,424974,2,0,B|40:145|40:145|52:106,1,78.2000014915467,2|0,0:0|0:0,0:0:0:0:
182,32,425188,6,0,B|280:62|280:62|327:28,1,156.400002983093,12|0,0:1|0:0,0:0:0:0:
424,27,425509,1,2,0:0:0:0:
427,35,425616,2,0,P|434:67|438:126,1,78.2000014915467,8|0,0:0|0:0,0:0:0:0:
369,178,425831,2,0,P|361:216|357:255,1,78.2000014915467,4|0,0:0|0:0,0:0:0:0:
407,337,426045,5,8,0:1:0:0:
236,179,426259,1,2,0:0:0:0:
236,179,426366,1,2,0:0:0:0:
236,179,426474,2,0,B|151:198,1,78.2000014915467,12|0,0:0|0:0,0:0:0:0:
62,298,426688,2,0,B|147:317,1,78.2000014915467,2|0,0:0|0:0,0:0:0:0:
271,324,426902,5,12,0:1:0:0:
221,197,427116,1,0,0:0:0:0:
365,236,427331,5,0,3:0:0:0:
201,195,427545,1,8,0:0:0:0:
388,117,427759,5,8,0:0:0:0:
181,205,427974,1,8,0:0:0:0:
338,5,428188,5,8,0:0:0:0:
166,223,428402,1,8,0:0:0:0:
85,0,428616,6,0,P|158:17|228:48,2,138,12|0|0,0:1|0:0|0:0,0:0:0:0:
166,222,429474,6,0,P|226:190|297:172,2,138,6|0|0,0:0|0:0|0:0,0:0:0:0:
365,320,430331,5,12,0:1:0:0:
256,192,430438,12,0,432045,0:0:0:0:
390,97,432259,6,0,B|346:86|346:86|301:98,1,92,8|0,0:0|0:0,0:0:0:0:
145,169,432474,1,8,0:0:0:0:
145,169,432581,2,0,B|189:180|189:180|233:167,1,92,8|0,0:0|0:0,0:0:0:0:
187,86,432795,1,8,0:0:0:0:
202,303,433009,5,0,3:0:0:0:
202,303,433116,2,0,B|301:293,1,92,12|0,0:0|3:0,0:0:0:0:
443,343,433331,2,0,B|430:252,1,92,4|4,0:3|0:3,0:0:0:0:
324,43,433545,2,0,B|310:134,1,92,4|0,0:0|0:0,0:0:0:0:
293,293,433759,5,12,0:1:0:0:
143,125,438871,5,2,0:0:0:0:
137,110,439671,1,2,0:0:0:0:
132,96,440471,1,2,0:0:0:0:
126,81,441271,1,2,0:0:0:0:
271,166,442071,5,2,0:0:0:0:
277,151,442871,1,2,0:0:0:0:
282,137,443671,1,2,0:0:0:0:
288,122,444471,2,0,L|364:113,2,69,2|0|0,0:0|0:0|0:0,0:0:0:0:
199,205,445271,6,0,L|212:308,1,92,2|0,0:0|0:0,0:0:0:0:
336,250,446071,2,0,L|324:341,1,92,2|0,0:0|0:0,0:0:0:0:
421,329,446671,1,0,0:0:0:0:
421,329,446871,2,0,L|523:316,1,92,2|0,0:0|0:0,0:0:0:0:
512,223,447471,1,0,0:0:0:0:
512,223,447671,2,0,L|410:236,1,92,2|0,0:0|0:0,0:0:0:0:
190,119,448471,5,2,0:0:0:0:
190,119,449271,1,2,0:0:0:0:
202,106,450071,6,0,B|210:157|210:157|196:188|196:188|207:248,1,138,2|0,0:0|0:0,0:0:0:0:
117,275,450871,6,0,P|197:266|246:328,1,165.599994946289,2|0,0:0|0:0,0:0:0:0:
298,238,451671,6,0,B|366:211|367:265|435:236,1,138.000005264282,12|2,0:1|0:0,0:0:0:0:
497,183,452271,1,8,0:1:0:0:
497,183,452471,2,0,P|482:239|466:323,1,138.000005264282,8|2,0:0|0:0,0:0:0:0:
401,160,453071,1,2,0:0:0:0:
401,160,453271,6,0,L|388:81,1,69.0000026321412,10|0,0:1|0:0,0:0:0:0:
283,114,453671,2,0,L|296:35,1,69.0000026321412,8|0,0:1|0:0,0:0:0:0:
186,117,454071,2,0,B|137:108|137:108|104:128|104:128|41:119,1,138.000005264282,10|0,0:0|0:0,0:0:0:0:
84,37,454671,1,0,0:0:0:0:
155,201,454871,5,10,0:1:0:0:
155,201,455071,2,0,B|204:208|204:208|237:188|237:188|286:197,1,138.000005264282,8|8,0:1|0:1,0:0:0:0:
358,314,455671,2,0,P|287:320|250:259,1,138.000005264282,8|2,0:0|0:0,0:0:0:0:
385,219,456271,1,2,0:0:0:0:
385,219,456471,2,0,L|460:232,1,69.0000026321412,2|0,0:0|0:0,0:0:0:0:
356,104,456871,2,0,L|281:117,1,69.0000026321412,8|0,0:1|0:0,0:0:0:0:
463,38,457271,2,0,L|441:152,2,103.500003948212,8|2|2,0:0|0:0|0:0,0:0:0:0:
356,104,458071,5,10,0:1:0:0:
356,104,458271,2,0,L|271:86,1,69.0000026321412,8|0,0:1|0:1,0:0:0:0:
119,139,458671,1,10,0:1:0:0:
206,76,458871,2,0,P|198:132|187:231,1,138.000005264282,8|2,0:0|0:0,0:0:0:0:
127,288,459471,1,2,0:0:0:0:
127,288,459671,6,0,L|41:276,1,69.0000026321412,2|0,0:0|0:0,0:0:0:0:
189,212,460071,2,0,L|275:200,1,69.0000026321412,10|0,0:1|0:0,0:0:0:0:
345,270,460471,2,0,L|338:342,1,69.0000026321412,8|0,0:0|0:0,0:0:0:0:
401,197,460871,2,0,L|394:128,1,69.0000026321412,2|0,0:0|0:0,0:0:0:0:
417,24,461271,6,0,B|336:7|363:59|280:43,1,138.000005264282,10|0,0:1|0:0,0:0:0:0:
188,10,461871,1,8,0:1:0:0:
151,112,462071,2,0,P|194:96|223:86,1,69.0000026321412,8|0,0:0|0:0,0:0:0:0:
164,201,462471,1,2,0:0:0:0:
71,119,462671,1,0,0:0:0:0:
144,216,462871,5,2,0:0:0:0:
165,118,463071,1,0,0:0:0:0:
122,225,463271,5,8,0:1:0:0:
244,183,463471,1,0,0:0:0:0:
100,226,463671,5,12,0:0:0:0:
244,287,463871,1,2,0:0:0:0:
80,224,464071,5,2,0:0:0:0:
256,171,464271,1,2,0:0:0:0:
128,342,464471,6,0,P|201:322|271:312,1,138.000005264282,12|2,0:1|0:0,0:0:0:0:
358,333,465071,1,8,0:1:0:0:
344,179,465271,2,0,L|329:246,1,69.0000026321412,8|0,0:0|0:0,0:0:0:0:
449,207,465671,2,0,L|434:139,1,69.0000026321412,2|0,0:0|0:0,0:0:0:0:
286,100,466071,6,0,L|354:75,1,69.0000026321412,10|0,0:1|0:0,0:0:0:0:
220,29,466471,2,0,L|152:19,1,69.0000026321412,8|0,0:1|0:0,0:0:0:0:
44,159,466871,2,0,P|114:146|181:139,1,138.000005264282,10|0,0:0|0:0,0:0:0:0:
273,153,467471,1,0,0:0:0:0:
176,228,467671,5,10,0:1:0:0:
176,228,467871,2,0,B|200:312|200:312|176:366,1,138.000005264282,8|8,0:1|0:1,0:0:0:0:
302,289,468471,2,0,P|371:269|459:257,1,138.000005264282,8|2,0:0|0:0,0:0:0:0:
507,156,469071,1,2,0:0:0:0:
507,156,469271,2,0,L|431:149,1,69.0000026321412,2|0,0:0|0:0,0:0:0:0:
341,162,469671,2,0,L|271:152,1,69.0000026321412,8|0,0:1|0:0,0:0:0:0:
179,202,470071,2,0,L|160:97,2,92.0000035095216,8|2|2,0:0|0:0|0:0,0:0:0:0:
311,308,470871,6,0,B|232:293|254:353|165:337,1,138.000005264282,10|2,0:1|0:0,0:0:0:0:
93,311,471471,1,2,0:0:0:0:
93,311,471671,1,8,0:0:0:0:
237,94,472071,6,0,L|250:181,1,69.0000026321412,8|2,0:3|0:0,0:0:0:0:
319,232,472471,2,0,B|365:236|394:202|394:202|424:227|453:223,1,138.000005264282,4|10,0:3|0:1,0:0:0:0:
288,19,473271,2,0,L|196:4,1,69.0000026321412,8|0,0:0|0:0,0:0:0:0:
109,61,473671,2,0,P|94:100|95:136,1,69.0000026321412,2|0,0:0|0:0,0:0:0:0:
176,278,474071,6,0,P|153:226|62:215,1,138.000005264282,8|2,0:1|0:0,0:0:0:0:
38,330,474671,1,8,0:1:0:0:
161,367,474871,2,0,P|219:354|304:344,1,138.000005264282,8|2,0:0|0:0,0:0:0:0:
395,361,475471,1,2,0:0:0:0:
395,361,475671,6,0,L|387:258,1,69.0000026321412,4|0,0:3|0:0,0:0:0:0:
382,197,476071,1,8,0:1:0:0:
166,227,476471,6,0,L|174:124,1,69.0000026321412,4|0,0:3|3:0,0:0:0:0:
179,63,476871,1,8,0:1:0:0:
256,192,477271,5,4,0:0:0:0:
256,192,477371,12,2,479671,0:0:0:0:
256,192,480471,12,2,482871,0:0:0:0:
256,192,483671,5,4,0:0:0:0:
53,196,488927,6,0,B|144:164|130:232|225:199,1,165.599994946289,12|2,0:1|0:0,0:0:0:0:
318,86,489435,1,8,0:1:0:0:
169,47,489604,2,0,P|171:88|177:129,1,82.7999974731446,8|0,0:0|0:0,0:0:0:0:
326,64,489943,5,10,0:1:0:0:
284,268,490113,1,0,3:0:0:0:
196,126,490282,5,8,0:1:0:0:
348,201,490452,2,0,B|407:190|407:190|453:214|453:214|533:196,1,165.599994946289,8|8,0:0|0:1,0:0:0:0:
424,92,490960,1,8,0:0:0:0:
391,292,491130,1,4,0:3:0:0:
264,143,491299,2,0,P|223:141|182:145,1,82.7999974731446,8|0,0:3|0:0,0:0:0:0:
81,320,491638,6,0,L|92:233,1,82.7999974731446,12|0,0:1|0:0,0:0:0:0:
217,38,491977,1,8,0:1:0:0:
231,268,492147,1,8,0:1:0:0:
81,84,492316,1,8,0:0:0:0:
302,137,492486,1,8,0:0:0:0:
302,137,492571,1,8,0:0:0:0:
302,137,492655,1,8,0:0:0:0:
74,268,492825,6,0,P|149:248|240:235,1,165.599994946289,12|8,0:1|0:1,0:0:0:0:
417,71,493333,2,0,P|375:64|331:52,1,82.7999974731446,8|8,0:0|0:1,0:0:0:0:
323,50,493588,1,8,0:1:0:0:
323,50,493672,1,8,0:0:0:0:
468,159,493842,6,0,P|469:185|468:207,1,46,8|8,0:3|0:3,0:0:0:0:
319,233,494011,2,0,P|341:219|360:208,1,46,4|4,0:3|0:3,0:0:0:0:
463,321,494181,2,0,P|439:308|421:297,1,46,4|4,0:3|0:3,0:0:0:0:
368,119,494350,5,12,0:0:0:0:
311,252,494520,1,0,3:0:0:0:
249,73,494689,5,10,0:0:0:0:
306,284,494859,1,8,0:0:0:0:
127,150,495028,5,10,0:0:0:0:
400,203,495198,1,8,0:0:0:0:
249,73,495367,1,10,0:0:0:0:
159,335,495537,6,0,P|238:306|347:288,1,184,10|8,0:0|0:0,0:0:0:0:
127,150,496045,1,12,0:0:0:0:
380,45,496215,2,0,L|374:91,1,46,8|8,0:0|0:0,0:0:0:0:
425,176,496384,5,10,0:0:0:0:
393,188,496469,1,8,0:0:0:0:
358,189,496554,1,8,0:0:0:0:
326,178,496638,1,8,0:0:0:0:
299,155,496723,5,10,0:0:0:0:
262,127,496808,1,8,0:0:0:0:
217,121,496893,1,8,0:0:0:0:
175,137,496977,1,8,0:0:0:0:
146,172,497062,6,0,L|170:331,1,138,12|0,0:1|0:0,0:0:0:0:
172,330,497401,2,0,P|126:319|66:312,1,92,8|0,0:0|0:0,0:0:0:0:
70,121,497740,1,10,0:1:0:0:
231,210,497910,1,8,0:1:0:0:
39,213,498079,2,0,P|46:165|56:118,1,92,8|8,0:0|0:1,0:0:0:0:
180,31,498418,6,0,B|281:0|258:87|356:50,1,184,10|8,0:1|0:0,0:0:0:0:
480,5,498927,1,0,0:0:0:0:
480,192,499096,2,0,P|426:175|372:173,1,92,10|8,0:1|0:1,0:0:0:0:
254,245,499435,2,0,L|265:348,1,92,8|0,0:0|3:0,0:0:0:0:
264,337,499689,1,0,3:0:0:0:
264,337,499774,6,0,B|205:348|205:348|157:317|157:317|65:334,1,184,10|8,0:1|0:0,0:0:0:0:
4,201,500282,1,0,0:0:0:0:
243,156,500452,2,0,P|232:199|220:257,1,92,10|8,0:1|0:1,0:0:0:0:
91,127,500791,2,0,P|81:81|70:37,1,92,8|0,0:0|0:0,0:0:0:0:
398,50,501130,6,0,P|352:55|309:72,1,92,10|8,0:1|0:1,0:0:0:0:
118,135,501469,2,0,P|163:140|206:157,1,92,8|0,0:0|0:0,0:0:0:0:
368,247,501808,2,0,L|355:342,1,92,10|8,0:1|0:1,0:0:0:0:
187,374,502147,2,0,L|174:282,1,92,8|0,0:0|3:0,0:0:0:0:
287,205,502401,1,0,3:0:0:0:
287,205,502486,6,0,L|266:360,1,138,12|0,0:1|0:0,0:0:0:0:
266,359,502825,2,0,P|330:343|375:334,1,92,8|0,0:0|0:0,0:0:0:0:
156,192,503164,2,0,P|165:237|174:282,1,92,10|8,0:1|0:1,0:0:0:0:
406,119,503503,2,0,P|396:164|387:209,1,92,8|8,0:0|0:1,0:0:0:0:
193,55,503842,5,10,0:1:0:0:
296,234,504011,1,8,0:1:0:0:
307,53,504181,1,8,0:0:0:0:
180,204,504350,1,0,0:0:0:0:
168,38,504520,5,8,0:1:0:0:
372,190,504689,1,10,0:1:0:0:
162,225,504859,1,8,0:0:0:0:
312,23,505028,1,0,3:0:0:0:
312,23,505113,1,0,3:0:0:0:
312,23,505198,6,0,P|297:98|287:175,1,138,12|0,0:1|0:0,0:0:0:0:
301,151,505537,5,8,0:0:0:0:
189,56,505706,1,8,0:1:0:0:
426,123,505876,5,8,0:0:0:0:
162,225,506045,1,0,3:0:0:0:
162,225,506130,1,0,3:0:0:0:
162,225,506215,1,8,0:0:0:0:
381,368,506384,6,0,L|396:216,1,138,10|0,0:1|0:0,0:0:0:0:
397,212,506723,1,6,0:0:0:0:
158,249,506893,2,0,P|170:299|181:345,1,92,8|8,0:0|0:3,0:0:0:0:
325,98,507232,6,0,L|303:199,1,103.500003948212,6|0,0:0|0:0,0:0:0:0:
251,286,507571,5,8,0:0:0:0:
310,277,507655,1,8,0:0:0:0:
370,269,507740,1,8,0:0:0:0:
430,261,507825,1,8,0:0:0:0:
490,253,507910,6,0,L|474:112,1,138,12|0,0:1|0:0,0:0:0:0:
462,104,508249,2,0,P|436:147|411:194,1,92,8|0,0:0|0:0,0:0:0:0:
343,342,508588,2,0,P|301:330|240:317,1,92,10|8,0:1|0:1,0:0:0:0:
110,183,508927,2,0,P|158:174|213:158,1,92,8|8,0:0|0:1,0:0:0:0:
398,32,509265,6,0,P|311:25|259:96,1,184,10|8,0:1|0:0,0:0:0:0:
349,239,509774,1,0,0:0:0:0:
86,72,509943,2,0,P|132:78|178:80,1,92,10|8,0:1|0:1,0:0:0:0:
230,253,510282,2,0,P|186:266|143:285,1,92,8|0,0:0|3:1,0:0:0:0:
79,348,510537,1,0,3:0:0:0:
79,348,510621,6,0,B|45:292|45:292|81:157,1,184,10|8,0:1|0:0,0:0:0:0:
109,54,511130,1,2,0:0:0:0:
256,232,511299,5,10,0:1:0:0:
214,70,511469,1,8,0:1:0:0:
161,181,511638,1,8,0:0:0:0:
232,55,511808,1,2,0:0:0:0:
344,202,511977,5,12,0:0:0:0:
116,81,512147,1,8,0:1:0:0:
366,23,512316,1,8,0:0:0:0:
145,265,512486,2,0,P|248:279|339:294,1,184,12|8,0:0|0:1,0:0:0:0:
476,153,512994,2,0,L|489:220,1,46,8|0,0:0|0:0,0:0:0:0:
425,343,513164,2,0,L|416:297,1,46,8|8,0:0|0:0,0:0:0:0:
382,102,513333,5,12,0:1:0:0:
235,258,513503,1,0,3:0:0:0:
289,29,513672,5,8,0:0:0:0:
391,212,513842,1,8,0:1:0:0:
194,1,514011,5,8,0:0:0:0:
131,179,514181,1,0,3:0:0:0:
52,24,514350,5,8,0:0:0:0:
244,123,514520,1,8,0:1:0:0:
110,278,514689,5,8,0:0:0:0:
142,72,514859,1,0,3:0:0:0:
313,211,515028,5,8,0:0:0:0:
59,109,515198,1,8,0:1:0:0:
149,371,515367,5,8,0:0:0:0:
244,123,515537,1,8,0:1:0:0:
244,123,515621,1,8,0:1:0:0:
244,123,515706,2,0,P|258:80|280:26,1,92,12|0,0:0|0:0,0:0:0:0:
433,178,516045,5,12,0:1:0:0:
244,123,516215,1,0,3:0:0:0:
417,52,516384,5,8,0:0:0:0:
263,236,516554,1,8,0:1:0:0:
512,282,516723,5,8,0:0:0:0:
347,193,516893,1,8,0:1:0:0:
347,193,516977,1,8,0:1:0:0:
347,193,517062,1,8,0:0:0:0:
512,70,517232,1,8,0:1:0:0:
228,24,517401,5,8,0:0:0:0:
424,148,517571,1,0,3:1:0:0:
225,193,517740,5,8,0:0:0:0:
330,50,517910,1,8,0:1:0:0:
392,273,518079,5,8,0:0:0:0:
203,196,518249,1,8,0:0:0:0:
203,196,518333,1,8,0:0:0:0:
203,196,518418,2,0,L|211:260,1,46,8|4,0:0|0:3,0:0:0:0:
258,356,518588,2,0,L|263:310,1,46,8|8,0:1|0:1,0:0:0:0:
303,133,518757,5,12,0:1:0:0:
147,295,518927,1,0,3:0:0:0:
213,75,519096,5,8,0:0:0:0:
322,263,519265,1,8,0:1:0:0:
431,34,519435,5,8,0:0:0:0:
399,179,519604,1,8,0:1:0:0:
262,5,519774,5,8,0:0:0:0:
322,263,519943,1,8,0:1:0:0:
322,263,520028,1,8,0:1:0:0:
322,263,520113,1,8,0:0:0:0:
496,129,520282,5,8,0:1:0:0:
496,129,520367,1,8,0:1:0:0:
496,129,520452,1,12,0:0:0:0:
246,91,520621,1,8,0:1:0:0:
408,301,520791,6,0,L|421:209,1,92,8|8,0:0|0:3,0:0:0:0:
341,45,521130,2,0,L|350:-2,3,46,4|0|0|0,1:3|1:3|1:3|1:3,0:0:0:0:
413,91,521469,6,0,P|334:95|261:111,1,138.000005264282,12|2,0:1|0:0,0:0:0:0:
163,177,521977,1,8,0:1:0:0:
183,21,522147,2,0,L|193:100,1,69.0000026321412,8|0,0:0|0:0,0:0:0:0:
192,90,522401,1,0,0:0:0:0:
192,90,522486,1,10,0:1:0:0:
60,78,522655,1,8,0:0:0:0:
183,189,522825,5,12,0:1:0:0:
25,213,522994,2,0,L|50:354,1,138.000005264282,8|8,0:1|0:1,0:0:0:0:
227,266,523503,5,12,0:0:0:0:
224,283,523588,1,0,3:0:0:0:
222,300,523672,1,0,3:0:0:0:
220,317,523757,1,0,3:0:0:0:
218,334,523842,5,8,0:0:0:0:
267,342,523927,1,8,0:0:0:0:
310,315,524011,1,8,0:0:0:0:
323,266,524096,1,8,0:0:0:0:
299,221,524181,5,12,0:1:0:0:
132,332,524350,1,8,0:1:0:0:
199,93,524520,1,8,0:0:0:0:
310,315,524689,2,0,L|418:298,1,92,12|0,0:1|0:0,0:0:0:0:
123,181,525028,1,8,0:1:0:0:
123,181,525113,1,8,0:1:0:0:
123,181,525198,2,0,L|15:198,1,92,12|0,0:0|0:0,0:0:0:0:
269,29,525537,5,8,0:1:0:0:
226,213,525706,1,8,0:0:0:0:
183,11,525876,5,8,0:1:0:0:
367,160,526045,1,8,0:0:0:0:
139,134,526215,6,0,L|112:123,6,23,10|2|2|2|2|2|2,0:1|0:0|0:0|0:0|0:0|0:0|0:0,0:0:0:0:
145,160,526554,5,8,0:0:0:0:
139,205,526638,1,8,0:0:0:0:
134,251,526723,1,8,0:0:0:0:
128,297,526808,1,8,0:0:0:0:
123,342,526893,1,12,0:1:0:0:
96,221,531614,6,0,B|162:213|162:213|209:240|209:240|289:232,1,184,12|4,0:1|0:3,0:0:0:0:
257,65,532112,6,0,P|237:108|243:160,1,92,8|0,0:3|0:3,0:3:0:0:
396,227,532443,1,4,0:3:0:0:
318,122,532609,1,8,0:1:0:0:
303,317,532775,5,2,0:0:0:0:
303,317,532858,1,2,0:0:0:0:
303,317,532940,2,0,P|393:310|477:307,1,165.599994946289,12|0,0:1|0:0,0:0:0:0:
510,169,534266,6,0,B|439:152|454:205|377:188,1,138.000005264282,12|8,0:1|0:0,0:0:0:0:
287,144,534708,2,0,L|277:198,1,46.0000017547608,0|0,3:0|3:0,0:0:0:0:
207,260,534929,2,0,L|187:116,1,138.000005264282,8|8,0:0|0:0,0:0:0:0:
245,38,535427,5,0,3:0:0:0:
245,38,535509,1,0,3:0:0:0:
245,38,535592,1,6,0:0:0:0:
94,20,535758,1,8,0:0:0:0:
188,123,535924,1,0,3:0:0:0:
0,112,536255,6,0,L|22:259,1,138.000005264282,8|0,0:0|3:0,0:0:0:0:
97,143,536753,1,0,3:0:0:0:
142,288,536918,6,0,B|194:293|194:293|224:273|224:273|274:280,1,138.000005264282,6|8,0:0|0:0,0:0:0:0:
368,339,537360,2,0,L|364:277,1,46.0000017547608,0|0,3:0|3:0,0:0:0:0:
330,197,537581,2,0,L|343:55,1,138.000005264282,8|0,0:0|3:0,0:0:0:0:
419,122,538079,1,0,3:0:0:0:
255,106,538244,5,6,0:0:0:0:
328,217,538410,1,8,0:0:0:0:
219,198,538576,2,0,L|138:187,1,69.0000026321412,0|0,3:0|0:0,0:0:0:0:
74,92,538907,2,0,B|97:164|40:146|72:231,1,138.000005264282,8|0,0:0|3:0,0:0:0:0:
150,188,539405,1,0,3:0:0:0:
92,332,539570,6,0,B|125:312|137:276|137:276|169:301|196:300,1,138.000005264282,12|8,0:1|0:0,0:0:0:0:
282,263,540012,2,0,L|274:325,1,46.0000017547608,0|0,3:0|3:0,0:0:0:0:
372,359,540233,2,0,P|369:319|451:280,1,138.000005264282,8|0,0:0|3:0,0:0:0:0:
497,351,540730,1,0,3:0:0:0:
489,212,540896,6,0,L|485:135,1,69.0000026321412,6|0,0:0|0:0,0:0:0:0:
421,20,541228,5,8,0:3:0:0:
353,85,541393,2,0,L|349:153,1,69.0000026321412,4|0,0:3|0:0,0:0:0:0:
254,249,541725,5,4,0:3:0:0:
186,184,541891,2,0,L|182:115,1,69.0000026321412,2|0,0:0|0:0,0:0:0:0:
104,35,542222,5,12,0:1:0:0:
269,133,542388,1,0,3:0:0:0:
64,192,542554,5,10,0:0:0:0:
242,52,542719,1,8,0:0:0:0:
22,117,542885,5,10,0:0:0:0:
265,239,543051,1,8,0:0:0:0:
228,29,543217,5,8,0:0:0:0:
148,305,543382,1,8,0:0:0:0:
370,207,543548,6,2,L|396:354,1,138.000005264282,6|0,0:0|0:0,0:1:0:0:
176,129,544211,5,8,0:0:0:0:
224,277,544377,1,8,0:3:0:0:
304,58,544543,1,8,0:0:0:0:
258,53,544626,1,0,3:0:0:0:
212,49,544708,1,8,0:0:0:0:
166,44,544791,1,8,0:0:0:0:
120,40,544874,6,0,P|75:100|106:207,1,184,12|8,0:1|0:0,0:0:0:0:
224,277,545371,1,0,0:0:0:0:
304,58,545537,2,0,P|298:107|293:169,1,92,10|0,0:1|0:0,0:0:0:0:
423,313,545869,2,0,P|418:267|413:221,1,92,8|0,0:0|0:0,0:0:0:0:
509,76,546200,6,0,P|415:50|325:38,1,184,10|8,0:1|0:0,0:0:0:0:
138,110,546697,1,0,0:0:0:0:
138,110,546780,1,0,0:0:0:0:
138,110,546863,2,0,L|150:210,1,92,10|0,0:1|0:0,0:0:0:0:
211,33,547195,1,8,0:0:0:0:
44,145,547360,1,2,0:0:0:0:
236,193,547526,6,0,L|225:284,1,92,8|2,0:1|0:0,0:0:0:0:
38,335,547858,2,0,B|102:335|140:292|140:292|149:334|179:357,1,184,8|8,0:0|0:1,0:0:0:0:
59,234,548355,1,10,0:1:0:0:
225,284,548521,1,8,0:0:0:0:
138,110,548686,1,2,0:0:0:0:
118,299,548852,5,12,0:1:0:0:
348,183,549018,1,0,0:0:0:0:
116,96,549184,1,12,0:0:0:0:
363,194,549349,6,0,L|463:172,1,92,12|0,0:1|0:0,0:0:0:0:
248,22,549681,1,8,0:0:0:0:
212,28,549764,1,8,0:0:0:0:
179,48,549847,1,8,0:0:0:0:
153,76,549929,1,8,0:3:0:0:
138,110,550012,1,4,0:3:0:0:
134,148,550095,1,8,0:1:0:0:
141,185,550178,5,12,0:1:0:0:
75,34,550344,1,0,3:0:0:0:
68,261,550509,5,8,0:0:0:0:
243,134,550675,1,8,0:1:0:0:
281,357,550841,5,8,0:0:0:0:
141,185,551007,1,10,0:1:0:0:
381,209,551172,5,8,0:0:0:0:
198,305,551338,1,8,0:1:0:0:
198,305,551421,1,8,0:1:0:0:
198,305,551504,5,12,0:0:0:0:
406,353,551670,1,8,0:1:0:0:
156,202,551835,5,8,0:0:0:0:
423,125,552001,1,8,0:1:0:0:
233,23,552167,5,8,0:0:0:0:
325,274,552333,1,10,0:1:0:0:
130,80,552498,5,8,0:0:0:0:
90,321,552664,1,8,0:1:0:0:
90,321,552747,1,8,0:1:0:0:
90,321,552830,6,0,L|196:309,1,92,12|8,0:0|0:1,0:0:0:0:
260,138,553161,2,0,L|351:148,1,92,8|8,0:0|0:1,0:0:0:0:
471,308,553493,1,8,0:0:0:0:
284,234,553659,1,8,0:3:0:0:
423,81,553824,1,8,0:0:0:0:
444,121,553907,1,8,0:0:0:0:
446,166,553990,1,8,0:0:0:0:
428,208,554073,1,8,0:0:0:0:
393,237,554156,5,12,0:1:0:0:
183,214,554322,1,8,0:1:0:0:
335,63,554487,1,8,0:0:0:0:
295,320,554653,6,0,P|288:243|272:129,1,184,12|8,0:1|0:0,0:0:0:0:
214,57,555068,1,8,0:0:0:0:
170,70,555150,1,8,0:3:0:0:
146,97,555233,1,8,0:3:0:0:
137,123,555316,1,4,0:3:0:0:
138,145,555399,1,4,0:3:0:0:
145,162,555482,6,0,B|70:146|85:194|11:181,1,138.000005264282,12|2,0:1|0:0,0:0:0:0:
31,92,555979,1,8,0:1:0:0:
122,245,556145,1,12,0:0:0:0:
230,140,556311,2,0,L|212:219,1,69.0000026321412,2|8,0:0|0:1,0:0:0:0:
190,352,556642,6,0,P|254:337|341:325,1,138.000005264282,12|4,0:1|0:0,0:0:0:0:
455,357,557139,2,0,B|463:310|463:310|449:272|449:272|460:215,1,138.000005264282,6|2,0:0|0:0,0:0:0:0:
497,87,557637,2,0,L|506:45,2,34.5000013160706,2|2|8,0:0|0:0|0:0,0:0:0:0:
264,77,558134,6,0,P|278:150|287:212,1,138.000005264282,12|4,0:1|0:3,0:0:0:0:
148,276,558631,2,0,P|199:279|236:369,1,138.000005264282,8|8,0:3|0:3,0:0:0:0:
54,301,559128,2,0,L|63:223,1,69.0000026321412,4|0,0:3|0:0,0:0:0:0:
78,74,559460,5,12,0:1:0:0:
252,207,560620,6,0,L|264:163,2,34.5000013160706,0|0|2,0:0|0:0|0:0,0:0:0:0:
342,64,562112,5,6,0:0:0:0:
159,40,562277,1,8,0:0:0:0:
144,83,562360,1,8,0:0:0:0:
148,128,562443,1,8,0:0:0:0:
171,168,562526,1,8,0:0:0:0:
208,194,562609,2,0,L|200:254,1,46,4|4,0:3|0:3,0:0:0:0:
91,336,562775,5,10,0:0:0:0:
135,323,562858,1,8,0:0:0:0:
180,321,562940,2,0,P|209:327|236:337,1,46,8|4,0:3|0:3,0:0:0:0:
349,381,563106,5,8,0:0:0:0:
395,348,563189,1,8,0:0:0:0:
419,296,563272,1,8,0:0:0:0:
413,240,563355,1,8,0:0:0:0:
379,194,563438,1,12,0:1:0:0:
302,145,568482,5,12,0:0:0:0:
302,145,568811,5,8,0:0:0:0:
178,188,568976,1,0,3:0:0:0:
310,243,569141,5,8,0:0:0:0:
166,188,569306,1,0,3:0:0:0:
320,135,569471,5,8,0:0:0:0:
153,187,569635,1,0,0:0:0:0:
268,337,569800,5,8,0:0:0:0:
287,56,569965,1,0,3:0:0:0:
425,264,570130,5,8,0:0:0:0:
142,186,570295,1,0,3:0:0:0:
417,71,570460,5,8,0:0:0:0:
291,332,570624,1,8,3:1:0:0:
184,35,570789,6,0,L|216:141,1,92,12|0,0:0|0:0,0:0:0:0:
316,329,571119,5,12,0:0:0:0:
142,186,571284,1,8,0:1:0:0:
353,106,571449,1,8,0:1:0:0:
145,283,571613,5,12,0:0:0:0:
201,101,571778,1,8,0:1:0:0:
330,241,571943,1,8,0:1:0:0:
58,60,572108,5,12,0:0:0:0:
353,106,572273,1,8,0:1:0:0:
242,261,572438,5,12,0:0:0:0:
297,38,572602,1,8,0:1:0:0:
468,191,572767,1,8,0:1:0:0:
199,77,572932,5,12,0:0:0:0:
326,230,573097,1,8,0:1:0:0:
131,251,573262,1,8,0:1:0:0:
378,72,573427,5,12,0:0:0:0:
336,383,573591,1,8,0:1:0:0:
81,242,573756,5,12,0:0:0:0:
103,236,573839,1,0,3:0:0:0:
125,230,573921,1,8,3:0:0:0:
147,225,574003,1,8,3:0:0:0:
170,219,574086,1,8,0:3:0:0:
11,72,574251,5,6,0:0:0:0:
366,11,574580,6,0,P|358:61|353:102,1,92,6|8,0:0|0:0,0:0:0:0:
442,298,574910,6,0,B|333:341|356:239|234:288,1,207.000007896424,12|0,0:1|0:0,0:0:0:0:
207,209,576723,6,0,P|194:283|186:363,1,138.000005264282,12|0,0:0|3:0,0:0:0:0:
191,359,577053,1,8,0:0:0:0:
291,155,577218,1,8,0:3:0:0:
77,212,577383,1,4,0:3:0:0:
296,311,577547,6,0,B|331:279|332:230|332:230|371:265|415:268,1,184,12|8,0:1|0:1,0:0:0:0:
433,82,578042,2,0,P|420:133|413:179,1,92,12|0,0:0|0:0,0:0:0:0:
237,81,578372,6,0,L|232:40,6,23,6|2|10|2|10|2|10,0:0|0:0|0:2|0:0|0:2|0:0|0:2,0:0:0:0:
250,106,578701,1,8,0:0:0:0:
204,101,578784,1,8,0:0:0:0:
158,96,578866,1,8,0:0:0:0:
112,91,578949,1,8,0:0:0:0:
67,86,579031,6,0,P|30:133|44:264,1,184,12|8,0:1|0:0,0:0:0:0:
156,362,579525,1,2,0:0:0:0:
219,198,579690,2,0,P|167:214|117:233,1,92,10|8,0:1|0:1,0:0:0:0:
329,365,580020,2,0,L|342:266,1,92,8|0,0:0|0:0,0:0:0:0:
399,54,580350,5,8,0:1:0:0:
399,54,580514,1,8,0:1:0:0:
450,165,580679,2,0,B|404:173|404:173|359:160|359:160|284:174,1,138,10|0,0:0|0:0,0:0:0:0:
302,160,581009,2,0,P|257:174|208:206,1,92,10|8,0:1|0:1,0:0:0:0:
107,75,581339,2,0,P|73:108|45:159,1,92,10|0,0:0|0:0,0:0:0:0:
177,347,581668,6,0,P|160:260|78:226,1,184,12|8,0:1|0:0,0:0:0:0:
52,351,582163,1,2,3:2:0:0:
69,336,582245,1,0,3:0:0:0:
87,321,582328,1,8,0:1:0:0:
275,208,582492,2,0,P|266:237|256:302,1,92,10|8,0:1|0:0,0:0:0:0:
181,104,582822,1,2,0:0:0:0:
341,272,582987,5,8,0:1:0:0:
302,55,583152,1,2,0:0:0:0:
156,232,583317,1,8,0:0:0:0:
371,145,583482,1,2,0:0:0:0:
371,145,583564,1,0,0:0:0:0:
371,145,583646,2,0,P|436:128|481:123,1,92,8|10,0:1|0:1,0:0:0:0:
181,104,583976,2,0,P|116:87|71:82,1,92,8|2,0:0|0:0,0:0:0:0:
255,329,584306,6,0,P|250:280|247:222,1,92,12|8,0:1|0:1,0:0:0:0:
307,62,584635,1,10,0:0:0:0:
133,199,584800,1,2,3:2:0:0:
133,199,584883,1,0,3:0:0:0:
133,199,584965,2,0,P|84:245|57:281,1,92,8|10,0:1|0:1,0:0:0:0:
154,15,585295,2,0,P|166:60|181:106,1,92,8|2,0:0|0:0,0:0:0:0:
417,25,585624,5,12,0:1:0:0:
266,247,585789,1,8,0:1:0:0:
307,62,585954,5,12,0:0:0:0:
408,297,586119,1,8,0:1:0:0:
198,125,586284,5,12,1:1:0:0:
156,348,586449,1,8,0:0:0:0:
133,345,586531,1,8,0:0:0:0:
110,342,586613,1,10,0:0:0:0:
87,339,586696,1,8,0:0:0:0:
64,336,586778,1,8,0:0:0:0:
41,333,586861,1,8,0:0:0:0:
19,331,586943,6,0,P|21:231|42:140,1,184,12|8,0:1|0:0,0:0:0:0:
117,10,587438,1,2,0:0:0:0:
220,143,587602,2,0,P|272:133|319:127,1,92,10|8,0:1|0:1,0:0:0:0:
142,255,587932,2,0,P|96:246|51:239,1,92,8|0,0:0|0:0,0:0:0:0:
281,355,588262,6,0,P|289:290|290:252,1,92,10|0,0:1|0:0,0:0:0:0:
130,160,588591,1,8,0:0:0:0:
310,127,588756,1,0,0:0:0:0:
310,127,588839,1,0,0:0:0:0:
310,127,588921,2,0,P|355:132|399:144,1,92,10|8,0:1|0:1,0:0:0:0:
195,5,589251,2,0,P|202:50|208:95,1,92,8|0,0:0|0:1,0:0:0:0:
131,289,589580,6,0,P|219:265|310:250,1,184,10|8,0:1|0:0,0:0:0:0:
489,294,590075,1,2,0:0:0:0:
428,134,590240,2,0,P|415:178|405:223,1,92,10|8,0:1|0:1,0:0:0:0:
284,38,590569,2,0,P|296:82|306:127,1,92,8|0,0:0|0:0,0:0:0:0:
278,338,590899,5,10,0:1:0:0:
278,338,591064,1,8,0:1:0:0:
146,158,591229,2,0,P|196:167|245:183,1,92,8|0,0:0|3:0,0:0:0:0:
300,227,591476,1,0,3:0:0:0:
300,227,591558,1,10,0:1:0:0:
166,254,591723,1,8,0:1:0:0:
330,119,591888,1,8,0:0:0:0:
278,338,592053,2,0,L|254:297,1,46,0|0,3:0|3:0,0:0:0:0:
147,130,592218,6,0,B|114:85|114:85|79:211,1,184,12|8,0:1|0:0,0:0:0:0:
187,351,592712,2,0,L|287:336,1,92,2|8,0:0|0:1,0:0:0:0:
398,179,593042,2,0,L|307:166,1,92,10|8,0:1|0:0,0:0:0:0:
492,313,593372,5,2,0:0:0:0:
492,313,593454,1,0,0:0:0:0:
492,313,593536,1,8,0:1:0:0:
294,250,593701,1,2,0:0:0:0:
481,134,593866,1,8,0:0:0:0:
375,351,594031,5,2,0:0:0:0:
375,351,594113,1,0,0:0:0:0:
375,351,594196,2,0,L|390:252,1,92,8|8,0:1|0:1,0:0:0:0:
264,70,594525,1,8,0:0:0:0:
179,266,594690,2,0,L|187:314,1,46,0|0,3:0|3:0,0:0:0:0:
257,222,594855,6,0,B|192:234|192:234|146:209|146:209|77:218,1,184,12|8,0:1|0:0,0:0:0:0:
161,33,595350,1,0,3:0:0:0:
161,33,595432,1,0,3:0:0:0:
161,33,595514,2,0,P|174:80|186:129,1,92,10|8,0:1|0:1,0:0:0:0:
335,262,595844,2,0,P|346:217|358:173,1,92,8|0,0:0|0:0,0:0:0:0:
465,58,596174,5,10,0:1:0:0:
429,238,596339,1,8,0:1:0:0:
343,51,596503,1,8,0:0:0:0:
499,177,596668,1,2,0:0:0:0:
279,130,596833,5,8,0:1:0:0:
326,292,596998,1,8,0:0:0:0:
193,232,597163,5,8,0:3:0:0:
367,145,597328,1,4,0:3:0:0:
217,316,597492,6,0,B|113:343|154:252|32:282,1,184,12|8,0:1|0:0,0:0:0:0:
183,114,597987,1,2,0:0:0:0:
183,114,598069,1,0,0:0:0:0:
183,114,598152,2,0,P|192:167|197:225,1,92,8|10,0:1|0:1,0:0:0:0:
77,356,598482,1,8,0:0:0:0:
115,190,598646,1,2,0:0:0:0:
232,334,598811,6,0,P|276:321|321:312,1,92,8|8,0:1|0:1,0:0:0:0:
290,143,599141,2,0,P|335:152|379:164,1,92,8|0,0:0|0:0,0:0:0:0:
482,271,599471,2,0,L|456:359,1,92,10|8,0:1|0:1,0:0:0:0:
290,143,599800,2,0,L|315:231,1,92,8|0,0:0|0:0,0:0:0:0:
493,51,600130,6,0,P|449:40|396:38,1,92,12|8,0:1|0:1,0:0:0:0:
199,156,600460,2,0,P|244:153|289:142,1,92,8|0,0:0|0:0,0:0:0:0:
127,25,600789,1,10,0:1:0:0:
102,214,600954,1,8,0:1:0:0:
232,63,601119,1,8,0:3:0:0:
76,111,601284,2,0,L|127:134,1,46,4|0,0:3|0:0,0:0:0:0:
313,232,601449,5,12,0:1:0:0:
59,109,601613,1,8,0:1:0:0:
339,16,601778,1,8,0:0:0:0:
194,313,601943,2,0,L|177:118,1,184,6|2,0:0|0:0,0:0:0:0:
324,213,602438,1,8,0:0:0:0:
102,250,602602,1,4,0:3:0:0:
252,58,602767,5,8,0:0:0:0:
194,313,602932,1,8,0:0:0:0:
194,313,603262,6,0,L|187:221,1,92,8|0,0:3|0:0,0:0:0:0:
178,129,603591,1,8,0:3:0:0:
287,261,603756,2,0,L|280:169,1,92,4|0,0:3|0:0,0:0:0:0:
322,58,604086,5,12,0:0:0:0:
380,313,604251,1,8,0:0:0:0:
380,313,604580,6,0,L|387:221,1,92,12|0,0:0|0:0,0:0:0:0:
396,129,604910,1,8,0:3:0:0:
287,261,605075,2,0,L|294:169,1,92,4|4,0:3|0:3,0:0:0:0:
194,3,605405,6,0,P|129:23|98:83,1,138,12|0,0:1|0:0,0:0:0:0:
99,106,605734,1,2,3:2:0:0:
293,169,605899,1,0,3:0:0:0:
182,87,606064,1,2,3:2:0:0:
221,274,606229,1,0,3:2:0:0:
266,72,606394,1,2,3:2:0:0:
115,195,606558,1,0,3:0:0:0:
322,258,606723,5,10,0:0:0:0:
177,63,606888,1,8,0:0:0:0:
128,298,607053,1,10,0:0:0:0:
351,99,607218,1,8,0:0:0:0:
55,62,607383,1,10,0:0:0:0:
227,301,607547,1,8,0:0:0:0:
247,0,607712,1,10,0:0:0:0:
85,209,607877,1,2,0:0:0:0:
85,209,607960,1,2,0:0:0:0:
85,209,608042,6,0,P|37:69|146:39,1,276.000010528565,12|0,0:1|0:0,0:0:0:0:
288,164,608866,5,8,0:1:0:0:
109,123,609031,1,12,0:0:0:0:
468,50,609361,5,12,0:1:0:0:
461,142,614423,6,0,B|468:95|468:95|447:55,1,92,12|0,0:1|0:0,0:0:0:0:
282,163,614738,2,0,B|275:210|275:210|296:250,1,92,8|0,0:0|0:0,0:0:0:0:
154,58,615054,6,0,P|107:49|54:45,1,92,12|0,0:1|0:0,0:0:0:0:
95,213,615370,2,0,P|49:221|4:225,1,92,8|2,0:0|0:0,0:0:0:0:
295,249,615686,6,0,P|279:299|263:352,1,92,12|0,0:1|0:0,0:0:0:0:
473,172,616001,2,0,P|487:215|500:259,1,92,8|0,0:0|0:0,0:0:0:0:
214,139,616317,6,0,P|203:190|192:244,1,92,12|0,0:1|0:0,0:0:0:0:
448,71,616633,2,0,P|471:110|494:150,1,92,8|8,0:0|0:1,0:0:0:0:
311,42,616949,5,14,0:0:0:0:
380,257,617107,1,10,0:0:0:0:
380,257,617423,5,10,0:0:0:0:
130,169,617580,1,10,0:0:0:0:
130,169,617896,5,10,0:0:0:0:
445,86,618054,1,6,0:0:0:0:
445,86,618844,6,0,L|448:65,21,15.3333333333333
435,108,619475,6,0,B|456:139|456:139|410:106|360:97|339:180|262:149|262:149|318:139|356:90|320:10|252:4|205:59|205:59|189:10|161:-14|92:-12|49:46|74:102|129:135|129:135|173:165|170:236|170:236|183:190|216:175,1,938.40001789856,12|0,0:1|0:0,0:0:0:0:
321,288,621528,5,8,0:1:0:0:
323,307,621607,1,8,0:1:0:0:
326,326,621686,1,12,0:0:0:0:
338,341,622001,6,0,B|279:327|279:327|234:345|234:345|133:328,1,184,12|8,0:1|0:0,0:0:0:0:
159,136,622475,2,0,P|171:180|180:225,1,92,2|8,0:0|0:1,0:0:0:0:
357,75,622791,2,0,P|344:119|335:164,1,92,10|8,0:1|0:0,0:0:0:0:
482,339,623107,5,2,0:0:0:0:
482,339,623186,1,0,0:0:0:0:
482,339,623265,1,8,0:1:0:0:
453,143,623423,1,0,0:0:0:0:
330,321,623580,1,8,0:0:0:0:
510,245,623738,1,0,0:0:0:0:
366,117,623896,2,0,L|275:131,1,92,10|8,0:1|0:1,0:0:0:0:
60,278,624212,2,0,L|150:292,1,92,8|0,0:0|3:0,0:0:0:0:
219,345,624449,1,0,3:0:0:0:
219,345,624528,6,0,P|228:283|198:162,1,184,12|8,0:1|0:0,0:0:0:0:
81,51,625001,1,2,0:0:0:0:
266,103,625159,2,0,P|315:88|356:81,1,92,8|8,0:1|0:1,0:0:0:0:
189,257,625475,2,0,P|145:243|99:235,1,92,8|2,0:0|0:0,0:0:0:0:
357,365,625791,6,0,P|344:286|322:174,2,184,8|8|10,0:1|0:0|0:1,0:0:0:0:
210,243,626580,1,8,0:1:0:0:
425,286,626738,2,0,P|479:267|515:257,1,92,8|0,0:0|0:0,0:0:0:0:
493,47,627054,6,0,P|433:103|330:92,1,184,12|8,0:1|0:0,0:0:0:0:
210,0,627528,1,2,0:0:0:0:
177,222,627686,2,0,P|171:174|168:130,1,92,8|8,0:1|0:1,0:0:0:0:
339,263,628001,2,0,P|335:308|330:354,1,92,8|0,0:0|0:0,0:0:0:0:
263,174,628317,5,8,0:1:0:0:
98,311,628475,1,8,0:1:0:0:
123,64,628633,2,0,P|142:110|160:160,1,92,12|0,0:0|0:0,0:0:0:0:
194,342,628949,5,6,0:0:0:0:
224,368,629028,1,0,0:0:0:0:
262,377,629107,1,8,0:0:0:0:
301,367,629186,1,0,3:0:0:0:
331,340,629265,1,10,0:0:0:0:
344,303,629344,1,8,0:0:0:0:
339,263,629423,1,8,0:0:0:0:
316,231,629501,1,8,0:0:0:0:
279,212,629580,6,0,B|383:244|362:160|472:197,1,184,12|8,0:1|0:0,0:0:0:0:
301,32,630054,2,0,P|313:79|322:121,1,92,2|8,0:0|0:1,0:0:0:0:
265,295,630370,1,8,0:1:0:0:
95,220,630528,2,0,P|47:229|0:250,1,92,8|0,0:0|0:0,0:0:0:0:
143,77,630844,6,0,P|191:85|233:95,1,92,8|0,0:1|0:0,0:0:0:0:
363,250,631159,2,0,L|351:360,1,92,8|0,0:0|0:0,0:0:0:0:
137,301,631475,2,0,L|127:209,1,92,10|8,0:1|0:1,0:0:0:0:
384,231,631791,2,0,L|372:341,1,92,8|8,0:0|0:1,0:0:0:0:
261,89,632107,6,0,B|331:97|331:97|365:79|365:79|447:91,1,184,12|8,0:1|0:0,0:0:0:0:
482,271,632580,1,2,0:0:0:0:
271,187,632738,2,0,B|261:219|261:219|271:275,1,92,8|8,0:1|0:1,0:0:0:0:
360,117,633054,2,0,B|370:85|370:85|359:28,1,92,8|0,0:0|0:0,0:0:0:0:
162,216,633370,6,0,P|116:206|71:201,1,92,10|0,0:1|0:0,0:0:0:0:
351,137,633686,2,0,P|396:127|441:122,1,92,12|0,0:0|0:0,0:0:0:0:
191,92,634001,5,12,0:1:0:0:
287,273,634159,1,8,0:0:0:0:
281,30,634317,5,8,0:0:0:0:
255,285,634475,1,8,0:3:0:0:
173,112,634633,6,0,B|234:100|234:100|271:120|271:120|339:106,1,156.400002983093,12|0,0:1|0:0,0:0:0:0:
474,148,635107,2,0,P|405:161|380:251,1,156.400002983093,8|8,0:0|0:1,0:0:0:0:
443,349,635580,2,0,P|448:309|456:267,1,78.2000014915467,8|0,0:0|0:0,0:0:0:0:
299,331,635896,1,12,0:1:0:0:
299,331,636054,2,0,P|212:319|127:309,1,156.400002983093,8|8,0:1|0:0,0:0:0:0:
62,222,636528,2,0,P|33:264|33:313,1,78.2000014915467,0|8,0:0|0:1,0:0:0:0:
165,209,636844,2,0,P|161:169|156:125,1,78.2000014915467,8|0,0:0|0:0,0:0:0:0:
38,50,637159,6,0,B|121:81|105:6|205:47,1,156.400002983093,12|0,0:1|0:0,0:0:0:0:
357,28,637633,2,0,P|311:32|262:93,1,117.30000223732,8|0,0:0|0:0,0:0:0:0:
264,101,637949,1,8,0:1:0:0:
411,226,638107,2,0,P|416:189|425:145,1,78.2000014915467,8|8,0:0|0:1,0:0:0:0:
153,115,638423,5,12,0:0:0:0:
422,244,638580,1,8,0:1:0:0:
155,272,638738,5,12,0:0:0:0:
436,135,638896,1,8,0:1:0:0:
192,32,639054,5,12,0:0:0:0:
134,24,639133,1,8,0:0:0:0:
84,53,639212,1,8,0:0:0:0:
60,105,639291,1,8,0:0:0:0:
72,161,639370,5,8,0:0:0:0:
91,166,639449,1,8,0:0:0:0:
110,170,639528,1,8,0:0:0:0:
130,174,639607,1,8,0:0:0:0:
148,178,639686,6,0,L|197:187,1,46,8|8,0:3|0:3,0:0:0:0:
264,81,639844,2,0,L|309:74,1,46,4|4,0:3|0:3,0:0:0:0:
406,189,640001,6,0,B|440:222|440:222|505:145|437:76,1,207.000007896424,12|0,0:0|0:0,0:0:0:0:
309,73,640317,1,4,0:3:0:0:
291,70,640396,1,8,0:3:0:0:
274,68,640475,1,8,0:3:0:0:
257,65,640554,1,8,0:1:0:0:
240,63,640633,1,8,0:1:0:0:
74,203,640791,6,0,B|121:139|214:145|214:145|195:167|181:196,1,207.000007896424,12|0,0:1|0:0,0:0:0:0:
162,363,641107,2,0,P|155:329|148:295,1,69.0000026321412,6|0,0:0|0:0,0:0:0:0:
264,212,641265,2,0,B|301:216|331:222|331:222|384:181|384:181|429:192|466:197,1,207.000007896424,14|0,0:0|0:0,0:0:0:0:
471,273,641580,5,6,0:0:0:0:
474,289,641659,1,8,0:0:0:0:
478,306,641738,1,8,0:0:0:0:
481,323,641817,1,8,0:0:0:0:
485,340,641896,1,10,0:0:0:0:
434,332,641975,1,8,0:0:0:0:
383,323,642054,1,8,0:0:0:0:
332,315,642133,1,8,0:0:0:0:
280,306,642212,6,0,L|143:280,1,138,12|0,0:1|0:0,0:0:0:0:
84,321,642528,2,0,L|150:305,1,46,8|0,0:0|0:0,0:0:0:0:
187,160,642686,2,0,P|143:170|91:179,1,92,2|8,0:0|0:1,0:0:0:0:
344,101,643001,2,0,P|389:108|434:119,1,92,10|8,0:1|0:0,0:0:0:0:
223,17,643317,5,2,0:0:0:0:
223,17,643396,1,2,0:0:0:0:
223,17,643475,1,8,0:1:0:0:
314,267,643633,1,0,0:0:0:0:
356,71,643791,1,8,0:0:0:0:
170,179,643949,1,0,0:0:0:0:
462,215,644107,5,10,0:1:0:0:
256,107,644265,1,8,0:1:0:0:
480,14,644423,1,8,0:0:0:0:
248,138,644580,5,8,0:1:0:0:
248,138,644659,1,0,0:0:0:0:
248,138,644738,2,0,P|168:131|44:118,1,184,12|8,0:1|0:0,0:0:0:0:
249,222,645212,1,2,0:0:0:0:
323,24,645370,2,0,P|338:76|345:120,1,92,8|8,0:1|0:1,0:0:0:0:
131,292,645686,2,0,P|143:248|158:204,1,92,8|2,0:0|0:0,0:0:0:0:
323,24,646001,6,0,P|413:27|441:116,2,184,8|8|10,0:1|0:0|0:1,0:0:0:0:
396,250,646791,1,8,0:1:0:0:
254,178,646949,2,0,B|224:169|224:169|161:186,1,92,8|0,0:0|0:0,0:0:0:0:
27,96,647265,6,0,B|94:80|94:80|141:103|141:103|210:86,1,184,12|8,0:1|0:0,0:0:0:0:
361,28,647738,2,0,P|319:51|294:95,1,92,2|8,0:0|0:1,0:0:0:0:
285,252,648054,1,8,0:1:0:0:
457,165,648212,2,0,P|431:162|365:160,1,92,8|2,0:0|0:0,0:0:0:0:
174,265,648528,5,12,0:1:0:0:
305,71,648686,1,8,0:1:0:0:
70,127,648844,1,12,0:0:0:0:
305,276,649001,1,0,0:0:0:0:
153,23,649159,5,14,0:0:0:0:
76,301,649317,1,8,0:0:0:0:
271,183,649475,1,10,0:0:0:0:
271,183,649554,1,8,0:0:0:0:
271,183,649633,1,8,0:0:0:0:
271,183,649712,1,8,0:0:0:0:
271,183,649791,6,0,P|330:173|480:157,1,184,12|8,0:1|0:0,0:0:0:0:
328,0,650265,2,0,P|322:54|319:96,1,92,2|8,0:0|0:1,0:0:0:0:
393,257,650580,1,8,0:1:0:0:
254,171,650738,2,0,P|263:224|271:265,1,92,10|0,0:0|0:0,0:0:0:0:
184,91,651054,6,0,B|145:41|54:59|54:59|86:104,1,184,8|8,0:1|0:0,0:0:0:0:
187,252,651528,1,0,0:0:0:0:
33,185,651686,2,0,P|22:229|2:295,1,92,10|8,0:1|0:1,0:0:0:0:
191,273,652001,2,0,P|202:317|222:383,1,92,10|8,0:0|0:1,0:0:0:0:
393,257,652317,6,0,P|422:195|324:112,1,184,12|8,0:1|0:0,0:0:0:0:
222,76,652791,1,0,0:0:0:0:
150,201,652949,2,0,P|114:212|55:237,1,92,8|8,0:1|0:1,0:0:0:0:
21,25,653265,6,0,P|57:33|118:54,1,92,10|0,0:0|0:0,0:0:0:0:
460,43,653580,2,0,P|418:62|378:84,1,92,10|0,0:1|0:0,0:0:0:0:
63,233,653896,2,0,P|105:215|149:201,1,92,10|0,0:0|0:1,0:0:0:0:
462,253,654212,6,0,P|454:298|449:350,1,92,10|8,0:1|0:1,0:0:0:0:
168,384,654528,2,0,P|164:338|156:293,1,92,8|8,0:0|0:1,0:0:0:0:
309,31,654844,6,0,B|204:5|234:89|121:67,1,184,12|8,0:1|0:0,0:0:0:0:
8,218,655317,2,0,P|45:177|78:161,1,92,2|8,0:0|0:1,0:0:0:0:
261,244,655633,1,8,0:1:0:0:
91,346,655791,2,0,L|-13:334,1,92,8|0,0:0|0:0,0:0:0:0:
206,171,656107,6,0,P|227:264|242:361,2,184,8|8|8,0:1|0:0|0:1,0:0:0:0:
136,56,656896,1,8,0:1:0:0:
297,132,657054,2,0,L|446:99,1,138,8|0,0:0|0:0,0:0:0:0:
454,97,657370,5,12,0:0:0:0:
228,266,657528,1,2,0:0:0:0:
433,225,657686,5,8,0:0:0:0:
127,173,657844,1,2,0:0:0:0:
312,35,658001,5,12,0:0:0:0:
200,349,658159,1,0,3:0:0:0:
200,349,658238,1,0,3:0:0:0:
200,349,658317,6,0,P|196:319|195:294,1,46,8|8,0:0|0:0,0:0:0:0:
315,151,658475,2,0,P|313:173|310:196,1,46,0|0,3:0|3:0,0:0:0:0:
426,345,658633,1,6,0:0:0:0:
426,345,659738,6,0,L|431:280,1,46,2|2,0:0|0:0,0:0:0:0:
446,138,659896,1,12,0:1:0:0:
175,122,664840,6,0,P|209:40|304:27,1,184,12|8,0:1|0:0,0:0:0:0:
305,199,665318,2,0,B|239:188|239:188|196:214|196:214|120:200,1,184,6|0,0:0|3:0,0:0:0:0:
37,339,665797,6,0,P|84:302|183:310,1,138,12|0,0:1|0:0,0:0:0:0:
306,360,666276,2,0,L|316:288,2,69.0000026321412,8|0|0,0:3|0:0|0:0,0:0:0:0:
373,193,666754,2,0,L|279:201,1,69.0000026321412,8|0,0:3|0:0,0:0:0:0:
217,101,667074,2,0,L|311:109,1,69.0000026321412,4|0,0:3|0:0,0:0:0:0:
470,206,667393,5,12,0:0:0:0:
497,66,667552,1,0,0:1:0:0:
370,112,667712,1,8,3:1:0:0:
497,187,667871,1,0,0:0:0:0:
383,13,668031,5,8,0:1:0:0:
305,246,668191,1,0,3:0:0:0:
447,131,668350,1,8,0:1:0:0:
198,69,668510,1,8,0:0:0:0:
294,219,668669,5,8,0:1:0:0:
289,17,668829,1,8,0:0:0:0:
102,144,668988,1,8,0:1:0:0:
291,113,669148,1,0,3:1:0:0:
89,23,669308,5,0,3:0:0:0:
192,242,669467,1,8,0:1:0:0:
198,69,669627,5,12,0:0:0:0:
93,307,669786,1,2,0:0:0:0:
323,195,669946,6,0,L|345:306,1,103.500003948212,12|0,0:0|0:0,0:0:0:0:
347,313,670265,1,8,3:1:0:0:
183,211,670425,1,0,3:1:0:0:
387,124,670584,1,8,3:1:0:0:
257,307,670744,1,0,3:1:0:0:
292,73,670903,1,8,3:1:0:0:
457,235,671063,1,0,3:1:0:0:
191,106,671222,5,10,0:0:0:0:
455,9,671382,1,8,0:0:0:0:
323,215,671542,1,10,0:0:0:0:
205,0,671701,1,8,0:0:0:0:
439,114,671861,5,8,0:0:0:0:
205,278,672020,1,2,0:0:0:0:
217,24,672180,5,8,0:0:0:0:
295,360,672340,1,6,0:0:0:0:
300,379,672659,5,10,0:0:0:0:
205,0,672818,1,12,0:0:0:0:
448,270,673137,6,0,L|463:199,2,69.0000026321412,2|2|2,0:0|0:0|0:0,0:0:0:0:
486,104,673616,6,0,B|375:89|412:171|295:152,1,202.400006176758,12|2,0:1|0:0,0:0:0:0:
99,67,674095,1,8,0:0:0:0:
206,233,674254,1,2,0:0:0:0:
282,49,674414,1,8,0:1:0:0:
98,194,674574,1,2,0:0:0:0:
327,242,674733,1,8,0:0:0:0:
254,28,674893,6,0,P|260:82|271:136,1,101.200003088379,2|8,0:0|0:1,0:0:0:0:
468,235,675212,1,2,0:0:0:0:
369,55,675371,1,8,0:0:0:0:
335,264,675531,1,2,0:0:0:0:
512,147,675691,2,0,P|459:138|403:134,1,101.200003088379,8|2,0:1|0:0,0:0:0:0:
226,254,676010,2,0,P|275:245|326:241,1,101.200003088379,8|0,0:0|0:0,0:0:0:0:
156,62,676329,5,12,0:1:0:0:
266,160,676488,1,2,0:0:0:0:
232,0,676648,1,8,0:0:0:0:
124,194,676808,1,2,0:0:0:0:
50,47,676967,5,8,0:1:0:0:
258,141,677127,1,2,0:0:0:0:
46,31,677286,1,8,0:0:0:0:
46,259,677446,6,0,L|67:363,1,101.200003088379,2|8,0:0|0:1,0:0:0:0:
131,169,677765,1,2,0:0:0:0:
237,333,677925,2,0,B|311:344|311:344|358:319|358:319|447:331,1,202.400006176758,8|8,0:0|0:1,0:0:0:0:
297,212,678403,1,0,3:0:0:0:
286,234,678483,1,0,3:0:0:0:
292,259,678563,1,8,0:0:0:0:
465,70,678722,6,0,P|403:87|257:111,1,202.400006176758,12|2,0:1|0:0,0:0:0:0:
86,66,679201,1,8,0:0:0:0:
199,273,679361,1,2,0:0:0:0:
0,205,679520,1,8,0:1:0:0:
183,85,679680,1,2,0:0:0:0:
106,332,679840,1,8,0:0:0:0:
311,228,679999,6,0,P|327:308|338:356,1,101.200003088379,2|8,0:0|0:1,0:0:0:0:
494,154,680318,1,2,0:0:0:0:
425,301,680478,1,8,0:0:0:0:
341,114,680637,1,2,0:0:0:0:
502,243,680797,5,8,0:1:0:0:
407,58,680957,1,2,0:0:0:0:
291,253,681116,2,0,P|243:244|191:237,1,101.200003088379,8|2,0:0|0:0,0:0:0:0:
31,313,681435,5,12,0:1:0:0:
193,202,681595,1,2,0:0:0:0:
12,124,681754,1,8,0:0:0:0:
106,257,681914,1,2,0:0:0:0:
71,34,682074,5,8,0:1:0:0:
3,224,682233,1,2,0:0:0:0:
207,174,682393,1,8,0:0:0:0:
12,124,682552,6,0,L|3:232,1,101.200003088379,2|8,0:0|0:1,0:0:0:0:
161,70,682871,1,2,0:0:0:0:
227,258,683031,2,0,P|290:186|274:122,1,151.800004632569,8|0,0:0|0:0,0:0:0:0:
269,116,683350,5,8,0:1:0:0:
133,282,683510,1,0,3:0:0:0:
133,282,683590,1,0,3:0:0:0:
133,282,683669,1,8,0:0:0:0:
355,337,683829,1,0,3:0:0:0:
355,337,683909,1,8,0:0:0:0:
355,337,683988,6,0,L|472:319,1,101.200003088379,12|0,0:1|0:0,0:0:0:0:
207,174,684308,2,0,L|90:156,1,101.200003088379,8|0,0:0|0:0,0:0:0:0:
365,59,684627,1,8,0:1:0:0:
299,247,684786,1,2,0:0:0:0:
257,30,684946,1,8,0:0:0:0:
404,204,685105,6,0,L|515:186,1,101.200003088379,2|8,0:0|0:1,0:0:0:0:
257,30,685425,2,0,L|302:132,1,101.200003088379,2|8,0:0|0:0,0:0:0:0:
387,306,685744,1,2,0:0:0:0:
198,271,685903,5,10,0:1:0:0:
388,123,686063,1,2,0:0:0:0:
184,107,686222,5,8,0:0:0:0:
354,330,686382,1,2,3:2:0:0:
354,330,686462,1,8,0:0:0:0:
354,330,686542,2,0,P|364:235|376:123,2,202.400006176758,12|8|10,0:1|0:0|0:1,0:0:0:0:
483,194,687340,2,0,P|498:245|512:311,1,101.200003088379,2|8,0:0|0:0,0:0:0:0:
373,40,687659,6,0,P|422:49|473:52,1,101.200003088379,2|8,0:0|0:1,0:0:0:0:
243,225,687978,2,0,P|292:215|343:212,1,101.200003088379,2|8,0:1|0:0,0:0:0:0:
222,97,688297,1,2,0:0:0:0:
136,295,688457,5,10,0:1:0:0:
228,74,688616,1,2,0:0:0:0:
248,248,688776,5,8,0:0:0:0:
120,23,688935,2,0,L|122:83,1,50.6000015441895,2|0,3:2|3:0,0:0:0:0:
136,295,689095,6,0,P|90:287|23:283,1,101.200003088379,12|0,0:1|0:0,0:0:0:0:
290,160,689414,2,0,P|336:168|403:172,1,101.200003088379,8|0,0:0|0:0,0:0:0:0:
114,100,689733,5,10,0:1:0:0:
241,247,689893,1,2,0:0:0:0:
253,22,690052,1,8,0:0:0:0:
148,251,690212,6,0,P|137:299|127:353,1,101.200003088379,2|8,0:0|0:1,0:0:0:0:
330,244,690531,1,0,0:0:0:0:
163,88,690691,2,0,P|89:93|47:153,1,151.800004632569,8|0,0:0|0:0,0:0:0:0:
29,145,691010,2,0,P|39:194|49:244,1,101.200003088379,10|0,0:1|0:0,0:0:0:0:
240,246,691329,2,0,P|230:296|222:346,1,101.200003088379,8|0,0:0|0:0,0:0:0:0:
444,112,691648,6,0,P|459:169|348:238,1,202.400006176758,12|8,0:1|0:0,0:0:0:0:
238,53,692127,1,2,0:0:0:0:
375,159,692286,1,8,0:1:0:0:
217,241,692446,1,2,0:0:0:0:
371,33,692605,1,8,0:0:0:0:
449,278,692765,2,0,L|458:204,1,50.6000015441895
475,77,692925,5,12,0:0:0:0:
293,326,693084,1,8,0:0:0:0:
249,350,693164,1,8,0:0:0:0:
199,353,693244,1,8,0:3:0:0:
152,334,693324,1,8,0:3:0:0:
118,298,693403,1,4,0:3:0:0:
103,250,693483,1,4,0:3:0:0:
110,200,693563,1,8,0:0:0:0:
375,159,693722,5,0,3:0:0:0:
375,159,693802,1,0,3:0:0:0:
375,159,693882,1,8,0:0:0:0:
184,46,694042,6,0,B|123:0|31:42|31:42|63:75,1,202.400006176758,12|2,0:1|0:0,0:0:0:0:
217,241,694520,1,8,0:0:0:0:
279,72,694680,1,2,0:0:0:0:
112,181,694840,1,8,0:1:0:0:
331,145,694999,1,2,0:0:0:0:
249,350,695159,1,8,0:0:0:0:
98,165,695318,6,0,P|49:149|-2:138,1,101.200003088379,2|8,0:0|0:1,0:0:0:0:
226,258,695637,1,2,0:0:0:0:
37,364,695797,2,0,P|85:348|134:337,1,101.200003088379,8|2,0:0|0:0,0:0:0:0:
335,355,696116,1,8,0:1:0:0:
271,188,696276,1,2,0:0:0:0:
233,366,696435,1,8,0:0:0:0:
271,168,696595,1,2,0:0:0:0:
359,251,696754,5,12,0:1:0:0:
244,49,696914,1,2,0:0:0:0:
203,256,697074,1,8,0:0:0:0:
331,71,697233,1,2,0:0:0:0:
83,185,697393,1,8,0:1:0:0:
280,340,697552,1,2,0:0:0:0:
236,37,697712,1,8,0:0:0:0:
176,244,697871,6,0,P|185:293|197:348,1,101.200003088379,2|8,0:0|0:1,0:0:0:0:
253,160,698191,1,2,0:0:0:0:
112,55,698350,2,0,P|26:102|9:199,1,202.400006176758,8|8,0:0|0:1,0:0:0:0:
198,66,698829,1,0,3:0:0:0:
204,41,698909,1,0,3:0:0:0:
193,19,698988,1,8,0:0:0:0:
176,244,699148,6,0,B|261:250|261:250|295:227|295:227|391:235,1,202.400006176758,12|2,0:1|0:0,0:0:0:0:
479,335,699627,1,8,0:0:0:0:
416,156,699786,1,2,0:0:0:0:
315,312,699946,1,8,0:1:0:0:
391,81,700105,1,2,0:0:0:0:
508,236,700265,1,8,0:0:0:0:
268,126,700425,6,0,P|221:141|146:167,1,101.200003088379,2|8,0:0|0:1,0:0:0:0:
92,314,700744,1,2,0:0:0:0:
82,134,700903,1,8,0:0:0:0:
208,238,701063,1,2,0:0:0:0:
148,40,701222,5,8,0:1:0:0:
50,226,701382,1,2,0:0:0:0:
268,126,701542,2,0,P|318:132|367:141,1,101.200003088379,8|2,0:0|0:0,0:0:0:0:
376,336,701861,5,12,0:1:0:0:
192,216,702020,1,2,0:0:0:0:
391,142,702180,1,8,0:0:0:0:
251,296,702340,1,2,0:0:0:0:
184,65,702499,5,8,0:1:0:0:
337,253,702659,1,2,0:0:0:0:
384,30,702818,1,8,0:0:0:0:
192,216,702978,6,0,P|142:204|86:196,1,101.200003088379,2|8,0:0|0:1,0:0:0:0:
285,24,703297,1,2,0:0:0:0:
337,253,703457,2,0,P|347:307|356:374,1,101.200003088379,8|0,0:0|0:0,0:0:0:0:
389,129,703776,5,2,3:2:0:0:
345,105,703855,1,0,3:0:0:0:
295,106,703935,1,8,0:0:0:0:
253,133,704015,1,8,0:0:0:0:
229,177,704095,1,10,0:0:0:0:
206,221,704175,1,8,0:0:0:0:
164,248,704254,1,8,0:0:0:0:
114,249,704334,1,8,0:0:0:0:
70,225,704414,6,0,P|81:130|92:18,1,202.400006176758,12|8,0:1|0:0,0:0:0:0:
229,177,704893,1,2,0:0:0:0:
52,121,705052,1,8,0:1:0:0:
261,27,705212,1,2,0:0:0:0:
164,248,705371,1,8,0:0:0:0:
179,26,705531,6,0,L|289:3,1,101.200003088379,12|8,0:0|0:1,0:0:0:0:
413,200,705850,1,2,0:0:0:0:
456,6,706010,2,0,P|446:53|438:105,1,101.200003088379,8|2,0:0|0:0,0:0:0:0:
315,221,706329,2,0,P|271:204|218:190,1,101.200003088379,10|2,0:1|0:0,0:0:0:0:
143,48,706648,2,0,P|93:60|46:78,1,101.200003088379,8|2,0:0|3:2,0:0:0:0:
46,78,706887,1,0,3:0:0:0:
46,78,706967,6,0,L|56:307,1,202.400006176758,12|8,0:1|0:0,0:0:0:0:
312,328,707446,2,0,P|263:313|213:304,1,101.200003088379,10|0,0:0|0:0,0:0:0:0:
253,148,707765,2,0,P|206:166|162:191,1,101.200003088379,12|8,0:0|0:1,0:0:0:0:
351,18,708084,2,0,P|461:35|491:137,1,202.400006176758,12|2,0:0|0:0,0:0:0:0:
375,273,708563,1,8,0:0:0:0:
400,105,708722,1,2,0:0:0:0:
490,312,708882,5,8,0:1:0:0:
333,163,709042,1,0,3:0:0:0:
285,147,709121,1,0,3:0:0:0:
235,153,709201,1,8,0:0:0:0:
192,180,709281,1,8,3:0:0:0:
164,221,709361,1,4,3:0:0:0:
156,271,709441,1,8,3:1:0:0:
169,319,709520,6,0,B|116:298|116:298|74:335|74:335|-19:348,1,202.400006176758,12|8,0:1|0:0,0:0:0:0:
74,178,709999,1,2,0:0:0:0:
274,263,710159,2,0,L|385:253,2,101.200003088379,8|2|8,0:1|0:0|0:0,0:0:0:0:
188,71,710637,6,0,P|173:154|154:284,1,202.400006176758,12|8,0:0|0:1,0:0:0:0:
91,71,711116,1,8,0:0:0:0:
316,164,711276,1,2,0:0:0:0:
316,164,711355,1,2,0:0:0:0:
316,164,711435,1,8,0:1:0:0:
54,267,711595,1,2,0:0:0:0:
196,46,711754,1,8,0:0:0:0:
258,349,711914,1,2,0:0:0:0:
217,35,712074,6,0,B|297:15|297:15|339:38|339:38|415:17,1,202.400006176758,12|8,0:1|0:0,0:0:0:0:
488,197,712552,2,0,B|447:226|447:226|396:217,1,101.200003088379,2|8,0:0|0:1,0:0:0:0:
203,156,712871,2,0,B|244:127|244:127|294:135,1,101.200003088379,2|8,0:0|0:0,0:0:0:0:
263,351,713191,6,0,P|138:335|75:336,1,151.800004632569,12|0,0:0|0:0,0:0:0:0:
92,339,713510,1,2,0:0:0:0:
9,169,713669,2,0,L|27:281,1,101.200003088379,12|0,0:0|0:0,0:0:0:0:
187,118,713988,5,8,0:1:0:0:
66,49,714148,1,8,0:0:0:0:
67,75,714228,1,8,0:0:0:0:
69,101,714308,1,0,3:0:0:0:
230,255,714467,5,8,0:0:0:0:
230,229,714547,1,8,0:0:0:0:
231,203,714627,2,0,P|323:171|434:140,1,202.400006176758,12|8,0:1|0:0,0:0:0:0:
281,55,715105,1,2,0:0:0:0:
386,251,715265,2,0,P|449:257|493:258,1,101.200003088379,8|2,0:1|0:0,0:0:0:0:
328,137,715584,1,8,0:0:0:0:
281,338,715744,6,0,B|201:330|201:330|170:347|170:347|80:338,1,202.400006176758,10|8,0:0|0:1,0:0:0:0:
20,156,716222,1,8,0:0:0:0:
142,258,716382,1,12,0:0:0:0:
142,258,716462,1,2,0:0:0:0:
142,258,716542,1,8,0:1:0:0:
192,41,716701,1,8,0:0:0:0:
36,261,716861,1,10,0:0:0:0:
0,0,717020,1,10,0:0:0:0:
236,155,717180,6,0,B|351:183|316:84|439:115,1,202.400006176758,12|8,0:1|0:0,0:0:0:0:
261,24,717659,1,2,0:0:0:0:
395,201,717818,2,0,P|410:240|434:323,1,101.200003088379,8|2,0:1|0:0,0:0:0:0:
441,101,718137,1,10,0:1:0:0:
325,278,718297,6,0,L|121:263,1,202.400006176758,12|2,0:0|0:0,0:0:0:0:
221,108,718776,1,12,0:0:0:0:
37,179,718935,1,8,0:0:0:0:
37,179,719015,1,8,0:0:0:0:
37,179,719095,5,10,0:1:0:0:
254,236,719254,1,2,0:0:0:0:
81,45,719414,1,8,0:0:0:0:
27,300,719574,1,2,0:0:0:0:
230,64,719733,6,0,L|342:38,1,101.200003088379,12|0,0:1|0:0,0:0:0:0:
329,42,719972,1,0,3:0:0:0:
329,42,720052,1,8,0:0:0:0:
506,293,720212,6,0,P|436:285|369:347,1,151.800004632569,12|0,0:0|0:0,0:0:0:0:
369,349,720531,1,8,0:0:0:0:
457,130,720691,1,8,0:0:0:0:
244,243,720850,6,0,L|265:144,1,101.200003088379,12|0,0:1|0:0,0:0:0:0:
50,137,721169,5,12,0:0:0:0:
461,246,721329,1,12,0:0:0:0:
386,54,721808,6,0,L|378:112,1,50.6000015441895,2|2,0:0|0:0,0:0:0:0:
328,252,721967,6,0,B|298:291|298:291|240:228|267:135,1,207.000007896424,12|0,0:0|0:0,0:0:0:0:
297,54,722286,6,0,B|202:37|229:121|129:102,1,184,12|8,0:1|0:0,0:0:0:0:
40,47,722765,1,2,0:0:0:0:
104,237,722925,2,0,P|83:290|65:336,1,92,8|2,0:1|0:0,0:0:0:0:
24,155,723244,1,8,0:0:0:0:
203,243,723403,6,0,L|386:264,1,184,12|2,0:0|0:0,0:0:0:0:
501,107,723882,2,0,P|453:32|365:33,2,184,8|10|8,0:0|0:1|0:0,0:0:0:0:
304,149,724680,1,2,0:0:0:0:
411,114,724840,6,0,L|200:100,1,184,12|8,0:1|0:0,0:0:0:0:
96,42,725318,1,2,0:0:0:0:
150,270,725478,1,8,0:1:0:0:
137,116,725637,1,2,0:0:0:0:
28,234,725797,1,8,0:0:0:0:
273,175,725957,6,0,L|297:357,1,184,12|2,0:0|0:0,0:0:0:0:
297,357,726355,1,2,0:0:0:0:
297,357,726435,1,8,0:0:0:0:
370,186,726595,1,2,0:0:0:0:
183,272,726754,1,8,0:1:0:0:
228,61,726914,1,0,3:0:0:0:
228,61,726994,1,0,3:0:0:0:
228,61,727074,1,8,0:0:0:0:
391,213,727233,5,0,3:0:0:0:
391,213,727313,1,8,0:0:0:0:
391,213,727393,2,0,P|331:202|193:185,1,184,12|8,0:1|0:0,0:0:0:0:
349,89,727871,1,2,0:0:0:0:
484,163,728031,2,0,P|492:217|488:262,1,92,8|2,0:1|0:0,0:0:0:0:
356,362,728350,1,8,0:0:0:0:
201,289,728510,6,0,P|147:305|7:356,1,184,12|2,0:0|0:0,0:0:0:0:
66,104,728988,2,0,P|152:118|157:205,2,184,8|10|8,0:0|0:1|0:0,0:0:0:0:
27,302,729786,2,0,L|78:308,1,46,2|0,3:2|3:0,0:0:0:0:
255,365,729946,6,0,B|312:334|312:334|283:198,1,184,12|8,0:1|0:0,0:0:0:0:
308,57,730425,1,2,0:0:0:0:
420,166,730584,2,0,P|434:213|445:261,1,92,8|2,0:1|0:0,0:0:0:0:
462,44,730903,1,8,0:0:0:0:
257,195,731063,6,0,L|58:175,1,184,12|2,0:0|0:0,0:0:0:0:
220,10,731542,2,0,P|237:58|244:107,1,92,8|0,0:0|0:0,0:0:0:0:
155,308,731861,5,10,0:1:0:0:
159,77,732020,1,2,0:0:0:0:
34,275,732180,1,8,0:0:0:0:
257,195,732340,1,0,3:0:0:0:
257,195,732419,1,8,0:0:0:0:
257,195,732499,5,12,0:1:0:0:
58,172,732659,1,2,0:0:0:0:
240,25,732818,1,8,0:0:0:0:
76,182,732978,1,2,0:0:0:0:
94,32,733137,5,8,0:1:0:0:
163,254,733297,1,2,3:2:0:0:
257,33,733457,1,8,0:0:0:0:
76,182,733616,6,0,P|53:224|26:278,1,92,12|0,0:0|0:0,0:0:0:0:
183,103,733935,1,2,0:0:0:0:
160,323,734095,2,0,L|149:279,1,46,10|2,0:0|0:0,0:0:0:0:
256,156,734254,2,0,L|268:201,1,46,2|2,0:0|0:0,0:0:0:0:
296,336,734414,5,8,0:3:0:0:
348,358,734494,1,8,0:3:0:0:
402,343,734574,1,8,0:3:0:0:
435,298,734653,1,8,0:3:0:0:
435,241,734733,5,4,0:3:0:0:
444,246,734813,1,4,0:3:0:0:
454,252,734893,1,4,0:3:0:0:
464,258,734972,1,4,0:3:0:0:
474,264,735050,6,0,L|453:152,1,92,12|8,0:1|0:0,0:0:0:0:
489,48,735383,1,8,0:3:0:0:
350,153,735571,2,0,P|286:133|183:274,1,230,12|0,0:0|0:0,0:0:0:0:
172,340,736107,5,12,0:1:0:0:
256,192,736215,12,0,740164,0:0:0:0:
