osu file format v14

[General]
AudioFilename: audio.mp3
AudioLeadIn: 0
PreviewTime: -1
Countdown: 0
SampleSet: Normal
StackLeniency: 1
Mode: 1
LetterboxInBreaks: 0
WidescreenStoryboard: 0

[Editor]
DistanceSpacing: 0.9
BeatDivisor: 4
GridSize: 32
TimelineZoom: 3.999997

[Metadata]
Title:Mirai Puzzle
TitleUnicode:Mirai Puzzle
Artist:Minase Inori
ArtistUnicode:Minase Inori
Creator:acid
Version:mirai
Source:
Tags:
BeatmapID:1974670
BeatmapSetID:945648

[Difficulty]
HPDrainRate:5
CircleSize:5
OverallDifficulty:7
ApproachRate:5
SliderMultiplier:1.4
SliderTickRate:1

[Events]
//Background and Video events
0,0,"bg.jpg",0,0
//Break Periods
2,160480,173330
2,194230,203330
//Storyboard Layer 0 (Background)
//Storyboard Layer 1 (Fail)
//Storyboard Layer 2 (Pass)
//Storyboard Layer 3 (Foreground)
//Storyboard Layer 4 (Overlay)
//Storyboard Sound Samples

[TimingPoints]
530,375,4,1,0,100,1,0
3623,-100,4,1,0,100,0,1
8967,-100,4,1,0,100,0,0
57530,-100,4,1,0,100,0,1
75530,-100,4,1,0,100,0,0
81530,-100,4,1,0,100,0,1
87530,-100,4,1,0,100,0,0
135535,-100,4,1,0,100,0,1
153535,-100,4,1,0,100,0,0
206030,-100,4,1,0,100,0,1
212030,-100,4,1,0,100,0,0
218030,-100,4,1,0,100,0,1
230066,-100,4,1,0,100,0,0

[HitObjects]
287,165,530,5,8,0:0:0:0:
185,163,717,1,0,0:0:0:0:
96,93,905,1,8,0:0:0:0:
171,65,1092,1,0,0:0:0:0:
237,78,1280,1,8,0:0:0:0:
143,84,1467,1,0,0:0:0:0:
159,158,1561,1,8,0:0:0:0:
198,97,1655,1,8,0:0:0:0:
169,126,1842,1,0,0:0:0:0:
268,167,2030,1,8,0:0:0:0:
225,214,2123,1,8,0:0:0:0:
195,201,2217,1,0,0:0:0:0:
202,182,2311,1,8,0:0:0:0:
213,159,2405,1,8,0:0:0:0:
212,123,2498,1,8,0:0:0:0:
167,106,2592,1,0,0:0:0:0:
180,97,2686,1,8,0:0:0:0:
194,105,2780,1,8,0:0:0:0:
233,70,2873,1,8,0:0:0:0:
194,105,2967,1,0,0:0:0:0:
242,64,3061,1,8,0:0:0:0:
173,49,3155,1,0,0:0:0:0:
72,145,3217,1,0,0:0:0:0:
83,128,3280,1,0,0:0:0:0:
140,118,3342,1,8,0:0:0:0:
102,143,3405,1,8,0:0:0:0:
98,85,3467,1,8,0:0:0:0:
123,110,3530,1,0,0:0:0:0:
128,128,3623,1,0,0:0:0:0:
96,160,3717,1,8,0:0:0:0:
96,160,3780,1,0,0:0:0:0:
128,160,3842,1,0,0:0:0:0:
160,160,3905,1,8,0:0:0:0:
192,160,3998,1,0,0:0:0:0:
224,160,4092,1,8,0:0:0:0:
192,128,4155,1,8,0:0:0:0:
224,96,4217,1,8,0:0:0:0:
224,96,4280,1,0,0:0:0:0:
256,64,4373,1,8,0:0:0:0:
256,32,4467,1,0,0:0:0:0:
123,110,4530,1,0,0:0:0:0:
224,96,4592,1,0,0:0:0:0:
192,64,4655,1,8,0:0:0:0:
160,32,4748,1,0,0:0:0:0:
128,0,4842,1,8,0:0:0:0:
224,96,4905,1,8,0:0:0:0:
192,128,4967,1,0,0:0:0:0:
160,128,5030,1,8,0:0:0:0:
192,128,5123,1,0,0:0:0:0:
160,160,5217,1,8,0:0:0:0:
160,160,5280,1,0,0:0:0:0:
128,160,5342,1,0,0:0:0:0:
123,110,5405,1,8,0:0:0:0:
160,32,5498,1,0,0:0:0:0:
224,96,5592,1,8,0:0:0:0:
288,128,5686,1,8,0:0:0:0:
256,96,5780,1,0,0:0:0:0:
192,128,5873,1,8,0:0:0:0:
128,160,5967,1,0,0:0:0:0:
64,128,6061,1,8,0:0:0:0:
128,96,6155,1,8,0:0:0:0:
160,32,6248,1,0,0:0:0:0:
160,64,6342,1,8,0:0:0:0:
160,96,6436,1,0,0:0:0:0:
64,128,6530,1,8,0:0:0:0:
128,64,6592,1,8,0:0:0:0:
128,128,6655,1,8,0:0:0:0:
160,160,6717,1,0,0:0:0:0:
192,128,6811,1,0,0:0:0:0:
160,96,6905,1,8,0:0:0:0:
192,96,6967,1,0,0:0:0:0:
224,96,7030,1,0,0:0:0:0:
160,64,7092,1,8,0:0:0:0:
192,64,7186,1,0,0:0:0:0:
160,32,7280,1,8,0:0:0:0:
192,32,7342,1,0,0:0:0:0:
128,32,7405,1,0,0:0:0:0:
96,64,7467,1,8,0:0:0:0:
128,64,7561,1,0,0:0:0:0:
160,96,7655,1,8,0:0:0:0:
160,128,7717,1,8,0:0:0:0:
128,128,7780,1,8,0:0:0:0:
128,96,7842,1,0,0:0:0:0:
160,128,7936,1,8,0:0:0:0:
160,160,8030,1,0,0:0:0:0:
192,160,8092,1,0,0:0:0:0:
192,128,8155,1,0,0:0:0:0:
160,160,8217,1,8,0:0:0:0:
160,128,8311,1,0,0:0:0:0:
160,64,8405,1,8,0:0:0:0:
192,32,8467,1,0,0:0:0:0:
96,32,8530,1,0,0:0:0:0:
160,32,8592,1,8,0:0:0:0:
256,64,8686,1,0,0:0:0:0:
320,96,8780,1,8,0:0:0:0:
288,96,8842,1,8,0:0:0:0:
320,128,8905,1,8,0:0:0:0:
288,128,8967,1,0,0:0:0:0:
224,192,9155,1,8,0:0:0:0:
256,192,9248,1,0,0:0:0:0:
224,160,9342,1,0,0:0:0:0:
96,128,9530,1,4,0:0:0:0:
128,0,9811,1,0,0:0:0:0:
160,32,9905,1,0,0:0:0:0:
224,160,10092,1,0,0:0:0:0:
160,96,10280,1,8,0:0:0:0:
160,64,10655,1,8,0:0:0:0:
128,128,10748,1,0,0:0:0:0:
160,128,10842,1,8,0:0:0:0:
128,160,10936,1,8,0:0:0:0:
192,192,11030,1,0,0:0:0:0:
192,0,11311,1,0,0:0:0:0:
192,96,11405,1,0,0:0:0:0:
224,192,11592,1,0,0:0:0:0:
256,160,11780,1,12,0:0:0:0:
384,64,12155,1,8,0:0:0:0:
352,64,12248,1,8,0:0:0:0:
128,160,12342,1,8,0:0:0:0:
160,160,12436,1,8,0:0:0:0:
256,96,12530,1,0,0:0:0:0:
96,192,12623,1,0,0:0:0:0:
128,96,12717,1,0,0:0:0:0:
192,96,12811,1,0,0:0:0:0:
224,64,12905,1,8,0:0:0:0:
128,32,12998,1,8,0:0:0:0:
192,32,13092,1,8,0:0:0:0:
192,64,13186,1,8,0:0:0:0:
160,96,13280,5,0,0:0:0:0:
160,192,13373,1,0,0:0:0:0:
96,160,13467,1,0,0:0:0:0:
128,160,13561,1,0,0:0:0:0:
160,160,13655,1,8,0:0:0:0:
160,96,13748,1,8,0:0:0:0:
192,96,13842,1,8,0:0:0:0:
128,128,13936,1,8,0:0:0:0:
128,128,14030,1,0,0:0:0:0:
192,224,14405,5,0,0:0:0:0:
64,160,14780,1,0,0:0:0:0:
64,160,14873,1,8,0:0:0:0:
160,128,14967,1,0,0:0:0:0:
192,64,15061,1,0,0:0:0:0:
160,128,15155,1,8,0:0:0:0:
224,160,15248,1,0,0:0:0:0:
224,128,15342,1,8,0:0:0:0:
192,128,15436,1,8,0:0:0:0:
224,128,15530,1,0,0:0:0:0:
142,206,15717,1,8,0:0:0:0:
209,137,15905,1,0,0:0:0:0:
210,103,15998,1,0,0:0:0:0:
209,137,16092,1,8,0:0:0:0:
166,90,16186,1,8,0:0:0:0:
139,106,16280,1,0,0:0:0:0:
201,145,16467,1,8,0:0:0:0:
129,143,16655,1,0,0:0:0:0:
204,159,16842,1,8,0:0:0:0:
175,131,16936,1,8,0:0:0:0:
159,160,17030,1,0,0:0:0:0:
175,131,17217,1,0,0:0:0:0:
201,145,17405,1,8,0:0:0:0:
256,198,17592,1,0,0:0:0:0:
102,58,17780,1,0,0:0:0:0:
169,185,17873,1,8,0:0:0:0:
97,96,17967,1,8,0:0:0:0:
178,88,18061,1,0,0:0:0:0:
144,125,18155,1,8,0:0:0:0:
59,198,18342,1,8,0:0:0:0:
154,99,18530,1,8,0:0:0:0:
219,64,18623,1,8,0:0:0:0:
185,62,18717,1,8,0:0:0:0:
160,114,18811,1,8,0:0:0:0:
178,88,18905,1,0,0:0:0:0:
144,125,19092,1,8,0:0:0:0:
108,187,19280,1,0,0:0:0:0:
183,191,19373,1,0,0:0:0:0:
178,88,19467,1,8,0:0:0:0:
198,156,19655,1,0,0:0:0:0:
115,150,19842,1,8,0:0:0:0:
180,119,20030,1,0,0:0:0:0:
188,84,20123,1,0,0:0:0:0:
157,103,20217,1,0,0:0:0:0:
147,50,20311,1,0,0:0:0:0:
180,119,20405,1,8,0:0:0:0:
153,176,20592,1,8,0:0:0:0:
201,168,20780,1,0,0:0:0:0:
147,50,20873,1,8,0:0:0:0:
207,237,20967,1,8,0:0:0:0:
190,157,21155,1,8,0:0:0:0:
121,121,21342,1,8,0:0:0:0:
115,201,21530,1,0,0:0:0:0:
140,149,21623,1,0,0:0:0:0:
190,157,21717,1,0,0:0:0:0:
221,106,21811,1,0,0:0:0:0:
140,149,21905,1,8,0:0:0:0:
114,146,21998,1,8,0:0:0:0:
56,136,22092,1,8,0:0:0:0:
23,182,22186,1,8,0:0:0:0:
91,149,22280,1,0,0:0:0:0:
133,68,22373,1,0,0:0:0:0:
74,80,22467,1,0,0:0:0:0:
101,81,22561,1,0,0:0:0:0:
119,116,22655,1,8,0:0:0:0:
132,157,22748,1,8,0:0:0:0:
56,136,22842,1,8,0:0:0:0:
74,132,22936,1,8,0:0:0:0:
111,143,23030,1,0,0:0:0:0:
102,180,23123,1,0,0:0:0:0:
74,132,23217,1,0,0:0:0:0:
141,118,23311,1,0,0:0:0:0:
111,72,23405,1,8,0:0:0:0:
122,92,23498,1,0,0:0:0:0:
130,78,23592,1,8,0:0:0:0:
111,72,23967,1,0,0:0:0:0:
136,150,24155,1,8,0:0:0:0:
195,169,24530,1,8,0:0:0:0:
226,141,24623,1,0,0:0:0:0:
187,154,24717,1,8,0:0:0:0:
225,131,24811,1,8,0:0:0:0:
178,127,24905,1,0,0:0:0:0:
133,191,25092,1,0,0:0:0:0:
191,255,25280,1,0,0:0:0:0:
151,212,25373,1,0,0:0:0:0:
127,198,25467,1,8,0:0:0:0:
94,144,25655,1,8,0:0:0:0:
205,74,25748,1,0,0:0:0:0:
178,78,25842,1,0,0:0:0:0:
147,82,25936,1,0,0:0:0:0:
94,144,26030,1,8,0:0:0:0:
166,153,26217,1,0,0:0:0:0:
242,131,26405,1,8,0:0:0:0:
207,169,26498,1,0,0:0:0:0:
189,157,26592,1,8,0:0:0:0:
120,144,26686,1,8,0:0:0:0:
95,71,26780,1,0,0:0:0:0:
138,61,26873,1,8,0:0:0:0:
162,99,26967,1,0,0:0:0:0:
185,76,27061,1,0,0:0:0:0:
216,107,27155,1,8,0:0:0:0:
203,151,27248,1,8,0:0:0:0:
99,143,27342,1,8,0:0:0:0:
166,115,27436,1,8,0:0:0:0:
125,116,27530,1,0,0:0:0:0:
151,54,27717,1,0,0:0:0:0:
114,62,27905,1,8,0:0:0:0:
148,98,28092,1,0,0:0:0:0:
140,203,28280,1,8,0:0:0:0:
161,165,28467,1,0,0:0:0:0:
206,127,28655,1,8,0:0:0:0:
131,94,28748,1,0,0:0:0:0:
81,96,28842,1,8,0:0:0:0:
90,39,29030,1,0,0:0:0:0:
108,75,29217,1,8,0:0:0:0:
129,139,29405,1,0,0:0:0:0:
183,127,29592,1,8,0:0:0:0:
199,57,29780,1,0,0:0:0:0:
161,123,29967,1,8,0:0:0:0:
185,168,30155,1,0,0:0:0:0:
85,90,30248,1,0,0:0:0:0:
178,74,30342,1,8,0:0:0:0:
119,160,30530,1,8,0:0:0:0:
3,140,30623,1,8,0:0:0:0:
62,78,30717,1,8,0:0:0:0:
113,59,30811,1,8,0:0:0:0:
119,160,30905,1,0,0:0:0:0:
62,78,31092,1,8,0:0:0:0:
149,104,31280,1,0,0:0:0:0:
214,83,31467,1,8,0:0:0:0:
227,172,31655,1,0,0:0:0:0:
119,160,31748,1,0,0:0:0:0:
275,149,31842,1,8,0:0:0:0:
236,124,32030,1,0,0:0:0:0:
3,140,32123,1,0,0:0:0:0:
62,78,32217,1,0,0:0:0:0:
113,59,32311,1,0,0:0:0:0:
119,160,32405,1,8,0:0:0:0:
62,78,32592,1,8,0:0:0:0:
113,59,32686,1,8,0:0:0:0:
123,155,32780,1,0,0:0:0:0:
203,216,32967,1,0,0:0:0:0:
301,174,33155,1,8,0:0:0:0:
201,144,33342,1,0,0:0:0:0:
191,112,33436,1,0,0:0:0:0:
236,124,33530,1,8,0:0:0:0:
216,125,33623,1,0,0:0:0:0:
169,137,33717,1,8,0:0:0:0:
107,145,33811,1,8,0:0:0:0:
121,57,33905,1,8,0:0:0:0:
157,101,33998,1,8,0:0:0:0:
57,130,34092,1,0,0:0:0:0:
169,137,34186,1,0,0:0:0:0:
157,101,34280,1,8,0:0:0:0:
145,159,34373,1,0,0:0:0:0:
108,72,34467,1,8,0:0:0:0:
157,101,34561,1,8,0:0:0:0:
131,23,34655,1,8,0:0:0:0:
55,84,34748,1,8,0:0:0:0:
161,108,34842,1,0,0:0:0:0:
84,97,34936,1,8,0:0:0:0:
127,112,35030,1,0,0:0:0:0:
189,110,35123,1,0,0:0:0:0:
157,101,35217,1,8,0:0:0:0:
200,133,35311,1,0,0:0:0:0:
208,206,35405,1,0,0:0:0:0:
94,128,35498,1,0,0:0:0:0:
154,133,35592,1,8,0:0:0:0:
315,220,35967,1,8,0:0:0:0:
94,128,36155,1,8,0:0:0:0:
132,50,36342,1,8,0:0:0:0:
137,64,36436,1,8,0:0:0:0:
141,93,36530,1,0,0:0:0:0:
164,203,36717,1,8,0:0:0:0:
160,152,36811,1,8,0:0:0:0:
152,134,36905,1,8,0:0:0:0:
164,203,37280,1,8,0:0:0:0:
132,121,37467,1,8,0:0:0:0:
141,93,37561,1,8,0:0:0:0:
139,134,37655,1,8,0:0:0:0:
139,134,38030,1,0,0:0:0:0:
257,138,38217,1,0,0:0:0:0:
202,126,38311,1,0,0:0:0:0:
178,120,38405,1,8,0:0:0:0:
151,84,38592,1,0,0:0:0:0:
85,14,38780,1,8,0:0:0:0:
113,29,38873,1,0,0:0:0:0:
139,47,38967,1,0,0:0:0:0:
243,54,39155,1,8,0:0:0:0:
171,166,39342,1,8,0:0:0:0:
107,136,39436,1,8,0:0:0:0:
119,99,39530,1,4,0:0:0:0:
186,107,39717,1,4,0:0:0:0:
28,129,39905,1,4,0:0:0:0:
129,201,40092,1,8,0:0:0:0:
170,155,40280,1,0,0:0:0:0:
53,232,40655,1,8,0:0:0:0:
78,153,40748,1,0,0:0:0:0:
113,115,40842,1,0,0:0:0:0:
209,99,41030,1,4,0:0:0:0:
287,54,41217,1,4,0:0:0:0:
212,62,41405,1,4,0:0:0:0:
116,148,41592,1,8,0:0:0:0:
176,241,41780,1,8,0:0:0:0:
44,176,42155,1,8,0:0:0:0:
80,109,42248,1,8,0:0:0:0:
122,94,42342,1,0,0:0:0:0:
217,156,42530,1,4,0:0:0:0:
433,68,42905,1,8,0:0:0:0:
329,96,42998,1,8,0:0:0:0:
253,109,43092,1,8,0:0:0:0:
211,126,43186,1,8,0:0:0:0:
181,75,43280,1,4,0:0:0:0:
94,218,43655,1,8,0:0:0:0:
95,176,43748,1,8,0:0:0:0:
54,137,43842,1,8,0:0:0:0:
70,119,43936,1,8,0:0:0:0:
109,95,44030,1,4,0:0:0:0:
174,143,44405,1,0,0:0:0:0:
352,182,44780,1,8,0:0:0:0:
208,115,44967,1,0,0:0:0:0:
114,133,45155,1,8,0:0:0:0:
174,143,45248,1,8,0:0:0:0:
208,115,45342,1,0,0:0:0:0:
196,195,45530,1,4,0:0:0:0:
152,106,45717,1,4,0:0:0:0:
104,180,45905,1,4,0:0:0:0:
174,143,46092,1,0,0:0:0:0:
132,103,46280,1,8,0:0:0:0:
97,233,46655,1,8,0:0:0:0:
48,113,46748,1,0,0:0:0:0:
19,123,46842,1,0,0:0:0:0:
84,118,47030,1,4,0:0:0:0:
150,132,47217,1,4,0:0:0:0:
105,94,47405,1,4,0:0:0:0:
167,181,47592,1,8,0:0:0:0:
202,95,47780,1,0,0:0:0:0:
245,165,47967,1,0,0:0:0:0:
67,117,48155,1,8,0:0:0:0:
156,36,48248,1,0,0:0:0:0:
142,123,48342,1,0,0:0:0:0:
202,95,48530,1,12,0:0:0:0:
142,123,48780,1,4,0:0:0:0:
174,51,49030,1,12,0:0:0:0:
197,139,49280,1,12,0:0:0:0:
269,234,49530,1,4,0:0:0:0:
177,148,49780,1,4,0:0:0:0:
132,36,50030,1,12,0:0:0:0:
164,116,50280,1,12,0:0:0:0:
294,184,50530,1,4,0:0:0:0:
204,142,50780,1,12,0:0:0:0:
121,154,51030,1,4,0:0:0:0:
14,105,51280,1,12,0:0:0:0:
111,82,51530,1,0,0:0:0:0:
204,142,51623,1,0,0:0:0:0:
141,137,51717,1,0,0:0:0:0:
170,130,51811,1,0,0:0:0:0:
170,130,51905,1,8,0:0:0:0:
224,100,52092,1,0,0:0:0:0:
279,102,52280,1,8,0:0:0:0:
141,137,52467,1,0,0:0:0:0:
27,46,52561,1,8,0:0:0:0:
126,100,52655,1,0,0:0:0:0:
126,100,52748,1,0,0:0:0:0:
104,54,52842,1,8,0:0:0:0:
141,137,53030,1,0,0:0:0:0:
167,133,53123,1,0,0:0:0:0:
167,133,53217,1,0,0:0:0:0:
129,138,53311,1,0,0:0:0:0:
167,167,53405,1,8,0:0:0:0:
192,106,53592,1,0,0:0:0:0:
127,64,53780,1,0,0:0:0:0:
143,106,53873,1,8,0:0:0:0:
111,139,53967,1,8,0:0:0:0:
175,38,54155,1,0,0:0:0:0:
142,119,54342,1,8,0:0:0:0:
182,175,54530,1,8,0:0:0:0:
211,200,54623,1,0,0:0:0:0:
180,185,54717,1,8,0:0:0:0:
163,162,54811,1,8,0:0:0:0:
177,143,54905,1,0,0:0:0:0:
177,143,55092,1,0,0:0:0:0:
180,69,55280,1,8,0:0:0:0:
151,124,55467,1,8,0:0:0:0:
158,110,55561,1,8,0:0:0:0:
152,155,55655,1,0,0:0:0:0:
75,128,55842,1,0,0:0:0:0:
65,48,56030,1,4,0:0:0:0:
215,250,56780,1,8,0:0:0:0:
169,119,56873,1,0,0:0:0:0:
82,57,56967,1,0,0:0:0:0:
146,94,57061,1,0,0:0:0:0:
188,102,57155,1,8,0:0:0:0:
223,74,57248,1,0,0:0:0:0:
258,93,57342,1,8,0:0:0:0:
214,101,57436,1,8,0:0:0:0:
188,102,57530,1,0,0:0:0:0:
82,57,57592,1,0,0:0:0:0:
98,57,57655,1,0,0:0:0:0:
123,57,57717,1,8,0:0:0:0:
123,123,57811,1,8,0:0:0:0:
162,73,57905,1,0,0:0:0:0:
130,76,57967,1,0,0:0:0:0:
134,65,58030,1,0,0:0:0:0:
188,102,58092,1,8,0:0:0:0:
130,76,58186,1,8,0:0:0:0:
163,63,58280,1,0,0:0:0:0:
189,44,58342,1,0,0:0:0:0:
214,101,58405,1,0,0:0:0:0:
188,102,58467,1,8,0:0:0:0:
181,122,58561,1,8,0:0:0:0:
128,203,58655,1,0,0:0:0:0:
70,171,58748,1,8,0:0:0:0:
130,76,58842,1,8,0:0:0:0:
141,95,58936,1,0,0:0:0:0:
156,54,59030,1,8,0:0:0:0:
130,76,59092,1,8,0:0:0:0:
189,44,59155,1,8,0:0:0:0:
146,89,59217,1,0,0:0:0:0:
161,50,59311,1,0,0:0:0:0:
122,52,59405,1,8,0:0:0:0:
100,79,59467,1,8,0:0:0:0:
99,122,59530,1,8,0:0:0:0:
57,87,59592,1,0,0:0:0:0:
79,138,59686,1,0,0:0:0:0:
115,176,59780,1,8,0:0:0:0:
166,156,59842,1,0,0:0:0:0:
79,138,59905,1,0,0:0:0:0:
116,143,59967,1,8,0:0:0:0:
166,156,60061,1,0,0:0:0:0:
204,139,60155,1,0,0:0:0:0:
204,139,60217,1,0,0:0:0:0:
186,129,60280,1,0,0:0:0:0:
214,118,60342,1,8,0:0:0:0:
179,104,60436,1,0,0:0:0:0:
79,138,60530,1,8,0:0:0:0:
91,106,60592,1,8,0:0:0:0:
142,99,60655,1,8,0:0:0:0:
119,78,60717,1,8,0:0:0:0:
119,78,60780,1,8,0:0:0:0:
107,60,60842,1,8,0:0:0:0:
142,99,60905,1,0,0:0:0:0:
133,186,61092,1,0,0:0:0:0:
152,87,61280,1,8,0:0:0:0:
133,55,61467,1,0,0:0:0:0:
134,109,61655,1,8,0:0:0:0:
161,145,61748,1,8,0:0:0:0:
127,133,61842,1,0,0:0:0:0:
127,133,62030,1,0,0:0:0:0:
19,155,62123,1,0,0:0:0:0:
85,112,62217,1,0,0:0:0:0:
133,55,62311,1,0,0:0:0:0:
159,88,62405,1,8,0:0:0:0:
159,88,62498,1,0,0:0:0:0:
131,132,62592,1,8,0:0:0:0:
127,133,62686,1,8,0:0:0:0:
140,86,62780,1,0,0:0:0:0:
239,130,62873,1,8,0:0:0:0:
85,112,62967,1,0,0:0:0:0:
42,130,63061,1,0,0:0:0:0:
264,25,63155,1,8,0:0:0:0:
254,109,63342,1,8,0:0:0:0:
200,145,63530,1,0,0:0:0:0:
102,197,63717,1,8,0:0:0:0:
147,119,63905,1,8,0:0:0:0:
66,112,64092,1,0,0:0:0:0:
180,88,64280,1,8,0:0:0:0:
252,114,64467,1,0,0:0:0:0:
195,120,64655,1,0,0:0:0:0:
86,91,64842,1,0,0:0:0:0:
153,136,65030,1,8,0:0:0:0:
260,145,65217,1,8,0:0:0:0:
188,141,65405,1,8,0:0:0:0:
195,120,65592,1,0,0:0:0:0:
151,40,65780,1,8,0:0:0:0:
99,250,66155,1,0,0:0:0:0:
145,171,66342,1,0,0:0:0:0:
92,132,66530,1,12,0:0:0:0:
92,132,66905,1,4,0:0:0:0:
92,132,67280,1,4,0:0:0:0:
183,217,67655,1,12,0:0:0:0:
99,123,68030,1,12,0:0:0:0:
200,207,68405,1,8,0:0:0:0:
203,114,68592,1,0,0:0:0:0:
124,153,68780,1,8,0:0:0:0:
148,146,68873,1,8,0:0:0:0:
105,141,68967,1,0,0:0:0:0:
77,118,69061,1,0,0:0:0:0:
104,99,69155,1,0,0:0:0:0:
140,228,69248,1,0,0:0:0:0:
138,173,69342,1,8,0:0:0:0:
155,158,69436,1,8,0:0:0:0:
207,189,69530,1,0,0:0:0:0:
196,166,69592,1,0,0:0:0:0:
225,146,69655,1,0,0:0:0:0:
211,139,69717,1,8,0:0:0:0:
77,118,69811,1,8,0:0:0:0:
89,66,69905,1,0,0:0:0:0:
104,51,69967,1,0,0:0:0:0:
133,44,70030,1,0,0:0:0:0:
134,88,70092,1,8,0:0:0:0:
147,172,70186,1,8,0:0:0:0:
160,119,70280,1,0,0:0:0:0:
139,109,70342,1,0,0:0:0:0:
127,131,70405,1,0,0:0:0:0:
160,119,70467,1,8,0:0:0:0:
183,81,70561,1,0,0:0:0:0:
211,139,70655,1,8,0:0:0:0:
147,172,70748,1,0,0:0:0:0:
133,44,70842,1,8,0:0:0:0:
184,90,70936,1,0,0:0:0:0:
143,129,71030,1,8,0:0:0:0:
183,135,71093,1,8,0:0:0:0:
184,90,71155,1,8,0:0:0:0:
156,80,71218,1,0,0:0:0:0:
118,84,71311,1,0,0:0:0:0:
101,113,71405,1,8,0:0:0:0:
71,121,71468,1,8,0:0:0:0:
36,123,71530,1,8,0:0:0:0:
47,115,71593,1,0,0:0:0:0:
72,136,71686,1,0,0:0:0:0:
101,103,71780,1,8,0:0:0:0:
71,121,71843,1,8,0:0:0:0:
71,121,71905,1,8,0:0:0:0:
54,133,71968,1,0,0:0:0:0:
113,89,72030,1,0,0:0:0:0:
113,89,72092,1,0,0:0:0:0:
71,121,72155,1,8,0:0:0:0:
89,230,72248,1,0,0:0:0:0:
101,103,72342,1,8,0:0:0:0:
149,98,72436,1,0,0:0:0:0:
153,105,72530,1,8,0:0:0:0:
116,86,72592,1,8,0:0:0:0:
116,86,72655,1,8,0:0:0:0:
116,86,72717,1,8,0:0:0:0:
149,98,72780,1,8,0:0:0:0:
164,97,72842,1,8,0:0:0:0:
139,99,72905,1,0,0:0:0:0:
175,67,72967,1,0,0:0:0:0:
139,99,73030,1,0,0:0:0:0:
97,150,73092,1,0,0:0:0:0:
59,145,73155,1,0,0:0:0:0:
116,86,73217,1,0,0:0:0:0:
103,110,73280,1,0,0:0:0:0:
128,105,73342,1,8,0:0:0:0:
160,134,73405,1,8,0:0:0:0:
173,151,73467,1,8,0:0:0:0:
167,103,73530,1,8,0:0:0:0:
161,128,73592,1,8,0:0:0:0:
179,79,73655,1,0,0:0:0:0:
158,43,73717,1,0,0:0:0:0:
174,120,73780,1,0,0:0:0:0:
128,155,73842,1,0,0:0:0:0:
137,45,73905,1,0,0:0:0:0:
116,86,73967,1,0,0:0:0:0:
160,105,74030,1,8,0:0:0:0:
206,98,74092,1,8,0:0:0:0:
33,117,74155,1,8,0:0:0:0:
112,69,74217,1,8,0:0:0:0:
116,86,74280,1,8,0:0:0:0:
124,141,74342,1,8,0:0:0:0:
167,103,74405,1,8,0:0:0:0:
146,167,74467,1,8,0:0:0:0:
206,98,74529,1,8,0:0:0:0:
33,117,74592,1,8,0:0:0:0:
112,69,74654,1,8,0:0:0:0:
116,86,74717,1,8,0:0:0:0:
124,141,74780,1,0,0:0:0:0:
167,103,74842,1,0,0:0:0:0:
146,167,74904,1,0,0:0:0:0:
112,69,74967,1,0,0:0:0:0:
166,61,75030,1,0,0:0:0:0:
199,65,75092,1,0,0:0:0:0:
206,98,75155,1,8,0:0:0:0:
223,140,75248,1,8,0:0:0:0:
112,69,75343,1,8,0:0:0:0:
207,96,75436,1,8,0:0:0:0:
143,118,75530,1,0,0:0:0:0:
74,224,75811,1,0,0:0:0:0:
88,126,75905,1,0,0:0:0:0:
142,34,76092,1,8,0:0:0:0:
98,89,76280,1,0,0:0:0:0:
342,82,76655,1,0,0:0:0:0:
226,106,76748,1,0,0:0:0:0:
139,118,76842,1,0,0:0:0:0:
98,89,76936,1,0,0:0:0:0:
106,66,77030,1,8,0:0:0:0:
175,157,77311,1,0,0:0:0:0:
177,182,77405,1,0,0:0:0:0:
100,155,77592,1,8,0:0:0:0:
36,102,77780,1,8,0:0:0:0:
121,291,78155,1,0,0:0:0:0:
129,209,78342,1,0,0:0:0:0:
222,93,78530,1,0,0:0:0:0:
138,109,78623,1,0,0:0:0:0:
36,102,78717,1,0,0:0:0:0:
57,94,78811,1,0,0:0:0:0:
76,111,78905,1,8,0:0:0:0:
38,82,78998,1,8,0:0:0:0:
36,102,79092,1,8,0:0:0:0:
87,76,79186,1,8,0:0:0:0:
39,131,79280,1,0,0:0:0:0:
113,90,79373,1,0,0:0:0:0:
76,111,79467,1,0,0:0:0:0:
57,94,79561,1,0,0:0:0:0:
123,96,79655,1,8,0:0:0:0:
160,156,79748,1,8,0:0:0:0:
147,117,79842,1,8,0:0:0:0:
123,96,79936,1,8,0:0:0:0:
84,124,80030,1,0,0:0:0:0:
121,107,80092,1,0,0:0:0:0:
165,90,80155,1,8,0:0:0:0:
57,94,80217,1,0,0:0:0:0:
181,13,80280,1,0,0:0:0:0:
74,62,80342,1,8,0:0:0:0:
103,142,80405,1,0,0:0:0:0:
65,103,80467,1,0,0:0:0:0:
165,90,80530,1,8,0:0:0:0:
204,93,80592,1,0,0:0:0:0:
84,124,80655,1,0,0:0:0:0:
121,107,80717,1,8,0:0:0:0:
165,90,80780,1,8,0:0:0:0:
57,94,80842,1,8,0:0:0:0:
181,13,80905,1,8,0:0:0:0:
74,62,80967,1,8,0:0:0:0:
21,94,81030,1,8,0:0:0:0:
60,87,81092,1,8,0:0:0:0:
79,84,81155,1,0,0:0:0:0:
96,160,81530,1,8,0:0:0:0:
96,160,81593,1,0,0:0:0:0:
128,160,81655,1,0,0:0:0:0:
160,160,81718,1,8,0:0:0:0:
192,160,81811,1,0,0:0:0:0:
224,160,81905,1,8,0:0:0:0:
192,128,81968,1,8,0:0:0:0:
224,96,82030,1,8,0:0:0:0:
224,96,82093,1,0,0:0:0:0:
256,64,82186,1,8,0:0:0:0:
256,32,82280,1,0,0:0:0:0:
123,110,82343,1,0,0:0:0:0:
224,96,82405,1,0,0:0:0:0:
192,64,82468,1,8,0:0:0:0:
160,32,82561,1,0,0:0:0:0:
128,0,82655,1,8,0:0:0:0:
224,96,82718,1,8,0:0:0:0:
192,128,82780,1,0,0:0:0:0:
160,128,82843,1,8,0:0:0:0:
192,128,82936,1,0,0:0:0:0:
160,160,83030,1,8,0:0:0:0:
160,160,83093,1,0,0:0:0:0:
128,160,83155,1,0,0:0:0:0:
123,110,83218,1,8,0:0:0:0:
160,32,83311,1,0,0:0:0:0:
224,96,83405,1,8,0:0:0:0:
288,128,83499,1,8,0:0:0:0:
256,96,83593,1,0,0:0:0:0:
192,128,83686,1,8,0:0:0:0:
128,160,83780,1,0,0:0:0:0:
64,128,83874,1,8,0:0:0:0:
128,96,83968,1,8,0:0:0:0:
160,32,84061,1,0,0:0:0:0:
160,64,84155,1,8,0:0:0:0:
160,96,84249,1,0,0:0:0:0:
64,128,84343,1,8,0:0:0:0:
128,64,84405,1,8,0:0:0:0:
128,128,84468,1,8,0:0:0:0:
160,160,84530,1,0,0:0:0:0:
192,128,84624,1,0,0:0:0:0:
160,96,84718,1,8,0:0:0:0:
192,96,84780,1,0,0:0:0:0:
224,96,84843,1,0,0:0:0:0:
160,64,84905,1,8,0:0:0:0:
192,64,84999,1,0,0:0:0:0:
160,32,85093,1,8,0:0:0:0:
192,32,85155,1,0,0:0:0:0:
128,32,85218,1,0,0:0:0:0:
96,64,85280,1,8,0:0:0:0:
128,64,85374,1,0,0:0:0:0:
160,96,85468,1,8,0:0:0:0:
160,128,85530,1,8,0:0:0:0:
128,128,85593,1,8,0:0:0:0:
128,96,85655,1,0,0:0:0:0:
160,128,85749,1,8,0:0:0:0:
160,160,85843,1,0,0:0:0:0:
192,160,85905,1,0,0:0:0:0:
192,128,85968,1,0,0:0:0:0:
160,160,86030,1,8,0:0:0:0:
160,128,86124,1,0,0:0:0:0:
160,64,86218,1,8,0:0:0:0:
192,32,86280,1,0,0:0:0:0:
96,32,86343,1,0,0:0:0:0:
160,32,86405,1,8,0:0:0:0:
256,64,86499,1,0,0:0:0:0:
320,96,86593,1,8,0:0:0:0:
288,96,86655,1,8,0:0:0:0:
320,128,86718,1,8,0:0:0:0:
288,128,86780,1,0,0:0:0:0:
224,192,87155,1,8,0:0:0:0:
256,192,87248,1,0,0:0:0:0:
224,160,87342,1,0,0:0:0:0:
96,128,87530,1,4,0:0:0:0:
128,0,87811,1,0,0:0:0:0:
160,32,87905,1,0,0:0:0:0:
224,160,88092,1,0,0:0:0:0:
160,96,88280,1,8,0:0:0:0:
160,64,88655,1,8,0:0:0:0:
128,128,88748,1,0,0:0:0:0:
160,128,88842,1,8,0:0:0:0:
128,160,88936,1,8,0:0:0:0:
192,192,89030,1,0,0:0:0:0:
192,0,89311,1,0,0:0:0:0:
192,96,89405,1,0,0:0:0:0:
224,192,89592,1,0,0:0:0:0:
256,160,89780,1,12,0:0:0:0:
384,64,90155,1,8,0:0:0:0:
352,64,90248,1,8,0:0:0:0:
128,160,90342,1,8,0:0:0:0:
160,160,90436,1,8,0:0:0:0:
256,96,90530,1,0,0:0:0:0:
96,192,90623,1,0,0:0:0:0:
128,96,90717,1,0,0:0:0:0:
192,96,90811,1,0,0:0:0:0:
224,64,90905,1,8,0:0:0:0:
128,32,90998,1,8,0:0:0:0:
192,32,91092,1,8,0:0:0:0:
192,64,91186,1,8,0:0:0:0:
160,96,91280,5,0,0:0:0:0:
160,192,91373,1,0,0:0:0:0:
96,160,91467,1,0,0:0:0:0:
128,160,91561,1,0,0:0:0:0:
160,160,91655,1,8,0:0:0:0:
160,96,91748,1,8,0:0:0:0:
192,96,91842,1,8,0:0:0:0:
128,128,91936,1,8,0:0:0:0:
128,128,92030,1,0,0:0:0:0:
160,160,92405,1,4,0:0:0:0:
252,78,92780,1,0,0:0:0:0:
157,135,92967,1,0,0:0:0:0:
157,135,93155,1,0,0:0:0:0:
111,70,93342,1,0,0:0:0:0:
157,135,93530,1,12,0:0:0:0:
138,198,93717,1,0,0:0:0:0:
182,144,93905,1,8,0:0:0:0:
116,105,93998,1,8,0:0:0:0:
161,105,94092,1,0,0:0:0:0:
69,143,94280,1,0,0:0:0:0:
104,136,94467,1,8,0:0:0:0:
161,105,94655,1,0,0:0:0:0:
154,69,94842,1,8,0:0:0:0:
66,171,94936,1,0,0:0:0:0:
113,122,95030,1,0,0:0:0:0:
91,92,95123,1,0,0:0:0:0:
66,171,95217,1,8,0:0:0:0:
113,122,95311,1,0,0:0:0:0:
91,92,95404,1,8,0:0:0:0:
161,105,95498,1,0,0:0:0:0:
149,109,95592,1,8,0:0:0:0:
113,122,95686,1,0,0:0:0:0:
211,59,95780,1,8,0:0:0:0:
128,80,95873,1,8,0:0:0:0:
132,55,95967,1,0,0:0:0:0:
172,88,96061,1,0,0:0:0:0:
176,42,96155,1,8,0:0:0:0:
128,80,96248,1,8,0:0:0:0:
144,53,96342,1,0,0:0:0:0:
110,97,96530,1,8,0:0:0:0:
55,93,96623,1,0,0:0:0:0:
110,97,96717,1,0,0:0:0:0:
115,157,96811,1,0,0:0:0:0:
55,93,96905,1,0,0:0:0:0:
110,97,96999,1,0,0:0:0:0:
115,157,97093,1,8,0:0:0:0:
59,70,97186,1,0,0:0:0:0:
103,69,97280,1,8,0:0:0:0:
110,97,97373,1,0,0:0:0:0:
149,105,97467,1,0,0:0:0:0:
179,173,97561,1,0,0:0:0:0:
158,68,97655,1,8,0:0:0:0:
149,105,97748,1,0,0:0:0:0:
237,115,97842,1,0,0:0:0:0:
158,68,97936,1,0,0:0:0:0:
162,93,98030,1,8,0:0:0:0:
149,105,98123,1,0,0:0:0:0:
237,115,98217,1,0,0:0:0:0:
158,68,98311,1,0,0:0:0:0:
149,105,98405,1,0,0:0:0:0:
158,68,98498,1,0,0:0:0:0:
237,115,98592,1,8,0:0:0:0:
90,122,98686,1,0,0:0:0:0:
162,93,98780,1,8,0:0:0:0:
88,114,98873,1,0,0:0:0:0:
178,42,98967,1,0,0:0:0:0:
105,56,99061,1,0,0:0:0:0:
137,83,99155,1,8,0:0:0:0:
141,203,99248,1,8,0:0:0:0:
77,140,99342,1,0,0:0:0:0:
210,29,99530,1,8,0:0:0:0:
130,104,99623,1,0,0:0:0:0:
53,85,99717,1,0,0:0:0:0:
98,93,99811,1,0,0:0:0:0:
210,29,99905,1,8,0:0:0:0:
130,104,99998,1,0,0:0:0:0:
53,85,100092,1,0,0:0:0:0:
98,93,100186,1,0,0:0:0:0:
210,29,100280,1,8,0:0:0:0:
130,104,100373,1,8,0:0:0:0:
53,85,100467,1,8,0:0:0:0:
98,93,100561,1,8,0:0:0:0:
210,29,100655,1,0,0:0:0:0:
130,104,100748,1,0,0:0:0:0:
53,85,100842,1,0,0:0:0:0:
98,93,100936,1,0,0:0:0:0:
210,29,101030,1,8,0:0:0:0:
130,104,101123,1,8,0:0:0:0:
53,85,101217,1,8,0:0:0:0:
98,93,101311,1,8,0:0:0:0:
210,29,101405,1,0,0:0:0:0:
130,104,101498,1,0,0:0:0:0:
53,85,101592,1,8,0:0:0:0:
98,93,101686,1,0,0:0:0:0:
131,132,101780,1,0,0:0:0:0:
170,110,101873,1,0,0:0:0:0:
115,181,101967,1,8,0:0:0:0:
92,127,102061,1,8,0:0:0:0:
110,107,102155,1,8,0:0:0:0:
170,110,102248,1,8,0:0:0:0:
92,127,102342,1,0,0:0:0:0:
47,184,102530,1,4,0:0:0:0:
159,97,102717,1,8,0:0:0:0:
102,152,102905,1,0,0:0:0:0:
102,101,102998,1,0,0:0:0:0:
92,127,103092,1,0,0:0:0:0:
194,86,103280,1,8,0:0:0:0:
194,86,103467,1,0,0:0:0:0:
105,104,103561,1,0,0:0:0:0:
163,110,103655,1,8,0:0:0:0:
92,127,103842,1,4,0:0:0:0:
309,183,104405,1,8,0:0:0:0:
274,172,104451,1,8,0:0:0:0:
256,192,104780,12,0,105530,0:0:0:0:
154,208,105717,5,0,0:0:0:0:
92,115,105905,1,8,0:0:0:0:
139,115,105998,1,0,0:0:0:0:
149,127,106092,1,0,0:0:0:0:
139,115,106280,1,8,0:0:0:0:
149,127,106373,1,0,0:0:0:0:
139,99,106467,1,8,0:0:0:0:
149,127,106655,1,0,0:0:0:0:
199,105,106748,1,0,0:0:0:0:
139,115,106842,1,8,0:0:0:0:
105,145,107030,1,8,0:0:0:0:
188,80,107217,1,8,0:0:0:0:
135,23,107405,1,0,0:0:0:0:
148,154,107592,1,8,0:0:0:0:
171,65,107780,1,0,0:0:0:0:
162,38,107873,1,0,0:0:0:0:
152,93,107967,1,8,0:0:0:0:
95,156,108061,1,8,0:0:0:0:
118,186,108155,1,0,0:0:0:0:
60,111,108342,1,8,0:0:0:0:
123,165,108530,1,0,0:0:0:0:
108,151,108623,1,0,0:0:0:0:
139,172,108717,1,0,0:0:0:0:
144,117,108811,1,0,0:0:0:0:
144,117,108905,1,0,0:0:0:0:
88,121,108998,1,0,0:0:0:0:
167,52,109092,1,8,0:0:0:0:
144,117,109186,1,0,0:0:0:0:
169,84,109280,1,8,0:0:0:0:
54,121,109373,1,0,0:0:0:0:
169,84,109467,1,0,0:0:0:0:
88,121,109561,1,0,0:0:0:0:
155,91,109655,1,8,0:0:0:0:
60,72,109748,1,0,0:0:0:0:
122,89,109842,1,0,0:0:0:0:
177,151,109936,1,0,0:0:0:0:
162,95,110030,1,8,0:0:0:0:
122,89,110123,1,0,0:0:0:0:
122,89,110217,1,0,0:0:0:0:
71,128,110311,1,0,0:0:0:0:
71,128,110405,1,0,0:0:0:0:
131,125,110498,1,0,0:0:0:0:
122,89,110592,1,8,0:0:0:0:
65,125,110686,1,0,0:0:0:0:
100,132,110780,1,8,0:0:0:0:
180,120,110873,1,0,0:0:0:0:
130,111,110967,1,0,0:0:0:0:
71,128,111061,1,0,0:0:0:0:
153,95,111155,1,8,0:0:0:0:
99,29,111248,1,8,0:0:0:0:
110,80,111342,1,0,0:0:0:0:
153,95,111530,1,0,0:0:0:0:
100,115,111623,1,0,0:0:0:0:
45,123,111717,1,0,0:0:0:0:
100,115,111811,1,0,0:0:0:0:
153,95,111905,1,8,0:0:0:0:
100,115,111998,1,8,0:0:0:0:
45,123,112092,1,8,0:0:0:0:
100,115,112186,1,8,0:0:0:0:
153,95,112280,1,0,0:0:0:0:
100,115,112373,1,0,0:0:0:0:
45,123,112467,1,0,0:0:0:0:
100,115,112561,1,0,0:0:0:0:
153,95,112655,1,8,0:0:0:0:
100,115,112748,1,8,0:0:0:0:
45,123,112842,1,8,0:0:0:0:
100,115,112936,1,8,0:0:0:0:
153,95,113030,1,0,0:0:0:0:
100,115,113123,1,0,0:0:0:0:
45,123,113217,1,0,0:0:0:0:
100,115,113311,1,0,0:0:0:0:
153,95,113405,1,8,0:0:0:0:
100,115,113498,1,0,0:0:0:0:
45,123,113592,1,8,0:0:0:0:
235,125,113780,1,8,0:0:0:0:
80,148,113967,1,0,0:0:0:0:
100,115,114155,1,8,0:0:0:0:
122,84,114248,1,8,0:0:0:0:
120,112,114342,1,0,0:0:0:0:
80,148,114436,1,0,0:0:0:0:
59,139,114530,1,12,0:0:0:0:
139,100,114717,1,4,0:0:0:0:
163,44,114811,1,12,0:0:0:0:
182,65,114905,1,4,0:0:0:0:
52,110,115280,1,4,0:0:0:0:
182,65,115467,1,4,0:0:0:0:
109,98,115561,1,12,0:0:0:0:
109,98,115655,1,4,0:0:0:0:
152,147,116030,1,12,0:0:0:0:
67,117,116217,1,0,0:0:0:0:
133,110,116311,1,0,0:0:0:0:
168,110,116405,1,8,0:0:0:0:
167,60,116592,1,0,0:0:0:0:
251,79,116780,1,8,0:0:0:0:
202,109,116873,1,8,0:0:0:0:
168,110,116967,1,0,0:0:0:0:
202,109,117155,1,12,0:0:0:0:
96,112,117342,1,8,0:0:0:0:
174,99,117530,1,0,0:0:0:0:
59,167,117717,1,4,0:0:0:0:
162,110,117905,1,4,0:0:0:0:
61,100,118092,1,8,0:0:0:0:
194,83,118280,1,8,0:0:0:0:
194,83,118655,1,8,0:0:0:0:
87,134,118748,1,8,0:0:0:0:
159,84,118842,1,0,0:0:0:0:
120,137,119030,1,4,0:0:0:0:
45,139,119217,1,0,0:0:0:0:
99,159,119405,1,4,0:0:0:0:
154,60,119592,1,8,0:0:0:0:
105,132,119780,1,8,0:0:0:0:
217,43,120155,1,8,0:0:0:0:
105,132,120248,1,0,0:0:0:0:
158,84,120342,1,0,0:0:0:0:
200,188,120530,1,8,0:0:0:0:
157,65,120905,1,0,0:0:0:0:
153,146,120998,1,0,0:0:0:0:
125,180,121092,1,0,0:0:0:0:
152,145,121186,1,0,0:0:0:0:
101,166,121280,1,12,0:0:0:0:
76,181,121655,1,0,0:0:0:0:
136,105,121748,1,0,0:0:0:0:
102,124,121842,1,0,0:0:0:0:
101,166,121936,1,0,0:0:0:0:
67,131,122030,1,12,0:0:0:0:
162,206,122405,1,0,0:0:0:0:
162,206,122780,1,12,0:0:0:0:
199,182,122967,1,4,0:0:0:0:
134,174,123155,1,8,0:0:0:0:
78,70,123248,1,8,0:0:0:0:
164,68,123342,1,0,0:0:0:0:
99,155,123530,1,4,0:0:0:0:
23,60,123717,1,4,0:0:0:0:
66,99,123905,1,4,0:0:0:0:
103,173,124092,1,8,0:0:0:0:
99,155,124280,1,8,0:0:0:0:
217,118,124655,1,8,0:0:0:0:
80,99,124748,1,8,0:0:0:0:
134,190,124842,1,0,0:0:0:0:
105,75,125030,1,4,0:0:0:0:
110,129,125217,1,4,0:0:0:0:
110,129,125405,1,4,0:0:0:0:
215,106,125592,1,8,0:0:0:0:
215,106,125780,1,0,0:0:0:0:
70,132,126155,1,8,0:0:0:0:
147,58,126248,1,8,0:0:0:0:
70,132,126342,1,0,0:0:0:0:
201,28,126530,1,0,0:0:0:0:
121,153,126811,1,8,0:0:0:0:
154,126,127092,1,0,0:0:0:0:
96,92,127280,1,8,0:0:0:0:
121,153,127561,1,0,0:0:0:0:
121,153,127842,1,8,0:0:0:0:
154,126,128030,1,0,0:0:0:0:
106,155,128311,1,8,0:0:0:0:
106,155,128592,1,0,0:0:0:0:
62,157,128780,1,8,0:0:0:0:
122,145,129061,1,0,0:0:0:0:
122,145,129342,1,0,0:0:0:0:
122,145,129530,1,8,0:0:0:0:
93,36,129623,1,0,0:0:0:0:
122,145,129717,1,0,0:0:0:0:
75,127,129811,1,0,0:0:0:0:
91,132,129905,1,0,0:0:0:0:
124,120,129998,1,0,0:0:0:0:
124,120,130092,1,8,0:0:0:0:
209,62,130186,1,0,0:0:0:0:
138,71,130280,1,0,0:0:0:0:
157,75,130373,1,0,0:0:0:0:
72,107,130467,1,8,0:0:0:0:
47,101,130655,1,8,0:0:0:0:
105,84,130842,1,0,0:0:0:0:
157,75,131030,1,8,0:0:0:0:
132,118,131123,1,0,0:0:0:0:
72,107,131217,1,0,0:0:0:0:
115,116,131311,1,0,0:0:0:0:
173,144,131405,1,8,0:0:0:0:
132,118,131498,1,0,0:0:0:0:
115,116,131592,1,8,0:0:0:0:
146,111,131686,1,0,0:0:0:0:
132,118,131780,1,8,0:0:0:0:
79,137,131873,1,8,0:0:0:0:
101,127,131967,1,0,0:0:0:0:
187,90,132155,1,8,0:0:0:0:
107,139,132342,1,0,0:0:0:0:
107,139,132530,1,0,0:0:0:0:
126,33,132623,1,0,0:0:0:0:
78,92,132717,1,8,0:0:0:0:
65,127,132811,1,8,0:0:0:0:
139,141,132905,1,0,0:0:0:0:
25,141,133092,1,8,0:0:0:0:
25,141,133280,1,8,0:0:0:0:
118,136,133373,1,0,0:0:0:0:
25,141,133467,1,8,0:0:0:0:
65,127,133561,1,8,0:0:0:0:
146,141,133655,1,0,0:0:0:0:
242,190,133842,1,0,0:0:0:0:
169,119,134030,1,4,0:0:0:0:
215,250,134780,5,8,0:0:0:0:
169,119,134873,1,0,0:0:0:0:
82,57,134967,1,0,0:0:0:0:
146,94,135061,1,0,0:0:0:0:
188,102,135155,1,8,0:0:0:0:
223,74,135248,1,0,0:0:0:0:
258,93,135342,1,8,0:0:0:0:
214,101,135436,1,8,0:0:0:0:
188,102,135530,1,0,0:0:0:0:
82,57,135592,1,0,0:0:0:0:
98,57,135655,1,0,0:0:0:0:
123,57,135717,1,8,0:0:0:0:
123,123,135811,1,8,0:0:0:0:
162,73,135905,1,0,0:0:0:0:
130,76,135967,1,0,0:0:0:0:
134,65,136030,1,0,0:0:0:0:
188,102,136092,1,8,0:0:0:0:
130,76,136186,1,8,0:0:0:0:
163,63,136280,1,0,0:0:0:0:
189,44,136342,1,0,0:0:0:0:
214,101,136405,1,0,0:0:0:0:
188,102,136467,1,8,0:0:0:0:
181,122,136561,1,8,0:0:0:0:
128,203,136655,1,0,0:0:0:0:
70,171,136748,1,8,0:0:0:0:
130,76,136842,1,8,0:0:0:0:
141,95,136936,1,0,0:0:0:0:
156,54,137030,1,8,0:0:0:0:
130,76,137092,1,8,0:0:0:0:
189,44,137155,1,8,0:0:0:0:
146,89,137217,1,0,0:0:0:0:
161,50,137311,1,0,0:0:0:0:
122,52,137405,1,8,0:0:0:0:
100,79,137467,1,8,0:0:0:0:
99,122,137530,1,8,0:0:0:0:
57,87,137592,1,0,0:0:0:0:
79,138,137686,1,0,0:0:0:0:
115,176,137780,1,8,0:0:0:0:
166,156,137842,1,0,0:0:0:0:
79,138,137905,1,0,0:0:0:0:
116,143,137967,1,8,0:0:0:0:
166,156,138061,1,0,0:0:0:0:
204,139,138155,1,0,0:0:0:0:
204,139,138217,1,0,0:0:0:0:
186,129,138280,1,0,0:0:0:0:
214,118,138342,1,8,0:0:0:0:
179,104,138436,1,0,0:0:0:0:
79,138,138530,1,8,0:0:0:0:
91,106,138592,1,8,0:0:0:0:
142,99,138655,1,8,0:0:0:0:
119,78,138717,1,8,0:0:0:0:
119,78,138780,1,8,0:0:0:0:
107,60,138842,1,8,0:0:0:0:
142,99,138905,1,0,0:0:0:0:
133,186,139092,1,0,0:0:0:0:
152,87,139280,1,8,0:0:0:0:
133,55,139467,1,0,0:0:0:0:
134,109,139655,1,8,0:0:0:0:
161,145,139748,1,8,0:0:0:0:
127,133,139842,1,0,0:0:0:0:
127,133,140030,1,0,0:0:0:0:
19,155,140123,1,0,0:0:0:0:
85,112,140217,1,0,0:0:0:0:
133,55,140311,1,0,0:0:0:0:
159,88,140405,1,8,0:0:0:0:
159,88,140498,1,0,0:0:0:0:
131,132,140592,1,8,0:0:0:0:
127,133,140686,1,8,0:0:0:0:
140,86,140780,1,0,0:0:0:0:
239,130,140873,1,8,0:0:0:0:
85,112,140967,1,0,0:0:0:0:
42,130,141061,1,0,0:0:0:0:
264,25,141155,1,8,0:0:0:0:
254,109,141342,1,8,0:0:0:0:
200,145,141530,1,0,0:0:0:0:
102,197,141717,1,8,0:0:0:0:
147,119,141905,1,8,0:0:0:0:
66,112,142092,1,0,0:0:0:0:
180,88,142280,1,8,0:0:0:0:
252,114,142467,1,0,0:0:0:0:
195,120,142655,1,0,0:0:0:0:
86,91,142842,1,0,0:0:0:0:
153,136,143030,1,8,0:0:0:0:
260,145,143217,1,8,0:0:0:0:
188,141,143405,1,8,0:0:0:0:
195,120,143592,1,0,0:0:0:0:
151,40,143780,1,8,0:0:0:0:
99,250,144155,1,0,0:0:0:0:
145,171,144342,1,0,0:0:0:0:
92,132,144530,1,12,0:0:0:0:
92,132,144905,1,4,0:0:0:0:
92,132,145280,1,4,0:0:0:0:
183,217,145655,1,12,0:0:0:0:
99,123,146030,1,12,0:0:0:0:
200,207,146405,1,8,0:0:0:0:
203,114,146592,1,0,0:0:0:0:
124,153,146780,1,8,0:0:0:0:
148,146,146873,1,8,0:0:0:0:
105,141,146967,1,0,0:0:0:0:
77,118,147061,1,0,0:0:0:0:
104,99,147155,1,0,0:0:0:0:
140,228,147248,1,0,0:0:0:0:
138,173,147342,1,8,0:0:0:0:
155,158,147436,1,8,0:0:0:0:
207,189,147530,1,0,0:0:0:0:
196,166,147592,1,0,0:0:0:0:
225,146,147655,1,0,0:0:0:0:
211,139,147717,1,8,0:0:0:0:
77,118,147811,1,8,0:0:0:0:
89,66,147905,1,0,0:0:0:0:
104,51,147967,1,0,0:0:0:0:
133,44,148030,1,0,0:0:0:0:
134,88,148092,1,8,0:0:0:0:
147,172,148186,1,8,0:0:0:0:
160,119,148280,1,0,0:0:0:0:
139,109,148342,1,0,0:0:0:0:
127,131,148405,1,0,0:0:0:0:
160,119,148467,1,8,0:0:0:0:
183,81,148561,1,0,0:0:0:0:
211,139,148655,1,8,0:0:0:0:
147,172,148748,1,0,0:0:0:0:
133,44,148842,1,8,0:0:0:0:
184,90,148936,1,0,0:0:0:0:
143,129,149030,1,8,0:0:0:0:
183,135,149093,1,8,0:0:0:0:
184,90,149155,1,8,0:0:0:0:
156,80,149218,1,0,0:0:0:0:
118,84,149311,1,0,0:0:0:0:
101,113,149405,1,8,0:0:0:0:
71,121,149468,1,8,0:0:0:0:
36,123,149530,1,8,0:0:0:0:
47,115,149593,1,0,0:0:0:0:
72,136,149686,1,0,0:0:0:0:
101,103,149780,1,8,0:0:0:0:
71,121,149843,1,8,0:0:0:0:
71,121,149905,1,8,0:0:0:0:
54,133,149968,1,0,0:0:0:0:
113,89,150030,1,0,0:0:0:0:
113,89,150092,1,0,0:0:0:0:
71,121,150155,1,8,0:0:0:0:
89,230,150248,1,0,0:0:0:0:
101,103,150342,1,8,0:0:0:0:
149,98,150436,1,0,0:0:0:0:
153,105,150530,1,8,0:0:0:0:
116,86,150592,1,8,0:0:0:0:
116,86,150655,1,8,0:0:0:0:
116,86,150717,1,8,0:0:0:0:
149,98,150780,1,8,0:0:0:0:
164,97,150842,1,8,0:0:0:0:
139,99,150905,1,0,0:0:0:0:
175,67,150967,1,0,0:0:0:0:
139,99,151030,1,0,0:0:0:0:
97,150,151092,1,0,0:0:0:0:
59,145,151155,1,0,0:0:0:0:
116,86,151217,1,0,0:0:0:0:
103,110,151280,1,0,0:0:0:0:
128,105,151342,1,8,0:0:0:0:
160,134,151405,1,8,0:0:0:0:
173,151,151467,1,8,0:0:0:0:
167,103,151530,1,8,0:0:0:0:
161,128,151592,1,8,0:0:0:0:
179,79,151655,1,0,0:0:0:0:
158,43,151717,1,0,0:0:0:0:
174,120,151780,1,0,0:0:0:0:
128,155,151842,1,0,0:0:0:0:
137,45,151905,1,0,0:0:0:0:
116,86,151967,1,0,0:0:0:0:
160,105,152030,1,8,0:0:0:0:
206,98,152092,1,8,0:0:0:0:
33,117,152155,1,8,0:0:0:0:
112,69,152217,1,8,0:0:0:0:
116,86,152280,1,8,0:0:0:0:
124,141,152342,1,8,0:0:0:0:
167,103,152405,1,8,0:0:0:0:
146,167,152467,1,8,0:0:0:0:
206,98,152529,1,8,0:0:0:0:
33,117,152592,1,8,0:0:0:0:
112,69,152654,1,8,0:0:0:0:
116,86,152717,1,8,0:0:0:0:
124,141,152780,1,0,0:0:0:0:
167,103,152842,1,0,0:0:0:0:
146,167,152904,1,0,0:0:0:0:
112,69,152967,1,0,0:0:0:0:
166,61,153030,1,0,0:0:0:0:
199,65,153092,1,0,0:0:0:0:
206,98,153155,1,8,0:0:0:0:
223,140,153248,1,8,0:0:0:0:
112,69,153343,1,8,0:0:0:0:
207,96,153436,1,8,0:0:0:0:
143,118,153530,1,0,0:0:0:0:
74,224,153811,1,0,0:0:0:0:
88,126,153905,1,0,0:0:0:0:
142,34,154092,1,8,0:0:0:0:
98,89,154280,1,0,0:0:0:0:
342,82,154655,1,0,0:0:0:0:
226,106,154748,1,0,0:0:0:0:
139,118,154842,1,0,0:0:0:0:
98,89,154936,1,0,0:0:0:0:
106,66,155030,1,8,0:0:0:0:
175,157,155311,1,0,0:0:0:0:
177,182,155405,1,0,0:0:0:0:
100,155,155592,1,8,0:0:0:0:
36,102,155780,1,8,0:0:0:0:
121,291,156155,1,0,0:0:0:0:
129,209,156342,1,0,0:0:0:0:
222,93,156530,1,0,0:0:0:0:
138,109,156623,1,0,0:0:0:0:
36,102,156717,1,0,0:0:0:0:
57,94,156811,1,0,0:0:0:0:
76,111,156905,1,8,0:0:0:0:
38,82,156998,1,8,0:0:0:0:
36,102,157092,1,8,0:0:0:0:
87,76,157186,1,8,0:0:0:0:
39,131,157280,1,0,0:0:0:0:
113,90,157373,1,0,0:0:0:0:
76,111,157467,1,0,0:0:0:0:
57,94,157561,1,0,0:0:0:0:
123,96,157655,1,8,0:0:0:0:
160,156,157748,1,8,0:0:0:0:
147,117,157842,1,8,0:0:0:0:
123,96,157936,1,8,0:0:0:0:
84,124,158030,1,0,0:0:0:0:
121,107,158092,1,0,0:0:0:0:
165,90,158155,1,8,0:0:0:0:
57,94,158217,1,0,0:0:0:0:
181,13,158280,1,0,0:0:0:0:
74,62,158342,1,8,0:0:0:0:
103,142,158405,1,0,0:0:0:0:
65,103,158467,1,0,0:0:0:0:
165,90,158530,1,8,0:0:0:0:
204,93,158592,1,0,0:0:0:0:
84,124,158655,1,0,0:0:0:0:
121,107,158717,1,8,0:0:0:0:
165,90,158780,1,8,0:0:0:0:
74,62,158967,1,0,0:0:0:0:
115,145,159155,1,8,0:0:0:0:
188,143,159342,1,0,0:0:0:0:
256,192,159436,12,0,160280,0:0:0:0:
139,197,174530,5,0,0:0:0:0:
118,56,174717,1,0,0:0:0:0:
87,129,174905,1,0,0:0:0:0:
159,146,175092,1,0,0:0:0:0:
172,55,175280,1,8,0:0:0:0:
92,173,175655,1,0,0:0:0:0:
242,89,176030,1,0,0:0:0:0:
198,103,176217,1,0,0:0:0:0:
182,150,176405,1,0,0:0:0:0:
33,159,176592,1,8,0:0:0:0:
117,139,176780,1,0,0:0:0:0:
117,139,177155,1,8,0:0:0:0:
243,12,177530,1,8,0:0:0:0:
179,116,177905,1,0,0:0:0:0:
62,238,178092,1,8,0:0:0:0:
63,163,178280,1,0,0:0:0:0:
271,102,178655,1,8,0:0:0:0:
179,176,178842,1,0,0:0:0:0:
84,127,179123,1,0,0:0:0:0:
84,127,179498,1,0,0:0:0:0:
180,134,179780,1,8,0:0:0:0:
102,15,179967,1,8,0:0:0:0:
83,104,180155,1,0,0:0:0:0:
249,212,180530,1,0,0:0:0:0:
164,178,180717,1,0,0:0:0:0:
88,121,180905,1,0,0:0:0:0:
187,176,181092,1,8,0:0:0:0:
138,159,181280,1,0,0:0:0:0:
229,159,181655,1,0,0:0:0:0:
185,7,182030,1,0,0:0:0:0:
158,97,182217,1,0,0:0:0:0:
159,128,182405,1,0,0:0:0:0:
94,137,182592,1,8,0:0:0:0:
94,137,182780,1,0,0:0:0:0:
94,137,183155,1,0,0:0:0:0:
201,28,183530,5,0,0:0:0:0:
121,153,183811,1,8,0:0:0:0:
154,126,184092,1,0,0:0:0:0:
96,92,184280,1,8,0:0:0:0:
121,153,184561,1,0,0:0:0:0:
121,153,184842,1,8,0:0:0:0:
154,126,185030,1,0,0:0:0:0:
106,155,185311,1,8,0:0:0:0:
106,155,185592,1,0,0:0:0:0:
62,157,185780,1,8,0:0:0:0:
122,145,186061,1,0,0:0:0:0:
122,145,186342,1,0,0:0:0:0:
122,145,186530,1,8,0:0:0:0:
93,36,186623,1,0,0:0:0:0:
122,145,186717,1,0,0:0:0:0:
75,127,186811,1,0,0:0:0:0:
91,132,186905,1,0,0:0:0:0:
124,120,186998,1,0,0:0:0:0:
124,120,187092,1,8,0:0:0:0:
209,62,187186,1,0,0:0:0:0:
138,71,187280,1,0,0:0:0:0:
157,75,187373,1,0,0:0:0:0:
72,107,187467,1,8,0:0:0:0:
47,101,187655,1,8,0:0:0:0:
105,84,187842,1,0,0:0:0:0:
157,75,188030,1,8,0:0:0:0:
132,118,188123,1,0,0:0:0:0:
72,107,188217,1,0,0:0:0:0:
115,116,188311,1,0,0:0:0:0:
173,144,188405,1,8,0:0:0:0:
132,118,188498,1,0,0:0:0:0:
115,116,188592,1,8,0:0:0:0:
146,111,188686,1,0,0:0:0:0:
132,118,188780,1,8,0:0:0:0:
79,137,188873,1,8,0:0:0:0:
101,127,188967,1,0,0:0:0:0:
187,90,189155,1,8,0:0:0:0:
107,139,189342,1,0,0:0:0:0:
107,139,189530,1,0,0:0:0:0:
126,33,189623,1,0,0:0:0:0:
78,92,189717,1,8,0:0:0:0:
65,127,189811,1,8,0:0:0:0:
139,141,189905,1,0,0:0:0:0:
25,141,190092,1,8,0:0:0:0:
25,141,190280,1,8,0:0:0:0:
118,136,190373,1,0,0:0:0:0:
25,141,190467,1,8,0:0:0:0:
65,127,190561,1,8,0:0:0:0:
146,141,190655,1,0,0:0:0:0:
242,190,190842,1,0,0:0:0:0:
169,119,191030,1,4,0:0:0:0:
202,120,191780,5,8,0:0:0:0:
151,143,192530,1,4,0:0:0:0:
102,101,192811,1,4,0:0:0:0:
153,160,193092,1,4,0:0:0:0:
57,64,193280,1,4,0:0:0:0:
256,192,193373,12,0,194030,0:0:0:0:
121,118,204530,5,12,0:0:0:0:
124,153,204717,1,12,0:0:0:0:
120,48,204905,1,12,0:0:0:0:
148,146,205092,1,12,0:0:0:0:
124,153,205280,5,8,0:0:0:0:
148,146,205373,1,8,0:0:0:0:
105,141,205467,1,0,0:0:0:0:
77,118,205561,1,0,0:0:0:0:
104,99,205655,1,0,0:0:0:0:
140,228,205748,1,0,0:0:0:0:
138,173,205842,1,8,0:0:0:0:
155,158,205936,1,8,0:0:0:0:
207,189,206030,1,0,0:0:0:0:
196,166,206092,1,0,0:0:0:0:
225,146,206155,1,0,0:0:0:0:
211,139,206217,1,8,0:0:0:0:
77,118,206311,1,8,0:0:0:0:
89,66,206405,1,0,0:0:0:0:
104,51,206467,1,0,0:0:0:0:
133,44,206530,1,0,0:0:0:0:
134,88,206592,1,8,0:0:0:0:
147,172,206686,1,8,0:0:0:0:
160,119,206780,1,0,0:0:0:0:
139,109,206842,1,0,0:0:0:0:
127,131,206905,1,0,0:0:0:0:
160,119,206967,1,8,0:0:0:0:
183,81,207061,1,0,0:0:0:0:
211,139,207155,1,8,0:0:0:0:
147,172,207248,1,0,0:0:0:0:
133,44,207342,1,8,0:0:0:0:
184,90,207436,1,0,0:0:0:0:
143,129,207530,1,8,0:0:0:0:
183,135,207593,1,8,0:0:0:0:
184,90,207655,1,8,0:0:0:0:
156,80,207718,1,0,0:0:0:0:
118,84,207811,1,0,0:0:0:0:
101,113,207905,1,8,0:0:0:0:
71,121,207968,1,8,0:0:0:0:
36,123,208030,1,8,0:0:0:0:
47,115,208093,1,0,0:0:0:0:
72,136,208186,1,0,0:0:0:0:
101,103,208280,1,8,0:0:0:0:
71,121,208343,1,8,0:0:0:0:
71,121,208405,1,8,0:0:0:0:
54,133,208468,1,0,0:0:0:0:
113,89,208530,1,0,0:0:0:0:
113,89,208592,1,0,0:0:0:0:
71,121,208655,1,8,0:0:0:0:
89,230,208748,1,0,0:0:0:0:
101,103,208842,1,8,0:0:0:0:
149,98,208936,1,0,0:0:0:0:
153,105,209030,1,8,0:0:0:0:
116,86,209092,1,8,0:0:0:0:
116,86,209155,1,8,0:0:0:0:
116,86,209217,1,8,0:0:0:0:
149,98,209280,1,8,0:0:0:0:
164,97,209342,1,8,0:0:0:0:
139,99,209405,1,0,0:0:0:0:
175,67,209467,1,0,0:0:0:0:
139,99,209530,1,0,0:0:0:0:
97,150,209592,1,0,0:0:0:0:
59,145,209655,1,0,0:0:0:0:
116,86,209717,1,0,0:0:0:0:
103,110,209780,1,0,0:0:0:0:
128,105,209842,1,8,0:0:0:0:
160,134,209905,1,8,0:0:0:0:
173,151,209967,1,8,0:0:0:0:
167,103,210030,1,8,0:0:0:0:
161,128,210092,1,8,0:0:0:0:
179,79,210155,1,0,0:0:0:0:
158,43,210217,1,0,0:0:0:0:
174,120,210280,1,0,0:0:0:0:
128,155,210342,1,0,0:0:0:0:
137,45,210405,1,0,0:0:0:0:
116,86,210467,1,0,0:0:0:0:
160,105,210530,1,8,0:0:0:0:
206,98,210592,1,8,0:0:0:0:
33,117,210655,1,8,0:0:0:0:
112,69,210717,1,8,0:0:0:0:
116,86,210780,1,8,0:0:0:0:
124,141,210842,1,8,0:0:0:0:
167,103,210905,1,8,0:0:0:0:
146,167,210967,1,8,0:0:0:0:
206,98,211029,1,8,0:0:0:0:
33,117,211092,1,8,0:0:0:0:
112,69,211154,1,8,0:0:0:0:
116,86,211217,1,8,0:0:0:0:
124,141,211280,1,0,0:0:0:0:
167,103,211342,1,0,0:0:0:0:
146,167,211404,1,0,0:0:0:0:
112,69,211467,1,0,0:0:0:0:
166,61,211530,1,0,0:0:0:0:
199,65,211592,1,0,0:0:0:0:
206,98,211655,1,8,0:0:0:0:
223,140,211748,1,8,0:0:0:0:
112,69,211843,1,8,0:0:0:0:
207,96,211936,1,8,0:0:0:0:
143,118,212030,1,0,0:0:0:0:
74,224,212311,1,0,0:0:0:0:
88,126,212405,1,0,0:0:0:0:
142,34,212592,1,8,0:0:0:0:
98,89,212780,1,0,0:0:0:0:
342,82,213155,1,0,0:0:0:0:
226,106,213248,1,0,0:0:0:0:
139,118,213342,1,0,0:0:0:0:
98,89,213436,1,0,0:0:0:0:
106,66,213530,1,8,0:0:0:0:
175,157,213811,1,0,0:0:0:0:
177,182,213905,1,0,0:0:0:0:
100,155,214092,1,8,0:0:0:0:
36,102,214280,1,8,0:0:0:0:
121,291,214655,1,0,0:0:0:0:
129,209,214842,1,0,0:0:0:0:
222,93,215030,1,0,0:0:0:0:
138,109,215123,1,0,0:0:0:0:
36,102,215217,1,0,0:0:0:0:
57,94,215311,1,0,0:0:0:0:
76,111,215405,1,8,0:0:0:0:
38,82,215498,1,8,0:0:0:0:
36,102,215592,1,8,0:0:0:0:
87,76,215686,1,8,0:0:0:0:
39,131,215780,1,0,0:0:0:0:
113,90,215873,1,0,0:0:0:0:
76,111,215967,1,0,0:0:0:0:
57,94,216061,1,0,0:0:0:0:
123,96,216155,1,8,0:0:0:0:
160,156,216248,1,8,0:0:0:0:
147,117,216342,1,8,0:0:0:0:
123,96,216436,1,8,0:0:0:0:
84,124,216530,1,0,0:0:0:0:
121,107,216592,1,0,0:0:0:0:
165,90,216655,1,8,0:0:0:0:
57,94,216717,1,0,0:0:0:0:
181,13,216780,1,0,0:0:0:0:
74,62,216842,1,8,0:0:0:0:
103,142,216905,1,0,0:0:0:0:
65,103,216967,1,0,0:0:0:0:
165,90,217030,1,8,0:0:0:0:
204,93,217092,1,0,0:0:0:0:
84,124,217155,1,0,0:0:0:0:
121,107,217217,1,8,0:0:0:0:
165,90,217280,1,8,0:0:0:0:
57,94,217342,1,8,0:0:0:0:
181,13,217405,1,8,0:0:0:0:
74,62,217467,1,8,0:0:0:0:
21,94,217530,1,8,0:0:0:0:
60,87,217592,1,8,0:0:0:0:
79,84,217655,1,0,0:0:0:0:
96,160,218030,1,8,0:0:0:0:
96,160,218093,1,0,0:0:0:0:
128,160,218155,1,0,0:0:0:0:
160,160,218218,1,8,0:0:0:0:
192,160,218311,1,0,0:0:0:0:
224,160,218405,1,8,0:0:0:0:
192,128,218468,1,8,0:0:0:0:
224,96,218530,1,8,0:0:0:0:
224,96,218593,1,0,0:0:0:0:
256,64,218686,1,8,0:0:0:0:
256,32,218780,1,0,0:0:0:0:
123,110,218843,1,0,0:0:0:0:
224,96,218905,1,0,0:0:0:0:
192,64,218968,1,8,0:0:0:0:
160,32,219061,1,0,0:0:0:0:
128,0,219155,1,8,0:0:0:0:
224,96,219218,1,8,0:0:0:0:
192,128,219280,1,0,0:0:0:0:
160,128,219343,1,8,0:0:0:0:
192,128,219436,1,0,0:0:0:0:
160,160,219530,1,8,0:0:0:0:
160,160,219593,1,0,0:0:0:0:
128,160,219655,1,0,0:0:0:0:
123,110,219718,1,8,0:0:0:0:
160,32,219811,1,0,0:0:0:0:
224,96,219905,1,8,0:0:0:0:
288,128,219999,1,8,0:0:0:0:
256,96,220093,1,0,0:0:0:0:
192,128,220186,1,8,0:0:0:0:
128,160,220280,1,0,0:0:0:0:
64,128,220374,1,8,0:0:0:0:
128,96,220468,1,8,0:0:0:0:
160,32,220561,1,0,0:0:0:0:
160,64,220655,1,8,0:0:0:0:
160,96,220749,1,0,0:0:0:0:
64,128,220843,1,8,0:0:0:0:
128,64,220905,1,8,0:0:0:0:
128,128,220968,1,8,0:0:0:0:
160,160,221030,1,0,0:0:0:0:
192,128,221124,1,0,0:0:0:0:
160,96,221218,1,8,0:0:0:0:
192,96,221280,1,0,0:0:0:0:
224,96,221343,1,0,0:0:0:0:
160,64,221405,1,8,0:0:0:0:
192,64,221499,1,0,0:0:0:0:
160,32,221593,1,8,0:0:0:0:
192,32,221655,1,0,0:0:0:0:
128,32,221718,1,0,0:0:0:0:
96,64,221780,1,8,0:0:0:0:
128,64,221874,1,0,0:0:0:0:
160,96,221968,1,8,0:0:0:0:
160,128,222030,1,8,0:0:0:0:
128,128,222093,1,8,0:0:0:0:
128,96,222155,1,0,0:0:0:0:
160,128,222249,1,8,0:0:0:0:
160,160,222343,1,0,0:0:0:0:
192,160,222405,1,0,0:0:0:0:
192,128,222468,1,0,0:0:0:0:
160,160,222530,1,8,0:0:0:0:
160,128,222624,1,0,0:0:0:0:
160,64,222718,1,8,0:0:0:0:
192,32,222780,1,0,0:0:0:0:
96,32,222843,1,0,0:0:0:0:
160,32,222905,1,8,0:0:0:0:
256,64,222999,1,0,0:0:0:0:
320,96,223093,1,8,0:0:0:0:
288,96,223155,1,8,0:0:0:0:
320,128,223218,1,8,0:0:0:0:
286,126,223280,1,0,0:0:0:0:
284,178,223342,1,0,0:0:0:0:
255,152,223405,1,0,0:0:0:0:
196,149,223467,1,8,0:0:0:0:
164,133,223530,1,8,0:0:0:0:
164,118,223592,1,8,0:0:0:0:
195,85,223655,1,0,0:0:0:0:
142,106,223748,1,0,0:0:0:0:
142,106,223842,1,8,0:0:0:0:
69,163,223936,1,8,0:0:0:0:
86,153,224030,1,0,0:0:0:0:
74,224,224311,1,0,0:0:0:0:
88,126,224405,1,0,0:0:0:0:
142,34,224592,1,8,0:0:0:0:
98,89,224780,1,0,0:0:0:0:
342,82,225155,1,0,0:0:0:0:
226,106,225248,1,0,0:0:0:0:
139,118,225342,1,0,0:0:0:0:
98,89,225436,1,0,0:0:0:0:
106,66,225530,1,8,0:0:0:0:
175,157,225811,1,0,0:0:0:0:
177,182,225905,1,0,0:0:0:0:
100,155,226092,1,8,0:0:0:0:
36,102,226280,1,8,0:0:0:0:
121,291,226655,1,0,0:0:0:0:
129,209,226842,1,0,0:0:0:0:
222,93,227030,1,0,0:0:0:0:
138,109,227123,1,0,0:0:0:0:
36,102,227217,1,0,0:0:0:0:
57,94,227311,1,0,0:0:0:0:
76,111,227405,1,8,0:0:0:0:
38,82,227498,1,8,0:0:0:0:
36,102,227592,1,8,0:0:0:0:
87,76,227686,1,8,0:0:0:0:
39,131,227780,1,0,0:0:0:0:
113,90,227873,1,0,0:0:0:0:
76,111,227967,1,0,0:0:0:0:
57,94,228061,1,0,0:0:0:0:
123,96,228155,1,8,0:0:0:0:
160,156,228248,1,8,0:0:0:0:
147,117,228342,1,8,0:0:0:0:
123,96,228436,1,8,0:0:0:0:
160,156,228530,1,4,0:0:0:0:
149,88,228905,1,4,0:0:0:0:
170,249,229280,1,12,0:0:0:0:
163,149,229467,1,4,0:0:0:0:
78,121,229655,1,12,0:0:0:0:
