osu file format v14

[General]
AudioFilename: audio.mp3
AudioLeadIn: 0
PreviewTime: 53164
Countdown: 0
SampleSet: Soft
StackLeniency: 0.7
Mode: 0
LetterboxInBreaks: 0
WidescreenStoryboard: 1

[Editor]
DistanceSpacing: 1.7
BeatDivisor: 4
GridSize: 4
TimelineZoom: 3.399999

[Metadata]
Title:Million Futures
TitleUnicode:Million Futures
Artist:Minase Inori
ArtistUnicode:水瀬いのり
Creator:_kotachi_
Version:Million Dreams
Source:乖離性ミリオンアーサー
Tags:BLUE COMPASS Yasaija 714 gary00737
BeatmapID:1652253
BeatmapSetID:787182

[Difficulty]
HPDrainRate:6
CircleSize:3.8
OverallDifficulty:8.7
ApproachRate:9.3
SliderMultiplier:1.76
SliderTickRate:1

[Events]
//Background and Video events
0,0,"BG.png",0,0
//Break Periods
2,88847,93547
2,148847,152184
2,167938,177241
//Storyboard Layer 0 (Background)
//Storyboard Layer 1 (Fail)
//Storyboard Layer 2 (Pass)
//Storyboard Layer 3 (Foreground)
//Storyboard Sound Samples

[TimingPoints]
11,340.909090909091,4,2,1,35,1,0
11,-133.333333333333,4,2,1,35,0,0
1374,-133.333333333333,4,2,1,50,0,0
6829,-111.111111111111,4,2,1,50,0,0
9215,-90.9090909090909,4,2,1,50,0,0
9556,-100,4,2,1,70,0,0
17567,-100,4,2,2,70,0,0
17908,-100,4,2,1,70,0,0
20465,-111.111111111111,4,2,1,50,0,0
29840,-100,4,2,1,60,0,0
31289,-100,4,2,1,5,0,0
31374,-100,4,2,1,60,0,0
36658,-100,4,2,2,60,0,0
36999,-100,4,2,1,60,0,0
39045,-100,4,2,2,60,0,0
39215,-100,4,2,1,60,0,0
41431,-100,4,2,2,60,0,0
41601,-100,4,2,1,60,0,0
42283,-133.333333333333,4,2,1,50,0,0
47738,-100,4,2,1,60,0,0
49101,-100,4,2,2,60,0,0
49272,-100,4,2,1,60,0,0
49613,-100,4,2,2,60,0,0
49954,-100,4,2,1,60,0,0
53192,-100,4,2,2,60,0,0
54045,-100,4,2,1,60,0,0
55579,-90.9090909090909,4,2,1,60,0,0
55920,-83.3333333333333,4,2,1,70,0,1
64528,-83.3333333333333,4,2,1,5,0,1
64613,-83.3333333333333,4,2,2,70,0,1
64954,-83.3333333333333,4,2,1,70,0,1
66317,-83.3333333333333,4,2,1,5,0,1
66403,-83.3333333333333,4,2,1,70,0,1
66573,-83.3333333333333,4,2,1,5,0,1
66658,-83.3333333333333,4,2,1,70,0,1
66743,-83.3333333333333,4,2,1,5,0,1
66829,-83.3333333333333,4,2,1,70,0,1
70749,-83.3333333333333,4,2,2,70,0,1
71090,-83.3333333333333,4,2,1,70,0,1
71601,-83.3333333333333,4,2,1,70,0,1
71772,-83.3333333333333,4,2,1,5,0,1
71857,-83.3333333333333,4,2,1,70,0,1
72028,-83.3333333333333,4,2,1,5,0,1
72113,-83.3333333333333,4,2,1,70,0,1
72198,-83.3333333333333,4,2,1,5,0,1
72283,-83.3333333333333,4,2,1,70,0,1
72965,-83.3333333333333,4,2,1,70,0,1
73136,-83.3333333333333,4,2,1,5,0,1
73221,-83.3333333333333,4,2,1,70,0,1
73391,-83.3333333333333,4,2,1,5,0,1
73476,-83.3333333333333,4,2,1,70,0,1
73562,-83.3333333333333,4,2,1,5,0,1
73647,-83.3333333333333,4,2,2,70,0,1
73817,-83.3333333333333,4,2,1,70,0,1
74329,-83.3333333333333,4,2,1,70,0,1
74499,-83.3333333333333,4,2,1,5,0,1
74584,-83.3333333333333,4,2,1,70,0,1
74755,-83.3333333333333,4,2,1,5,0,1
74840,-83.3333333333333,4,2,1,70,0,1
74925,-83.3333333333333,4,2,1,5,0,1
75011,-83.3333333333333,4,2,1,70,0,1
75351,-133.333333333333,4,2,1,50,0,1
75692,-100,4,2,1,60,0,1
76204,-90.9090909090909,4,2,1,70,0,1
76459,-90.9090909090909,4,2,1,5,0,1
76545,-90.9090909090909,4,2,1,40,0,1
76886,-90.9090909090909,4,2,1,60,0,1
77056,-90.9090909090909,4,2,1,70,0,1
77567,-100,4,2,1,70,0,0
85749,-100,4,2,2,70,0,0
86090,-100,4,2,1,70,0,0
94101,-100,4,2,1,40,0,0
96147,-200,4,2,1,40,0,0
97681,-100,4,2,1,70,0,0
99215,-66.6666666666667,4,2,1,70,0,0
99471,-66.6666666666667,4,2,1,5,0,0
99556,-100,4,2,1,60,0,0
99897,-100,4,2,2,60,0,0
100238,-100,4,2,1,60,0,0
104499,-100,4,2,2,60,0,0
104840,-100,4,2,1,60,0,0
107226,-100,4,2,2,60,0,0
107397,-100,4,2,1,60,0,0
109613,-100,4,2,2,60,0,0
109783,-100,4,2,1,60,0,0
110465,-133.333333333333,4,2,1,50,0,0
115238,-100,4,2,1,60,0,0
117283,-100,4,2,2,60,0,0
117454,-100,4,2,1,60,0,0
117795,-100,4,2,2,60,0,0
118050,-100,4,2,2,5,0,0
118136,-100,4,2,1,60,0,0
121374,-100,4,2,2,60,0,0
122226,-100,4,2,1,70,0,0
122823,-100,4,2,1,5,0,0
122908,-100,4,2,1,60,0,0
122993,-100,4,2,1,5,0,0
123079,-100,4,2,1,60,0,0
124101,-83.3333333333333,4,2,1,70,0,1
127596,-83.3333333333333,4,2,1,5,0,1
127681,-83.3333333333333,4,2,1,70,0,1
132795,-83.3333333333333,4,2,2,70,0,1
133050,-83.3333333333333,4,2,2,5,0,1
133136,-83.3333333333333,4,2,1,70,0,1
134329,-83.3333333333333,4,2,1,70,0,1
134499,-83.3333333333333,4,2,1,5,0,1
134584,-83.3333333333333,4,2,1,70,0,1
134755,-83.3333333333333,4,2,1,5,0,1
134840,-83.3333333333333,4,2,1,70,0,1
134925,-83.3333333333333,4,2,1,5,0,1
135011,-83.3333333333333,4,2,1,70,0,1
139272,-83.3333333333333,4,2,1,70,0,1
139357,-83.3333333333333,4,2,1,5,0,1
139442,-83.3333333333333,4,2,1,70,0,1
139783,-83.3333333333333,4,2,1,70,0,1
139954,-83.3333333333333,4,2,1,5,0,1
140039,-83.3333333333333,4,2,1,70,0,1
140209,-83.3333333333333,4,2,1,5,0,1
140295,-83.3333333333333,4,2,1,70,0,1
140380,-83.3333333333333,4,2,1,5,0,1
140465,-83.3333333333333,4,2,1,70,0,1
141147,-83.3333333333333,4,2,1,70,0,1
141317,-83.3333333333333,4,2,1,5,0,1
141403,-83.3333333333333,4,2,1,70,0,1
141573,-83.3333333333333,4,2,1,5,0,1
141658,-83.3333333333333,4,2,1,70,0,1
141743,-83.3333333333333,4,2,1,5,0,1
141829,-83.3333333333333,4,2,2,70,0,1
141999,-83.3333333333333,4,2,1,70,0,1
142511,-83.3333333333333,4,2,1,70,0,1
142681,-83.3333333333333,4,2,1,5,0,1
142766,-83.3333333333333,4,2,1,70,0,1
142937,-83.3333333333333,4,2,1,5,0,1
143022,-83.3333333333333,4,2,1,70,0,1
143107,-83.3333333333333,4,2,1,5,0,1
143192,-83.3333333333333,4,2,1,70,0,1
143704,-83.3333333333333,4,2,2,70,0,1
143874,-83.3333333333333,4,2,1,70,0,1
147454,-83.3333333333333,4,2,1,70,0,1
147624,-83.3333333333333,4,2,1,50,0,1
147795,-83.3333333333333,4,2,1,70,0,1
148647,-100,4,2,1,70,0,0
153590,-100,4,2,1,5,0,0
153761,-400,4,2,1,70,0,0
154016,-400,4,2,1,5,0,0
154101,-90.9090909090909,4,2,1,70,0,0
161601,-90.9090909090909,4,2,2,70,0,0
161772,-90.9090909090909,4,2,1,70,0,0
164499,-90.9090909090909,4,2,1,50,0,0
164670,-90.9090909090909,4,2,1,70,0,0
166204,-90.9090909090909,4,2,2,70,0,0
166459,-90.9090909090909,4,2,2,5,0,0
166545,-90.9090909090909,4,2,1,70,0,0
177795,-83.3333333333333,4,2,1,40,0,0
178562,-83.3333333333333,4,2,1,5,0,0
178647,-100,4,2,1,60,0,0
181374,-100,4,2,2,60,0,0
181545,-100,4,2,1,60,0,0
184101,-133.333333333333,4,2,1,60,0,0
188192,-83.3333333333333,4,2,1,60,0,0
188533,-83.3333333333333,4,2,2,60,0,0
189386,-83.3333333333333,4,2,1,60,0,0
189556,-100,4,2,1,60,0,0
192283,-66.6666666666667,4,2,1,60,0,0
193988,-66.6666666666667,4,2,1,40,0,0
194073,-66.6666666666667,4,2,1,45,0,0
194158,-66.6666666666667,4,2,1,50,0,0
194243,-66.6666666666667,4,2,1,55,0,0
194329,-66.6666666666667,4,2,1,70,0,0
195692,-66.6666666666667,4,2,1,40,0,0
195778,-66.6666666666667,4,2,1,42,0,0
195863,-66.6666666666667,4,2,1,44,0,0
195948,-66.6666666666667,4,2,1,46,0,0
196033,-66.6666666666667,4,2,1,48,0,0
196118,-66.6666666666667,4,2,1,50,0,0
196204,-66.6666666666667,4,2,1,52,0,0
196289,-66.6666666666667,4,2,1,54,0,0
196374,-83.3333333333333,4,2,1,70,0,1
201232,-83.3333333333333,4,2,1,5,0,1
201317,-83.3333333333333,4,2,1,70,0,1
205067,-83.3333333333333,4,2,2,70,0,1
205408,-83.3333333333333,4,2,1,70,0,1
206005,-83.3333333333333,4,2,1,5,0,1
206090,-83.3333333333333,4,2,1,70,0,1
206601,-83.3333333333333,4,2,1,70,0,1
206772,-83.3333333333333,4,2,1,5,0,1
206857,-83.3333333333333,4,2,1,70,0,1
207028,-83.3333333333333,4,2,1,5,0,1
207113,-83.3333333333333,4,2,1,70,0,1
207198,-83.3333333333333,4,2,1,5,0,1
207283,-83.3333333333333,4,2,1,70,0,1
211204,-83.3333333333333,4,2,2,70,0,1
211459,-83.3333333333333,4,2,2,5,0,1
211545,-83.3333333333333,4,2,1,70,0,1
212056,-66.6666666666667,4,2,1,70,0,1
212226,-66.6666666666667,4,2,1,5,0,1
212312,-66.6666666666667,4,2,1,70,0,1
212482,-66.6666666666667,4,2,1,5,0,1
212567,-66.6666666666667,4,2,1,70,0,1
212653,-66.6666666666667,4,2,1,5,0,1
212738,-100,4,2,1,70,0,1
213420,-100,4,2,1,70,0,1
213590,-100,4,2,1,5,0,1
213675,-100,4,2,1,70,0,1
213846,-100,4,2,1,5,0,1
213931,-100,4,2,1,70,0,1
214016,-100,4,2,1,5,0,1
214101,-100,4,2,2,70,0,1
214272,-100,4,2,1,70,0,1
214783,-83.3333333333333,4,2,1,70,0,1
214954,-83.3333333333333,4,2,1,5,0,1
215039,-83.3333333333333,4,2,1,70,0,1
215209,-83.3333333333333,4,2,1,5,0,1
215295,-83.3333333333333,4,2,1,70,0,1
215380,-83.3333333333333,4,2,1,5,0,1
215465,-100,4,2,2,70,0,1
215636,-100,4,2,2,40,0,1
215806,-100,4,2,2,45,0,1
215976,-100,4,2,2,50,0,1
216147,-100,4,2,2,55,0,1
216317,-100,4,2,2,60,0,1
216488,-100,4,2,2,65,0,1
216658,-83.3333333333333,4,2,1,70,0,1
216914,-83.3333333333333,4,2,1,5,0,1
216999,-83.3333333333333,4,2,1,40,0,1
217170,-83.3333333333333,4,2,1,50,0,1
217340,-83.3333333333333,4,2,1,60,0,1
217511,-83.3333333333333,4,2,1,70,0,1
220238,-83.3333333333333,4,2,1,70,0,1
220408,-83.3333333333333,4,2,1,5,0,1
220493,-83.3333333333333,4,2,1,70,0,1
220664,-83.3333333333333,4,2,1,5,0,1
220749,-83.3333333333333,4,2,1,70,0,1
220834,-83.3333333333333,4,2,1,5,0,1
220920,-83.3333333333333,4,2,1,70,0,1
222113,-83.3333333333333,4,2,2,70,0,1
222368,-83.3333333333333,4,2,2,70,0,1
222454,-83.3333333333333,4,2,1,40,0,1
222624,-83.3333333333333,4,2,1,50,0,1
222795,-83.3333333333333,4,2,1,60,0,1
223476,-100,4,2,1,70,0,0
228931,-90.9090909090909,4,2,1,70,0,0
238136,-90.9090909090909,4,2,1,50,0,0
238988,-90.9090909090909,4,2,1,40,0,0
239840,-90.9090909090909,4,2,1,30,0,0
240181,-90.9090909090909,4,2,1,20,0,0
240437,-90.9090909090909,4,2,1,10,0,0
240692,-90.9090909090909,4,2,1,5,0,0

[Colours]
Combo1 : 153,81,153
Combo2 : 123,196,202
Combo3 : 167,105,115
Combo4 : 130,166,100

[HitObjects]
316,194,692,5,2,0:0:0:0:
476,222,948,1,2,0:0:0:0:
332,286,1204,1,2,0:0:0:0:
246,255,1374,6,0,P|210:246|103:236,1,132.000005035401,2|0,0:0|0:0,0:0:0:0:
22,259,1886,1,2,0:0:0:0:
38,114,2056,2,0,L|46:183,1,66.0000025177003,2|0,0:0|0:0,0:0:0:0:
149,117,2397,1,2,0:0:0:0:
149,117,2567,6,0,B|230:122,1,66.0000025177003,2|0,0:0|0:0,0:0:0:0:
385,133,2908,1,2,0:0:0:0:
300,187,3079,1,2,0:0:0:0:
295,85,3249,1,2,0:0:0:0:
405,142,3420,2,0,L|401:209,1,66.0000025177003
295,272,3761,2,0,L|291:206,1,66.0000025177003,2|0,0:0|0:0,0:0:0:0:
196,294,4101,6,0,L|128:292,1,66.0000025177003,0|2,0:0|0:0,0:0:0:0:
93,165,4442,1,2,0:0:0:0:
154,99,4613,2,0,P|182:162|164:222,1,132.000005035401,0|2,0:0|0:0,0:0:0:0:
73,74,5124,1,2,0:0:0:0:
141,14,5295,6,0,P|176:21|210:32,1,66.0000025177003
251,113,5636,1,2,0:0:0:0:
300,31,5806,1,0,0:0:0:0:
382,165,5976,2,0,P|387:99|385:33,1,132.000005035401,2|0,0:0|0:0,0:0:0:0:
302,203,6488,2,0,P|330:240|356:254,1,66.0000025177003,2|0,0:0|0:0,0:0:0:0:
252,115,6829,6,0,L|164:120,1,79.1999975830079,10|0,0:1|0:0,0:0:0:0:
111,194,7170,2,0,L|23:199,1,79.1999975830079,8|2,0:1|0:0,0:0:0:0:
63,24,7511,6,0,P|79:74|86:116,1,79.1999975830079,8|0,0:1|0:0,0:0:0:0:
188,285,7851,2,0,P|196:246|209:208,1,79.1999975830079,10|0,0:1|0:1,0:0:0:0:
284,112,8192,5,8,0:1:0:0:
332,220,8363,1,2,0:0:0:0:
296,88,8533,1,8,0:1:0:0:
208,208,8704,1,0,0:0:0:0:
396,160,8874,5,8,0:3:0:0:
418,203,8959,1,8,0:0:0:0:
413,252,9044,1,8,0:0:0:0:
384,291,9129,1,8,0:0:0:0:
338,308,9215,2,0,L|278:303,1,48.4000014770508,8|8,0:1|0:0,0:0:0:0:
208,208,9386,2,0,L|159:203,1,48.4000014770508,8|8,0:0|0:0,0:0:0:0:
84,341,9556,6,0,P|87:295|82:254,1,88,12|8,0:1|0:1,0:0:0:0:
29,59,9897,1,8,0:0:0:0:
207,100,10067,2,0,L|120:115,1,88,10|0,0:1|0:0,0:0:0:0:
294,207,10408,1,10,0:1:0:0:
295,42,10579,1,8,0:0:0:0:
186,237,10749,6,0,B|199:353|199:353|261:320,1,176,10|8,0:1|0:1,0:0:0:0:
373,156,11261,1,8,0:0:0:0:
424,303,11431,2,0,L|320:289,1,88,2|8,0:0|0:1,0:0:0:0:
211,129,11772,1,10,0:1:0:0:
373,156,11942,2,0,L|460:144,1,88,8|2,0:0|0:0,0:0:0:0:
192,45,12283,5,10,0:1:0:0:
226,214,12454,1,8,0:1:0:0:
366,74,12624,1,8,0:0:0:0:
184,133,12795,2,0,L|67:126,1,88,2|8,0:1|0:1,0:0:0:0:
315,261,13136,1,2,0:1:0:0:
282,61,13306,1,8,0:0:0:0:
218,232,13476,6,0,B|150:230|150:230|116:247|116:247|41:244,1,176,10|10,0:1|0:1,0:0:0:0:
54,16,13988,2,0,P|57:61|65:117,1,88,8|4,0:0|0:3,0:0:0:0:
119,161,14243,1,4,0:3:0:0:
119,161,14329,2,0,L|164:131,1,44,4|8,0:3|0:1,0:0:0:0:
295,46,14499,1,8,0:0:0:0:
295,46,14584,1,8,0:0:0:0:
295,46,14670,1,8,0:0:0:0:
170,308,14840,6,0,P|173:226|184:132,1,176,12|8,0:1|0:1,0:0:0:0:
262,245,15351,1,8,0:0:0:0:
87,140,15522,2,0,P|45:152|1:172,1,88,2|8,0:0|0:1,0:0:0:0:
170,308,15863,1,10,0:1:0:0:
22,263,16033,1,8,0:0:0:0:
262,245,16204,6,0,P|316:232|445:223,1,176,10|8,0:1|0:1,0:0:0:0:
298,49,16715,2,0,P|283:90|274:133,1,88,8|0,0:0|0:0,0:0:0:0:
401,306,17056,1,8,0:1:0:0:
375,115,17226,1,10,0:1:0:0:
262,245,17397,1,8,0:0:0:0:
298,49,17567,6,0,B|200:32|230:96|130:78,1,176,6|8,0:0|0:1,0:0:0:0:
270,139,18079,1,8,0:0:0:0:
159,0,18249,1,0,0:0:0:0:
57,151,18420,1,10,0:1:0:0:
218,62,18590,1,10,0:1:0:0:
29,49,18761,1,8,0:0:0:0:
87,252,18931,6,0,P|187:239|275:247,1,176,10|8,0:1|0:1,0:0:0:0:
399,314,19442,1,8,0:0:0:0:
424,113,19613,1,10,0:1:0:0:
424,113,19698,1,2,0:0:0:0:
424,113,19783,5,8,0:0:0:0:
469,250,19954,1,8,0:3:0:0:
351,155,20124,5,4,0:3:0:0:
326,285,20295,1,8,0:1:0:0:
273,123,20465,6,0,L|194:131,1,79.1999975830079,12|0,0:1|0:0,0:0:0:0:
130,57,20806,2,0,P|165:38|204:35,1,79.1999975830079,8|0,0:1|0:0,0:0:0:0:
96,147,21147,2,0,P|62:126|39:93,1,79.1999975830079,8|0,0:1|0:0,0:0:0:0:
194,130,21488,1,8,0:1:0:0:
73,238,21658,1,0,0:0:0:0:
222,129,21829,5,8,0:1:0:0:
222,129,21999,2,0,L|220:218,1,79.1999975830079,0|8,0:0|0:1,0:0:0:0:
345,79,22340,2,0,L|343:0,1,79.1999975830079,0|8,0:0|0:1,0:0:0:0:
307,159,22681,1,0,0:0:0:0:
428,74,22851,1,8,0:1:0:0:
461,245,23022,1,0,0:0:0:0:
461,245,23107,1,0,0:0:0:0:
461,245,23192,6,0,P|401:240|293:261,1,158.399995166016,8|8,0:1|0:1,0:0:0:0:
212,287,23704,2,0,L|220:202,1,79.1999975830079,0|8,0:0|0:1,0:0:0:0:
117,122,24045,1,0,0:0:0:0:
117,122,24215,2,0,L|124:200,1,79.1999975830079,8|0,0:1|2:1,0:0:0:0:
211,60,24556,6,0,B|287:28|297:87|368:54,1,158.399995166016,8|8,0:1|0:1,0:0:0:0:
454,13,25067,1,0,0:0:0:0:
403,138,25238,2,0,P|399:178|398:224,1,79.1999975830079,8|0,0:1|0:0,0:0:0:0:
510,307,25579,2,0,P|508:267|504:228,1,79.1999975830079,8|0,0:1|0:0,0:0:0:0:
368,291,25920,6,0,B|314:266|314:266|214:297,1,158.399995166016,8|8,0:1|0:1,0:0:0:0:
128,324,26431,1,0,0:0:0:0:
81,177,26601,2,0,P|116:232|126:331,1,158.399995166016,8|8,0:1|0:1,0:0:0:0:
200,181,27113,1,0,0:0:0:0:
200,181,27198,1,0,0:0:0:0:
200,181,27283,6,0,P|243:184|286:207,1,79.1999975830079,8|0,0:1|0:0,0:0:0:0:
329,119,27624,2,0,P|357:151|371:198,1,79.1999975830079,8|0,0:1|0:0,0:0:0:0:
466,129,27965,2,0,L|440:313,1,158.399995166016,8|8,0:1|0:1,0:0:0:0:
275,198,28476,1,0,0:0:0:0:
275,198,28562,1,0,0:0:0:0:
275,198,28647,6,0,L|287:286,1,79.1999975830079,8|0,0:1|0:0,0:0:0:0:
169,201,28988,1,8,0:1:0:0:
240,102,29158,1,0,0:0:0:0:
114,125,29329,1,8,0:1:0:0:
275,198,29499,1,0,0:0:0:0:
140,278,29670,1,8,0:1:0:0:
240,102,29840,6,0,P|285:96|334:115,1,88,12|0,0:0|0:0,0:0:0:0:
397,279,30181,1,8,0:3:0:0:
474,68,30522,1,4,0:3:0:0:
271,307,30863,5,8,0:1:0:0:
271,307,30949,1,8,0:1:0:0:
271,307,31033,2,0,P|207:297|141:300,1,132,8|0,0:0|0:0,0:0:0:0:
120,306,31374,6,0,P|142:223|112:142,1,176,12|8,0:1|0:0,0:0:0:0:
29,83,31886,1,0,0:0:0:0:
197,108,32056,2,0,L|289:94,1,88,10|8,0:1|0:1,0:0:0:0:
400,16,32397,1,8,0:0:0:0:
368,173,32567,1,2,0:1:0:0:
305,15,32738,5,8,0:1:0:0:
449,130,32908,2,0,P|457:176|443:228,1,88,10|8,0:1|0:0,0:0:0:0:
283,94,33249,1,2,0:0:0:0:
261,284,33420,2,0,P|264:238|271:188,1,88,8|10,0:1|0:1,0:0:0:0:
160,43,33761,2,0,P|165:86|168:130,1,88,8|0,0:0|0:0,0:0:0:0:
54,320,34101,6,0,P|73:240|155:240,1,176,10|8,0:1|0:0,0:0:0:0:
348,289,34613,2,0,L|249:283,1,88,2|8,0:0|0:1,0:0:0:0:
283,94,34954,1,8,0:1:0:0:
420,233,35124,2,0,P|437:280|428:335,1,88,8|0,0:0|0:0,0:0:0:0:
246,192,35465,5,10,0:1:0:0:
363,158,35636,1,8,0:1:0:0:
184,116,35806,5,8,0:0:0:0:
382,154,35976,1,8,0:1:0:0:
199,30,36147,5,8,0:0:0:0:
144,270,36317,1,10,0:1:0:0:
144,270,36658,6,0,P|131:200|80:96,1,176,6|8,0:0|0:1,0:0:0:0:
229,221,37170,5,8,0:0:0:0:
46,196,37340,1,0,0:0:0:0:
256,105,37511,5,8,0:0:0:0:
214,335,37681,1,0,0:0:0:0:
364,225,37851,5,8,0:0:0:0:
144,270,38021,1,8,0:1:0:0:
256,105,38192,6,0,B|300:92|300:92|342:103,1,88,8|0,0:0|0:0,0:0:0:0:
214,335,38533,1,8,0:0:0:0:
301,175,38704,1,8,0:1:0:0:
395,337,38874,5,8,0:0:0:0:
218,188,39045,2,0,P|180:168|137:161,1,88,6|8,0:0|0:0,0:0:0:0:
403,51,39386,6,0,P|384:139|386:240,1,176,12|8,0:1|0:1,0:0:0:0:
151,252,39897,1,8,0:0:0:0:
296,139,40067,1,0,0:0:0:0:
81,77,40238,5,8,0:0:0:0:
254,246,40408,1,0,0:0:0:0:
240,28,40579,5,8,0:0:0:0:
65,221,40749,1,8,0:1:0:0:
383,131,40920,6,0,L|376:228,1,88,8|8,0:0|0:3,0:0:0:0:
265,105,41261,1,4,0:3:0:0:
376,218,41431,1,6,0:0:0:0:
256,279,41601,1,8,0:3:0:0:
383,131,41772,1,8,0:0:0:0:
383,131,41857,1,8,0:0:0:0:
383,131,41942,2,0,L|385:83,1,44,8|0,0:0|0:0,0:0:0:0:
249,28,42113,2,0,L|250:71,1,44,4|4,0:3|0:3,0:0:0:0:
193,187,42283,6,0,P|129:177|63:187,1,132.000005035401,12|2,0:1|0:0,0:0:0:0:
17,263,42795,1,8,0:1:0:0:
57,108,42965,2,0,L|46:173,1,66.0000025177003,8|0,0:0|0:0,0:0:0:0:
117,332,43306,2,0,L|106:266,1,66.0000025177003,2|8,0:0|0:1,0:0:0:0:
234,137,43647,5,8,0:1:0:0:
234,137,43817,2,0,P|206:163|191:193,2,66.0000025177003,8|2|8,0:0|0:0|0:1,0:0:0:0:
342,127,44329,2,0,P|333:89|315:61,1,66.0000025177003,8|0,0:0|0:0,0:0:0:0:
295,223,44670,2,0,P|331:234|364:232,1,66.0000025177003,10|8,0:1|0:0,0:0:0:0:
193,187,45011,6,0,L|204:327,1,132.000005035401,2|8,0:1|0:1,0:0:0:0:
101,188,45522,1,0,0:0:0:0:
101,188,45692,2,0,P|111:141|190:94,1,132.000005035401,8|2,0:0|0:0,0:0:0:0:
326,115,46204,2,0,P|290:124|244:122,1,66.0000025177003,8|0,0:1|0:0,0:0:0:0:
414,61,46545,2,0,L|429:132,2,66.0000025177003,8|2|8,0:0|0:0|0:1,0:0:0:0:
386,203,47056,2,0,P|422:212|468:210,1,66.0000025177003,8|0,0:0|0:0,0:0:0:0:
261,124,47397,5,8,0:0:0:0:
256,163,47482,1,8,0:3:0:0:
252,202,47567,1,4,0:3:0:0:
248,242,47652,1,8,0:1:0:0:
244,281,47738,5,12,0:0:0:0:
98,110,47908,1,0,0:0:0:0:
20,315,48079,1,8,0:3:0:0:
256,163,48249,6,0,L|360:176,1,88,12|0,0:1|0:0,0:0:0:0:
130,209,48590,1,8,0:3:0:0:
179,46,48761,1,4,0:3:0:0:
244,281,48931,5,8,0:0:0:0:
244,281,49016,1,8,0:0:0:0:
244,281,49101,1,6,0:0:0:0:
348,92,49272,2,0,L|342:43,2,44,8|8|4,0:3|0:3|0:3,0:0:0:0:
502,237,49613,6,0,P|417:241|359:304,1,176,12|8,0:1|0:3,0:0:0:0:
169,149,50124,1,8,0:0:0:0:
212,142,50209,1,8,0:3:0:0:
254,152,50294,1,4,0:3:0:0:
289,178,50379,1,8,0:1:0:0:
312,215,50465,6,0,P|342:182|360:140,1,88,4|2,0:1|0:0,0:0:0:0:
254,6,50806,2,0,P|271:46|301:78,1,88,8|2,0:1|0:0,0:0:0:0:
392,58,51147,1,8,0:1:0:0:
254,152,51317,1,8,0:3:0:0:
393,40,51488,1,8,0:1:0:0:
430,209,51658,1,4,0:3:0:0:
240,157,51829,6,0,L|149:161,1,88,8|2,0:1|0:0,0:0:0:0:
59,321,52170,1,8,0:1:0:0:
198,240,52340,1,8,0:3:0:0:
59,160,52511,1,8,0:1:0:0:
152,321,52680,5,8,0:3:0:0:
152,160,52851,1,8,0:1:0:0:
13,240,53022,1,2,0:0:0:0:
13,240,53107,1,2,0:0:0:0:
13,240,53192,1,6,0:0:0:0:
240,157,54045,5,8,0:0:0:0:
22,86,54215,1,8,0:0:0:0:
216,40,54386,6,0,P|302:26|390:19,1,176,4|8,0:1|0:3,0:0:0:0:
240,157,54897,2,0,L|230:128,6,22,8|2|2|2|10|2|2,0:3|0:0|0:0|0:0|0:1|0:0|0:0,0:0:0:0:
358,170,55238,5,4,0:3:0:0:
341,222,55323,1,8,0:0:0:0:
303,260,55408,1,8,0:0:0:0:
251,278,55493,1,10,0:0:0:0:
198,269,55579,2,0,P|171:264|145:251,1,48.4000014770508,8|8,0:0|0:0,0:0:0:0:
343,124,55749,2,0,L|398:120,1,48.4000014770508,10|8,0:0|0:0,0:0:0:0:
116,140,55920,5,12,0:1:0:0:
307,27,56090,1,8,0:1:0:0:
303,260,56261,1,8,0:0:0:0:
221,69,56431,1,10,0:1:0:0:
384,200,56601,2,0,P|436:194|489:193,1,105.599996777344,0|8,0:0|0:1,0:0:0:0:
394,298,56942,1,8,0:0:0:0:
264,154,57113,6,0,B|153:184|175:99|56:128,1,211.199993554688,10|8,0:1|0:1,0:0:0:0:
0,333,57624,1,8,0:0:0:0:
106,211,57795,1,2,0:0:0:0:
260,342,57965,2,0,P|314:347|362:325,1,105.599996777344,8|8,0:1|0:1,0:0:0:0:
460,149,58306,1,8,0:0:0:0:
408,137,58391,1,2,0:0:0:0:
357,149,58476,1,2,0:0:0:0:
317,181,58561,1,2,0:0:0:0:
294,229,58647,6,0,L|169:212,1,105.599996777344,8|10,0:1|0:1,0:0:0:0:
286,55,58988,1,8,0:0:0:0:
390,345,59158,2,0,P|392:291|403:229,1,105.599996777344,10|0,0:1|0:0,0:0:0:0:
232,311,59499,1,10,0:1:0:0:
179,109,59670,2,0,P|187:161|189:213,1,105.599996777344,8|2,0:0|0:0,0:0:0:0:
76,36,60011,5,8,0:1:0:0:
286,55,60181,1,10,0:1:0:0:
64,176,60351,1,8,0:0:0:0:
305,61,60522,2,0,B|389:75|389:75|417:112|417:112|508:130,1,211.199993554688,10|8,0:1|0:1,0:0:0:0:
333,260,61033,2,0,B|321:210|321:210|338:154,1,105.599996777344,8|2,0:0|0:0,0:0:0:0:
428,312,61374,5,8,0:1:0:0:
234,206,61545,1,8,0:1:0:0:
407,213,61715,2,0,L|533:222,1,105.599996777344,8|8,0:0|0:1,0:0:0:0:
226,305,62056,2,0,P|215:251|237:201,1,105.599996777344,2|8,0:0|0:1,0:0:0:0:
332,37,62397,2,0,P|350:85|339:136,1,105.599996777344,10|8,0:0|0:1,0:0:0:0:
339,136,62653,1,8,0:1:0:0:
339,136,62738,5,10,0:0:0:0:
188,71,62908,1,0,0:0:0:0:
329,230,63079,5,10,0:0:0:0:
112,165,63249,1,8,0:1:0:0:
348,324,63420,5,10,0:0:0:0:
80,300,63590,1,0,0:0:0:0:
364,138,63761,5,10,0:0:0:0:
81,169,63931,1,8,0:1:0:0:
348,324,64101,6,0,L|464:314,1,105.599996777344,12|8,0:1|0:3,0:0:0:0:
492,232,64357,1,8,0:3:0:0:
492,232,64442,2,0,P|499:202|495:170,1,52.7999983886719,8|0,0:0|0:0,0:0:0:0:
307,29,64613,6,0,B|330:109|330:109|366:140|366:140|390:224,1,211.199993554688,6|8,0:0|0:3,0:0:0:0:
417,40,65124,1,8,0:0:0:0:
268,209,65295,6,0,L|151:203,1,105.599996777344,12|0,0:1|0:0,0:0:0:0:
62,50,65636,1,8,0:3:0:0:
96,279,65806,1,8,0:0:0:0:
67,235,65891,1,8,0:0:0:0:
64,183,65976,1,8,0:3:0:0:
87,136,66061,1,4,0:3:0:0:
131,108,66147,6,0,P|186:119|246:116,1,105.599996777344,8|0,0:0|0:0,0:0:0:0:
372,199,66403,6,0,P|319:198|268:209,1,105.599996777344,8|0,0:0|0:0,0:0:0:0:
336,50,66658,6,0,L|322:127,1,52.7999983886719,8|0,0:0|0:0,0:0:0:0:
161,275,66829,5,12,0:1:0:0:
189,35,66999,1,8,0:1:0:0:
268,209,67170,1,8,0:0:0:0:
23,133,67340,2,0,P|70:120|143:121,1,105.599996777344,10|8,0:1|0:1,0:0:0:0:
156,359,67681,1,10,0:1:0:0:
89,219,67851,1,8,0:0:0:0:
327,131,68022,6,0,P|301:233|291:338,1,211.199993554688,10|8,0:1|0:1,0:0:0:0:
429,116,68533,1,8,0:0:0:0:
225,141,68704,1,10,0:1:0:0:
432,244,68874,1,8,0:1:0:0:
364,12,69045,1,10,0:1:0:0:
196,148,69215,1,8,0:0:0:0:
456,112,69386,1,2,0:0:0:0:
209,40,69556,6,0,P|157:42|104:49,1,105.599996777344,10|8,0:1|0:1,0:0:0:0:
326,130,69897,1,8,0:0:0:0:
125,292,70067,2,0,P|117:243|109:186,1,105.599996777344,10|0,0:1|0:0,0:0:0:0:
341,25,70408,2,0,P|333:77|325:129,1,105.599996777344,10|8,0:1|0:0,0:0:0:0:
269,311,70749,6,0,P|346:245|446:267,1,211.199993554688,6|10,0:0|0:1,0:0:0:0:
209,40,71261,1,8,0:0:0:0:
208,92,71346,1,8,0:1:0:0:
207,145,71431,1,8,0:1:0:0:
206,198,71516,1,8,0:1:0:0:
206,251,71601,6,0,P|172:262|91:290,1,105.599996777344,12|0,0:0|0:0,0:0:0:0:
102,102,71857,6,0,P|124:150|105:199,1,105.599996777344,8|0,0:3|0:0,0:0:0:0:
13,95,72113,6,0,P|17:69|32:42,1,52.7999983886719,4|0,0:3|0:0,0:0:0:0:
192,44,72283,5,12,0:1:0:0:
16,192,72454,1,8,0:1:0:0:
206,251,72624,1,8,0:0:0:0:
102,102,72795,1,8,0:1:0:0:
285,147,72965,6,0,P|336:135|388:131,1,105.599996777344,8|0,0:0|0:0,0:0:0:0:
238,233,73221,6,0,P|186:220|134:216,1,105.599996777344,8|0,0:3|0:0,0:0:0:0:
340,237,73476,6,0,L|333:290,1,52.7999983886719,4|0,0:3|0:0,0:0:0:0:
269,115,73647,5,6,0:0:0:0:
167,322,73817,1,8,0:1:0:0:
152,122,73988,1,8,0:0:0:0:
336,228,74158,1,8,0:1:0:0:
134,218,74329,6,0,P|86:195|59:151,1,105.599996777344,8|0,0:0|0:0,0:0:0:0:
244,100,74584,6,0,P|248:151|223:197,1,105.599996777344,8|0,0:3|0:0,0:0:0:0:
112,32,74840,6,0,P|136:27|168:24,1,52.7999983886719,4|0,0:3|0:0,0:0:0:0:
316,208,75011,5,8,0:0:0:0:
152,122,75181,1,0,0:0:0:0:
345,126,75351,1,4,0:3:0:0:
137,117,75522,1,8,0:3:0:0:
388,20,75692,1,4,0:3:0:0:
384,280,75863,1,8,0:3:0:0:
384,280,75948,1,4,0:3:0:0:
384,280,76033,2,0,L|388:326,1,44,8|0,0:1|0:0,0:0:0:0:
124,258,76204,6,0,B|268:270,1,145.200004431152,12|0,0:1|0:0,0:0:0:0:
293,273,76545,1,8,0:3:0:0:
121,104,76715,1,8,0:3:0:0:
193,343,76886,1,8,0:3:0:0:
337,109,77056,1,4,0:3:0:0:
289,101,77141,1,4,0:3:0:0:
242,112,77226,1,8,0:0:0:0:
203,141,77311,1,8,0:0:0:0:
178,181,77396,1,8,0:0:0:0:
482,208,77567,6,0,L|458:19,1,176,12|8,0:1|0:1,0:0:0:0:
337,109,78079,1,8,0:0:0:0:
228,18,78249,2,0,P|184:17|142:30,1,88,2|8,0:0|0:1,0:0:0:0:
177,216,78590,1,10,0:1:0:0:
195,100,78761,1,8,0:0:0:0:
55,160,78931,6,0,B|33:210|33:210|62:334,1,176,10|8,0:1|0:1,0:0:0:0:
244,314,79442,1,8,0:0:0:0:
146,203,79613,2,0,L|166:296,1,88,2|8,0:0|0:1,0:0:0:0:
316,203,79954,1,10,0:1:0:0:
188,128,80124,1,8,0:0:0:0:
244,314,80295,1,2,0:0:0:0:
283,112,80465,6,0,P|327:108|368:121,1,88,10|8,0:1|0:1,0:0:0:0:
316,203,80806,1,8,0:0:0:0:
163,43,80976,2,0,P|178:89|191:143,1,88,2|8,0:1|0:1,0:0:0:0:
389,286,81317,2,0,P|399:243|413:201,1,88,10|8,0:1|0:0,0:0:0:0:
244,314,81658,6,0,P|150:302|57:303,1,176,10|10,0:1|0:1,0:0:0:0:
180,74,82170,2,0,P|201:118|208:174,1,88,8|4,0:0|0:3,0:0:0:0:
176,230,82425,1,4,0:3:0:0:
176,230,82511,2,0,L|131:201,1,44,4|8,0:3|0:1,0:0:0:0:
28,133,82681,1,8,0:0:0:0:
28,133,82766,1,8,0:0:0:0:
28,133,82851,1,8,0:0:0:0:
323,71,83022,6,0,P|309:143|302:270,1,176,12|8,0:1|0:1,0:0:0:0:
413,109,83533,1,8,0:0:0:0:
229,45,83704,2,0,P|183:45|141:49,1,88,2|8,0:0|0:1,0:0:0:0:
44,221,84045,1,10,0:1:0:0:
187,127,84215,1,8,0:0:0:0:
91,302,84386,6,0,B|188:283|166:348|264:325,1,176,10|8,0:1|0:1,0:0:0:0:
273,172,84897,2,0,P|242:214|225:256,1,88,8|2,0:0|0:0,0:0:0:0:
404,334,85238,1,8,0:1:0:0:
415,147,85408,1,10,0:1:0:0:
318,254,85579,1,8,0:0:0:0:
313,81,85749,6,0,B|247:77|247:77|208:95|208:95|141:91,1,176,6|8,0:0|0:1,0:0:0:0:
22,40,86261,1,2,0:0:0:0:
186,10,86431,1,8,0:1:0:0:
54,219,86601,2,0,L|60:116,1,88,12|2,0:0|0:0,0:0:0:0:
155,289,86942,1,10,0:1:0:0:
266,87,87113,6,0,L|470:71,1,176,10|8,0:1|0:0,0:0:0:0:
331,271,87624,1,8,0:3:0:0:
219,150,87795,1,4,0:3:0:0:
402,219,87965,2,0,L|490:209,1,88,8|8,0:0|0:3,0:0:0:0:
249,233,88306,2,0,L|161:222,1,88,4|8,0:3|0:1,0:0:0:0:
415,319,88647,5,12,0:1:0:0:
56,80,94101,5,2,0:0:0:0:
56,80,94442,1,2,0:0:0:0:
117,136,94613,1,0,0:0:0:0:
196,107,94783,1,2,0:0:0:0:
432,136,95124,5,2,0:0:0:0:
371,192,95295,1,0,0:0:0:0:
292,163,95465,5,2,0:0:0:0:
275,80,95636,1,0,0:0:0:0:
195,55,95806,1,2,0:0:0:0:
124,99,95977,1,0,0:0:0:0:
140,181,96147,2,0,L|199:197,1,44,2|0,0:0|0:0,0:0:0:0:
298,285,96488,2,0,L|358:300,1,44,2|0,0:0|0:0,0:0:0:0:
424,312,96743,1,2,0:0:0:0:
432,320,96829,6,0,L|432:272,1,44,2|0,0:0|0:0,0:0:0:0:
416,164,97170,1,0,0:0:0:0:
492,216,97340,1,0,0:0:0:0:
328,188,97511,1,2,0:0:0:0:
408,48,97681,2,0,L|428:160,1,88,8|0,0:1|0:0,0:0:0:0:
251,232,98022,6,0,B|239:191|239:191|251:144,1,88,8|0,0:0|0:0,0:0:0:0:
492,216,98363,1,8,0:3:0:0:
296,305,98704,1,4,0:3:0:0:
393,60,99044,5,8,0:1:0:0:
250,147,99215,2,0,P|280:70|201:89,1,198.000007553101,12|0,0:0|0:0,0:0:0:0:
125,225,99556,6,0,L|168:222,1,44,4|8,0:3|0:3,0:0:0:0:
318,212,99726,2,0,L|284:217,2,29.3333333333333,4|8|8,0:3|0:1|0:1,0:0:0:0:
328,187,99897,6,0,B|427:171|408:232|501:214,1,176,12|8,0:1|0:1,0:0:0:0:
362,280,100408,1,8,0:1:0:0:
403,104,100579,1,8,0:0:0:0:
460,293,100749,6,0,P|442:338|411:366,1,88,2|0,0:0|0:0,0:0:0:0:
327,186,101090,2,0,L|306:101,1,88,10|8,0:1|0:0,0:0:0:0:
183,259,101431,2,0,P|225:249|269:245,1,88,2|8,0:0|0:1,0:0:0:0:
106,310,101772,1,10,0:1:0:0:
190,168,101942,1,8,0:0:0:0:
240,327,102113,1,2,0:0:0:0:
56,228,102283,6,0,P|66:158|72:52,1,176,8|8,0:1|0:0,0:0:0:0:
190,168,102795,1,2,0:0:0:0:
268,33,102965,2,0,P|222:40|179:73,1,88,8|8,0:1|0:1,0:0:0:0:
346,107,103306,1,0,0:0:0:0:
217,248,103476,6,0,B|284:261|284:261|313:290|313:290|386:307,1,176,8|10,0:0|0:1,0:0:0:0:
346,107,103988,1,8,0:3:0:0:
396,207,104158,1,8,0:3:0:0:
372,13,104329,5,8,0:0:0:0:
190,168,104499,1,6,0:0:0:0:
190,168,104840,6,0,B|67:143|67:143|88:188,1,176,12|8,0:1|0:1,0:0:0:0:
217,248,105351,5,8,0:0:0:0:
188,62,105521,1,0,0:0:0:0:
132,285,105692,5,8,0:0:0:0:
303,205,105862,1,0,0:0:0:0:
88,188,106032,5,8,0:0:0:0:
282,312,106204,1,8,0:1:0:0:
339,120,106374,6,0,P|295:114|246:132,1,88,8|0,0:0|0:0,0:0:0:0:
205,341,106714,1,8,0:0:0:0:
303,205,106885,1,8,0:1:0:0:
88,188,107055,5,8,0:0:0:0:
297,309,107226,2,0,P|340:302|379:282,1,88,6|8,0:0|0:0,0:0:0:0:
172,57,107567,6,0,B|74:52|106:119|10:108,1,176,12|8,0:1|0:1,0:0:0:0:
196,322,108078,1,8,0:0:0:0:
153,143,108248,1,0,0:0:0:0:
73,318,108419,5,8,0:0:0:0:
208,221,108589,1,0,0:0:0:0:
38,182,108760,5,8,0:0:0:0:
298,213,108930,1,8,0:1:0:0:
145,56,109101,6,0,L|153:144,1,88,8|8,0:0|0:3,0:0:0:0:
123,250,109442,1,4,0:3:0:0:
244,141,109613,1,6,0:0:0:0:
38,182,109782,1,8,0:3:0:0:
208,221,109953,1,8,0:0:0:0:
208,221,110038,1,8,0:0:0:0:
208,221,110124,2,0,L|255:229,1,44,8|0,0:0|0:3,0:0:0:0:
206,65,110295,2,0,L|249:57,1,44,4|4,0:3|0:3,0:0:0:0:
384,112,110465,6,0,P|388:168|400:252,1,132.000005035401,12|2,0:1|0:0,0:0:0:0:
501,163,110976,1,8,0:1:0:0:
440,43,111147,2,0,P|409:30|377:24,1,66.0000025177003,8|0,0:0|0:0,0:0:0:0:
296,124,111488,2,0,P|328:118|358:105,1,66.0000025177003,2|8,0:0|0:1,0:0:0:0:
220,71,111829,5,8,0:1:0:0:
213,158,111999,1,8,0:0:0:0:
136,113,112170,1,2,0:0:0:0:
220,71,112340,1,8,0:1:0:0:
207,243,112511,2,0,L|202:312,1,66.0000025177003,8|0,0:0|0:0,0:0:0:0:
291,189,112851,2,0,L|295:123,1,66.0000025177003,2|8,0:0|0:0,0:0:0:0:
134,205,113192,6,0,P|68:202|16:241,1,132.000005035401,2|8,0:0|0:1,0:0:0:0:
97,299,113704,1,0,0:0:0:0:
197,289,113874,2,0,L|339:281,1,132.000005035401,8|2,0:0|0:0,0:0:0:0:
404,157,114386,6,0,L|397:239,1,66.0000025177003,8|0,0:1|0:0,0:0:0:0:
348,80,114726,1,8,0:0:0:0:
312,168,114897,1,2,0:0:0:0:
444,67,115067,1,8,0:1:0:0:
254,91,115238,6,0,L|154:102,1,88,8|8,0:0|0:0,0:0:0:0:
79,133,115493,1,8,0:0:0:0:
79,133,115579,2,0,L|70:86,1,44,8|8,0:0|0:3,0:0:0:0:
154,188,115749,2,0,L|145:231,1,44,4|8,0:3|0:1,0:0:0:0:
86,300,115920,5,12,0:0:0:0:
279,185,116090,1,0,0:0:0:0:
26,202,116261,1,8,0:3:0:0:
232,29,116431,6,0,P|228:75|223:117,1,88,12|0,0:1|0:0,0:0:0:0:
86,300,116772,1,8,0:3:0:0:
150,65,116943,1,4,0:3:0:0:
281,282,117113,5,8,0:0:0:0:
281,282,117198,1,8,0:0:0:0:
281,282,117283,2,0,P|323:272|372:262,1,88,6|8,0:0|0:3,0:0:0:0:
449,269,117539,1,8,0:3:0:0:
449,269,117624,1,8,0:3:0:0:
223,116,117795,6,0,P|148:120|97:164,1,132,12|0,0:1|0:0,0:0:0:0:
94,173,118136,1,8,0:3:0:0:
366,262,118306,1,8,0:0:0:0:
371,218,118391,1,8,0:3:0:0:
376,174,118476,1,8,0:3:0:0:
381,130,118561,1,8,0:1:0:0:
386,87,118647,6,0,P|342:93|300:82,1,88,12|2,0:1|0:0,0:0:0:0:
247,0,118988,1,8,0:1:0:0:
347,3,119158,1,2,0:0:0:0:
206,91,119329,2,0,L|216:181,1,88,8|8,0:1|0:3,0:0:0:0:
366,262,119670,2,0,L|375:174,1,88,8|4,0:1|0:3,0:0:0:0:
226,267,120011,5,8,0:1:0:0:
296,182,120181,1,2,0:0:0:0:
303,339,120351,1,8,0:1:0:0:
144,227,120522,1,8,0:3:0:0:
180,347,120692,1,8,0:1:0:0:
187,146,120863,1,8,0:3:0:0:
96,313,121033,1,8,0:1:0:0:
41,107,121204,5,2,0:0:0:0:
41,107,121289,1,2,0:0:0:0:
41,107,121374,1,6,0:0:0:0:
415,190,122226,5,8,0:0:0:0:
226,267,122397,1,8,0:0:0:0:
410,348,122567,6,0,P|412:279|382:219,1,132,12|0,0:1|0:0,0:0:0:0:
373,204,122908,2,0,L|422:186,1,44,8|0,0:0|0:0,0:0:0:0:
176,148,123079,2,0,L|143:156,6,22,8|2|10|2|10|2|10,0:3|0:0|0:0|0:0|0:0|0:0|0:0,0:0:0:0:
250,188,123420,5,10,0:0:0:0:
294,208,123505,1,8,0:0:0:0:
343,208,123590,1,8,0:0:0:0:
387,185,123675,1,10,0:0:0:0:
416,146,123760,1,8,0:0:0:0:
425,98,123846,1,8,0:3:0:0:
412,51,123931,1,4,0:3:0:0:
380,14,124016,1,4,0:3:0:0:
335,0,124101,5,12,0:1:0:0:
226,267,124272,1,8,0:1:0:0:
325,99,124442,1,8,0:0:0:0:
84,99,124613,1,10,0:1:0:0:
325,99,124783,2,0,L|436:88,1,105.599996777344,0|8,0:0|0:1,0:0:0:0:
156,192,125124,1,8,0:0:0:0:
328,320,125295,6,0,P|398:260|324:205,1,211.199993554688,10|8,0:1|0:1,0:0:0:0:
120,320,125806,1,8,0:0:0:0:
240,152,125977,1,2,0:0:0:0:
40,120,126147,1,8,0:1:0:0:
232,288,126317,1,8,0:1:0:0:
320,96,126488,1,8,0:0:0:0:
279,63,126573,1,2,0:0:0:0:
227,56,126658,1,2,0:0:0:0:
179,76,126743,1,2,0:0:0:0:
148,118,126829,6,0,P|144:168|176:228,1,105.599996777344,8|2,0:1|0:0,0:0:0:0:
350,24,127170,1,8,0:0:0:0:
456,172,127340,2,0,P|431:250|414:324,1,158.399995166016,10|0,0:1|0:0,0:0:0:0:
408,351,127681,1,10,0:1:0:0:
240,152,127851,1,8,0:0:0:0:
128,305,128022,6,0,P|178:291|231:287,1,105.599996777344,2|8,0:0|0:1,0:0:0:0:
52,207,128363,1,2,0:0:0:0:
193,368,128533,1,8,0:0:0:0:
337,175,128704,2,0,B|215:195|264:105|131:134,1,211.199993554688,10|8,0:1|0:1,0:0:0:0:
298,0,129215,2,0,P|311:50|302:101,1,105.599996777344,8|2,0:0|0:0,0:0:0:0:
222,56,129471,1,2,0:0:0:0:
222,56,129556,5,8,0:1:0:0:
391,105,129726,1,8,0:1:0:0:
168,224,129897,1,8,0:0:0:0:
337,175,130067,1,8,0:1:0:0:
128,27,130238,2,0,P|134:80|139:131,1,105.599996777344,2|8,0:1|0:1,0:0:0:0:
325,279,130579,2,0,P|329:226|336:174,1,105.599996777344,8|8,0:0|0:1,0:0:0:0:
337,175,130834,1,8,0:1:0:0:
337,175,130920,5,10,0:0:0:0:
155,261,131090,1,0,0:0:0:0:
302,101,131261,5,10,0:0:0:0:
235,346,131431,1,8,0:1:0:0:
208,71,131602,5,10,0:0:0:0:
439,215,131772,1,0,0:0:0:0:
119,159,131942,5,10,0:0:0:0:
402,109,132112,1,8,0:1:0:0:
155,261,132283,6,0,P|101:264|41:232,1,105.599996777344,12|8,0:1|0:3,0:0:0:0:
36,148,132539,1,8,0:3:0:0:
36,148,132624,2,0,P|45:118|65:93,1,52.7999983886719,8|0,0:0|0:0,0:0:0:0:
257,228,132795,6,0,P|334:210|413:210,1,158.399995166016,6|0,0:0|0:0,0:0:0:0:
439,215,133136,1,10,0:1:0:0:
223,99,133306,1,8,0:0:0:0:
200,353,133476,6,0,L|174:250,1,105.599996777344,12|0,0:1|0:0,0:0:0:0:
134,56,133817,1,8,0:1:0:0:
362,69,133988,1,8,0:0:0:0:
312,52,134073,1,8,0:0:0:0:
261,63,134158,1,8,0:3:0:0:
223,99,134243,1,8,0:3:0:0:
207,148,134329,6,0,P|154:167|97:169,1,105.599996777344,8|0,0:0|0:0,0:0:0:0:
32,34,134584,6,0,P|85:53|142:55,1,105.599996777344,8|0,0:0|0:0,0:0:0:0:
22,176,134840,6,0,P|26:198|31:227,1,52.7999983886719,8|0,0:0|0:0,0:0:0:0:
192,339,135011,5,12,0:1:0:0:
105,169,135181,1,8,0:1:0:0:
314,223,135351,1,8,0:0:0:0:
223,44,135522,2,0,P|212:95|206:148,1,105.599996777344,10|8,0:1|0:1,0:0:0:0:
303,342,135863,1,10,0:1:0:0:
320,115,136033,1,8,0:0:0:0:
58,248,136204,6,0,P|133:244|221:338,1,211.199993554688,10|8,0:1|0:1,0:0:0:0:
104,357,136714,1,8,0:0:0:0:
104,146,136885,1,10,0:1:0:0:
286,251,137055,1,8,0:1:0:0:
31,250,137226,1,10,0:1:0:0:
231,134,137396,1,8,0:0:0:0:
231,367,137567,1,2,0:0:0:0:
91,125,137738,6,0,P|102:67|120:17,1,105.599996777344,10|8,0:1|0:1,0:0:0:0:
340,135,138079,1,8,0:0:0:0:
212,292,138249,2,0,L|100:281,1,105.599996777344,10|0,0:1|0:0,0:0:0:0:
285,54,138590,2,0,L|397:43,1,105.599996777344,10|8,0:1|0:0,0:0:0:0:
441,343,138931,6,0,P|429:270|423:185,1,158.399995166016,12|0,0:1|0:0,0:0:0:0:
425,159,139272,2,0,L|482:174,1,52.7999983886719,10|0,0:1|0:0,0:0:0:0:
289,170,139442,1,8,0:0:0:0:
236,165,139527,1,8,0:1:0:0:
183,160,139612,1,8,0:1:0:0:
131,155,139697,1,8,0:1:0:0:
78,150,139783,6,0,P|54:196|50:249,1,105.599996777344,12|0,0:0|0:0,0:0:0:0:
223,302,140039,6,0,P|192:258|147:230,1,105.599996777344,8|0,0:3|0:0,0:0:0:0:
48,352,140295,6,0,P|75:348|108:337,1,52.7999983886719,4|0,0:3|0:0,0:0:0:0:
236,165,140465,5,12,0:1:0:0:
362,350,140636,1,8,0:1:0:0:
329,122,140806,1,8,0:0:0:0:
197,335,140976,1,8,0:1:0:0:
436,324,141147,6,0,P|442:263|457:210,1,105.599996777344,8|0,0:0|0:0,0:0:0:0:
508,111,141403,6,0,P|448:143|398:148,1,105.599996777344,8|0,0:3|0:0,0:0:0:0:
374,20,141658,6,0,P|389:47|401:77,1,52.7999983886719,4|0,0:3|0:0,0:0:0:0:
263,268,141829,5,6,0:0:0:0:
278,43,141999,1,8,0:1:0:0:
453,220,142170,1,8,0:0:0:0:
240,127,142340,1,8,0:1:0:0:
306,350,142511,6,0,P|270:358|201:340,1,105.599996777344,8|0,0:3|0:3,0:0:0:0:
140,159,142766,6,0,P|164:186|182:255,1,105.599996777344,4|0,0:3|0:3,0:0:0:0:
89,361,143022,6,0,P|104:324|130:302,1,52.7999983886719,8|0,0:1|0:1,0:0:0:0:
263,268,143192,5,12,0:1:0:0:
124,137,143363,1,10,0:1:0:0:
204,341,143533,1,8,0:0:0:0:
104,235,143704,2,0,L|-4:222,1,105.599996777344,6|0,0:0|0:0,0:0:0:0:
210,99,144045,1,10,0:1:0:0:
306,350,144215,6,0,B|385:332|385:332|432:348|432:348|514:333,1,211.199993554688,12|0,0:0|0:0,0:0:0:0:
497,107,144726,1,10,0:1:0:0:
415,159,144897,2,0,B|403:209|403:209|432:268,1,105.599996777344,8|0,0:0|0:0,0:0:0:0:
412,69,145238,1,10,0:1:0:0:
492,200,145408,1,8,0:1:0:0:
483,27,145579,1,8,0:0:0:0:
332,118,145749,1,2,0:1:0:0:
163,50,145920,6,0,P|112:62|73:97,1,105.599996777344,12|0,0:1|0:0,0:0:0:0:
295,219,146261,1,8,0:0:0:0:
150,137,146431,6,0,P|122:181|120:233,1,105.599996777344,10|0,0:1|0:0,0:0:0:0:
351,116,146772,1,8,0:1:0:0:
205,208,146942,6,0,P|217:258|252:297,1,105.599996777344,8|0,0:0|0:0,0:0:0:0:
267,35,147283,6,0,L|158:50,1,105.599996777344,12|0,0:0|0:0,0:0:0:0:
299,215,147624,1,8,0:0:0:0:
364,12,147795,2,0,P|355:64|352:126,1,105.599996777344,8|0,0:3|0:0,0:0:0:0:
411,206,148136,1,8,0:3:0:0:
447,81,148306,1,4,0:3:0:0:
431,225,148476,1,8,0:1:0:0:
256,132,148647,5,4,3:2:0:0:
256,192,152738,12,0,153590,0:0:0:0:
370,157,153761,6,0,L|365:193,1,33,12|0,0:3|0:0,0:0:0:0:
350,277,154101,6,0,P|308:279|244:286,1,96.8000029541017,12|10,0:1|0:1,0:0:0:0:
152,308,154442,1,8,0:0:0:0:
68,128,154613,2,0,P|65:224|57:321,1,193.600005908203,10|8,0:1|0:1,0:0:0:0:
161,165,155124,2,0,P|168:119|144:63,1,96.8000029541017,8|10,0:0|0:1,0:0:0:0:
319,174,155465,6,0,L|427:166,1,96.8000029541017,0|10,0:0|0:1,0:0:0:0:
259,0,155806,2,0,P|242:45|249:92,1,96.8000029541017,8|10,0:0|0:1,0:0:0:0:
347,56,156147,1,8,0:3:0:0:
151,72,156317,1,10,0:1:0:0:
235,223,156488,2,0,L|242:157,1,48.4000014770508,8|0,0:0|0:0,0:0:0:0:
361,39,156658,2,0,L|366:87,1,48.4000014770508,2|2,0:0|0:0,0:0:0:0:
376,283,156829,5,10,0:1:0:0:
319,174,156999,1,8,0:1:0:0:
443,187,157170,1,8,0:0:0:0:
274,301,157340,2,0,B|172:323|193:251|87:275,1,193.600005908203,10|8,0:1|0:1,0:0:0:0:
151,72,157851,1,8,0:0:0:0:
235,223,158022,6,0,P|228:168|238:119,1,96.8000029541017,10|0,0:1|0:0,0:0:0:0:
443,187,158363,1,10,0:1:0:0:
319,174,158533,1,8,0:0:0:0:
405,55,158704,1,2,0:0:0:0:
483,268,158874,1,8,0:1:0:0:
319,174,159045,1,10,0:1:0:0:
491,114,159215,1,8,0:0:0:0:
391,263,159386,1,8,0:3:0:0:
391,263,159471,1,4,0:3:0:0:
391,263,159556,6,0,B|335:255|304:293|304:293|249:301|209:258,1,193.600005908203,12|8,0:1|0:0,0:0:0:0:
162,146,160067,1,2,0:0:0:0:
338,79,160238,2,0,P|326:125|318:185,1,96.8000029541017,10|8,0:1|0:1,0:0:0:0:
234,358,160579,2,0,P|227:310|214:263,1,96.8000029541017,8|2,0:0|0:0,0:0:0:0:
75,121,160920,5,8,0:1:0:0:
56,272,161090,1,2,0:0:0:0:
162,146,161261,1,8,0:0:0:0:
11,188,161431,1,2,0:0:0:0:
214,263,161601,1,6,0:0:0:0:
147,65,161772,1,8,0:1:0:0:
136,270,161942,2,0,L|131:371,1,96.8000029541017,8|0,0:0|0:0,0:0:0:0:
270,160,162283,6,0,B|379:130|355:216|462:185,1,193.600005908203,12|8,0:1|0:0,0:0:0:0:
425,91,162795,1,2,0:0:0:0:
311,241,162965,2,0,P|310:282|318:344,1,96.8000029541017,8|10,0:1|0:1,0:0:0:0:
453,187,163306,1,8,0:0:0:0:
222,243,163476,6,0,P|173:245|125:251,1,96.8000029541017,10|0,0:1|0:0,0:0:0:0:
328,82,163817,2,0,P|376:84|424:90,1,96.8000029541017,10|8,0:1|0:0,0:0:0:0:
198,94,164158,1,10,0:1:0:0:
283,306,164329,1,8,0:3:0:0:
303,276,164414,1,8,0:1:0:0:
309,240,164499,1,8,0:0:0:0:
301,205,164584,1,0,0:0:0:0:
279,177,164669,1,8,0:0:0:0:
153,350,164840,5,10,0:1:0:0:
153,350,164925,1,8,0:0:0:0:
153,350,165011,1,12,0:1:0:0:
382,298,165181,1,8,0:1:0:0:
126,178,165351,5,8,0:0:0:0:
389,210,165522,1,10,0:1:0:0:
204,7,165692,5,8,0:0:0:0:
303,276,165863,1,8,0:1:0:0:
303,276,165948,1,8,0:3:0:0:
303,276,166033,1,8,0:3:0:0:
457,100,166204,6,0,P|367:90|288:86,1,145.200004431152,6|0,0:0|0:0,0:0:0:0:
288,88,166545,1,8,0:0:0:0:
389,210,166715,1,8,0:1:0:0:
209,251,166886,1,8,0:3:0:0:
306,183,167056,5,8,0:0:0:0:
290,295,167226,1,8,0:1:0:0:
223,151,167397,1,8,0:3:0:0:
389,210,167567,1,4,0:3:0:0:
210,348,167738,5,2,0:0:0:0:
71,196,177795,5,2,0:0:0:0:
71,196,177880,1,2,0:0:0:0:
71,196,177965,2,0,B|110:199|131:157|131:157|152:212|214:222|259:216|312:161|299:79|187:61|186:120|204:146,1,369.599988720703,2|0,0:0|0:0,0:0:0:0:
330,211,178647,6,0,P|373:211|424:204,1,88,12|0,0:1|0:0,0:0:0:0:
350,41,178988,2,0,L|362:129,1,88,8|2,0:1|0:0,0:0:0:0:
500,268,179329,2,0,L|512:180,1,88,10|0,0:1|0:0,0:0:0:0:
350,41,179670,1,10,0:1:0:0:
240,199,179840,6,0,L|263:294,1,88,2|8,0:1|0:1,0:0:0:0:
330,211,180181,1,2,0:0:0:0:
208,118,180351,1,10,0:1:0:0:
296,129,180522,1,2,0:1:0:0:
148,183,180692,2,0,L|53:175,1,88,8|2,0:1|0:0,0:0:0:0:
7,104,181033,1,8,0:1:0:0:
9,248,181204,5,8,0:0:0:0:
9,248,181289,1,8,0:0:0:0:
9,248,181374,2,0,P|2:300|18:342,1,88,6|0,0:0|0:0,0:0:0:0:
178,279,181715,1,8,0:1:0:0:
88,286,181886,1,2,0:0:0:0:
254,323,182056,2,0,P|299:317|349:315,1,88,10|0,0:1|0:0,0:0:0:0:
436,334,182397,1,10,0:1:0:0:
400,164,182567,5,8,0:0:0:0:
400,164,182653,1,8,0:0:0:0:
400,164,182738,2,0,P|396:207|401:251,1,88,10|8,0:1|0:0,0:0:0:0:
322,104,183079,1,8,0:1:0:0:
482,212,183249,1,2,0:0:0:0:
315,195,183420,2,0,P|269:196|217:200,1,88,8|0,0:0|0:0,0:0:0:0:
144,214,183675,1,8,0:0:0:0:
144,214,183761,2,0,L|145:159,1,44,8|0,0:3|0:0,0:0:0:0:
217,77,183931,2,0,L|217:120,1,44,4|4,0:3|0:3,0:0:0:0:
266,293,184101,6,0,B|329:276,1,66.0000025177003,12|0,0:1|0:0,0:0:0:0:
482,212,184442,1,2,0:0:0:0:
482,212,184613,2,0,P|453:265|437:344,1,132.000005035401,8|10,0:1|0:1,0:0:0:0:
396,184,185124,1,8,0:0:0:0:
396,184,185465,6,0,P|412:150|440:125,1,66.0000025177003,12|0,0:1|0:0,0:0:0:0:
271,185,185806,1,2,0:0:0:0:
271,185,185976,2,0,B|203:203|216:152|144:170,1,132.000005035401,8|10,0:1|0:1,0:0:0:0:
38,140,186488,2,0,P|54:179|59:210,1,66.0000025177003,8|0,0:0|0:0,0:0:0:0:
166,363,186829,6,0,B|144:301|144:301|169:239,1,132.000005035401,12|2,0:1|0:0,0:0:0:0:
306,302,187340,2,0,L|227:305,1,66.0000025177003
271,185,187681,1,8,0:1:0:0:
390,268,187851,2,0,P|395:307|390:339,1,66.0000025177003,8|10,0:0|0:1,0:0:0:0:
140,261,188192,5,8,0:0:0:0:
497,116,188533,5,6,0:0:0:0:
113,62,188874,5,6,0:0:0:0:
478,222,189215,5,6,0:0:0:0:
361,180,189386,5,8,0:3:0:0:
361,180,189471,1,8,0:3:0:0:
361,180,189556,2,0,L|379:274,1,88,12|0,0:1|0:0,0:0:0:0:
284,241,189897,1,8,0:1:0:0:
455,200,190067,1,8,0:3:0:0:
308,327,190238,2,0,P|268:328|222:305,1,88,12|0,0:1|0:0,0:0:0:0:
263,150,190579,1,8,0:1:0:0:
142,337,190749,6,0,P|143:293|132:250,1,88,8|0,0:0|0:0,0:0:0:0:
40,210,191090,1,2,0:0:0:0:
178,133,191261,1,8,0:1:0:0:
53,126,191431,5,8,0:3:0:0:
176,156,191601,1,8,0:1:0:0:
18,47,191772,5,8,0:3:0:0:
173,180,191942,1,2,0:1:0:0:
176,156,192028,1,2,0:0:0:0:
178,133,192113,1,8,0:0:0:0:
182,110,192198,1,10,0:0:0:0:
185,89,192283,6,0,B|221:45|279:49|279:49|308:91|366:87,1,198.000007553101,12|0,0:0|0:0,0:0:0:0:
419,0,192624,2,0,P|382:2|352:8,1,66.0000025177003,8|8,0:3|0:3,0:0:0:0:
280,209,192795,6,0,B|325:197|325:197|359:207|359:207|414:193,1,132.000005035401,12|0,0:0|0:0,0:0:0:0:
135,223,193136,1,8,0:0:0:0:
320,336,193306,1,8,0:0:0:0:
193,40,193476,6,0,B|207:177|207:177|221:146|256:135,1,198.000007553101,14|0,0:1|0:0,0:0:0:0:
357,87,193817,2,0,P|348:122|341:157,1,66.0000025177003,8|0,0:1|0:0,0:0:0:0:
320,336,193988,1,8,0:0:0:0:
290,317,194073,1,8,0:0:0:0:
259,312,194158,1,8,0:0:0:0:
226,315,194243,1,8,0:0:0:0:
196,330,194328,5,8,0:0:0:0:
144,347,194414,1,8,0:3:0:0:
90,336,194499,1,4,0:3:0:0:
51,298,194584,1,8,0:1:0:0:
38,246,194669,1,8,0:0:0:0:
54,194,194755,1,8,0:0:0:0:
96,159,194840,5,8,0:0:0:0:
116,168,195181,5,8,0:3:0:0:
40,20,195351,5,2,0:0:0:0:
209,208,195692,5,2,0:0:0:0:
222,195,195777,1,2,0:0:0:0:
245,182,195863,1,2,0:0:0:0:
278,177,195948,1,2,0:0:0:0:
317,189,196033,1,2,0:0:0:0:
352,222,196118,1,2,0:0:0:0:
400,240,196203,1,2,0:0:0:0:
453,224,196289,1,2,0:0:0:0:
488,176,196374,6,0,P|492:119|455:71,1,105.599996777344,12|8,0:1|0:1,0:0:0:0:
276,264,196715,1,8,0:0:0:0:
405,143,196886,1,10,0:1:0:0:
189,124,197056,1,2,0:0:0:0:
349,347,197226,1,8,0:1:0:0:
329,91,197397,1,8,0:0:0:0:
196,293,197567,6,0,B|123:266|57:302|57:302|81:277|86:239,1,211.199993554688,10|8,0:1|0:1,0:0:0:0:
65,32,198079,2,0,P|46:82|55:134,1,105.599996777344,8|2,0:0|0:0,0:0:0:0:
271,18,198420,1,8,0:1:0:0:
142,91,198590,1,8,0:1:0:0:
361,0,198761,1,8,0:0:0:0:
403,29,198846,1,2,0:0:0:0:
425,77,198931,1,2,0:0:0:0:
420,128,199016,1,2,0:0:0:0:
388,170,199101,6,0,L|428:276,1,105.599996777344,8|2,0:1|0:1,0:0:0:0:
331,92,199442,1,8,0:0:0:0:
291,324,199613,2,0,P|238:315|186:311,1,105.599996777344,10|0,0:1|0:0,0:0:0:0:
32,339,199954,1,10,0:1:0:0:
202,208,200124,1,8,0:0:0:0:
34,94,200295,1,2,0:0:0:0:
34,94,200380,1,2,0:0:0:0:
34,94,200465,6,0,P|47:144|54:197,1,105.599996777344,8|2,0:1|0:0,0:0:0:0:
207,22,200806,1,8,0:0:0:0:
298,219,200976,2,0,P|376:202|455:198,1,158.399995166016,10|0,0:1|0:0,0:0:0:0:
482,199,201317,1,8,0:1:0:0:
321,11,201488,2,0,P|298:58|290:110,1,105.599996777344,8|2,0:0|0:0,0:0:0:0:
386,279,201829,5,8,0:1:0:0:
202,167,201999,1,8,0:1:0:0:
399,93,202170,1,8,0:0:0:0:
212,258,202340,1,8,0:1:0:0:
146,0,202511,2,0,L|133:104,1,105.599996777344,2|8,0:0|0:1,0:0:0:0:
298,219,202851,2,0,L|284:323,1,105.599996777344,8|8,0:0|0:1,0:0:0:0:
283,323,203107,1,8,0:1:0:0:
283,323,203192,5,10,0:0:0:0:
196,136,203363,1,0,0:0:0:0:
203,348,203533,5,10,0:0:0:0:
293,126,203704,1,8,0:1:0:0:
375,349,203874,5,10,0:0:0:0:
250,46,204045,1,0,0:0:0:0:
109,242,204215,5,10,0:0:0:0:
406,137,204386,1,8,0:1:0:0:
203,348,204556,6,0,L|219:230,1,105.599996777344,12|8,0:1|0:3,0:0:0:0:
214,152,204812,1,8,0:3:0:0:
214,152,204897,2,0,P|183:156|155:173,1,52.7999983886719,8|0,0:0|0:0,0:0:0:0:
306,327,205067,6,0,B|374:349|407:291|407:291|436:339|494:335,1,211.199993554688,6|8,0:0|0:3,0:0:0:0:
406,137,205579,1,8,0:0:0:0:
217,243,205749,6,0,P|154:239|56:237,1,158.399995166016,12|0,0:1|0:0,0:0:0:0:
32,239,206090,2,0,L|19:177,1,52.7999983886719,8|0,0:3|0:0,0:0:0:0:
159,27,206261,1,8,0:0:0:0:
210,20,206346,1,8,0:0:0:0:
260,36,206431,1,8,0:3:0:0:
298,72,206516,1,4,0:3:0:0:
317,121,206602,6,0,L|309:243,1,105.599996777344,8|0,0:0|0:0,0:0:0:0:
482,206,206857,6,0,P|503:158|498:106,1,105.599996777344,8|0,0:0|0:0,0:0:0:0:
380,16,207113,6,0,P|355:5|329:-1,1,52.7999983886719,8|0,0:0|0:0,0:0:0:0:
203,130,207283,5,12,0:1:0:0:
396,100,207454,1,8,0:1:0:0:
256,296,207624,1,8,0:0:0:0:
156,44,207795,2,0,P|208:36|264:52,1,105.599996777344,10|8,0:1|0:1,0:0:0:0:
364,320,208136,1,10,0:1:0:0:
203,130,208306,1,8,0:0:0:0:
136,344,208476,6,0,B|68:312|68:312|48:236|88:172,1,211.199993554688,10|8,0:1|0:1,0:0:0:0:
319,130,208988,1,8,0:0:0:0:
156,255,209158,1,10,0:1:0:0:
271,39,209329,1,8,0:1:0:0:
362,216,209499,1,10,0:1:0:0:
156,44,209670,1,8,0:0:0:0:
381,29,209840,1,2,0:0:0:0:
261,326,210011,6,0,P|268:273|269:220,1,105.599996777344,10|0,0:1|0:0,0:0:0:0:
156,44,210351,1,8,0:0:0:0:
376,252,210522,2,0,L|492:237,1,105.599996777344,10|0,0:1|0:0,0:0:0:0:
136,132,210863,2,0,L|20:147,1,105.599996777344,10|8,0:1|0:0,0:0:0:0:
357,169,211204,6,0,B|389:113|369:61|369:61|317:35,1,158.399995166016,6|0,0:0|0:0,0:0:0:0:
303,31,211545,1,10,0:1:0:0:
258,273,211715,1,8,0:0:0:0:
214,302,211800,1,8,0:1:0:0:
162,309,211885,1,8,0:1:0:0:
112,294,211970,1,8,0:1:0:0:
73,257,212056,6,0,P|52:196|66:132,1,132.000005035401,12|0,0:0|0:0,0:0:0:0:
266,122,212312,6,0,P|223:171|161:191,1,132.000005035401,8|0,0:3|0:0,0:0:0:0:
50,36,212567,6,0,P|84:37|118:49,1,66.0000025177003,4|0,0:3|0:0,0:0:0:0:
266,122,212738,6,0,L|353:114,1,88,12|2,0:1|0:0,0:0:0:0:
438,55,213079,1,8,0:1:0:0:
355,24,213249,1,2,0:0:0:0:
443,151,213420,6,0,P|435:193|431:244,1,88,8|0,0:1|0:0,0:0:0:0:
349,271,213675,6,0,P|389:256|435:234,1,88,8|0,0:3|0:0,0:0:0:0:
490,288,213931,6,0,P|474:272|457:258,1,44,4|0,0:3|0:0,0:0:0:0:
364,356,214101,6,0,P|320:352|276:351,1,88,6|2,0:0|0:0,0:0:0:0:
170,214,214442,2,0,P|209:226|245:261,1,88,8|2,0:1|0:0,0:0:0:0:
154,110,214783,6,0,P|112:122|69:167,1,105.599996777344,8|0,0:1|0:0,0:0:0:0:
75,266,215039,6,0,P|85:223|68:163,1,105.599996777344,8|0,0:3|0:0,0:0:0:0:
6,121,215295,6,0,P|25:142|52:161,1,52.7999983886719,4|0,0:3|0:0,0:0:0:0:
247,150,215465,5,10,0:0:0:0:
289,161,215550,1,8,0:0:0:0:
329,146,215635,1,8,0:0:0:0:
354,110,215720,1,8,0:0:0:0:
356,68,215806,5,10,0:0:0:0:
314,80,215891,1,8,0:0:0:0:
290,116,215976,1,8,0:0:0:0:
289,161,216061,1,8,0:0:0:0:
329,193,216147,5,10,0:0:0:0:
351,236,216232,1,8,0:0:0:0:
359,279,216317,1,8,0:0:0:0:
340,321,216402,1,8,0:0:0:0:
302,344,216487,1,10,0:0:0:0:
252,348,216573,1,10,0:0:0:0:
206,329,216658,6,0,L|185:154,1,158.399995166016,12|0,0:1|0:3,0:0:0:0:
180,140,216999,1,8,0:3:0:0:
351,236,217170,1,8,0:3:0:0:
99,201,217340,1,8,0:3:0:0:
375,57,217511,5,4,0:3:0:0:
332,27,217596,1,8,0:0:0:0:
280,25,217681,1,8,0:0:0:0:
235,51,217766,1,8,0:0:0:0:
211,97,217851,1,8,0:0:0:0:
216,149,217937,1,8,0:0:0:0:
248,190,218022,6,0,L|471:174,1,211.199993554688,12|8,0:1|0:1,0:0:0:0:
250,302,218533,2,0,P|188:285|158:258,1,105.599996777344,8|2,0:0|0:0,0:0:0:0:
260,85,218874,2,0,P|250:137|247:189,1,105.599996777344,8|8,0:1|0:1,0:0:0:0:
73,320,219215,2,0,P|69:267|60:215,1,105.599996777344,8|2,0:0|0:0,0:0:0:0:
127,87,219556,5,8,0:1:0:0:
23,105,219726,1,2,0:0:0:0:
166,173,219897,1,8,0:0:0:0:
200,19,220067,1,10,0:1:0:0:
200,19,220153,1,8,0:1:0:0:
200,19,220238,6,0,P|250:7|306:6,1,105.599996777344,8|0,0:0|0:0,0:0:0:0:
475,63,220493,6,0,P|424:69|360:108,1,105.599996777344,8|0,0:3|0:0,0:0:0:0:
275,183,220749,6,0,P|306:198|330:217,1,52.7999983886719,4|0,0:3|0:0,0:0:0:0:
374,340,220920,5,12,0:1:0:0:
126,140,221772,5,8,0:0:0:0:
104,132,222113,6,0,L|121:289,1,158.399995166016,6|0,0:0|0:0,0:0:0:0:
124,315,222454,1,8,0:3:0:0:
332,236,222624,1,8,0:3:0:0:
202,195,222795,1,8,0:0:0:0:
323,350,222965,5,4,0:3:0:0:
374,340,223050,1,8,0:0:0:0:
416,309,223135,1,8,0:0:0:0:
440,262,223220,1,8,0:0:0:0:
440,210,223305,1,8,0:0:0:0:
416,163,223391,1,8,0:0:0:0:
373,134,223476,6,0,L|191:111,1,176,12|8,0:1|0:1,0:0:0:0:
120,42,223988,1,8,0:0:0:0:
80,244,224158,2,0,P|79:200|84:156,1,88,2|8,0:1|0:1,0:0:0:0:
220,208,224499,1,10,0:1:0:0:
112,72,224670,1,8,0:0:0:0:
168,300,224840,6,0,P|216:292|360:288,1,176,10|8,0:1|0:1,0:0:0:0:
416,136,225352,1,8,0:0:0:0:
280,100,225522,2,0,P|291:142|305:184,1,88,2|8,0:0|0:1,0:0:0:0:
363,25,225863,1,10,0:1:0:0:
219,36,226033,2,0,P|173:44|131:53,1,88,8|2,0:0|0:0,0:0:0:0:
229,250,226374,5,12,0:1:0:0:
198,126,226545,1,8,0:1:0:0:
135,289,226715,1,8,0:0:0:0:
294,156,226886,2,0,L|381:161,1,88,2|8,0:1|0:1,0:0:0:0:
133,192,227227,1,2,0:1:0:0:
313,300,227397,1,8,0:0:0:0:
117,103,227567,6,0,P|54:152|67:253,1,176,10|10,0:1|0:1,0:0:0:0:
294,156,228079,2,0,L|293:68,1,88,8|10,0:0|0:1,0:0:0:0:
225,304,228420,1,8,0:0:0:0:
269,302,228505,1,8,0:0:0:0:
313,300,228590,1,8,0:0:0:0:
356,297,228675,1,8,0:0:0:0:
400,295,228760,1,8,0:0:0:0:
457,68,228931,6,0,B|390:87|390:87|356:134|356:134|293:155,1,193.600005908203,12|10,0:1|0:1,0:0:0:0:
253,4,229442,1,12,0:0:0:0:
445,158,229613,1,2,0:0:0:0:
226,219,229783,1,8,0:1:0:0:
361,91,229954,1,10,0:1:0:0:
338,310,230124,1,12,0:0:0:0:
206,132,230295,6,0,B|97:171|97:171|11:138,1,193.600005908203,10|10,0:1|0:1,0:0:0:0:
170,34,230806,2,0,P|217:30|263:44,1,96.8000029541017,12|10,0:0|0:1,0:0:0:0:
383,231,231147,1,8,0:1:0:0:
206,132,231317,1,10,0:1:0:0:
398,84,231488,1,8,0:0:0:0:
256,291,231658,6,0,L|262:195,1,96.8000029541017,12|0,0:1|0:0,0:0:0:0:
199,41,231999,1,10,0:1:0:0:
159,333,232170,5,12,0:0:0:0:
30,151,232340,1,2,0:0:0:0:
256,291,232511,5,8,0:0:0:0:
199,41,232681,1,2,0:0:0:0:
364,295,232851,5,8,0:0:0:0:
419,7,233022,1,10,0:1:0:0:
111,106,233192,5,8,0:0:0:0:
374,182,233363,1,10,0:1:0:0:
176,174,233533,5,8,0:0:0:0:
426,109,233704,1,8,0:3:0:0:
426,109,233789,1,8,0:3:0:0:
426,109,233874,5,8,0:0:0:0:
87,190,234045,1,8,0:0:0:0:
418,321,234215,5,8,0:0:0:0:
233,36,234386,1,12,0:0:0:0:
228,19,234726,5,2,0:0:0:0:
202,351,234897,1,12,0:1:0:0:
256,192,234982,12,0,240692,0:0:0:0:
