osu file format v14

[General]
AudioFilename: audio.mp3
AudioLeadIn: 0
PreviewTime: 53164
Countdown: 0
SampleSet: Soft
StackLeniency: 0.7
Mode: 0
LetterboxInBreaks: 0
WidescreenStoryboard: 0

[Editor]
Bookmarks: 77567,148647,167738,196374,207283,223476
DistanceSpacing: 1.7
BeatDivisor: 4
GridSize: 4
TimelineZoom: 3.499999

[Metadata]
Title:Million Futures
TitleUnicode:Million Futures
Artist:Minase Inori
ArtistUnicode:水瀬いのり
Creator:_kotachi_
Version:Collab Insane
Source:乖離性ミリオンアーサー
Tags:BLUE COMPASS Yasaija 714 gary00737
BeatmapID:1653751
BeatmapSetID:787182

[Difficulty]
HPDrainRate:5
CircleSize:4
OverallDifficulty:7.5
ApproachRate:9
SliderMultiplier:1.6
SliderTickRate:1

[Events]
//Background and Video events
0,0,"BG.png",0,0
//Break Periods
2,88847,93501
2,148847,152138
2,167938,177365
//Storyboard Layer 0 (Background)
//Storyboard Layer 1 (Fail)
//Storyboard Layer 2 (Pass)
//Storyboard Layer 3 (Foreground)
//Storyboard Sound Samples

[TimingPoints]
11,340.909090909091,4,2,1,35,1,0
11,-133.333333333333,4,2,1,35,0,0
1374,-133.333333333333,4,2,1,50,0,0
6829,-111.111111111111,4,2,1,50,0,0
9556,-100,4,2,1,70,0,0
17567,-100,4,2,2,70,0,0
17908,-100,4,2,1,70,0,0
20465,-111.111111111111,4,2,1,50,0,0
29840,-100,4,2,1,60,0,0
36658,-100,4,2,2,60,0,0
36999,-100,4,2,1,60,0,0
39045,-100,4,2,2,60,0,0
39215,-100,4,2,1,60,0,0
41431,-100,4,2,2,60,0,0
41601,-100,4,2,1,60,0,0
42283,-133.333333333333,4,2,1,60,0,0
47056,-111.111111111111,4,2,1,60,0,0
47738,-100,4,2,1,60,0,0
49101,-100,4,2,2,60,0,0
49272,-100,4,2,1,60,0,0
49613,-100,4,2,2,60,0,0
49954,-100,4,2,1,60,0,0
53192,-100,4,2,2,60,0,0
54045,-100,4,2,1,60,0,0
55920,-90.9090909090909,4,2,1,70,0,1
62738,-83.3333333333333,4,2,1,70,0,1
64101,-90.9090909090909,4,2,1,70,0,1
64613,-90.9090909090909,4,2,2,70,0,1
64954,-90.9090909090909,4,2,1,70,0,1
66317,-90.9090909090909,4,2,1,5,0,1
66403,-90.9090909090909,4,2,1,70,0,1
66573,-90.9090909090909,4,2,1,5,0,1
66658,-90.9090909090909,4,2,1,70,0,1
70749,-90.9090909090909,4,2,2,70,0,1
71090,-90.9090909090909,4,2,1,70,0,1
71601,-90.9090909090909,4,2,1,70,0,1
71772,-90.9090909090909,4,2,1,5,0,1
71857,-90.9090909090909,4,2,1,70,0,1
72028,-90.9090909090909,4,2,1,5,0,1
72113,-90.9090909090909,4,2,1,70,0,1
72965,-90.9090909090909,4,2,1,70,0,1
73136,-90.9090909090909,4,2,1,5,0,1
73221,-90.9090909090909,4,2,1,70,0,1
73391,-90.9090909090909,4,2,1,5,0,1
73476,-90.9090909090909,4,2,1,70,0,1
73647,-90.9090909090909,4,2,2,70,0,1
73817,-90.9090909090909,4,2,1,70,0,1
74329,-90.9090909090909,4,2,1,70,0,1
74499,-90.9090909090909,4,2,1,5,0,1
74584,-90.9090909090909,4,2,1,70,0,1
74755,-90.9090909090909,4,2,1,5,0,1
74840,-90.9090909090909,4,2,1,70,0,1
75351,-133.333333333333,4,2,1,50,0,1
75692,-100,4,2,1,60,0,1
76204,-90.9090909090909,4,2,1,70,0,1
76545,-90.9090909090909,4,2,1,40,0,1
76715,-90.9090909090909,4,2,1,50,0,1
76886,-90.9090909090909,4,2,1,60,0,1
77056,-90.9090909090909,4,2,1,70,0,1
77567,-100,4,2,1,70,0,0
83022,-100,4,2,1,70,0,0
85749,-100,4,2,2,70,0,0
86090,-100,4,2,1,70,0,0
88647,-100,4,2,1,50,0,0
94101,-133.333333333333,4,2,1,40,0,0
97681,-100,4,2,1,40,0,0
99897,-100,4,2,1,50,0,0
104499,-100,4,2,2,50,0,0
104840,-100,4,2,1,60,0,0
107226,-100,4,2,2,60,0,0
107397,-100,4,2,1,60,0,0
109613,-100,4,2,2,60,0,0
109954,-100,4,2,1,60,0,0
110465,-142.857142857143,4,2,1,50,0,0
115920,-100,4,2,1,60,0,0
117283,-100,4,2,2,60,0,0
117454,-100,4,2,1,60,0,0
117795,-100,4,2,2,60,0,0
118136,-100,4,2,1,60,0,0
121374,-100,4,2,2,60,0,0
122226,-100,4,2,1,60,0,0
124101,-90.9090909090909,4,2,1,70,0,1
132795,-90.9090909090909,4,2,2,70,0,1
133136,-90.9090909090909,4,2,1,70,0,1
134329,-83.3333333333333,4,2,1,70,0,1
134499,-83.3333333333333,4,2,1,5,0,1
134584,-83.3333333333333,4,2,1,70,0,1
134755,-83.3333333333333,4,2,1,5,0,1
134840,-83.3333333333333,4,2,1,70,0,1
135011,-90.9090909090909,4,2,1,70,0,1
139783,-83.3333333333333,4,2,1,70,0,1
139954,-83.3333333333333,4,2,1,5,0,1
140039,-83.3333333333333,4,2,1,70,0,1
140209,-83.3333333333333,4,2,1,5,0,1
140295,-83.3333333333333,4,2,1,70,0,1
140465,-90.9090909090909,4,2,1,70,0,1
141147,-83.3333333333333,4,2,1,70,0,1
141317,-83.3333333333333,4,2,1,5,0,1
141403,-83.3333333333333,4,2,1,70,0,1
141573,-83.3333333333333,4,2,1,5,0,1
141658,-83.3333333333333,4,2,1,70,0,1
141829,-90.9090909090909,4,2,2,70,0,1
141999,-90.9090909090909,4,2,1,70,0,1
142511,-83.3333333333333,4,2,1,70,0,1
142681,-83.3333333333333,4,2,1,5,0,1
142766,-83.3333333333333,4,2,1,70,0,1
142937,-83.3333333333333,4,2,1,5,0,1
143022,-83.3333333333333,4,2,1,70,0,1
143192,-90.9090909090909,4,2,1,70,0,1
143704,-90.9090909090909,4,2,2,70,0,1
144045,-90.9090909090909,4,2,1,70,0,1
147283,-111.111111111111,4,2,1,70,0,1
148647,-100,4,2,1,70,0,0
152738,-100,4,2,1,5,0,0
153761,-100,4,2,1,70,0,0
154101,-100,4,2,1,70,0,0
161601,-100,4,2,2,70,0,0
161772,-100,4,2,1,70,0,0
166204,-100,4,2,2,70,0,0
166545,-100,4,2,1,70,0,0
177965,-100,4,2,1,50,0,0
178647,-100,4,2,1,60,0,0
181374,-100,4,2,2,60,0,0
181715,-100,4,2,1,60,0,0
184101,-100,4,2,1,65,0,0
186829,-100,4,2,1,70,0,0
188533,-100,4,2,2,70,0,0
189386,-100,4,2,1,70,0,0
195692,-125,4,2,1,70,0,0
195863,-125,4,2,1,5,0,0
195948,-111.111111111111,4,2,1,70,0,0
196118,-111.111111111111,4,2,1,5,0,0
196204,-100,4,2,1,70,0,0
196289,-100,4,2,1,5,0,0
196374,-90.9090909090909,4,2,1,70,0,1
203192,-83.3333333333333,4,2,1,70,0,1
204556,-90.9090909090909,4,2,1,70,0,1
205067,-90.9090909090909,4,2,2,70,0,1
205408,-90.9090909090909,4,2,1,70,0,1
206772,-90.9090909090909,4,2,1,5,0,1
206857,-90.9090909090909,4,2,1,70,0,1
207028,-90.9090909090909,4,2,1,5,0,1
207113,-90.9090909090909,4,2,1,70,0,1
211204,-90.9090909090909,4,2,2,70,0,1
211545,-90.9090909090909,4,2,1,70,0,1
213590,-90.9090909090909,4,2,1,5,0,1
213675,-90.9090909090909,4,2,1,70,0,1
213846,-90.9090909090909,4,2,1,5,0,1
213931,-90.9090909090909,4,2,1,70,0,1
214101,-90.9090909090909,4,2,2,70,0,1
214272,-90.9090909090909,4,2,1,70,0,1
214954,-90.9090909090909,4,2,1,5,0,1
215039,-90.9090909090909,4,2,1,70,0,1
215209,-90.9090909090909,4,2,1,5,0,1
215295,-90.9090909090909,4,2,1,70,0,1
220408,-90.9090909090909,4,2,1,5,0,1
220493,-90.9090909090909,4,2,1,70,0,1
220664,-90.9090909090909,4,2,1,5,0,1
220749,-90.9090909090909,4,2,1,70,0,1
222113,-90.9090909090909,4,2,2,70,0,1
222454,-90.9090909090909,4,2,1,70,0,1
223476,-100,4,2,1,70,0,0
238136,-100,4,2,1,50,0,0
238988,-100,4,2,1,40,0,0
239840,-100,4,2,1,30,0,0
240181,-100,4,2,1,20,0,0
240437,-100,4,2,1,10,0,0
240692,-100,4,2,1,5,0,0

[Colours]
Combo1 : 153,81,153
Combo2 : 123,196,202
Combo3 : 167,105,115
Combo4 : 130,166,100

[HitObjects]
163,128,692,6,0,P|155:84|129:31,2,90.0000034332277,2|2|2,0:0|0:0|0:0,0:0:0:0:
113,217,1374,6,0,L|234:210,1,120.000004577637,2|0,0:0|0:0,0:0:0:0:
329,204,1886,1,2,0:0:0:0:
372,118,2056,2,0,P|314:111|259:135,1,120.000004577637,2|0,0:0|0:0,0:0:0:0:
329,204,2567,6,0,P|328:263|335:325,1,120.000004577637,2|2,0:0|0:0,0:0:0:0:
239,298,3079,1,2,0:0:0:0:
147,326,3249,2,0,B|67:342|67:342|24:302,1,120.000004577637,2|0,0:0|0:0,0:0:0:0:
63,222,3761,2,0,L|54:158,1,60.0000022888184,2|0,0:0|0:0,0:0:0:0:
85,69,4101,6,0,P|55:65|26:71,1,60.0000022888184,0|2,0:0|0:0,0:0:0:0:
54,162,4442,1,2,0:0:0:0:
149,145,4613,2,0,P|207:133|267:130,1,120.000004577637,0|2,0:0|0:0,0:0:0:0:
361,150,5124,1,2,0:0:0:0:
446,105,5295,2,0,B|465:147|465:147|448:224,1,120.000004577637,0|2,0:0|0:0,0:0:0:0:
419,310,5806,1,0,0:0:0:0:
419,310,5976,2,0,B|326:337|345:269|246:297,1,180.000006866455,2|2,0:0|0:0,0:0:0:0:
245,297,6829,6,0,L|239:225,2,71.9999978027344,10|0|8,0:1|0:0|0:1,0:0:0:0:
177,138,7340,2,0,P|209:124|247:120,2,71.9999978027344,2|8|0,0:0|0:1|0:0,0:0:0:0:
276,0,7851,2,0,P|243:15|208:19,1,71.9999978027344,10|0,0:1|0:1,0:0:0:0:
388,68,8192,6,0,L|364:1,2,71.9999978027344,8|2|8,0:1|0:0|0:1,0:0:0:0:
423,159,8704,1,0,0:0:0:0:
296,157,8874,5,8,0:3:0:0:
304,182,8959,1,0,0:0:0:0:
313,207,9044,1,8,0:0:0:0:
322,233,9129,1,8,0:0:0:0:
332,259,9215,2,0,L|346:301,3,35.9999989013672,8|8|8|8,0:1|0:0|0:0|0:0,0:0:0:0:
352,323,9556,6,0,L|266:324,1,80,12|8,0:1|0:1,0:0:0:0:
191,277,9897,1,8,0:0:0:0:
162,185,10067,2,0,P|104:237|104:315,1,160,10|10,0:1|0:1,0:0:0:0:
191,277,10579,1,8,0:0:0:0:
105,110,10749,6,0,B|167:98|167:98|205:110|205:110|262:100,1,160,10|8,0:1|0:1,0:0:0:0:
214,21,11261,1,8,0:0:0:0:
353,65,11431,2,0,P|356:110|346:148,1,80,2|8,0:0|0:1,0:0:0:0:
449,198,11772,1,10,0:1:0:0:
449,198,11942,2,0,P|440:159|443:119,1,80,8|2,0:0|0:0,0:0:0:0:
360,232,12283,6,0,L|275:229,2,80,10|8|8,0:1|0:1|0:0,0:0:0:0:
205,279,12795,2,0,P|194:241|195:201,1,80,2|8,0:1|0:1,0:0:0:0:
275,70,13136,2,0,P|275:109|264:148,1,80,2|8,0:1|0:0,0:0:0:0:
41,168,13476,6,0,P|127:174|202:206,1,160,10|10,0:1|0:1,0:0:0:0:
111,11,13988,2,0,P|92:46|85:85,1,80,8|4,0:0|0:3,0:0:0:0:
85,85,14243,1,4,0:3:0:0:
85,85,14329,1,8,0:3:0:0:
275,70,14499,1,8,0:0:0:0:
275,70,14584,1,8,0:0:0:0:
275,70,14670,1,8,0:0:0:0:
194,201,14840,6,0,B|179:256|179:256|199:303|199:303|184:359,1,160,12|8,0:1|0:1,0:0:0:0:
276,247,15351,1,8,0:0:0:0:
110,315,15522,2,0,P|70:304|29:299,1,80,2|8,0:0|0:1,0:0:0:0:
78,123,15863,2,0,P|94:168|102:218,1,80,10|8,0:1|0:0,0:0:0:0:
196,70,16204,6,0,B|275:41|277:104|355:66,1,160,10|8,0:1|0:1,0:0:0:0:
239,221,16715,2,0,P|233:182|233:142,1,80,8|0,0:0|0:0,0:0:0:0:
328,264,17056,2,0,P|327:303|321:343,1,80,8|10,0:1|0:1,0:0:0:0:
322,173,17397,1,8,0:0:0:0:
165,266,17567,6,0,B|62:281|62:281|15:246,1,160,6|8,0:0|0:1,0:0:0:0:
71,116,18079,2,0,P|83:156|86:199,1,80,8|0,0:0|0:0,0:0:0:0:
0,55,18420,1,10,0:1:0:0:
155,82,18590,1,10,0:1:0:0:
23,32,18761,1,8,0:0:0:0:
155,82,18931,6,0,B|218:74|218:74|251:91|251:91|322:82,1,160,10|8,0:1|0:1,0:0:0:0:
466,140,19442,2,0,L|380:151,1,80,8|10,0:0|0:1,0:0:0:0:
387,151,19698,1,2,0:0:0:0:
387,151,19783,2,0,P|402:190|400:239,1,80,8|8,0:0|0:3,0:0:0:0:
237,261,20124,1,4,0:3:0:0:
325,285,20295,1,8,0:1:0:0:
301,171,20465,6,0,L|149:186,1,143.999995605469,12|8,0:1|0:1,0:0:0:0:
63,194,20976,1,0,0:0:0:0:
17,111,21147,2,0,P|48:101|104:108,1,71.9999978027344,8|0,0:1|0:0,0:0:0:0:
112,12,21488,2,0,P|140:26|175:71,1,71.9999978027344,8|0,0:1|0:0,0:0:0:0:
256,20,21829,5,8,0:1:0:0:
256,20,21999,2,0,L|339:12,1,71.9999978027344,0|8,0:0|0:1,0:0:0:0:
384,92,22340,2,0,L|301:100,1,71.9999978027344,0|8,0:0|0:1,0:0:0:0:
224,118,22681,1,0,0:0:0:0:
274,191,22851,1,8,0:1:0:0:
198,113,23022,1,0,0:0:0:0:
171,239,23192,6,0,P|128:232|21:226,1,143.999995605469,8|8,0:1|0:1,0:0:0:0:
125,307,23704,2,0,P|166:319|202:315,1,71.9999978027344,0|8,0:0|0:1,0:0:0:0:
333,283,24045,1,0,0:0:0:0:
293,205,24215,2,0,P|262:234|247:267,1,71.9999978027344,8|0,0:1|2:1,0:0:0:0:
380,209,24556,6,0,L|372:60,1,143.999995605469,8|8,0:1|0:1,0:0:0:0:
291,16,25067,1,0,0:0:0:0:
197,30,25238,2,0,L|116:43,1,71.9999978027344,8|0,0:1|0:0,0:0:0:0:
67,116,25579,2,0,L|148:129,1,71.9999978027344,8|0,0:1|0:0,0:0:0:0:
258,106,25920,6,0,L|251:265,1,143.999995605469,8|8,0:1|0:1,0:0:0:0:
350,294,26431,1,0,0:0:0:0:
170,255,26601,2,0,B|89:245|116:304|22:287,1,143.999995605469,8|8,0:1|0:1,0:0:0:0:
13,154,27113,1,0,0:0:0:0:
88,97,27283,6,0,P|106:134|106:166,1,71.9999978027344,8|0,0:1|0:0,0:0:0:0:
200,31,27624,2,0,P|182:68|182:100,1,71.9999978027344,8|0,0:1|0:0,0:0:0:0:
355,173,27965,2,0,L|201:183,1,143.999995605469,8|8,0:1|0:1,0:0:0:0:
145,253,28476,1,0,0:0:0:0:
145,253,28562,1,0,0:0:0:0:
145,253,28647,6,0,P|121:225|111:182,1,71.9999978027344,8|0,0:1|0:0,0:0:0:0:
234,268,28988,2,0,P|223:302|200:329,1,71.9999978027344,8|0,0:1|0:0,0:0:0:0:
211,182,29329,1,8,0:1:0:0:
211,182,29499,2,0,L|305:177,1,71.9999978027344,0|8,0:0|0:1,0:0:0:0:
379,248,29840,6,0,P|376:168|405:94,1,160,12|8,0:0|0:3,0:0:0:0:
181,101,30522,1,4,0:3:0:0:
345,38,30863,2,0,L|280:29,2,40,8|8|8,0:1|0:1|0:0,0:0:0:0:
198,189,31374,6,0,L|360:167,1,160,12|8,0:1|0:0,0:0:0:0:
272,261,31886,1,0,0:0:0:0:
131,234,32056,2,0,P|120:197|125:157,1,80,10|8,0:1|0:1,0:0:0:0:
182,31,32397,2,0,P|193:68|189:108,1,80,8|2,0:0|0:1,0:0:0:0:
26,52,32738,5,8,0:1:0:0:
111,77,32908,1,10,0:1:0:0:
46,134,33079,1,8,0:0:0:0:
182,32,33249,2,0,L|264:22,1,80,2|8,0:0|0:1,0:0:0:0:
347,110,33590,1,10,0:1:0:0:
347,110,33761,2,0,L|266:99,1,80,8|0,0:0|0:0,0:0:0:0:
390,184,34101,6,0,P|427:129|394:40,1,160,10|8,0:1|0:0,0:0:0:0:
305,186,34613,2,0,P|320:232|344:257,1,80,2|8,0:0|0:1,0:0:0:0:
347,110,34954,2,0,L|266:99,2,80,8|8|0,0:1|0:0|0:0,0:0:0:0:
408,160,35465,5,10,0:1:0:0:
305,186,35636,1,8,0:1:0:0:
342,334,35806,2,0,L|340:245,1,80,8|8,0:0|0:1,0:0:0:0:
407,161,36147,5,8,0:0:0:0:
212,203,36317,1,10,0:1:0:0:
212,203,36658,6,0,B|121:192|152:258|57:240,1,160,6|8,0:0|0:1,0:0:0:0:
85,85,37170,2,0,B|70:122|70:122|83:170,1,80,8|0,0:0|0:0,0:0:0:0:
284,247,37511,2,0,B|299:210|299:210|286:162,1,80,8|0,0:0|0:0,0:0:0:0:
191,282,37851,1,8,0:0:0:0:
158,128,38022,1,8,0:1:0:0:
284,247,38192,6,0,P|322:247|379:238,1,80,8|0,0:0|0:0,0:0:0:0:
174,206,38533,2,0,P|136:206|79:215,1,80,8|8,0:0|0:1,0:0:0:0:
266,164,38874,1,8,0:0:0:0:
158,128,39045,1,6,0:0:0:0:
337,90,39215,1,8,0:0:0:0:
112,49,39386,6,0,L|136:217,1,160,12|8,0:1|0:1,0:0:0:0:
337,90,39897,2,0,L|324:2,1,80,8|0,0:0|0:0,0:0:0:0:
276,189,40238,2,0,P|326:206|362:204,1,80,8|0,0:0|0:0,0:0:0:0:
225,96,40579,1,8,0:0:0:0:
213,245,40749,1,8,0:1:0:0:
125,128,40920,6,0,P|75:111|39:113,2,80,8|8|4,0:0|0:3|0:3,0:0:0:0:
67,214,41431,1,6,0:0:0:0:
213,245,41601,1,8,0:3:0:0:
43,226,41772,1,8,0:0:0:0:
43,226,41857,1,8,0:0:0:0:
43,226,41942,2,0,L|55:313,1,80,8|0,0:0|0:0,0:0:0:0:
213,245,42283,6,0,P|264:244|344:256,1,120.000004577637,12|2,0:1|0:0,0:0:0:0:
425,216,42795,1,8,0:1:0:0:
337,114,42965,2,0,P|347:160|357:187,1,60.0000022888184,8|0,0:0|0:0,0:0:0:0:
436,66,43306,2,0,P|430:95|421:124,1,60.0000022888184,2|8,0:0|0:1,0:0:0:0:
296,24,43647,5,8,0:1:0:0:
296,24,43817,2,0,L|366:14,2,60.0000022888184,8|2|8,0:0|0:0|0:1,0:0:0:0:
233,104,44329,2,0,P|218:77|195:56,1,60.0000022888184,8|0,0:0|0:0,0:0:0:0:
143,134,44670,1,2,0:0:0:0:
57,111,44840,6,0,P|61:172|103:213,1,120.000004577637,8|0,0:0|0:1,0:0:0:0:
225,276,45351,1,10,0:1:0:0:
225,276,45692,1,8,0:0:0:0:
256,184,45863,1,0,0:0:0:0:
329,247,46033,1,2,0:0:0:0:
256,184,46204,2,0,L|226:63,1,120.000004577637,8|8,0:1|0:0,0:0:0:0:
307,13,46715,2,0,P|321:48|322:79,1,60.0000022888184,2|8,0:0|0:1,0:0:0:0:
155,63,47056,6,0,L|235:67,1,71.9999978027344,8|0,0:0|0:0,0:0:0:0:
125,166,47397,1,8,0:0:0:0:
98,159,47482,1,8,0:3:0:0:
76,144,47567,1,4,0:3:0:0:
60,123,47653,1,8,0:1:0:0:
55,99,47738,2,0,L|64:7,2,80,12|0|8,0:0|0:0|0:3,0:0:0:0:
212,248,48249,6,0,P|133:243|69:289,1,160,12|8,0:1|0:3,0:0:0:0:
161,340,48761,1,4,0:3:0:0:
301,272,48931,1,8,0:0:0:0:
301,272,49016,1,8,0:0:0:0:
301,272,49101,2,0,P|298:229|282:185,2,80,6|8|4,0:0|0:3|0:3,0:0:0:0:
388,79,49613,6,0,B|335:65|335:65|213:83,1,160,12|8,0:1|0:3,0:0:0:0:
93,65,50124,1,8,0:0:0:0:
96,94,50209,1,8,0:3:0:0:
99,124,50294,1,4,0:3:0:0:
102,154,50379,1,8,0:1:0:0:
105,184,50465,6,0,L|113:264,1,80,4|2,0:1|0:0,0:0:0:0:
196,320,50806,2,0,P|235:322|274:312,1,80,8|2,0:1|0:0,0:0:0:0:
234,155,51147,2,0,L|228:234,1,80,8|8,0:1|0:3,0:0:0:0:
393,173,51488,2,0,L|387:93,1,80,8|4,0:1|0:3,0:0:0:0:
211,73,51829,5,8,0:1:0:0:
305,32,51999,1,2,0:0:0:0:
123,46,52170,2,0,P|123:85|134:124,1,80,8|8,0:1|0:3,0:0:0:0:
293,186,52511,2,0,P|259:166|219:156,1,80,8|0,0:1|0:0,0:0:0:0:
126,204,52851,1,8,0:1:0:0:
218,258,53022,1,2,0:0:0:0:
217,278,53107,1,2,0:0:0:0:
216,298,53192,1,6,0:0:0:0:
216,315,54045,6,0,L|308:311,1,80,8|8,0:0|0:0,0:0:0:0:
236,223,54386,6,0,B|141:210|182:273|86:255,1,160,4|8,0:1|0:3,0:0:0:0:
54,110,54897,1,8,0:3:0:0:
109,176,55067,1,10,0:1:0:0:
147,44,55238,5,4,0:3:0:0:
173,31,55323,1,8,0:0:0:0:
203,29,55408,1,8,0:0:0:0:
231,39,55493,1,10,0:0:0:0:
253,60,55579,1,8,0:0:0:0:
275,81,55664,1,8,0:0:0:0:
303,91,55749,1,10,0:0:0:0:
333,89,55834,1,8,0:0:0:0:
360,77,55920,6,0,L|459:69,2,88.000002685547,12|8|8,0:1|0:1|0:0,0:0:0:0:
194,119,56431,1,10,0:1:0:0:
255,255,56601,2,0,L|265:153,1,88.000002685547,0|8,0:0|0:1,0:0:0:0:
231,39,56942,1,8,0:0:0:0:
345,162,57113,6,0,L|325:340,1,176.000005371094,10|8,0:1|0:1,0:0:0:0:
171,228,57624,2,0,P|228:242|265:261,1,88.000002685547,8|2,0:0|0:0,0:0:0:0:
97,269,57965,1,8,0:1:0:0:
181,141,58136,1,8,0:1:0:0:
52,193,58306,2,0,P|46:147|36:97,1,88.000002685547,8|2,0:0|0:0,0:0:0:0:
195,54,58647,6,0,P|186:97|181:140,2,88.000002685547,8|10|8,0:1|0:1|0:0,0:0:0:0:
298,107,59158,2,0,B|401:81|373:149|468:123,1,176.000005371094,10|10,0:1|0:1,0:0:0:0:
434,33,59670,1,8,0:0:0:0:
341,179,59840,2,0,L|352:268,1,88.000002685547,2|8,0:0|0:1,0:0:0:0:
173,176,60181,1,10,0:1:0:0:
266,229,60351,1,8,0:0:0:0:
135,275,60522,2,0,B|25:302|25:302|32:239,1,176.000005371094,10|8,0:1|0:1,0:0:0:0:
104,94,61033,2,0,L|90:184,1,88.000002685547,8|2,0:0|0:0,0:0:0:0:
181,44,61374,6,0,P|148:14|106:3,2,88.000002685547,8|8|8,0:1|0:1|0:0,0:0:0:0:
104,94,61886,1,8,0:1:0:0:
264,59,62056,2,0,P|257:102|254:146,1,88.000002685547,2|8,0:0|0:1,0:0:0:0:
375,265,62397,2,0,P|372:221|364:177,1,88.000002685547,10|8,0:0|0:1,0:0:0:0:
364,177,62653,1,8,0:1:0:0:
364,177,62738,6,0,L|463:168,1,95.9999970703126,10|0,0:0|0:0,0:0:0:0:
264,59,63079,2,0,L|165:68,1,95.9999970703126,10|8,0:0|0:1,0:0:0:0:
182,231,63420,6,0,L|280:221,1,95.9999970703126,10|0,0:0|0:0,0:0:0:0:
446,18,63761,2,0,L|347:27,1,95.9999970703126,10|8,0:0|0:1,0:0:0:0:
113,137,64101,5,12,0:1:0:0:
276,145,64272,1,8,0:3:0:0:
212,0,64442,1,8,0:0:0:0:
193,154,64613,6,0,P|239:221|327:210,1,176.000005371094,6|8,0:0|0:3,0:0:0:0:
246,73,65124,1,8,0:0:0:0:
113,137,65295,6,0,B|102:203|102:203|124:244|124:244|111:308,1,176.000005371094,12|8,0:1|0:3,0:0:0:0:
246,281,65806,1,8,0:0:0:0:
278,276,65891,1,8,0:0:0:0:
310,282,65976,1,8,0:3:0:0:
340,297,66061,1,4,0:3:0:0:
363,320,66147,6,0,L|462:312,1,88.000002685547,8|0,0:0|0:0,0:0:0:0:
496,239,66403,6,0,P|506:185|490:140,1,88.000002685547,8|0,0:0|0:0,0:0:0:0:
419,193,66658,5,8,0:0:0:0:
339,41,66829,6,0,L|251:47,1,88.000002685547,12|8,0:1|0:1,0:0:0:0:
117,28,67170,1,8,0:0:0:0:
165,197,67340,2,0,P|172:154|171:110,1,88.000002685547,10|8,0:1|0:1,0:0:0:0:
57,210,67681,2,0,P|55:253|63:297,1,88.000002685547,10|8,0:1|0:0,0:0:0:0:
242,244,68022,6,0,B|316:236|316:236|345:246|345:246|427:239,1,176.000005371094,10|8,0:1|0:1,0:0:0:0:
434,99,68533,1,8,0:0:0:0:
358,161,68704,1,10,0:1:0:0:
257,54,68874,2,0,L|346:67,1,88.000002685547,8|10,0:1|0:1,0:0:0:0:
209,149,69215,2,0,L|120:162,1,88.000002685547,8|2,0:0|0:0,0:0:0:0:
321,248,69556,6,0,P|327:202|328:160,1,88.000002685547,10|8,0:1|0:1,0:0:0:0:
257,54,69897,1,8,0:0:0:0:
409,129,70067,2,0,L|496:118,1,88.000002685547,10|0,0:1|0:0,0:0:0:0:
321,248,70408,2,0,L|233:237,1,88.000002685547,10|8,0:1|0:0,0:0:0:0:
96,106,70749,6,0,P|182:106|247:161,1,176.000005371094,6|10,0:0|0:1,0:0:0:0:
148,299,71261,2,0,L|143:194,1,88.000002685547,8|8,0:0|0:1,0:0:0:0:
143,211,71516,1,8,0:1:0:0:
143,211,71601,6,0,L|28:208,1,88.000002685547,12|0,0:0|0:0,0:0:0:0:
11,146,71857,6,0,P|17:104|40:65,1,88.000002685547,8|0,0:3|0:0,0:0:0:0:
106,28,72113,5,4,0:3:0:0:
254,54,72283,5,12,0:1:0:0:
142,109,72454,1,8,0:1:0:0:
299,146,72624,1,8,0:0:0:0:
134,119,72795,1,8,0:1:0:0:
252,235,72965,6,0,P|299:229|367:232,1,88.000002685547,8|0,0:0|0:0,0:0:0:0:
412,246,73221,6,0,P|410:205|382:165,1,88.000002685547,8|0,0:3|0:0,0:0:0:0:
312,145,73477,5,4,0:3:0:0:
303,305,73647,5,6,0:0:0:0:
230,160,73818,1,8,0:1:0:0:
193,313,73988,1,8,0:0:0:0:
226,144,74159,1,8,0:1:0:0:
113,241,74329,6,0,B|123:209|123:209|112:149,1,88.000002685547,8|0,0:0|0:0,0:0:0:0:
41,130,74585,6,0,P|68:95|108:80,1,88.000002685547,8|0,0:3|0:0,0:0:0:0:
183,72,74841,5,4,0:3:0:0:
113,241,75011,5,8,0:0:0:0:
265,173,75181,1,0,0:0:0:0:
265,173,75351,6,0,P|226:161|196:161,1,60.0000022888184,4|8,0:3|0:3,0:0:0:0:
402,213,75692,2,0,P|408:167|399:124,1,80,4|8,0:3|0:3,0:0:0:0:
402,134,75948,1,0,0:0:0:0:
402,135,76033,1,8,0:3:0:0:
214,253,76204,6,0,P|154:251|36:272,1,176.000005371094,12|8,0:1|0:3,0:0:0:0:
135,120,76715,1,8,0:3:0:0:
171,328,76886,1,8,0:3:0:0:
312,157,77056,1,4,0:3:0:0:
305,189,77141,1,4,0:3:0:0:
299,221,77226,1,8,0:0:0:0:
292,254,77311,1,8,0:0:0:0:
286,286,77396,1,8,0:0:0:0:
131,226,77567,6,0,P|100:142|140:74,1,160,12|8,0:1|0:1,0:0:0:0:
302,27,78079,2,0,P|289:70|289:112,1,80,8|2,0:0|0:0,0:0:0:0:
379,205,78420,1,8,0:1:0:0:
398,84,78590,1,10,0:1:0:0:
305,189,78761,1,8,0:0:0:0:
468,174,78931,6,0,B|489:224|489:224|480:329,1,160,10|8,0:1|0:1,0:0:0:0:
336,362,79442,2,0,L|342:282,1,80,8|2,0:0|0:0,0:0:0:0:
361,137,79783,1,8,0:1:0:0:
241,205,79954,1,10,0:1:0:0:
240,62,80124,1,8,0:0:0:0:
361,137,80295,1,2,0:0:0:0:
164,132,80465,6,0,P|102:134|57:150,1,80,10|8,0:1|0:1,0:0:0:0:
22,257,80806,1,8,0:0:0:0:
155,351,80976,2,0,B|140:312|140:312|163:258|231:235,1,160,2|10,0:1|0:1,0:0:0:0:
395,250,81488,1,8,0:0:0:0:
241,162,81658,6,0,P|219:96|230:8,1,160,10|10,0:1|0:1,0:0:0:0:
311,117,82170,2,0,P|370:94|398:94,1,80,8|0,0:0|0:0,0:0:0:0:
497,148,82511,1,8,0:3:0:0:
320,210,82681,1,8,0:0:0:0:
320,210,82766,1,8,0:0:0:0:
320,210,82851,2,0,L|312:279,1,40,8|0,0:0|0:0,0:0:0:0:
246,334,83022,6,0,B|209:322|178:338|178:338|160:329|160:329|126:344|60:328,1,160,12|8,0:1|0:1,0:0:0:0:
29,193,83533,1,8,0:0:0:0:
132,141,83704,2,0,B|242:161|242:161|297:144,1,160,2|10,0:0|0:1,0:0:0:0:
261,13,84215,1,8,0:0:0:0:
99,69,84386,6,0,P|131:145|102:225,1,160,10|8,0:1|0:1,0:0:0:0:
16,322,84897,2,0,B|96:349|94:286|190:321,1,160,8|8,0:0|0:1,0:0:0:0:
289,369,85408,1,10,0:1:0:0:
251,236,85579,1,8,0:0:0:0:
401,357,85749,6,0,P|424:268|414:180,1,160,6|8,0:0|0:1,0:0:0:0:
314,61,86261,2,0,P|312:120|322:165,1,80,2|8,0:0|0:1,0:0:0:0:
415,22,86601,1,12,0:0:0:0:
262,0,86772,1,2,0:0:0:0:
315,140,86942,1,10,0:1:0:0:
141,101,87113,6,0,B|165:142|155:181|155:181|134:214|144:262,1,160,10|8,0:1|0:0,0:0:0:0:
216,365,87624,2,0,P|261:329|312:320,1,80,8|4,0:3|0:3,0:0:0:0:
281,322,87880,1,0,0:0:0:0:
281,322,87965,2,0,B|269:278|269:278|289:231,1,80,8|8,0:0|0:3,0:0:0:0:
374,194,88306,1,4,0:3:0:0:
375,321,88476,1,8,0:1:0:0:
493,255,88647,5,12,0:1:0:0:
141,42,94101,6,0,P|142:114|163:168,1,120.000004577637,2|2,0:0|0:0,0:0:0:0:
233,218,94613,1,0,0:0:0:0:
295,145,94783,2,0,P|374:133|422:146,1,120.000004577637,2|2,0:0|0:0,0:0:0:0:
497,205,95295,6,0,L|488:333,1,120.000004577637,0|0,0:0|0:0,0:0:0:0:
398,361,95806,2,0,P|397:316|390:280,1,60.0000022888184,2|0,0:0|0:0,0:0:0:0:
296,257,96147,2,0,P|292:286|292:316,1,60.0000022888184,2|0,0:0|0:0,0:0:0:0:
379,222,96488,1,2,0:0:0:0:
200,179,96829,5,2,0:0:0:0:
200,179,96999,2,0,L|122:188,2,60.0000022888184,0|0|0,0:0|0:0|0:0,0:0:0:0:
296,126,97511,1,2,0:0:0:0:
204,28,97681,6,0,L|210:71,1,40,8|0,0:1|0:0,0:0:0:0:
266,288,98022,2,0,P|189:288|117:342,2,160,8|8|4,0:0|0:3|0:3,0:0:0:0:
464,352,99045,1,8,0:1:0:0:
464,352,99215,2,0,P|440:293|436:242,1,80,12|0,0:0|0:0,0:0:0:0:
470,123,99556,1,4,0:3:0:0:
470,123,99641,1,8,0:3:0:0:
470,123,99726,1,4,0:3:0:0:
470,123,99812,1,8,0:1:0:0:
470,123,99897,6,0,P|389:102|304:124,1,160,12|8,0:1|0:1,0:0:0:0:
226,214,100408,1,8,0:1:0:0:
318,302,100579,1,8,0:0:0:0:
156,269,100749,6,0,P|138:214|146:168,1,80,2|0,0:0|0:0,0:0:0:0:
239,99,101090,2,0,P|237:59|222:22,1,80,10|8,0:1|0:0,0:0:0:0:
92,44,101431,2,0,P|93:83|108:120,1,80,2|8,0:0|0:1,0:0:0:0:
226,214,101772,1,10,0:1:0:0:
341,168,101942,1,8,0:0:0:0:
239,99,102113,1,2,0:0:0:0:
252,242,102283,6,0,P|262:285|263:335,1,80,8|0,0:1|0:0,0:0:0:0:
125,361,102624,1,8,0:0:0:0:
125,361,102795,2,0,P|127:321|136:282,1,80,2|8,0:0|0:1,0:0:0:0:
226,214,103136,1,8,0:1:0:0:
122,161,103306,1,0,0:0:0:0:
254,122,103476,2,0,B|309:110|357:140|357:140|350:204,1,160,8|10,0:0|0:1,0:0:0:0:
314,367,103988,6,0,L|298:237,1,120,8|0,0:3|0:0,0:0:0:0:
230,174,104329,2,0,L|224:229,1,40,8|0,0:0|0:0,0:0:0:0:
174,316,104499,2,0,B|94:325|94:325|55:313,1,120,6|0,0:0|0:0,0:0:0:0:
8,213,104840,6,0,P|67:210|150:138,1,160,12|8,0:1|0:1,0:0:0:0:
101,49,105351,2,0,L|16:57,1,80,8|0,0:0|0:0,0:0:0:0:
193,84,105692,2,0,L|278:92,1,80,8|0,0:0|0:0,0:0:0:0:
405,44,106033,1,8,0:0:0:0:
357,161,106204,1,0,0:0:0:0:
485,90,106374,6,0,L|499:178,1,80,8|0,0:0|0:0,0:0:0:0:
417,305,106715,2,0,L|429:225,1,80,8|8,0:0|0:1,0:0:0:0:
499,341,107056,1,8,0:0:0:0:
338,325,107226,2,0,P|286:326|238:337,1,80,6|8,0:0|0:0,0:0:0:0:
116,357,107567,6,0,B|149:275|79:276|116:196,1,160,12|8,0:1|0:1,0:0:0:0:
196,93,108079,2,0,P|218:136|224:184,1,80,8|0,0:0|0:0,0:0:0:0:
269,302,108420,2,0,P|277:263|296:228,1,80,8|0,0:0|0:0,0:0:0:0:
401,153,108761,1,8,0:0:0:0:
401,286,108931,1,8,0:1:0:0:
303,135,109101,6,0,P|283:100|275:61,1,80,8|8,0:0|0:3,0:0:0:0:
384,12,109442,1,4,0:3:0:0:
505,108,109613,2,0,P|484:202|480:281,1,160,6|8,0:0|0:0,0:0:0:0:
488,272,110039,1,8,0:0:0:0:
488,272,110124,2,0,P|436:268|406:273,1,80,8|0,0:0|0:0,0:0:0:0:
302,338,110465,6,0,P|302:273|297:211,1,111.999996582031,12|2,0:1|0:0,0:0:0:0:
229,164,110976,1,8,0:1:0:0:
185,244,111147,2,0,P|148:248|113:248,2,55.9999982910157,8|0|2,0:0|0:0|0:0,0:0:0:0:
298,226,111658,1,8,0:1:0:0:
213,136,111829,5,8,0:1:0:0:
326,87,111999,1,8,0:0:0:0:
298,226,112170,1,2,0:0:0:0:
411,177,112340,1,8,0:1:0:0:
326,87,112511,2,0,L|336:14,1,55.9999982910157,8|0,0:0|0:0,0:0:0:0:
417,77,112851,1,2,0:0:0:0:
249,94,113022,6,0,L|234:213,1,111.999996582031,8|0,0:0|0:0,0:0:0:0:
177,270,113533,2,0,L|116:280,1,55.9999982910157,8|0,0:1|0:0,0:0:0:0:
233,336,113874,2,0,L|294:346,1,55.9999982910157,8|0,0:0|0:0,0:0:0:0:
383,358,114215,1,2,0:0:0:0:
424,242,114386,6,0,P|341:241|304:266,1,111.999996582031,8|8,0:1|0:0,0:0:0:0:
233,336,114897,1,2,0:0:0:0:
228,227,115067,1,8,0:1:0:0:
145,331,115238,2,0,P|89:337|67:333,1,55.9999982910157,8|8,0:0|0:0,0:0:0:0:
22,273,115579,1,8,0:0:0:0:
22,273,115664,1,8,0:3:0:0:
22,273,115749,1,4,0:3:0:0:
51,118,115920,6,0,P|125:131|192:128,1,120,12|0,0:0|0:0,0:0:0:0:
248,85,116261,1,8,0:3:0:0:
345,195,116431,2,0,P|337:130|360:35,1,160,12|8,0:1|0:3,0:0:0:0:
438,115,116942,1,4,0:3:0:0:
312,182,117113,1,8,0:0:0:0:
312,182,117198,1,8,0:0:0:0:
312,182,117283,6,0,P|308:243|278:284,1,80,6|8,0:0|0:3,0:0:0:0:
188,312,117624,1,8,0:3:0:0:
360,314,117795,2,0,P|392:234|384:155,1,160,12|8,0:1|0:3,0:0:0:0:
284,63,118306,1,8,0:0:0:0:
264,67,118391,1,8,0:3:0:0:
244,71,118476,1,8,0:3:0:0:
224,75,118562,1,8,0:1:0:0:
205,81,118647,6,0,P|196:131|196:180,1,80,12|2,0:1|0:0,0:0:0:0:
245,274,118988,2,0,L|332:260,1,80,8|2,0:1|0:0,0:0:0:0:
462,203,119329,1,8,0:1:0:0:
345,159,119499,1,8,0:3:0:0:
396,314,119670,1,8,0:1:0:0:
245,274,119840,1,4,0:3:0:0:
353,80,120011,6,0,L|344:170,1,80,8|2,0:1|0:0,0:0:0:0:
323,261,120351,1,8,0:1:0:0:
244,144,120522,2,0,P|163:140|98:203,1,160,8|8,0:3|0:3,0:0:0:0:
104,330,121033,1,8,0:1:0:0:
123,325,121118,1,0,0:0:0:0:
142,319,121203,1,2,0:0:0:0:
161,314,121288,1,2,0:0:0:0:
180,308,121374,1,6,0:0:0:0:
181,308,122226,6,0,L|104:330,1,80,8|8,0:0|0:0,0:0:0:0:
214,218,122567,2,0,P|260:257|266:356,1,160,12|8,0:1|0:0,0:0:0:0:
181,308,123079,1,8,0:3:0:0:
353,258,123249,1,10,0:0:0:0:
200,135,123420,6,0,L|114:148,1,80,10|8,0:0|0:0,0:0:0:0:
35,233,123675,1,10,0:0:0:0:
35,233,123761,2,0,L|95:241,1,40,8|8,0:0|0:3,0:0:0:0:
181,308,123931,2,0,L|241:300,1,40,4|4,0:3|0:3,0:0:0:0:
353,258,124101,6,0,P|345:205|356:153,2,88.000002685547,12|8|8,0:1|0:1|0:0,0:0:0:0:
444,343,124613,1,10,0:1:0:0:
512,227,124783,2,0,P|474:215|427:212,1,88.000002685547,0|8,0:0|0:1,0:0:0:0:
304,264,125124,1,8,0:0:0:0:
360,107,125295,6,0,P|280:86|182:98,1,176.000005371094,10|8,0:1|0:1,0:0:0:0:
90,190,125806,2,0,P|150:192|202:208,1,88.000002685547,8|2,0:0|0:0,0:0:0:0:
228,319,126147,1,8,0:1:0:0:
101,297,126317,1,8,0:1:0:0:
228,319,126488,2,0,P|276:277|353:268,1,132.00000402832,8|0,0:0|0:0,0:0:0:0:
397,286,126829,6,0,L|386:380,2,88.000002685547,8|2|8,0:1|0:0|0:0,0:0:0:0:
467,176,127340,2,0,B|382:205|384:137|294:178,1,176.000005371094,10|10,0:1|0:1,0:0:0:0:
190,243,127851,1,8,0:0:0:0:
181,119,128022,1,2,0:0:0:0:
111,273,128192,6,0,P|61:286|13:284,1,88.000002685547,8|2,0:1|0:0,0:0:0:0:
7,161,128533,1,8,0:0:0:0:
181,119,128704,2,0,P|205:170|207:291,1,176.000005371094,10|8,0:1|0:1,0:0:0:0:
37,371,129215,2,0,P|24:330|27:272,1,88.000002685547,8|2,0:0|0:0,0:0:0:0:
89,147,129556,5,8,0:1:0:0:
111,273,129726,1,8,0:1:0:0:
217,183,129897,2,0,P|271:170|309:174,1,88.000002685547,8|8,0:0|0:1,0:0:0:0:
464,221,130238,2,0,P|429:200|380:188,1,88.000002685547,2|8,0:1|0:1,0:0:0:0:
269,265,130579,1,8,0:0:0:0:
410,326,130749,1,8,0:1:0:0:
410,326,130834,1,8,0:1:0:0:
410,326,130920,6,0,L|503:314,1,88.000002685547,10|0,0:0|0:0,0:0:0:0:
356,254,131261,2,0,L|261:265,1,88.000002685547,10|8,0:0|0:1,0:0:0:0:
140,345,131601,6,0,L|234:335,1,88.000002685547,10|0,0:0|0:0,0:0:0:0:
82,283,131942,1,10,0:0:0:0:
162,187,132113,1,8,0:1:0:0:
162,187,132198,1,8,0:1:0:0:
162,187,132283,6,0,P|166:129|153:76,1,88.000002685547,12|8,0:1|0:3,0:0:0:0:
50,45,132624,1,8,0:0:0:0:
218,49,132795,2,0,B|305:85|302:13|400:65,1,176.000005371094,6|10,0:0|0:1,0:0:0:0:
481,153,133306,1,8,0:0:0:0:
335,141,133476,6,0,B|348:255|348:255|324:320,1,176.000005371094,12|8,0:1|0:1,0:0:0:0:
235,357,133988,1,8,0:0:0:0:
206,353,134073,1,8,0:0:0:0:
177,352,134158,1,8,0:3:0:0:
148,355,134243,1,4,0:3:0:0:
118,366,134329,6,0,L|126:271,1,95.9999970703126,8|0,0:0|0:0,0:0:0:0:
66,197,134584,6,0,P|128:177|187:197,1,95.9999970703126,8|8,0:0|0:0,0:0:0:0:
234,226,134840,5,8,0:0:0:0:
317,350,135011,6,0,B|330:307|330:307|316:254,1,88.000002685547,12|8,0:1|0:1,0:0:0:0:
232,105,135351,1,8,0:0:0:0:
366,63,135522,2,0,P|367:140|372:168,1,88.000002685547,10|8,0:1|0:1,0:0:0:0:
437,240,135863,1,10,0:1:0:0:
316,215,136033,1,8,0:0:0:0:
477,164,136204,6,0,P|517:212|468:321,1,176.000005371094,10|8,0:1|0:1,0:0:0:0:
379,355,136715,1,8,0:0:0:0:
437,240,136886,1,10,0:1:0:0:
315,300,137056,2,0,P|251:302|209:297,1,88.000002685547,8|10,0:1|0:1,0:0:0:0:
85,232,137397,2,0,P|149:230|189:236,1,88.000002685547,8|2,0:0|0:0,0:0:0:0:
38,367,137738,6,0,B|21:325|21:325|37:261,1,88.000002685547,10|8,0:1|0:1,0:0:0:0:
67,150,138079,1,8,0:0:0:0:
172,232,138249,2,0,P|288:224|329:185,1,176.000005371094,10|10,0:1|0:1,0:0:0:0:
386,86,138761,1,8,0:0:0:0:
409,243,138931,6,0,B|445:257|488:253|488:253|450:357,1,176.000005371094,12|10,0:1|0:1,0:0:0:0:
331,360,139442,2,0,P|316:317|282:255,1,88.000002685547,8|8,0:0|0:1,0:0:0:0:
219,185,139783,6,0,P|160:194|89:218,1,95.9999970703126,12|0,0:0|0:0,0:0:0:0:
37,230,140039,6,0,P|46:170|70:99,1,95.9999970703126,8|0,3:0|0:0,0:0:0:0:
121,73,140295,5,4,0:3:0:0:
354,190,140465,6,0,P|368:146|369:95,1,88.000002685547,12|8,0:1|0:1,0:0:0:0:
225,32,140806,2,0,P|228:71|244:116,1,88.000002685547,8|8,0:0|0:1,0:0:0:0:
333,266,141147,6,0,B|369:283|369:283|440:275,1,95.9999970703126,8|0,0:0|0:0,0:0:0:0:
501,344,141403,6,0,L|397:359,1,95.9999970703126,8|0,0:3|0:0,0:0:0:0:
316,366,141658,5,4,0:3:0:0:
219,185,141829,6,0,L|202:297,1,88.000002685547,6|8,0:0|0:1,0:0:0:0:
87,342,142170,2,0,L|70:229,1,88.000002685547,8|8,0:0|0:1,0:0:0:0:
20,122,142511,6,0,P|97:128|140:123,1,95.9999970703126,8|0,0:3|0:0,0:0:0:0:
184,63,142766,6,0,P|261:57|304:62,1,95.9999970703126,8|0,0:3|0:0,0:0:0:0:
350,123,143022,5,4,0:3:0:0:
245,289,143192,5,12,0:1:0:0:
190,94,143363,1,10,0:1:0:0:
138,227,143533,1,8,0:0:0:0:
20,122,143704,2,0,P|36:200|28:300,1,176.000005371094,6|10,0:0|0:1,0:0:0:0:
135,367,144215,6,0,P|190:287|323:345,1,264.000008056641,12|10,0:0|0:1,0:0:0:0:
424,364,144897,2,0,P|416:318|416:257,1,88.000002685547,8|0,0:0|0:0,0:0:0:0:
468,157,145238,1,10,0:1:0:0:
345,212,145408,1,8,0:1:0:0:
309,81,145579,2,0,P|345:99|404:107,1,88.000002685547,8|2,0:0|0:1,0:0:0:0:
260,18,145920,6,0,P|188:52|88:66,1,176.000005371094,12|8,0:1|0:0,0:0:0:0:
6,158,146431,2,0,B|17:266|17:266|41:236|101:237,1,176.000005371094,10|8,0:1|0:1,0:0:0:0:
194,293,146942,2,0,P|242:303|296:293,1,88.000002685547,8|0,0:0|0:0,0:0:0:0:
367,220,147283,6,0,L|390:366,1,143.999995605469,12|8,0:0|0:0,0:0:0:0:
464,278,147795,2,0,P|483:199|433:134,1,143.999995605469,8|8,0:3|0:3,0:0:0:0:
346,118,148306,2,0,P|293:128|274:128,1,71.9999978027344,4|8,0:3|0:1,0:0:0:0:
180,92,148647,5,4,3:2:0:0:
256,192,152738,12,12,153761,0:3:0:0:
397,116,154101,6,0,B|340:108|340:108|304:128|304:128|237:121,1,160,12|8,0:1|0:0,0:0:0:0:
105,28,154613,2,0,P|157:84|148:161,1,160,10|8,0:1|0:1,0:0:0:0:
64,116,155124,1,8,0:0:0:0:
46,256,155295,2,0,P|41:295|43:335,1,80,10|0,0:1|0:0,0:0:0:0:
157,261,155636,2,0,P|180:293|210:319,1,80,10|8,0:1|0:0,0:0:0:0:
250,197,155976,2,0,P|289:202|329:200,2,80,10|8|10,0:1|0:3|0:1,0:0:0:0:
354,106,156488,5,8,0:0:0:0:
354,106,156573,1,8,0:0:0:0:
354,106,156658,1,2,0:0:0:0:
354,106,156743,1,2,0:0:0:0:
354,106,156829,2,0,P|440:93|501:135,1,160,10|8,0:1|0:0,0:0:0:0:
372,197,157340,2,0,B|290:213|307:147|221:165,1,160,10|8,0:1|0:1,0:0:0:0:
125,205,157851,1,8,0:0:0:0:
137,25,158022,6,0,L|150:103,1,80,10|0,0:1|0:0,0:0:0:0:
48,149,158363,2,0,L|35:228,2,80,10|8|2,0:1|0:0|0:0,0:0:0:0:
135,298,158874,2,0,L|206:261,1,80,8|10,0:1|0:1,0:0:0:0:
353,286,159215,5,8,0:0:0:0:
353,286,159300,1,8,0:0:0:0:
353,286,159386,1,8,0:3:0:0:
353,286,159471,1,4,0:3:0:0:
353,286,159556,2,0,P|349:189|362:110,1,160,12|8,0:1|0:0,0:0:0:0:
422,38,160067,1,2,0:0:0:0:
271,72,160238,2,0,L|176:62,1,80,10|8,0:1|0:1,0:0:0:0:
137,152,160579,1,8,0:0:0:0:
65,31,160749,6,0,B|59:110,1,80,2|8,0:0|0:1,0:0:0:0:
229,175,161090,1,2,0:0:0:0:
61,195,161261,1,8,0:0:0:0:
151,258,161431,1,2,0:0:0:0:
151,135,161601,2,0,L|158:40,1,80,6|8,0:0|0:1,0:0:0:0:
247,267,161942,1,8,0:0:0:0:
247,267,162283,6,0,B|336:289|309:225|411:254,1,160,12|8,0:1|0:0,0:0:0:0:
428,129,162795,1,2,0:0:0:0:
266,111,162965,2,0,P|271:151|279:189,1,80,8|10,0:1|0:1,0:0:0:0:
428,129,163306,1,8,0:0:0:0:
294,22,163476,2,0,L|214:33,1,80,10|0,0:1|0:0,0:0:0:0:
103,104,163817,2,0,L|182:115,1,80,10|8,0:1|0:0,0:0:0:0:
353,99,164158,2,0,L|273:110,1,80,10|8,0:1|0:3,0:0:0:0:
166,219,164499,1,8,0:0:0:0:
293,197,164670,1,8,0:0:0:0:
182,115,164840,5,10,0:1:0:0:
182,115,164925,1,8,0:0:0:0:
182,115,165011,2,0,L|103:104,1,80,12|8,0:1|0:1,0:0:0:0:
45,246,165351,5,8,0:0:0:0:
166,219,165522,1,10,0:1:0:0:
20,162,165692,5,8,0:0:0:0:
188,227,165863,1,8,0:1:0:0:
23,72,166033,5,8,0:3:0:0:
208,235,166204,6,0,B|273:230|273:230|300:244|300:244|364:237,1,160,6|8,0:0|0:0,0:0:0:0:
346,81,166715,2,0,P|324:113|321:153,1,80,8|8,0:1|0:3,0:0:0:0:
426,64,167056,2,0,P|408:28|376:5,1,80,8|8,0:0|0:1,0:0:0:0:
404,142,167397,2,0,P|443:144|479:128,1,80,8|4,0:3|0:3,0:0:0:0:
346,81,167738,5,2,0:0:0:0:
136,85,177965,6,0,P|152:135|147:181,2,80,2|0|0,0:0|0:0|0:0,0:0:0:0:
115,257,178647,6,0,B|195:286|195:222|303:256,1,160,12|8,0:1|0:1,0:0:0:0:
380,300,179158,1,2,0:0:0:0:
380,300,179329,2,0,P|367:250|366:205,1,80,10|0,0:1|0:0,0:0:0:0:
429,122,179670,1,10,0:1:0:0:
302,63,179840,6,0,B|230:64|230:64|212:73|212:73|118:72,2,160,2|2|2,0:1|0:0|0:0,0:0:0:0:
355,165,180692,2,0,P|350:213|356:260,1,80,8|2,0:1|0:0,0:0:0:0:
433,311,181033,1,8,0:1:0:0:
318,342,181204,1,8,0:0:0:0:
318,342,181289,1,8,0:0:0:0:
318,342,181374,6,0,P|237:309|153:317,1,160,6|8,0:0|0:1,0:0:0:0:
62,364,181886,1,2,0:0:0:0:
62,364,182056,2,0,P|48:278|49:201,1,160,10|10,0:1|0:1,0:0:0:0:
109,96,182567,1,8,0:0:0:0:
109,96,182653,1,8,0:0:0:0:
109,96,182738,6,0,P|170:112|217:114,1,80,10|8,0:1|0:0,0:0:0:0:
291,61,183079,1,8,0:1:0:0:
244,176,183249,2,0,B|246:226|228:254|228:254|233:289|280:336,1,160,2|0,0:0|0:0,0:0:0:0:
389,360,183761,1,8,0:3:0:0:
400,343,183846,1,8,0:3:0:0:
407,324,183931,1,4,0:3:0:0:
408,304,184016,1,4,0:3:0:0:
403,284,184101,6,0,P|385:219|385:192,2,80,12|0|2,0:1|0:0|0:0,0:0:0:0:
492,184,184613,2,0,P|515:95|508:13,1,160,8|10,0:1|0:1,0:0:0:0:
378,14,185124,1,8,0:0:0:0:
118,127,185465,6,0,P|183:122|217:132,2,80,12|0|2,0:1|0:0|0:0,0:0:0:0:
84,251,185976,2,0,P|169:269|247:240,1,160,8|10,0:1|0:1,0:0:0:0:
312,136,186488,1,8,0:0:0:0:
312,136,186829,6,0,P|313:225|328:301,1,160,12|2,0:1|0:0,0:0:0:0:
421,359,187340,1,0,0:0:0:0:
496,260,187511,2,0,P|456:263|417:274,1,80,0|8,0:0|0:1,0:0:0:0:
327,371,187851,1,8,0:0:0:0:
231,278,188022,1,10,0:1:0:0:
345,176,188192,6,0,L|324:303,1,120,8|0,0:0|0:0,0:0:0:0:
245,353,188533,2,0,B|202:344|166:360|166:360|122:334,1,120,6|0,0:0|0:0,0:0:0:0:
82,257,188874,2,0,P|127:241|172:253,1,80,6|0,0:0|0:0,0:0:0:0:
22,371,189215,1,6,0:0:0:0:
22,194,189386,1,8,0:3:0:0:
22,194,189471,1,8,0:3:0:0:
22,194,189556,6,0,P|108:157|206:172,1,160,12|8,0:1|0:1,0:0:0:0:
269,265,190067,1,8,0:3:0:0:
269,265,190238,2,0,P|270:169|293:94,1,160,12|8,0:1|0:1,0:0:0:0:
432,38,190749,6,0,B|470:65|479:103|479:103|478:139|441:185,1,160,8|2,0:0|0:0,0:0:0:0:
354,253,191261,1,8,0:1:0:0:
354,253,191431,2,0,P|364:313|366:339,2,80,8|8|8,0:3|0:1|0:3,0:0:0:0:
266,184,191942,1,2,0:1:0:0:
245,185,192028,1,8,0:1:0:0:
225,186,192113,1,8,0:0:0:0:
205,187,192198,1,10,0:0:0:0:
185,189,192283,6,0,P|161:114|170:76,1,120,12|0,0:0|0:0,0:0:0:0:
243,24,192624,2,0,L|320:32,1,40,8|8,0:3|0:3,0:0:0:0:
396,96,192795,2,0,P|335:102|295:110,1,80,12|0,0:0|0:0,0:0:0:0:
185,189,193136,1,8,0:0:0:0:
378,198,193306,1,8,0:0:0:0:
282,28,193476,6,0,B|248:109|316:108|279:201,1,160,14|8,0:1|0:1,0:0:0:0:
206,288,193988,1,8,0:0:0:0:
206,288,194073,1,8,0:0:0:0:
206,288,194158,2,0,L|157:284,1,40,8|8,0:0|0:0,0:0:0:0:
46,342,194329,1,8,0:0:0:0:
46,342,194414,1,8,0:3:0:0:
46,342,194499,2,0,L|95:346,1,40,4|8,0:3|0:1,0:0:0:0:
202,372,194670,1,8,0:0:0:0:
202,372,194755,1,8,0:0:0:0:
202,372,194840,6,0,B|247:373|278:353|278:353|277:304|314:253,1,160,8|8,0:0|0:3,0:0:0:0:
403,198,195351,5,2,0:0:0:0:
403,198,195692,6,0,P|373:162|364:126,1,64,2|2,0:0|0:0,0:0:0:0:
358,64,195948,6,0,L|271:70,1,71.9999978027344,2|2,0:0|0:0,0:0:0:0:
215,130,196204,6,0,L|160:121,1,40,2|2,0:0|0:0,0:0:0:0:
81,171,196374,6,0,L|76:84,2,88.000002685547,12|8|8,0:1|0:1|0:0,0:0:0:0:
194,308,196886,1,10,0:1:0:0:
99,333,197056,2,0,P|97:287|118:246,1,88.000002685547,2|8,0:0|0:1,0:0:0:0:
281,321,197397,1,8,0:0:0:0:
180,132,197567,6,0,L|195:320,1,176.000005371094,10|8,0:1|0:1,0:0:0:0:
267,184,198079,1,8,0:0:0:0:
106,172,198249,1,2,0:0:0:0:
256,86,198420,2,0,L|349:64,1,88.000002685547,8|8,0:1|0:1,0:0:0:0:
417,273,198761,2,0,L|324:251,1,88.000002685547,8|2,0:0|0:0,0:0:0:0:
177,122,199101,6,0,P|185:170|186:218,2,88.000002685547,8|2|8,0:1|0:1|0:0,0:0:0:0:
55,279,199613,2,0,B|143:250|133:323|227:294,1,176.000005371094,10|10,0:1|0:1,0:0:0:0:
291,172,200124,1,8,0:0:0:0:
330,329,200295,6,0,L|418:318,1,88.000002685547,2|8,0:0|0:1,0:0:0:0:
409,154,200636,1,2,0:0:0:0:
309,253,200806,1,8,0:0:0:0:
318,87,200976,2,0,B|271:76|271:76|238:99|238:99|199:74|153:87,1,176.000005371094,10|8,0:1|0:1,0:0:0:0:
123,226,201488,2,0,P|166:220|209:209,1,88.000002685547,8|2,0:0|0:0,0:0:0:0:
381,151,201829,5,8,0:1:0:0:
241,132,201999,1,8,0:1:0:0:
407,68,202170,2,0,P|446:94|466:134,1,88.000002685547,8|8,0:0|0:1,0:0:0:0:
438,303,202511,2,0,L|447:206,1,88.000002685547,2|8,0:0|0:1,0:0:0:0:
309,253,202851,1,8,0:0:0:0:
273,98,203022,1,8,0:1:0:0:
273,98,203107,1,8,0:1:0:0:
272,98,203192,6,0,P|225:98|171:125,1,95.9999970703126,10|0,0:0|0:0,0:0:0:0:
179,298,203533,2,0,P|202:256|206:196,1,95.9999970703126,10|8,0:0|0:1,0:0:0:0:
57,118,203874,6,0,P|81:159|131:192,1,95.9999970703126,10|0,0:0|0:0,0:0:0:0:
268,71,204215,2,0,P|243:29|193:-3,1,95.9999970703126,10|8,0:0|0:1,0:0:0:0:
313,172,204556,5,12,0:1:0:0:
181,117,204726,1,8,0:3:0:0:
275,277,204897,1,8,0:0:0:0:
407,160,205067,2,0,B|394:222|394:222|364:250|364:250|349:321,1,176.000005371094,6|8,0:0|0:3,0:0:0:0:
313,172,205579,1,8,0:0:0:0:
142,211,205749,6,0,P|226:207|274:276,1,176.000005371094,12|8,0:1|0:3,0:0:0:0:
54,275,206261,1,8,0:0:0:0:
53,242,206346,1,8,0:0:0:0:
52,209,206431,1,8,0:3:0:0:
51,176,206516,1,4,0:3:0:0:
50,143,206601,6,0,L|47:55,1,88.000002685547,8|0,0:0|0:0,0:0:0:0:
140,88,206857,6,0,B|184:98|184:98|220:75,1,88.000002685547,8|8,0:0|0:0,0:0:0:0:
171,9,207113,5,8,0:0:0:0:
399,40,207283,6,0,P|400:80|406:138,1,88.000002685547,12|8,0:1|0:1,0:0:0:0:
471,249,207624,1,8,0:0:0:0:
321,201,207795,2,0,P|320:241|314:299,1,88.000002685547,10|8,0:1|0:1,0:0:0:0:
208,362,208136,1,10,0:1:0:0:
217,224,208306,1,8,0:0:0:0:
381,339,208476,6,0,P|397:250|392:150,1,176.000005371094,10|8,0:1|0:1,0:0:0:0:
307,38,208988,1,8,0:0:0:0:
314,158,209158,1,10,0:1:0:0:
400,50,209329,2,0,P|445:41|487:41,1,88.000002685547,8|10,0:1|0:1,0:0:0:0:
307,80,209670,2,0,P|262:89|220:89,1,88.000002685547,8|2,0:0|0:0,0:0:0:0:
61,40,210011,6,0,P|73:97|78:142,1,88.000002685547,10|0,0:1|0:0,0:0:0:0:
29,254,210351,1,8,0:0:0:0:
169,179,210522,2,0,B|276:142|244:222|380:167,1,176.000005371094,10|10,0:1|0:1,0:0:0:0:
454,106,211033,1,8,0:0:0:0:
490,257,211204,6,0,B|478:313|482:356|482:356|434:340|400:338,1,176.000005371094,6|10,0:0|0:1,0:0:0:0:
300,350,211715,2,0,P|296:288|281:246,1,88.000002685547,8|8,0:0|0:1,0:0:0:0:
224,210,211971,1,8,0:1:0:0:
224,210,212056,6,0,P|152:220|85:182,1,132.00000402832,12|8,0:0|0:3,0:0:0:0:
76,26,212567,2,0,L|89:74,1,44.0000013427735,4|0,0:3|0:0,0:0:0:0:
171,113,212738,6,0,P|214:90|277:90,1,88.000002685547,12|2,0:1|0:0,0:0:0:0:
382,140,213079,2,0,L|369:230,1,88.000002685547,8|2,0:1|0:0,0:0:0:0:
258,340,213420,6,0,P|212:350|139:328,1,88.000002685547,8|0,0:1|0:0,0:0:0:0:
115,277,213675,6,0,P|105:231|127:158,1,88.000002685547,8|0,0:3|0:0,0:0:0:0:
172,126,213931,5,4,0:3:0:0:
361,259,214101,6,0,P|417:251|482:270,1,88.000002685547,6|2,0:0|0:0,0:0:0:0:
501,360,214442,1,8,0:1:0:0:
366,351,214613,1,2,0:0:0:0:
478,224,214783,6,0,P|481:138|470:103,1,88.000002685547,8|0,0:3|0:0,0:0:0:0:
420,68,215039,6,0,P|376:64|332:70,1,88.000002685547,8|0,0:0|0:0,0:0:0:0:
250,104,215295,5,4,0:3:0:0:
361,259,215465,5,10,0:0:0:0:
355,237,215550,1,8,0:0:0:0:
349,215,215636,2,0,L|329:144,1,44.0000013427735,8|0,0:0|0:0,0:0:0:0:
250,104,215806,5,10,0:0:0:0:
244,126,215891,1,8,0:0:0:0:
238,148,215977,2,0,L|218:219,1,44.0000013427735,8|8,0:0|0:0,0:0:0:0:
167,287,216147,5,10,0:0:0:0:
131,286,216232,1,8,0:0:0:0:
97,274,216317,1,8,0:0:0:0:
70,250,216403,1,8,0:0:0:0:
57,217,216488,1,10,0:0:0:0:
53,182,216573,1,10,0:0:0:0:
62,147,216658,6,0,L|260:148,1,176.000005371094,12|8,0:1|0:3,0:0:0:0:
386,200,217170,1,8,0:3:0:0:
248,259,217340,1,8,0:3:0:0:
342,122,217511,1,4,0:3:0:0:
375,110,217596,1,8,0:0:0:0:
409,113,217681,1,8,0:0:0:0:
440,128,217766,1,8,0:0:0:0:
462,154,217851,2,0,L|470:204,1,44.0000013427735,8|8,0:0|0:0,0:0:0:0:
492,301,218022,6,0,P|402:282|321:336,1,176.000005371094,12|8,0:1|0:1,0:0:0:0:
212,378,218533,2,0,P|217:333|209:281,1,88.000002685547,8|2,0:0|0:0,0:0:0:0:
93,232,218874,1,8,0:1:0:0:
103,362,219045,1,8,0:1:0:0:
93,232,219215,2,0,P|88:187|96:135,1,88.000002685547,8|2,0:0|0:0,0:0:0:0:
193,40,219556,5,8,0:1:0:0:
300,121,219726,1,2,0:0:0:0:
185,190,219897,1,8,0:0:0:0:
292,271,220067,1,10,0:1:0:0:
292,271,220153,1,8,0:1:0:0:
292,271,220238,6,0,P|361:258|405:265,1,88.000002685547,8|0,0:0|0:0,0:0:0:0:
467,232,220493,6,0,L|458:319,1,88.000002685547,8|0,0:3|0:0,0:0:0:0:
382,374,220749,5,4,0:3:0:0:
141,369,220920,5,12,0:1:0:0:
141,369,221772,1,8,0:0:0:0:
72,136,222113,6,0,B|53:266|53:266|74:325,1,176.000005371094,6|8,0:0|0:3,0:0:0:0:
140,368,222539,1,8,0:3:0:0:
140,368,222624,2,0,P|208:344|236:347,1,88.000002685547,8|8,0:3|0:0,0:0:0:0:
368,364,222965,1,4,0:3:0:0:
363,329,223050,1,8,0:0:0:0:
358,293,223136,1,8,0:0:0:0:
353,258,223221,1,8,0:0:0:0:
347,223,223306,2,0,L|361:141,1,44.0000013427735,8|8,0:0|0:0,0:0:0:0:
404,83,223476,6,0,P|352:84|244:91,1,160,12|8,0:1|0:1,0:0:0:0:
98,150,223988,1,8,0:0:0:0:
143,20,224158,2,0,P|151:60|164:109,1,80,2|8,0:1|0:1,0:0:0:0:
249,204,224499,1,10,0:1:0:0:
98,150,224670,1,8,0:0:0:0:
36,301,224840,6,0,B|79:272|79:272|136:284|186:318,1,160,10|8,0:1|0:1,0:0:0:0:
249,204,225351,1,8,0:0:0:0:
373,316,225522,2,0,L|293:305,1,80,2|8,0:0|0:1,0:0:0:0:
322,141,225863,1,10,0:1:0:0:
416,241,226033,2,0,L|336:230,1,80,8|2,0:0|0:0,0:0:0:0:
321,53,226374,6,0,B|385:77|385:77|401:110|401:110|464:139,1,160,12|8,0:1|0:0,0:0:0:0:
240,150,226886,2,0,B|152:120|166:188|73:155,1,160,2|2,0:1|0:1,0:0:0:0:
23,57,227397,1,8,0:0:0:0:
20,222,227567,6,0,P|26:264|33:300,1,80,10|0,0:1|0:0,0:0:0:0:
133,340,227908,1,10,0:1:0:0:
230,255,228079,2,0,P|191:247|152:254,1,80,8|10,0:0|0:1,0:0:0:0:
300,349,228420,1,8,0:0:0:0:
300,349,228505,1,8,0:0:0:0:
300,349,228590,1,8,0:0:0:0:
300,349,228675,1,8,0:0:0:0:
300,349,228761,1,8,0:0:0:0:
360,179,228931,6,0,P|384:255|398:333,1,160,12|10,0:1|0:1,0:0:0:0:
278,160,229442,1,12,0:0:0:0:
448,187,229613,1,2,0:0:0:0:
299,247,229783,2,0,L|217:255,1,80,8|10,0:1|0:1,0:0:0:0:
333,96,230124,2,0,L|415:104,1,80,12|10,0:0|0:1,0:0:0:0:
194,144,230465,5,0,0:0:0:0:
299,247,230636,1,10,0:1:0:0:
251,76,230806,1,12,0:0:0:0:
135,210,230976,2,0,L|22:204,1,80,10|8,0:1|0:1,0:0:0:0:
218,228,231317,1,10,0:1:0:0:
170,62,231488,1,8,0:0:0:0:
218,228,231658,6,0,P|285:219|387:216,1,160,12|10,0:1|0:1,0:0:0:0:
415,110,232170,5,12,0:0:0:0:
469,256,232340,1,2,0:0:0:0:
366,35,232511,5,8,0:0:0:0:
295,186,232681,1,2,0:0:0:0:
493,168,232851,5,8,0:0:0:0:
330,111,233022,1,10,0:1:0:0:
257,258,233192,6,0,L|269:347,1,80,8|10,0:0|0:1,0:0:0:0:
394,218,233533,2,0,L|404:138,1,80,8|8,0:0|0:3,0:0:0:0:
171,160,233874,5,8,0:0:0:0:
343,275,234045,1,8,0:0:0:0:
159,271,234215,5,8,0:0:0:0:
330,111,234386,1,12,0:0:0:0:
330,111,234726,5,2,0:0:0:0:
257,258,234897,1,12,0:1:0:0:
256,192,234982,12,0,240692,0:0:0:0:
