osu file format v14

[General]
AudioFilename: audio.mp3
AudioLeadIn: 0
PreviewTime: 63135
Countdown: 0
SampleSet: Normal
StackLeniency: 0.7
Mode: 1
LetterboxInBreaks: 0
WidescreenStoryboard: 1

[Editor]
Bookmarks: 940,6214,16764,27313,37863,48412,53687,64240,74789,85338,95888,107756,118310,128859,134134,144683,155233,165782,176331,192150,198094,208643,213918,224463,232375,242925,254793,265342,275892,278561
DistanceSpacing: 0.8
BeatDivisor: 4
GridSize: 8
TimelineZoom: 2.599999

[Metadata]
Title:MELODY FLAG
TitleUnicode:MELODY FLAG
Artist:Minase Inori
ArtistUnicode:水瀬いのり
Creator:yuki_momoiro722
Version:Oni
Source:水瀬いのり MELODY FLAG
Tags:taiko メロディ フラッグ starry wish 中野領太 ryota nakano j-pop japanese pop jpop
BeatmapID:2296422
BeatmapSetID:1053387

[Difficulty]
HPDrainRate:6
CircleSize:2
OverallDifficulty:5.5
ApproachRate:9
SliderMultiplier:1.4
SliderTickRate:1

[Events]
//Background and Video events
0,0,"BG.jpg",0,70
//Break Periods
//Storyboard Layer 0 (Background)
//Storyboard Layer 1 (Fail)
//Storyboard Layer 2 (Pass)
//Storyboard Layer 3 (Foreground)
//Storyboard Layer 4 (Overlay)
//Storyboard Sound Samples

[TimingPoints]
940,329.67032967033,4,1,0,70,1,0
6214,-100,4,1,0,80,0,0
16764,-100,4,1,0,70,0,0
58961,-100,4,1,0,75,0,0
59950,344.827586206897,4,1,0,75,1,8
59950,-95.6043956043955,4,1,0,75,0,0
60294,329.67032967033,4,1,0,75,1,0
62903,329.67032967033,4,1,0,80,1,0
63232,349.854227405248,4,1,0,80,1,8
63232,-94.2307692307692,4,1,0,80,0,0
63581,329.67032967033,4,1,0,80,1,8
63910,-95.2380952380952,4,1,0,80,0,0
64240,329.67032967033,4,1,0,90,1,1
64240,-90.9090909090909,4,1,0,90,0,1
95558,-95.2380952380952,4,1,0,90,0,1
95888,-99.9999999999999,4,1,0,80,0,0
107756,-99.9999999999999,4,1,0,70,0,0
115668,342.857142857143,4,1,0,60,1,0
115668,-96.1538461538461,4,1,0,60,0,0
116182,331.491712707182,4,1,0,60,1,8
116182,-99.4505494505495,4,1,0,60,0,0
116513,324.324324324324,4,1,0,60,1,8
116513,-101.648351648352,4,1,0,60,0,0
116999,327.868852459016,4,1,0,80,1,0
116999,-100.549450549451,4,1,0,80,0,0
118310,329.67032967033,4,1,0,70,1,0
139408,-99.9999999999999,4,1,0,75,0,0
143364,-99.9999999999999,4,1,0,80,0,0
144353,-95.2380952380952,4,1,0,80,0,0
144683,-90.9090909090909,4,1,0,90,0,1
176002,-95.2380952380952,4,1,0,90,0,1
176331,-99.9999999999999,4,1,0,70,0,0
191331,285.714285714286,4,1,0,70,1,8
191331,-115.384615384615,4,1,0,70,0,0
191473,329.67032967033,4,1,0,70,1,8
191802,348.837209302326,4,1,0,70,1,8
191802,-94.5054945054944,4,1,0,70,0,0
192150,329.67032967033,4,1,0,70,1,0
196106,331.491712707182,6,1,0,60,1,0
196106,-99.4505494505495,6,1,0,60,0,0
198094,329.67032967033,4,1,0,60,1,0
198094,-111.111111111111,4,1,0,60,0,0
207984,-105.263157894737,4,1,0,60,0,0
208643,-99.9999999999999,4,1,0,70,0,0
213918,-99.9999999999999,4,1,0,75,0,0
221830,326.086956521739,4,1,0,80,1,0
221830,-101.098901098901,4,1,0,80,0,0
222156,329.67032967033,4,1,0,80,1,8
223145,329.67032967033,4,1,0,80,1,0
224298,-95.2380952380952,4,1,0,80,0,0
224463,-90.9090909090909,4,1,0,90,0,1
254463,-95.2380952380952,4,1,0,90,0,1
254793,-99.9999999999999,4,1,0,80,0,0
275892,333.333333333333,4,1,0,80,1,0
275892,-98.901098901099,4,1,0,80,0,0
277058,303.030303030303,4,1,0,60,1,8
277058,-108.791208791209,4,1,0,60,0,0
277209,329.67032967033,4,1,0,80,1,0
278362,398.671096345515,4,1,0,60,1,8
278362,-82.6923076923077,4,1,0,60,0,0
278561,329.67032967033,4,1,0,60,1,0
279714,264.31718061674,4,1,0,60,1,8
279714,-124.725274725275,4,1,0,60,0,0
279846,329.67032967033,4,1,0,80,1,0

[HitObjects]
256,192,940,5,8,0:0:0:0:
256,192,1269,1,0,0:0:0:0:
256,192,1434,1,8,0:0:0:0:
256,192,1764,1,8,0:0:0:0:
256,192,1929,1,0,0:0:0:0:
256,192,2093,1,0,0:0:0:0:
256,192,2258,1,8,0:0:0:0:
256,192,2423,1,8,0:0:0:0:
256,192,2588,1,0,0:0:0:0:
256,192,2753,1,8,0:0:0:0:
256,192,3082,1,8,0:0:0:0:
256,192,3247,1,8,0:0:0:0:
256,192,3412,1,0,0:0:0:0:
256,192,3577,1,0,0:0:0:0:
256,192,3907,1,8,0:0:0:0:
256,192,4071,1,8,0:0:0:0:
256,192,4401,1,0,0:0:0:0:
256,192,4566,1,8,0:0:0:0:
256,192,4896,1,8,0:0:0:0:
256,192,5060,1,0,0:0:0:0:
256,192,5225,1,8,0:0:0:0:
256,192,5390,1,0,0:0:0:0:
256,192,5555,1,8,0:0:0:0:
256,192,5637,1,8,0:0:0:0:
256,192,5720,1,0,0:0:0:0:
256,192,5885,1,12,0:0:0:0:
256,192,6214,5,4,0:0:0:0:
256,192,6544,1,8,0:0:0:0:
256,192,6874,1,0,0:0:0:0:
256,192,7038,1,0,0:0:0:0:
256,192,7203,1,8,0:0:0:0:
256,192,7368,1,8,0:0:0:0:
256,192,7533,1,0,0:0:0:0:
256,192,7863,1,8,0:0:0:0:
256,192,8027,1,0,0:0:0:0:
256,192,8192,1,8,0:0:0:0:
256,192,8357,1,0,0:0:0:0:
256,192,8522,1,8,0:0:0:0:
256,192,8687,1,8,0:0:0:0:
256,192,8852,1,0,0:0:0:0:
256,192,9181,1,8,0:0:0:0:
256,192,9346,1,0,0:0:0:0:
256,192,9429,1,0,0:0:0:0:
256,192,9511,1,0,0:0:0:0:
256,192,9676,1,0,0:0:0:0:
256,192,9841,1,8,0:0:0:0:
256,192,10005,1,0,0:0:0:0:
256,192,10170,1,0,0:0:0:0:
256,192,10500,1,8,0:0:0:0:
256,192,10665,1,0,0:0:0:0:
256,192,10830,1,0,0:0:0:0:
256,192,10994,1,8,0:0:0:0:
256,192,11159,1,8,0:0:0:0:
256,192,11324,1,0,0:0:0:0:
256,192,11489,1,12,0:0:0:0:
256,192,11654,1,4,0:0:0:0:
256,192,11983,1,12,0:0:0:0:
256,192,12313,1,12,0:0:0:0:
256,192,12643,1,4,0:0:0:0:
256,192,12972,1,12,0:0:0:0:
256,192,13302,1,4,0:0:0:0:
256,192,13632,1,12,0:0:0:0:
256,192,13961,1,0,0:0:0:0:
256,192,14126,1,12,0:0:0:0:
256,192,14291,1,0,0:0:0:0:
256,192,14621,1,12,0:0:0:0:
256,192,14950,1,12,0:0:0:0:
256,192,15280,1,4,0:0:0:0:
256,192,15610,1,12,0:0:0:0:
256,192,15940,1,4,0:0:0:0:
256,192,16269,1,12,0:0:0:0:
256,192,16599,1,0,0:0:0:0:
256,192,16764,5,12,0:0:0:0:
256,192,17093,1,8,0:0:0:0:
256,192,17423,1,0,0:0:0:0:
256,192,17588,1,8,0:0:0:0:
256,192,17918,1,8,0:0:0:0:
256,192,18412,1,8,0:0:0:0:
256,192,18742,1,0,0:0:0:0:
256,192,19071,1,8,0:0:0:0:
256,192,19236,1,0,0:0:0:0:
256,192,19401,1,8,0:0:0:0:
256,192,19731,1,8,0:0:0:0:
256,192,19896,1,0,0:0:0:0:
256,192,20225,1,8,0:0:0:0:
256,192,20555,1,0,0:0:0:0:
256,192,20637,1,0,0:0:0:0:
256,192,20720,1,8,0:0:0:0:
256,192,21214,1,8,0:0:0:0:
256,192,21379,1,8,0:0:0:0:
256,192,21544,1,0,0:0:0:0:
256,192,21709,1,8,0:0:0:0:
256,192,21874,1,8,0:0:0:0:
256,192,22038,1,0,0:0:0:0:
256,192,22368,1,0,0:0:0:0:
256,192,22533,1,8,0:0:0:0:
256,192,22863,1,8,0:0:0:0:
256,192,23192,1,8,0:0:0:0:
256,192,23357,1,0,0:0:0:0:
256,192,23687,1,8,0:0:0:0:
256,192,24016,1,0,0:0:0:0:
256,192,24181,1,0,0:0:0:0:
256,192,24346,1,8,0:0:0:0:
256,192,24676,1,4,0:0:0:0:
256,192,25005,1,0,0:0:0:0:
256,192,25170,1,12,0:0:0:0:
256,192,25500,1,0,0:0:0:0:
256,192,25665,1,8,0:0:0:0:
256,192,25830,1,8,0:0:0:0:
256,192,25994,1,4,0:0:0:0:
256,192,26159,1,0,0:0:0:0:
256,192,26324,1,8,0:0:0:0:
256,192,26489,1,12,0:0:0:0:
256,192,26819,1,8,0:0:0:0:
256,192,26983,1,0,0:0:0:0:
256,192,27148,1,0,0:0:0:0:
256,192,27313,5,12,0:0:0:0:
256,192,27643,1,8,0:0:0:0:
256,192,27972,1,0,0:0:0:0:
256,192,28137,1,8,0:0:0:0:
256,192,28302,1,0,0:0:0:0:
256,192,28467,1,8,0:0:0:0:
256,192,28797,1,0,0:0:0:0:
256,192,28961,1,8,0:0:0:0:
256,192,29126,1,8,0:0:0:0:
256,192,29209,1,8,0:0:0:0:
256,192,29291,1,0,0:0:0:0:
256,192,29456,1,0,0:0:0:0:
256,192,29621,1,8,0:0:0:0:
256,192,29786,1,0,0:0:0:0:
256,192,29950,1,8,0:0:0:0:
256,192,30280,1,8,0:0:0:0:
256,192,30445,1,0,0:0:0:0:
256,192,30610,1,0,0:0:0:0:
256,192,30775,1,8,0:0:0:0:
256,192,30940,1,0,0:0:0:0:
256,192,31104,1,8,0:0:0:0:
256,192,31434,1,8,0:0:0:0:
256,192,31599,1,8,0:0:0:0:
256,192,31764,1,0,0:0:0:0:
256,192,31846,1,0,0:0:0:0:
256,192,31929,1,8,0:0:0:0:
256,192,32093,1,8,0:0:0:0:
256,192,32258,1,0,0:0:0:0:
256,192,32423,1,0,0:0:0:0:
256,192,32588,1,8,0:0:0:0:
256,192,32918,1,8,0:0:0:0:
256,192,33082,1,0,0:0:0:0:
256,192,33247,1,0,0:0:0:0:
256,192,33412,1,8,0:0:0:0:
256,192,33577,1,0,0:0:0:0:
256,192,33742,1,8,0:0:0:0:
256,192,34071,1,0,0:0:0:0:
256,192,34236,1,8,0:0:0:0:
256,192,34401,1,8,0:0:0:0:
256,192,34566,1,0,0:0:0:0:
256,192,34648,1,0,0:0:0:0:
256,192,34731,1,0,0:0:0:0:
256,192,34896,1,8,0:0:0:0:
256,192,35060,1,0,0:0:0:0:
256,192,35225,1,12,0:0:0:0:
256,192,35555,1,0,0:0:0:0:
256,192,35720,1,12,0:0:0:0:
256,192,36049,1,8,0:0:0:0:
256,192,36214,1,0,0:0:0:0:
256,192,36379,1,0,0:0:0:0:
256,192,36544,1,12,0:0:0:0:
256,192,36709,1,0,0:0:0:0:
256,192,36874,1,0,0:0:0:0:
256,192,37038,1,12,0:0:0:0:
256,192,37368,1,8,0:0:0:0:
256,192,37533,1,8,0:0:0:0:
256,192,37698,5,8,0:0:0:0:
256,192,37780,1,8,0:0:0:0:
256,192,37863,1,0,0:0:0:0:
256,192,38192,1,8,0:0:0:0:
256,192,38357,1,8,0:0:0:0:
256,192,38522,1,0,0:0:0:0:
256,192,38604,1,0,0:0:0:0:
256,192,38687,1,8,0:0:0:0:
256,192,38852,1,0,0:0:0:0:
256,192,39016,1,8,0:0:0:0:
256,192,39181,1,8,0:0:0:0:
256,192,39511,1,8,0:0:0:0:
256,192,39676,1,0,0:0:0:0:
256,192,39841,1,0,0:0:0:0:
256,192,40005,1,8,0:0:0:0:
256,192,40170,1,8,0:0:0:0:
256,192,40335,1,0,0:0:0:0:
256,192,40500,1,0,0:0:0:0:
256,192,40830,1,8,0:0:0:0:
256,192,40994,1,8,0:0:0:0:
256,192,41159,1,0,0:0:0:0:
256,192,41242,1,0,0:0:0:0:
256,192,41324,1,0,0:0:0:0:
256,192,41489,1,8,0:0:0:0:
256,192,41654,1,0,0:0:0:0:
256,192,41819,1,8,0:0:0:0:
256,192,42148,1,8,0:0:0:0:
256,192,42313,1,0,0:0:0:0:
256,192,42643,1,8,0:0:0:0:
256,192,42808,1,8,0:0:0:0:
256,192,42972,1,0,0:0:0:0:
256,192,43055,1,0,0:0:0:0:
256,192,43137,1,8,0:0:0:0:
256,192,43467,1,8,0:0:0:0:
256,192,43632,1,0,0:0:0:0:
256,192,43714,1,8,0:0:0:0:
256,192,43797,1,0,0:0:0:0:
256,192,43961,1,0,0:0:0:0:
256,192,44126,1,8,0:0:0:0:
256,192,44291,1,0,0:0:0:0:
256,192,44456,1,8,0:0:0:0:
256,192,44786,1,8,0:0:0:0:
256,192,44950,1,8,0:0:0:0:
256,192,45115,1,0,0:0:0:0:
256,192,45280,1,8,0:0:0:0:
256,192,45445,1,8,0:0:0:0:
256,192,45610,1,0,0:0:0:0:
256,192,45775,1,8,0:0:0:0:
256,192,46104,1,8,0:0:0:0:
256,192,46269,1,0,0:0:0:0:
256,192,46352,1,0,0:0:0:0:
256,192,46434,1,0,0:0:0:0:
256,192,46599,1,8,0:0:0:0:
256,192,46764,1,0,0:0:0:0:
256,192,46929,1,8,0:0:0:0:
256,192,47258,1,8,0:0:0:0:
256,192,47423,1,0,0:0:0:0:
256,192,47588,1,8,0:0:0:0:
256,192,47753,1,0,0:0:0:0:
256,192,47835,1,0,0:0:0:0:
256,192,47918,1,0,0:0:0:0:
256,192,48082,1,8,0:0:0:0:
256,192,48247,1,8,0:0:0:0:
256,192,48412,5,4,0:0:0:0:
256,192,48577,1,0,0:0:0:0:
256,192,48907,1,0,0:0:0:0:
256,192,49071,1,0,0:0:0:0:
256,192,49401,1,0,0:0:0:0:
256,192,49566,1,8,0:0:0:0:
256,192,49896,1,0,0:0:0:0:
256,192,50060,1,8,0:0:0:0:
256,192,50225,1,8,0:0:0:0:
256,192,50390,1,0,0:0:0:0:
256,192,50555,1,8,0:0:0:0:
256,192,50720,1,0,0:0:0:0:
256,192,51049,1,8,0:0:0:0:
256,192,51214,1,8,0:0:0:0:
256,192,51544,1,8,0:0:0:0:
256,192,51709,1,0,0:0:0:0:
256,192,52038,1,8,0:0:0:0:
256,192,52203,1,8,0:0:0:0:
256,192,52533,1,0,0:0:0:0:
256,192,52698,1,8,0:0:0:0:
256,192,52863,1,0,0:0:0:0:
256,192,53027,1,8,0:0:0:0:
256,192,53192,1,8,0:0:0:0:
256,192,53357,1,0,0:0:0:0:
256,192,53687,5,4,0:0:0:0:
256,192,55005,1,0,0:0:0:0:
256,192,55170,1,8,0:0:0:0:
256,192,55335,1,8,0:0:0:0:
256,192,55500,1,8,0:0:0:0:
256,192,55665,1,0,0:0:0:0:
256,192,55830,1,0,0:0:0:0:
256,192,55994,1,8,0:0:0:0:
256,192,56159,1,8,0:0:0:0:
256,192,56324,1,4,0:0:0:0:
256,192,56983,1,4,0:0:0:0:
256,192,57643,1,12,0:0:0:0:
256,192,58302,1,12,0:0:0:0:
256,192,58632,1,0,0:0:0:0:
256,192,58961,1,12,0:0:0:0:
256,192,59126,1,0,0:0:0:0:
256,192,59291,1,0,0:0:0:0:
256,192,59456,1,12,0:0:0:0:
256,192,59786,1,0,0:0:0:0:
256,192,59950,1,12,0:0:0:0:
256,192,60294,1,4,0:0:0:0:
256,192,60458,1,8,0:0:0:0:
256,192,60623,1,8,0:0:0:0:
256,192,60788,1,4,0:0:0:0:
256,192,61118,1,8,0:0:0:0:
256,192,61283,1,4,0:0:0:0:
256,192,61612,1,8,0:0:0:0:
256,192,61859,1,8,0:0:0:0:
256,192,61942,1,8,0:0:0:0:
256,192,62107,1,4,0:0:0:0:
256,192,62436,1,4,0:0:0:0:
256,192,62766,1,12,0:0:0:0:
256,192,63745,1,0,0:0:0:0:
256,192,63910,1,8,0:0:0:0:
256,192,64240,5,4,0:0:0:0:
256,192,64569,1,8,0:0:0:0:
256,192,64734,1,0,0:0:0:0:
256,192,64816,1,0,0:0:0:0:
256,192,64899,1,0,0:0:0:0:
256,192,65064,1,0,0:0:0:0:
256,192,65229,1,8,0:0:0:0:
256,192,65393,1,8,0:0:0:0:
256,192,65558,1,0,0:0:0:0:
256,192,65723,1,0,0:0:0:0:
256,192,65888,1,8,0:0:0:0:
256,192,66053,1,0,0:0:0:0:
256,192,66218,1,8,0:0:0:0:
256,192,66300,1,0,0:0:0:0:
256,192,66382,1,0,0:0:0:0:
256,192,66465,1,0,0:0:0:0:
256,192,66547,1,8,0:0:0:0:
256,192,66712,1,0,0:0:0:0:
256,192,66877,1,0,0:0:0:0:
256,192,67207,1,8,0:0:0:0:
256,192,67371,1,0,0:0:0:0:
256,192,67454,1,0,0:0:0:0:
256,192,67536,1,8,0:0:0:0:
256,192,67619,1,0,0:0:0:0:
256,192,67701,1,0,0:0:0:0:
256,192,67866,1,8,0:0:0:0:
256,192,68031,1,0,0:0:0:0:
256,192,68196,1,0,0:0:0:0:
256,192,68360,1,0,0:0:0:0:
256,192,68443,1,0,0:0:0:0:
256,192,68525,1,8,0:0:0:0:
256,192,68690,1,8,0:0:0:0:
256,192,68855,1,0,0:0:0:0:
256,192,68937,1,0,0:0:0:0:
256,192,69020,1,0,0:0:0:0:
256,192,69185,1,8,0:0:0:0:
256,192,69349,1,0,0:0:0:0:
256,192,69432,1,0,0:0:0:0:
256,192,69514,1,8,0:0:0:0:
256,192,69844,1,8,0:0:0:0:
256,192,70009,1,0,0:0:0:0:
256,192,70091,1,0,0:0:0:0:
256,192,70174,1,0,0:0:0:0:
256,192,70338,1,0,0:0:0:0:
256,192,70503,1,8,0:0:0:0:
256,192,70668,1,8,0:0:0:0:
256,192,70750,1,8,0:0:0:0:
256,192,70833,1,0,0:0:0:0:
256,192,70998,1,0,0:0:0:0:
256,192,71163,1,8,0:0:0:0:
256,192,71327,1,8,0:0:0:0:
256,192,71410,1,8,0:0:0:0:
256,192,71492,1,0,0:0:0:0:
256,192,71575,1,8,0:0:0:0:
256,192,71657,1,0,0:0:0:0:
256,192,71822,1,8,0:0:0:0:
256,192,71987,1,0,0:0:0:0:
256,192,72069,1,0,0:0:0:0:
256,192,72152,1,8,0:0:0:0:
256,192,72481,1,8,0:0:0:0:
256,192,72646,1,0,0:0:0:0:
256,192,72729,1,0,0:0:0:0:
256,192,72811,1,0,0:0:0:0:
256,192,72976,1,0,0:0:0:0:
256,192,73141,1,8,0:0:0:0:
256,192,73305,1,0,0:0:0:0:
256,192,73470,1,8,0:0:0:0:
256,192,73800,1,8,0:0:0:0:
256,192,73965,1,0,0:0:0:0:
256,192,74047,1,0,0:0:0:0:
256,192,74130,1,8,0:0:0:0:
256,192,74212,1,8,0:0:0:0:
256,192,74294,1,0,0:0:0:0:
256,192,74459,1,8,0:0:0:0:
256,192,74542,1,0,0:0:0:0:
256,192,74624,1,8,0:0:0:0:
256,192,74789,5,4,0:0:0:0:
256,192,75119,1,8,0:0:0:0:
256,192,75283,1,0,0:0:0:0:
256,192,75366,1,0,0:0:0:0:
256,192,75448,1,0,0:0:0:0:
256,192,75613,1,0,0:0:0:0:
256,192,75778,1,8,0:0:0:0:
256,192,75943,1,8,0:0:0:0:
256,192,76108,1,0,0:0:0:0:
256,192,76272,1,0,0:0:0:0:
256,192,76437,1,8,0:0:0:0:
256,192,76602,1,0,0:0:0:0:
256,192,76767,1,8,0:0:0:0:
256,192,76849,1,8,0:0:0:0:
256,192,76932,1,0,0:0:0:0:
256,192,77014,1,0,0:0:0:0:
256,192,77097,1,8,0:0:0:0:
256,192,77261,1,0,0:0:0:0:
256,192,77426,1,8,0:0:0:0:
256,192,77756,1,8,0:0:0:0:
256,192,77921,1,0,0:0:0:0:
256,192,78003,1,0,0:0:0:0:
256,192,78086,1,8,0:0:0:0:
256,192,78168,1,8,0:0:0:0:
256,192,78250,1,0,0:0:0:0:
256,192,78415,1,8,0:0:0:0:
256,192,78580,1,0,0:0:0:0:
256,192,78745,1,0,0:0:0:0:
256,192,78910,1,0,0:0:0:0:
256,192,78992,1,0,0:0:0:0:
256,192,79075,1,8,0:0:0:0:
256,192,79240,1,8,0:0:0:0:
256,192,79404,1,0,0:0:0:0:
256,192,79487,1,0,0:0:0:0:
256,192,79569,1,0,0:0:0:0:
256,192,79734,1,8,0:0:0:0:
256,192,79899,1,0,0:0:0:0:
256,192,79981,1,0,0:0:0:0:
256,192,80064,1,8,0:0:0:0:
256,192,80393,1,8,0:0:0:0:
256,192,80558,1,0,0:0:0:0:
256,192,80641,1,0,0:0:0:0:
256,192,80723,1,0,0:0:0:0:
256,192,80888,1,0,0:0:0:0:
256,192,81053,1,8,0:0:0:0:
256,192,81218,1,8,0:0:0:0:
256,192,81300,1,8,0:0:0:0:
256,192,81382,1,0,0:0:0:0:
256,192,81547,1,0,0:0:0:0:
256,192,81712,1,8,0:0:0:0:
256,192,81877,1,0,0:0:0:0:
256,192,81959,1,0,0:0:0:0:
256,192,82042,1,8,0:0:0:0:
256,192,82124,1,8,0:0:0:0:
256,192,82207,1,0,0:0:0:0:
256,192,82371,1,8,0:0:0:0:
256,192,82536,1,8,0:0:0:0:
256,192,82619,1,0,0:0:0:0:
256,192,82701,1,8,0:0:0:0:
256,192,83031,1,8,0:0:0:0:
256,192,83196,1,0,0:0:0:0:
256,192,83360,1,0,0:0:0:0:
256,192,83525,1,0,0:0:0:0:
256,192,83690,1,8,0:0:0:0:
256,192,83855,1,8,0:0:0:0:
256,192,83937,1,8,0:0:0:0:
256,192,84020,1,0,0:0:0:0:
256,192,84185,1,0,0:0:0:0:
256,192,84349,1,8,0:0:0:0:
256,192,84514,1,0,0:0:0:0:
256,192,84679,1,8,0:0:0:0:
256,192,84844,1,0,0:0:0:0:
256,192,84926,1,0,0:0:0:0:
256,192,85009,1,0,0:0:0:0:
256,192,85174,1,0,0:0:0:0:
256,192,85338,5,12,0:0:0:0:
256,192,85668,1,8,0:0:0:0:
256,192,85833,1,0,0:0:0:0:
256,192,85915,1,0,0:0:0:0:
256,192,85998,1,0,0:0:0:0:
256,192,86163,1,0,0:0:0:0:
256,192,86327,1,8,0:0:0:0:
256,192,86492,1,0,0:0:0:0:
256,192,86575,1,0,0:0:0:0:
256,192,86657,1,8,0:0:0:0:
256,192,86822,1,0,0:0:0:0:
256,192,86987,1,8,0:0:0:0:
256,192,87152,1,8,0:0:0:0:
256,192,87234,1,8,0:0:0:0:
256,192,87316,1,0,0:0:0:0:
256,192,87481,1,0,0:0:0:0:
256,192,87646,1,8,0:0:0:0:
256,192,87976,1,0,0:0:0:0:
256,192,88305,1,8,0:0:0:0:
256,192,88470,1,0,0:0:0:0:
256,192,88553,1,0,0:0:0:0:
256,192,88635,1,8,0:0:0:0:
256,192,88800,1,0,0:0:0:0:
256,192,88965,1,8,0:0:0:0:
256,192,89130,1,0,0:0:0:0:
256,192,89294,1,12,0:0:0:0:
256,192,89459,1,0,0:0:0:0:
256,192,89542,1,0,0:0:0:0:
256,192,89624,1,0,0:0:0:0:
256,192,89789,1,12,0:0:0:0:
256,192,90119,1,8,0:0:0:0:
256,192,90283,1,0,0:0:0:0:
256,192,90448,1,0,0:0:0:0:
256,192,90613,1,12,0:0:0:0:
256,192,90778,1,12,0:0:0:0:
256,192,91108,1,0,0:0:0:0:
256,192,91437,1,8,0:0:0:0:
256,192,91602,1,0,0:0:0:0:
256,192,91767,1,8,0:0:0:0:
256,192,91932,1,4,0:0:0:0:
256,192,92097,1,4,0:0:0:0:
256,192,92426,1,8,0:0:0:0:
256,192,92756,1,8,0:0:0:0:
256,192,92921,1,8,0:0:0:0:
256,192,93086,1,0,0:0:0:0:
256,192,93250,1,0,0:0:0:0:
256,192,93580,1,8,0:0:0:0:
256,192,93745,1,8,0:0:0:0:
256,192,93910,1,8,0:0:0:0:
256,192,94075,1,0,0:0:0:0:
256,192,94240,1,8,0:0:0:0:
256,192,94404,1,0,0:0:0:0:
256,192,94569,1,12,0:0:0:0:
256,192,95393,1,0,0:0:0:0:
256,192,95558,1,8,0:0:0:0:
256,192,95888,5,4,0:0:0:0:
256,192,96218,1,8,0:0:0:0:
256,192,96547,1,0,0:0:0:0:
256,192,96712,1,0,0:0:0:0:
256,192,96877,1,8,0:0:0:0:
256,192,97042,1,8,0:0:0:0:
256,192,97207,1,0,0:0:0:0:
256,192,97536,1,8,0:0:0:0:
256,192,97701,1,0,0:0:0:0:
256,192,97866,1,8,0:0:0:0:
256,192,98031,1,0,0:0:0:0:
256,192,98196,1,8,0:0:0:0:
256,192,98360,1,8,0:0:0:0:
256,192,98525,1,0,0:0:0:0:
256,192,98855,1,8,0:0:0:0:
256,192,99020,1,0,0:0:0:0:
256,192,99102,1,0,0:0:0:0:
256,192,99185,1,0,0:0:0:0:
256,192,99349,1,0,0:0:0:0:
256,192,99514,1,8,0:0:0:0:
256,192,99679,1,0,0:0:0:0:
256,192,99844,1,0,0:0:0:0:
256,192,100174,1,8,0:0:0:0:
256,192,100338,1,0,0:0:0:0:
256,192,100503,1,0,0:0:0:0:
256,192,100668,1,8,0:0:0:0:
256,192,100833,1,8,0:0:0:0:
256,192,100998,1,0,0:0:0:0:
256,192,101163,1,12,0:0:0:0:
256,192,101327,1,0,0:0:0:0:
256,192,101657,1,12,0:0:0:0:
256,192,101987,1,12,0:0:0:0:
256,192,102316,1,4,0:0:0:0:
256,192,102646,1,12,0:0:0:0:
256,192,102976,1,4,0:0:0:0:
256,192,103305,1,12,0:0:0:0:
256,192,103635,1,0,0:0:0:0:
256,192,103800,1,12,0:0:0:0:
256,192,103965,1,0,0:0:0:0:
256,192,104294,1,12,0:0:0:0:
256,192,104624,1,12,0:0:0:0:
256,192,104954,1,4,0:0:0:0:
256,192,105283,1,12,0:0:0:0:
256,192,105613,1,4,0:0:0:0:
256,192,105943,1,12,0:0:0:0:
256,192,107756,5,0,0:0:0:0:
256,192,108086,1,8,0:0:0:0:
256,192,108250,1,0,0:0:0:0:
256,192,108415,1,8,0:0:0:0:
256,192,108745,1,0,0:0:0:0:
256,192,108910,1,8,0:0:0:0:
256,192,109240,1,0,0:0:0:0:
256,192,109404,1,8,0:0:0:0:
256,192,109734,1,0,0:0:0:0:
256,192,110064,1,8,0:0:0:0:
256,192,110393,1,0,0:0:0:0:
256,192,110558,1,0,0:0:0:0:
256,192,110723,1,8,0:0:0:0:
256,192,110888,1,0,0:0:0:0:
256,192,111218,1,8,0:0:0:0:
256,192,111547,1,0,0:0:0:0:
256,192,111877,1,0,0:0:0:0:
256,192,112042,1,0,0:0:0:0:
256,192,112207,1,8,0:0:0:0:
256,192,112371,1,8,0:0:0:0:
256,192,112536,1,0,0:0:0:0:
256,192,112701,1,0,0:0:0:0:
256,192,113031,1,8,0:0:0:0:
256,192,113360,1,8,0:0:0:0:
256,192,113525,1,8,0:0:0:0:
256,192,113855,1,8,0:0:0:0:
256,192,114020,1,0,0:0:0:0:
256,192,114185,1,8,0:0:0:0:
256,192,114514,1,8,0:0:0:0:
256,192,114679,1,0,0:0:0:0:
256,192,114844,1,0,0:0:0:0:
256,192,115009,1,8,0:0:0:0:
256,192,115338,1,8,0:0:0:0:
256,192,115668,1,0,0:0:0:0:
256,192,116182,1,8,0:0:0:0:
256,192,116513,1,8,0:0:0:0:
256,192,116594,1,8,0:0:0:0:
256,192,116675,1,0,0:0:0:0:
256,192,116837,1,0,0:0:0:0:
256,192,116999,1,12,0:0:0:0:
256,192,117162,1,0,0:0:0:0:
256,192,117326,1,0,0:0:0:0:
256,192,117490,1,12,0:0:0:0:
256,192,117818,1,0,0:0:0:0:
256,192,117982,1,8,0:0:0:0:
256,192,118146,5,8,0:0:0:0:
256,192,118228,1,8,0:0:0:0:
256,192,118310,1,0,0:0:0:0:
256,192,118639,1,8,0:0:0:0:
256,192,118969,1,0,0:0:0:0:
256,192,119051,1,0,0:0:0:0:
256,192,119134,1,0,0:0:0:0:
256,192,119299,1,8,0:0:0:0:
256,192,119463,1,0,0:0:0:0:
256,192,119628,1,8,0:0:0:0:
256,192,119958,1,8,0:0:0:0:
256,192,120123,1,0,0:0:0:0:
256,192,120288,1,8,0:0:0:0:
256,192,120452,1,8,0:0:0:0:
256,192,120617,1,0,0:0:0:0:
256,192,120782,1,8,0:0:0:0:
256,192,120947,1,0,0:0:0:0:
256,192,121277,1,8,0:0:0:0:
256,192,121441,1,8,0:0:0:0:
256,192,121606,1,0,0:0:0:0:
256,192,121689,1,0,0:0:0:0:
256,192,121771,1,0,0:0:0:0:
256,192,121936,1,8,0:0:0:0:
256,192,122101,1,0,0:0:0:0:
256,192,122266,1,8,0:0:0:0:
256,192,122595,1,8,0:0:0:0:
256,192,122760,1,0,0:0:0:0:
256,192,123090,1,8,0:0:0:0:
256,192,123255,1,8,0:0:0:0:
256,192,123419,1,0,0:0:0:0:
256,192,123502,1,0,0:0:0:0:
256,192,123584,1,8,0:0:0:0:
256,192,123914,1,8,0:0:0:0:
256,192,124079,1,0,0:0:0:0:
256,192,124161,1,8,0:0:0:0:
256,192,124244,1,0,0:0:0:0:
256,192,124408,1,0,0:0:0:0:
256,192,124573,1,8,0:0:0:0:
256,192,124738,1,0,0:0:0:0:
256,192,124903,1,8,0:0:0:0:
256,192,125233,1,8,0:0:0:0:
256,192,125397,1,8,0:0:0:0:
256,192,125562,1,0,0:0:0:0:
256,192,125727,1,8,0:0:0:0:
256,192,125892,1,8,0:0:0:0:
256,192,126057,1,0,0:0:0:0:
256,192,126222,1,8,0:0:0:0:
256,192,126551,1,8,0:0:0:0:
256,192,126716,1,0,0:0:0:0:
256,192,126799,1,0,0:0:0:0:
256,192,126881,1,0,0:0:0:0:
256,192,127046,1,8,0:0:0:0:
256,192,127211,1,0,0:0:0:0:
256,192,127375,1,8,0:0:0:0:
256,192,127705,1,8,0:0:0:0:
256,192,127870,1,0,0:0:0:0:
256,192,128035,1,8,0:0:0:0:
256,192,128200,1,0,0:0:0:0:
256,192,128282,1,0,0:0:0:0:
256,192,128364,1,0,0:0:0:0:
256,192,128529,1,8,0:0:0:0:
256,192,128694,1,0,0:0:0:0:
256,192,128859,5,12,0:0:0:0:
256,192,129024,1,8,0:0:0:0:
256,192,129353,1,0,0:0:0:0:
256,192,129518,1,0,0:0:0:0:
256,192,129848,1,0,0:0:0:0:
256,192,130013,1,8,0:0:0:0:
256,192,130342,1,0,0:0:0:0:
256,192,130507,1,8,0:0:0:0:
256,192,130672,1,8,0:0:0:0:
256,192,130837,1,0,0:0:0:0:
256,192,131002,1,8,0:0:0:0:
256,192,131167,1,0,0:0:0:0:
256,192,131496,1,8,0:0:0:0:
256,192,131661,1,8,0:0:0:0:
256,192,131991,1,8,0:0:0:0:
256,192,132156,1,0,0:0:0:0:
256,192,132485,1,8,0:0:0:0:
256,192,132650,1,8,0:0:0:0:
256,192,132980,1,0,0:0:0:0:
256,192,133145,1,8,0:0:0:0:
256,192,133310,1,0,0:0:0:0:
256,192,133474,1,8,0:0:0:0:
256,192,133639,1,0,0:0:0:0:
277,202,133722,1,8,0:0:0:0:
256,192,133804,1,8,0:0:0:0:
256,192,134134,5,4,0:0:0:0:
256,192,135452,1,0,0:0:0:0:
256,192,135617,1,8,0:0:0:0:
256,192,135782,1,8,0:0:0:0:
256,192,135947,1,8,0:0:0:0:
256,192,136112,1,0,0:0:0:0:
256,192,136277,1,0,0:0:0:0:
256,192,136441,1,8,0:0:0:0:
256,192,136606,1,8,0:0:0:0:
256,192,136771,1,4,0:0:0:0:
256,192,137430,1,4,0:0:0:0:
256,192,138090,1,12,0:0:0:0:
256,192,138749,1,0,0:0:0:0:
256,192,139079,1,8,0:0:0:0:
256,192,139408,1,12,0:0:0:0:
256,192,139573,1,0,0:0:0:0:
256,192,139738,1,0,0:0:0:0:
256,192,139903,1,12,0:0:0:0:
256,192,140233,1,0,0:0:0:0:
256,192,140397,1,12,0:0:0:0:
256,192,140727,1,4,0:0:0:0:
256,192,140892,1,8,0:0:0:0:
256,192,141057,1,8,0:0:0:0:
256,192,141222,1,4,0:0:0:0:
256,192,141551,1,8,0:0:0:0:
256,192,141716,1,4,0:0:0:0:
256,192,142046,1,8,0:0:0:0:
256,192,142293,1,8,0:0:0:0:
256,192,142375,1,8,0:0:0:0:
256,192,142540,1,4,0:0:0:0:
256,192,142870,1,4,0:0:0:0:
256,192,143200,1,12,0:0:0:0:
256,192,144189,1,0,0:0:0:0:
256,192,144353,1,8,0:0:0:0:
256,192,144683,5,4,0:0:0:0:
256,192,145013,1,8,0:0:0:0:
256,192,145178,1,0,0:0:0:0:
256,192,145260,1,0,0:0:0:0:
256,192,145342,1,0,0:0:0:0:
256,192,145507,1,0,0:0:0:0:
256,192,145672,1,8,0:0:0:0:
256,192,145837,1,8,0:0:0:0:
256,192,146002,1,0,0:0:0:0:
256,192,146167,1,0,0:0:0:0:
256,192,146331,1,8,0:0:0:0:
256,192,146496,1,0,0:0:0:0:
256,192,146661,1,8,0:0:0:0:
256,192,146744,1,0,0:0:0:0:
256,192,146826,1,0,0:0:0:0:
256,192,146908,1,8,0:0:0:0:
256,192,146991,1,8,0:0:0:0:
256,192,147156,1,0,0:0:0:0:
256,192,147320,1,0,0:0:0:0:
256,192,147650,1,8,0:0:0:0:
256,192,147815,1,0,0:0:0:0:
256,192,147897,1,8,0:0:0:0:
256,192,147980,1,8,0:0:0:0:
256,192,148062,1,0,0:0:0:0:
256,192,148145,1,0,0:0:0:0:
256,192,148310,1,8,0:0:0:0:
256,192,148474,1,0,0:0:0:0:
256,192,148639,1,8,0:0:0:0:
256,192,148804,1,0,0:0:0:0:
256,192,148886,1,8,0:0:0:0:
256,192,148969,1,8,0:0:0:0:
256,192,149134,1,8,0:0:0:0:
256,192,149299,1,0,0:0:0:0:
256,192,149381,1,8,0:0:0:0:
256,192,149463,1,0,0:0:0:0:
256,192,149628,1,8,0:0:0:0:
256,192,149793,1,0,0:0:0:0:
256,192,149875,1,0,0:0:0:0:
256,192,149958,1,8,0:0:0:0:
256,192,150288,1,8,0:0:0:0:
256,192,150452,1,0,0:0:0:0:
256,192,150535,1,8,0:0:0:0:
256,192,150617,1,0,0:0:0:0:
256,192,150782,1,0,0:0:0:0:
256,192,150947,1,8,0:0:0:0:
256,192,151112,1,0,0:0:0:0:
256,192,151194,1,0,0:0:0:0:
256,192,151277,1,0,0:0:0:0:
256,192,151441,1,8,0:0:0:0:
256,192,151606,1,8,0:0:0:0:
256,192,151771,1,8,0:0:0:0:
256,192,151853,1,8,0:0:0:0:
256,192,151936,1,0,0:0:0:0:
256,192,152018,1,8,0:0:0:0:
256,192,152101,1,0,0:0:0:0:
256,192,152266,1,8,0:0:0:0:
256,192,152430,1,0,0:0:0:0:
256,192,152513,1,8,0:0:0:0:
256,192,152595,1,8,0:0:0:0:
256,192,152925,1,8,0:0:0:0:
256,192,153090,1,0,0:0:0:0:
256,192,153172,1,0,0:0:0:0:
256,192,153255,1,0,0:0:0:0:
256,192,153419,1,0,0:0:0:0:
256,192,153584,1,8,0:0:0:0:
256,192,153749,1,8,0:0:0:0:
256,192,153914,1,0,0:0:0:0:
256,192,154079,1,0,0:0:0:0:
256,192,154244,1,8,0:0:0:0:
256,192,154408,1,0,0:0:0:0:
256,192,154491,1,0,0:0:0:0:
256,192,154573,1,8,0:0:0:0:
256,192,154656,1,8,0:0:0:0:
256,192,154738,1,0,0:0:0:0:
256,192,154903,1,8,0:0:0:0:
256,192,154985,1,0,0:0:0:0:
256,192,155068,1,8,0:0:0:0:
256,192,155233,5,4,0:0:0:0:
256,192,155562,1,8,0:0:0:0:
256,192,155727,1,0,0:0:0:0:
256,192,155810,1,0,0:0:0:0:
256,192,155892,1,8,0:0:0:0:
256,192,156057,1,0,0:0:0:0:
256,192,156222,1,8,0:0:0:0:
256,192,156386,1,0,0:0:0:0:
256,192,156551,1,0,0:0:0:0:
256,192,156716,1,0,0:0:0:0:
256,192,156881,1,8,0:0:0:0:
256,192,157046,1,0,0:0:0:0:
256,192,157211,1,0,0:0:0:0:
256,192,157293,1,0,0:0:0:0:
256,192,157375,1,8,0:0:0:0:
256,192,157458,1,0,0:0:0:0:
256,192,157540,1,8,0:0:0:0:
256,192,157705,1,8,0:0:0:0:
256,192,157870,1,0,0:0:0:0:
256,192,158200,1,8,0:0:0:0:
256,192,158364,1,8,0:0:0:0:
256,192,158447,1,8,0:0:0:0:
256,192,158529,1,0,0:0:0:0:
256,192,158612,1,8,0:0:0:0:
256,192,158694,1,0,0:0:0:0:
256,192,158859,1,8,0:0:0:0:
256,192,159024,1,0,0:0:0:0:
256,192,159189,1,0,0:0:0:0:
256,192,159353,1,0,0:0:0:0:
256,192,159436,1,0,0:0:0:0:
256,192,159518,1,8,0:0:0:0:
256,192,159683,1,0,0:0:0:0:
256,192,159848,1,0,0:0:0:0:
256,192,159930,1,8,0:0:0:0:
256,192,160013,1,0,0:0:0:0:
256,192,160178,1,8,0:0:0:0:
256,192,160342,1,0,0:0:0:0:
256,192,160425,1,0,0:0:0:0:
256,192,160507,1,8,0:0:0:0:
256,192,160837,1,8,0:0:0:0:
256,192,161002,1,0,0:0:0:0:
256,192,161084,1,0,0:0:0:0:
256,192,161167,1,0,0:0:0:0:
256,192,161331,1,0,0:0:0:0:
256,192,161496,1,8,0:0:0:0:
256,192,161661,1,8,0:0:0:0:
256,192,161744,1,0,0:0:0:0:
256,192,161826,1,0,0:0:0:0:
256,192,161991,1,0,0:0:0:0:
256,192,162156,1,8,0:0:0:0:
256,192,162320,1,8,0:0:0:0:
256,192,162403,1,8,0:0:0:0:
256,192,162485,1,0,0:0:0:0:
256,192,162568,1,8,0:0:0:0:
256,192,162650,1,0,0:0:0:0:
256,192,162815,1,8,0:0:0:0:
256,192,162980,1,0,0:0:0:0:
256,192,163062,1,0,0:0:0:0:
256,192,163145,1,8,0:0:0:0:
256,192,163474,1,8,0:0:0:0:
256,192,163639,1,0,0:0:0:0:
256,192,163804,1,0,0:0:0:0:
256,192,163969,1,8,0:0:0:0:
256,192,164134,1,0,0:0:0:0:
256,192,164299,1,8,0:0:0:0:
256,192,164381,1,8,0:0:0:0:
256,192,164463,1,0,0:0:0:0:
256,192,164628,1,8,0:0:0:0:
256,192,164793,1,8,0:0:0:0:
256,192,164958,1,0,0:0:0:0:
256,192,165123,1,8,0:0:0:0:
256,192,165288,1,8,0:0:0:0:
256,192,165370,1,8,0:0:0:0:
256,192,165452,1,0,0:0:0:0:
256,192,165617,1,0,0:0:0:0:
256,192,165782,5,12,0:0:0:0:
256,192,166112,1,8,0:0:0:0:
256,192,166277,1,0,0:0:0:0:
256,192,166359,1,8,0:0:0:0:
256,192,166441,1,0,0:0:0:0:
256,192,166606,1,0,0:0:0:0:
256,192,166771,1,8,0:0:0:0:
256,192,166936,1,0,0:0:0:0:
256,192,167018,1,0,0:0:0:0:
256,192,167101,1,8,0:0:0:0:
256,192,167266,1,0,0:0:0:0:
256,192,167430,1,8,0:0:0:0:
256,192,167595,1,0,0:0:0:0:
256,192,167678,1,0,0:0:0:0:
256,192,167760,1,0,0:0:0:0:
256,192,167925,1,0,0:0:0:0:
256,192,168090,1,8,0:0:0:0:
256,192,168419,1,0,0:0:0:0:
256,192,168749,1,8,0:0:0:0:
256,192,168914,1,0,0:0:0:0:
256,192,168996,1,0,0:0:0:0:
256,192,169079,1,8,0:0:0:0:
256,192,169244,1,0,0:0:0:0:
256,192,169408,1,8,0:0:0:0:
256,192,169573,1,8,0:0:0:0:
256,192,169738,1,4,0:0:0:0:
256,192,169903,1,8,0:0:0:0:
256,192,169985,1,8,0:0:0:0:
256,192,170068,1,8,0:0:0:0:
256,192,170233,1,4,0:0:0:0:
256,192,170562,1,8,0:0:0:0:
256,192,170727,1,0,0:0:0:0:
256,192,170892,1,8,0:0:0:0:
256,192,171057,1,4,0:0:0:0:
256,192,171222,1,4,0:0:0:0:
256,192,171551,1,8,0:0:0:0:
256,192,171881,1,0,0:0:0:0:
256,192,172046,1,8,0:0:0:0:
256,192,172211,1,0,0:0:0:0:
256,192,172375,1,12,0:0:0:0:
256,192,172540,1,12,0:0:0:0:
256,192,172870,1,0,0:0:0:0:
256,192,173200,1,8,0:0:0:0:
256,192,173364,1,0,0:0:0:0:
256,192,173529,1,0,0:0:0:0:
256,192,173694,1,8,0:0:0:0:
256,192,174024,1,8,0:0:0:0:
256,192,174189,1,8,0:0:0:0:
256,192,174353,1,8,0:0:0:0:
256,192,174518,1,0,0:0:0:0:
256,192,174683,1,8,0:0:0:0:
256,192,174848,1,8,0:0:0:0:
256,192,175013,1,4,0:0:0:0:
256,192,175837,1,8,0:0:0:0:
256,192,176002,1,0,0:0:0:0:
256,192,176331,5,4,0:0:0:0:
256,192,176661,1,0,0:0:0:0:
256,192,176826,1,8,0:0:0:0:
256,192,177156,1,8,0:0:0:0:
256,192,177320,1,0,0:0:0:0:
256,192,177650,1,0,0:0:0:0:
256,192,177815,1,8,0:0:0:0:
256,192,178145,1,8,0:0:0:0:
256,192,178310,1,0,0:0:0:0:
256,192,178474,1,0,0:0:0:0:
256,192,178639,1,8,0:0:0:0:
256,192,178804,1,0,0:0:0:0:
256,192,178969,1,8,0:0:0:0:
256,192,179299,1,8,0:0:0:0:
256,192,179463,1,0,0:0:0:0:
256,192,179793,1,0,0:0:0:0:
256,192,179958,1,8,0:0:0:0:
256,192,180288,1,8,0:0:0:0:
256,192,180452,1,8,0:0:0:0:
256,192,180617,1,0,0:0:0:0:
256,192,180782,1,8,0:0:0:0:
256,192,180947,1,8,0:0:0:0:
256,192,181277,1,8,0:0:0:0:
256,192,181441,1,0,0:0:0:0:
256,192,181606,1,8,0:0:0:0:
256,192,181936,1,0,0:0:0:0:
256,192,182101,1,8,0:0:0:0:
256,192,182430,1,8,0:0:0:0:
256,192,182595,1,0,0:0:0:0:
256,192,182925,1,0,0:0:0:0:
256,192,183090,1,8,0:0:0:0:
256,192,183419,1,8,0:0:0:0:
256,192,183502,1,8,0:0:0:0:
256,192,183584,1,8,0:0:0:0:
256,192,183831,1,8,0:0:0:0:
256,192,184079,1,0,0:0:0:0:
256,192,184244,1,8,0:0:0:0:
256,192,184408,1,8,0:0:0:0:
256,192,184573,1,0,0:0:0:0:
256,192,184738,1,0,0:0:0:0:
256,192,185068,1,8,0:0:0:0:
256,192,185233,1,0,0:0:0:0:
256,192,185397,1,8,0:0:0:0:
256,192,185727,1,0,0:0:0:0:
256,192,185892,1,0,0:0:0:0:
256,192,186057,1,0,0:0:0:0:
256,192,186222,1,8,0:0:0:0:
256,192,186304,1,8,0:0:0:0:
256,192,186386,1,0,0:0:0:0:
256,192,186551,1,0,0:0:0:0:
256,192,186881,1,12,0:0:0:0:
256,192,187375,1,4,0:0:0:0:
256,192,187870,1,12,0:0:0:0:
256,192,188364,1,4,0:0:0:0:
256,192,188694,1,0,0:0:0:0:
256,192,188859,1,8,0:0:0:0:
256,192,188941,1,8,0:0:0:0:
256,192,189024,1,0,0:0:0:0:
256,192,189189,1,8,0:0:0:0:
256,192,189518,1,12,0:0:0:0:
256,192,190013,1,4,0:0:0:0:
256,192,190507,1,12,0:0:0:0:
256,192,191002,1,12,0:0:0:0:
256,192,191331,1,0,0:0:0:0:
256,192,191473,1,8,0:0:0:0:
256,192,191555,1,8,0:0:0:0:
256,192,191637,1,0,0:0:0:0:
256,192,191802,1,0,0:0:0:0:
256,192,191976,1,0,0:0:0:0:
256,192,192150,5,12,0:0:0:0:
256,192,192479,1,8,0:0:0:0:
256,192,192644,1,4,0:0:0:0:
256,192,192974,1,0,0:0:0:0:
256,192,193139,1,12,0:0:0:0:
256,192,193468,1,8,0:0:0:0:
256,192,193633,1,4,0:0:0:0:
256,192,193963,1,0,0:0:0:0:
256,192,194128,1,12,0:0:0:0:
256,192,194457,1,0,0:0:0:0:
256,192,194787,1,12,0:0:0:0:
256,192,195117,1,8,0:0:0:0:
256,192,195281,1,8,0:0:0:0:
256,192,195446,1,0,0:0:0:0:
256,192,195611,1,0,0:0:0:0:
256,192,195776,1,0,0:0:0:0:
256,192,195941,1,12,0:0:0:0:
256,192,198423,5,8,0:0:0:0:
256,192,198588,1,8,0:0:0:0:
256,192,198753,1,0,0:0:0:0:
256,192,198918,1,8,0:0:0:0:
256,192,199247,1,0,0:0:0:0:
256,192,199330,1,0,0:0:0:0:
256,192,199412,1,8,0:0:0:0:
256,192,199577,1,8,0:0:0:0:
256,192,199907,1,0,0:0:0:0:
256,192,200236,1,0,0:0:0:0:
256,192,201061,1,8,0:0:0:0:
256,192,201225,1,8,0:0:0:0:
256,192,201390,1,0,0:0:0:0:
256,192,201555,1,0,0:0:0:0:
256,192,201885,1,8,0:0:0:0:
256,192,202214,1,8,0:0:0:0:
256,192,202544,1,0,0:0:0:0:
256,192,202874,1,8,0:0:0:0:
256,192,203203,1,0,0:0:0:0:
256,192,203368,1,0,0:0:0:0:
256,192,203698,1,8,0:0:0:0:
256,192,203863,1,8,0:0:0:0:
256,192,204522,1,0,0:0:0:0:
256,192,204687,1,8,0:0:0:0:
256,192,205017,1,8,0:0:0:0:
256,192,205181,1,0,0:0:0:0:
256,192,205511,1,8,0:0:0:0:
256,192,205841,1,0,0:0:0:0:
256,192,206006,1,8,0:0:0:0:
256,192,206335,1,0,0:0:0:0:
256,192,206500,1,0,0:0:0:0:
256,192,206830,1,8,0:0:0:0:
256,192,207159,1,0,0:0:0:0:
256,192,207242,1,0,0:0:0:0:
256,192,207324,1,8,0:0:0:0:
256,192,207984,1,8,0:0:0:0:
256,192,208148,1,8,0:0:0:0:
256,192,208313,1,0,0:0:0:0:
256,192,208643,5,4,0:0:0:0:
256,192,208808,1,4,0:0:0:0:
256,192,209632,1,12,0:0:0:0:
256,192,209797,1,12,0:0:0:0:
256,192,210126,1,0,0:0:0:0:
256,192,210291,1,8,0:0:0:0:
256,192,210621,1,8,0:0:0:0:
256,192,210786,1,0,0:0:0:0:
256,192,210951,1,0,0:0:0:0:
256,192,211115,1,0,0:0:0:0:
256,192,211280,1,12,0:0:0:0:
256,192,211445,1,12,0:0:0:0:
256,192,212269,1,4,0:0:0:0:
256,192,212434,1,4,0:0:0:0:
256,192,212764,1,0,0:0:0:0:
256,192,212929,1,8,0:0:0:0:
256,192,213094,1,0,0:0:0:0:
256,192,213258,1,8,0:0:0:0:
256,192,213341,1,8,0:0:0:0:
256,192,213423,1,0,0:0:0:0:
256,192,213588,1,8,0:0:0:0:
256,192,213918,5,4,0:0:0:0:
256,192,214247,1,8,0:0:0:0:
256,192,214412,1,0,0:0:0:0:
256,192,214577,1,0,0:0:0:0:
256,192,214742,1,0,0:0:0:0:
256,192,214907,1,8,0:0:0:0:
256,192,215072,1,0,0:0:0:0:
256,192,215236,1,8,0:0:0:0:
256,192,215401,1,0,0:0:0:0:
256,192,215566,1,8,0:0:0:0:
256,192,215731,1,8,0:0:0:0:
256,192,215896,1,0,0:0:0:0:
256,192,216061,1,0,0:0:0:0:
256,192,216225,1,8,0:0:0:0:
256,192,216555,1,12,0:0:0:0:
256,192,216720,1,0,0:0:0:0:
256,192,216885,1,0,0:0:0:0:
256,192,217050,1,12,0:0:0:0:
256,192,217379,1,0,0:0:0:0:
256,192,217544,1,12,0:0:0:0:
256,192,217874,1,4,0:0:0:0:
256,192,218039,1,8,0:0:0:0:
256,192,218203,1,8,0:0:0:0:
256,192,218368,1,4,0:0:0:0:
256,192,218698,1,8,0:0:0:0:
256,192,218863,1,4,0:0:0:0:
256,192,219192,1,8,0:0:0:0:
256,192,219357,1,8,0:0:0:0:
256,192,219440,1,8,0:0:0:0:
256,192,219522,1,0,0:0:0:0:
256,192,219687,1,12,0:0:0:0:
256,192,220017,1,4,0:0:0:0:
256,192,220346,1,12,0:0:0:0:
256,192,220841,1,0,0:0:0:0:
256,192,221170,1,8,0:0:0:0:
256,192,221500,1,0,0:0:0:0:
256,192,221830,1,8,0:0:0:0:
256,192,222320,1,8,0:0:0:0:
256,192,222403,1,8,0:0:0:0:
256,192,222485,1,8,0:0:0:0:
256,192,222650,1,8,0:0:0:0:
256,192,222815,1,0,0:0:0:0:
256,192,222980,1,0,0:0:0:0:
256,192,223309,1,0,0:0:0:0:
256,192,223474,1,8,0:0:0:0:
256,192,223804,1,8,0:0:0:0:
256,192,223886,1,8,0:0:0:0:
256,192,223969,1,8,0:0:0:0:
256,192,224051,1,8,0:0:0:0:
256,192,224134,1,0,0:0:0:0:
256,192,224298,1,8,0:0:0:0:
256,192,224463,5,4,0:0:0:0:
256,192,224793,1,8,0:0:0:0:
256,192,224958,1,0,0:0:0:0:
256,192,225040,1,0,0:0:0:0:
256,192,225123,1,8,0:0:0:0:
256,192,225205,1,0,0:0:0:0:
256,192,225287,1,0,0:0:0:0:
256,192,225452,1,8,0:0:0:0:
256,192,225617,1,0,0:0:0:0:
256,192,225782,1,0,0:0:0:0:
256,192,225947,1,0,0:0:0:0:
256,192,226029,1,0,0:0:0:0:
256,192,226112,1,8,0:0:0:0:
256,192,226276,1,8,0:0:0:0:
256,192,226441,1,0,0:0:0:0:
256,192,226524,1,0,0:0:0:0:
256,192,226606,1,0,0:0:0:0:
256,192,226771,1,8,0:0:0:0:
256,192,226936,1,0,0:0:0:0:
256,192,227018,1,0,0:0:0:0:
256,192,227101,1,8,0:0:0:0:
256,192,227430,1,8,0:0:0:0:
256,192,227595,1,0,0:0:0:0:
256,192,227677,1,0,0:0:0:0:
256,192,227760,1,0,0:0:0:0:
256,192,227925,1,0,0:0:0:0:
256,192,228090,1,8,0:0:0:0:
256,192,228254,1,8,0:0:0:0:
256,192,228337,1,8,0:0:0:0:
256,192,228419,1,0,0:0:0:0:
256,192,228584,1,0,0:0:0:0:
256,192,228749,1,8,0:0:0:0:
256,192,228914,1,8,0:0:0:0:
256,192,228996,1,8,0:0:0:0:
256,192,229079,1,0,0:0:0:0:
256,192,229161,1,8,0:0:0:0:
256,192,229243,1,0,0:0:0:0:
256,192,229408,1,8,0:0:0:0:
256,192,229573,1,0,0:0:0:0:
256,192,229655,1,0,0:0:0:0:
256,192,229738,1,8,0:0:0:0:
256,192,230068,1,8,0:0:0:0:
256,192,230232,1,0,0:0:0:0:
256,192,230315,1,0,0:0:0:0:
256,192,230397,1,0,0:0:0:0:
256,192,230562,1,0,0:0:0:0:
256,192,230727,1,8,0:0:0:0:
256,192,230892,1,0,0:0:0:0:
256,192,231057,1,8,0:0:0:0:
256,192,231386,1,8,0:0:0:0:
256,192,231551,1,0,0:0:0:0:
256,192,231634,1,0,0:0:0:0:
256,192,231716,1,8,0:0:0:0:
256,192,231798,1,8,0:0:0:0:
256,192,231881,1,0,0:0:0:0:
256,192,232046,1,8,0:0:0:0:
256,192,232128,1,0,0:0:0:0:
256,192,232210,1,8,0:0:0:0:
256,192,232375,5,4,0:0:0:0:
256,192,232705,1,8,0:0:0:0:
256,192,232870,1,0,0:0:0:0:
256,192,232952,1,0,0:0:0:0:
256,192,233035,1,0,0:0:0:0:
256,192,233199,1,0,0:0:0:0:
256,192,233364,1,8,0:0:0:0:
256,192,233529,1,8,0:0:0:0:
256,192,233694,1,0,0:0:0:0:
256,192,233859,1,0,0:0:0:0:
256,192,234024,1,8,0:0:0:0:
256,192,234188,1,0,0:0:0:0:
256,192,234353,1,8,0:0:0:0:
256,192,234436,1,8,0:0:0:0:
256,192,234518,1,0,0:0:0:0:
256,192,234601,1,0,0:0:0:0:
256,192,234683,1,8,0:0:0:0:
256,192,234848,1,0,0:0:0:0:
256,192,235013,1,8,0:0:0:0:
256,192,235342,1,8,0:0:0:0:
256,192,235507,1,0,0:0:0:0:
256,192,235590,1,0,0:0:0:0:
256,192,235672,1,8,0:0:0:0:
256,192,235754,1,8,0:0:0:0:
256,192,235837,1,0,0:0:0:0:
256,192,236002,1,8,0:0:0:0:
256,192,236166,1,0,0:0:0:0:
256,192,236331,1,0,0:0:0:0:
256,192,236496,1,0,0:0:0:0:
256,192,236579,1,0,0:0:0:0:
256,192,236661,1,8,0:0:0:0:
256,192,236826,1,8,0:0:0:0:
256,192,236991,1,0,0:0:0:0:
256,192,237073,1,0,0:0:0:0:
256,192,237155,1,0,0:0:0:0:
256,192,237320,1,8,0:0:0:0:
256,192,237485,1,0,0:0:0:0:
256,192,237568,1,0,0:0:0:0:
256,192,237650,1,8,0:0:0:0:
256,192,237980,1,8,0:0:0:0:
256,192,238145,1,0,0:0:0:0:
256,192,238227,1,0,0:0:0:0:
256,192,238309,1,0,0:0:0:0:
256,192,238474,1,0,0:0:0:0:
256,192,238639,1,8,0:0:0:0:
256,192,238804,1,8,0:0:0:0:
256,192,238886,1,8,0:0:0:0:
256,192,238969,1,0,0:0:0:0:
256,192,239134,1,0,0:0:0:0:
256,192,239298,1,8,0:0:0:0:
256,192,239463,1,0,0:0:0:0:
256,192,239546,1,0,0:0:0:0:
256,192,239628,1,8,0:0:0:0:
256,192,239710,1,8,0:0:0:0:
256,192,239793,1,0,0:0:0:0:
256,192,239958,1,8,0:0:0:0:
256,192,240123,1,8,0:0:0:0:
256,192,240205,1,0,0:0:0:0:
256,192,240287,1,8,0:0:0:0:
256,192,240617,1,8,0:0:0:0:
256,192,240782,1,0,0:0:0:0:
256,192,240947,1,0,0:0:0:0:
256,192,241112,1,0,0:0:0:0:
256,192,241276,1,8,0:0:0:0:
256,192,241441,1,8,0:0:0:0:
256,192,241524,1,8,0:0:0:0:
256,192,241606,1,0,0:0:0:0:
256,192,241771,1,0,0:0:0:0:
256,192,241936,1,8,0:0:0:0:
256,192,242101,1,0,0:0:0:0:
256,192,242265,1,8,0:0:0:0:
256,192,242430,1,0,0:0:0:0:
256,192,242513,1,0,0:0:0:0:
256,192,242595,1,0,0:0:0:0:
256,192,242760,1,0,0:0:0:0:
256,192,242925,5,12,0:0:0:0:
256,192,243254,1,8,0:0:0:0:
256,192,243419,1,0,0:0:0:0:
256,192,243502,1,0,0:0:0:0:
256,192,243584,1,0,0:0:0:0:
256,192,243749,1,0,0:0:0:0:
256,192,243914,1,8,0:0:0:0:
256,192,244079,1,0,0:0:0:0:
256,192,244161,1,0,0:0:0:0:
256,192,244243,1,8,0:0:0:0:
256,192,244408,1,0,0:0:0:0:
256,192,244573,1,8,0:0:0:0:
256,192,244738,1,8,0:0:0:0:
256,192,244820,1,8,0:0:0:0:
256,192,244903,1,0,0:0:0:0:
256,192,245068,1,0,0:0:0:0:
256,192,245232,1,8,0:0:0:0:
256,192,245562,1,0,0:0:0:0:
256,192,245892,1,8,0:0:0:0:
256,192,246057,1,0,0:0:0:0:
256,192,246139,1,0,0:0:0:0:
256,192,246221,1,8,0:0:0:0:
256,192,246386,1,0,0:0:0:0:
256,192,246551,1,8,0:0:0:0:
256,192,246716,1,0,0:0:0:0:
256,192,246881,1,12,0:0:0:0:
256,192,247046,1,0,0:0:0:0:
256,192,247128,1,0,0:0:0:0:
256,192,247210,1,0,0:0:0:0:
256,192,247375,1,12,0:0:0:0:
256,192,247705,1,8,0:0:0:0:
256,192,247870,1,0,0:0:0:0:
256,192,248035,1,0,0:0:0:0:
256,192,248199,1,12,0:0:0:0:
256,192,248364,1,12,0:0:0:0:
256,192,248694,1,0,0:0:0:0:
256,192,249024,1,8,0:0:0:0:
256,192,249188,1,0,0:0:0:0:
256,192,249353,1,8,0:0:0:0:
256,192,249518,1,4,0:0:0:0:
256,192,249683,1,4,0:0:0:0:
256,192,250013,1,8,0:0:0:0:
256,192,250342,1,8,0:0:0:0:
256,192,250507,1,8,0:0:0:0:
256,192,250672,1,0,0:0:0:0:
256,192,250837,1,12,0:0:0:0:
256,192,251166,1,8,0:0:0:0:
256,192,251331,1,0,0:0:0:0:
256,192,251496,1,0,0:0:0:0:
256,192,251661,1,0,0:0:0:0:
256,192,251826,1,8,0:0:0:0:
256,192,251991,1,0,0:0:0:0:
256,192,252155,1,8,0:0:0:0:
256,192,252320,1,0,0:0:0:0:
256,192,252485,1,8,0:0:0:0:
256,192,252650,1,8,0:0:0:0:
256,192,252815,1,8,0:0:0:0:
256,192,252980,1,0,0:0:0:0:
256,192,253145,1,8,0:0:0:0:
256,192,253309,1,0,0:0:0:0:
256,192,253474,1,12,0:0:0:0:
256,192,254298,1,0,0:0:0:0:
256,192,254463,1,8,0:0:0:0:
256,192,254793,5,4,0:0:0:0:
256,192,255123,1,8,0:0:0:0:
256,192,255452,1,0,0:0:0:0:
256,192,255617,1,0,0:0:0:0:
256,192,255782,1,8,0:0:0:0:
256,192,255947,1,8,0:0:0:0:
256,192,256112,1,0,0:0:0:0:
256,192,256276,1,8,0:0:0:0:
256,192,256359,1,8,0:0:0:0:
256,192,256441,1,0,0:0:0:0:
256,192,256606,1,8,0:0:0:0:
256,192,256771,1,0,0:0:0:0:
256,192,256853,1,0,0:0:0:0:
256,192,256936,1,0,0:0:0:0:
256,192,257101,1,8,0:0:0:0:
256,192,257265,1,0,0:0:0:0:
256,192,257348,1,0,0:0:0:0:
256,192,257430,1,8,0:0:0:0:
256,192,257760,1,8,0:0:0:0:
256,192,257925,1,0,0:0:0:0:
256,192,258090,1,8,0:0:0:0:
256,192,258254,1,0,0:0:0:0:
256,192,258419,1,8,0:0:0:0:
256,192,258584,1,8,0:0:0:0:
256,192,258666,1,8,0:0:0:0:
256,192,258749,1,0,0:0:0:0:
256,192,258914,1,0,0:0:0:0:
256,192,259079,1,8,0:0:0:0:
256,192,259243,1,0,0:0:0:0:
256,192,259326,1,0,0:0:0:0:
256,192,259408,1,0,0:0:0:0:
256,192,259573,1,0,0:0:0:0:
256,192,259738,1,8,0:0:0:0:
256,192,259903,1,0,0:0:0:0:
256,192,260068,1,8,0:0:0:0:
256,192,260232,1,0,0:0:0:0:
256,192,260315,1,0,0:0:0:0:
256,192,260397,1,8,0:0:0:0:
256,192,260562,1,8,0:0:0:0:
256,192,260892,1,0,0:0:0:0:
256,192,261057,1,8,0:0:0:0:
256,192,261221,1,0,0:0:0:0:
256,192,261304,1,0,0:0:0:0:
256,192,261386,1,0,0:0:0:0:
256,192,261551,1,8,0:0:0:0:
256,192,261634,1,0,0:0:0:0:
256,192,261716,1,8,0:0:0:0:
256,192,261881,1,0,0:0:0:0:
256,192,262046,1,8,0:0:0:0:
256,192,262128,1,0,0:0:0:0:
256,192,262210,1,0,0:0:0:0:
256,192,262375,1,8,0:0:0:0:
256,192,262540,1,0,0:0:0:0:
256,192,262623,1,0,0:0:0:0:
256,192,262705,1,8,0:0:0:0:
256,192,263035,1,8,0:0:0:0:
256,192,263199,1,0,0:0:0:0:
256,192,263282,1,0,0:0:0:0:
256,192,263364,1,0,0:0:0:0:
256,192,263529,1,8,0:0:0:0:
256,192,263694,1,8,0:0:0:0:
256,192,263859,1,0,0:0:0:0:
256,192,263941,1,0,0:0:0:0:
256,192,264024,1,8,0:0:0:0:
256,192,264106,1,8,0:0:0:0:
256,192,264188,1,0,0:0:0:0:
256,192,264353,1,8,0:0:0:0:
256,192,264683,1,8,0:0:0:0:
256,192,264765,1,8,0:0:0:0:
256,192,264848,1,0,0:0:0:0:
256,192,264930,1,0,0:0:0:0:
256,192,265013,1,8,0:0:0:0:
256,192,265095,1,0,0:0:0:0:
256,192,265177,1,0,0:0:0:0:
256,192,265342,5,4,0:0:0:0:
256,192,265672,1,8,0:0:0:0:
256,192,266002,1,0,0:0:0:0:
256,192,266166,1,0,0:0:0:0:
256,192,266331,1,8,0:0:0:0:
256,192,266496,1,8,0:0:0:0:
256,192,266661,1,0,0:0:0:0:
256,192,266826,1,8,0:0:0:0:
256,192,266908,1,8,0:0:0:0:
256,192,266991,1,0,0:0:0:0:
256,192,267155,1,8,0:0:0:0:
256,192,267320,1,0,0:0:0:0:
256,192,267403,1,0,0:0:0:0:
256,192,267485,1,0,0:0:0:0:
256,192,267650,1,8,0:0:0:0:
256,192,267815,1,0,0:0:0:0:
256,192,267897,1,0,0:0:0:0:
256,192,267980,1,8,0:0:0:0:
256,192,268309,1,8,0:0:0:0:
256,192,268474,1,0,0:0:0:0:
256,192,268639,1,8,0:0:0:0:
256,192,268804,1,0,0:0:0:0:
256,192,268969,1,8,0:0:0:0:
256,192,269134,1,8,0:0:0:0:
256,192,269216,1,8,0:0:0:0:
256,192,269298,1,0,0:0:0:0:
256,192,269463,1,0,0:0:0:0:
256,192,269628,1,8,0:0:0:0:
256,192,269793,1,0,0:0:0:0:
256,192,269875,1,0,0:0:0:0:
256,192,269958,1,0,0:0:0:0:
256,192,270123,1,0,0:0:0:0:
256,192,270287,1,8,0:0:0:0:
256,192,270452,1,0,0:0:0:0:
256,192,270617,1,0,0:0:0:0:
256,192,270947,1,8,0:0:0:0:
256,192,271112,1,0,0:0:0:0:
256,192,271276,1,8,0:0:0:0:
256,192,271386,1,0,0:0:0:0:
256,192,271496,1,0,0:0:0:0:
256,192,271606,1,8,0:0:0:0:
256,192,271716,1,0,0:0:0:0:
256,192,271826,1,8,0:0:0:0:
256,192,271936,1,8,0:0:0:0:
256,192,272265,1,8,0:0:0:0:
256,192,272375,1,0,0:0:0:0:
256,192,272485,1,8,0:0:0:0:
256,192,272595,1,8,0:0:0:0:
256,192,272705,1,0,0:0:0:0:
256,192,272815,1,0,0:0:0:0:
256,192,272925,1,8,0:0:0:0:
256,192,273254,1,0,0:0:0:0:
256,192,273419,1,0,0:0:0:0:
256,192,273502,1,0,0:0:0:0:
256,192,273584,1,8,0:0:0:0:
256,192,273749,1,8,0:0:0:0:
256,192,273914,1,0,0:0:0:0:
256,192,274079,1,0,0:0:0:0:
256,192,274243,1,8,0:0:0:0:
256,192,274573,1,8,0:0:0:0:
256,192,274738,1,0,0:0:0:0:
256,192,274903,1,0,0:0:0:0:
256,192,275068,1,0,0:0:0:0:
256,192,275232,1,8,0:0:0:0:
256,192,275315,1,8,0:0:0:0:
256,192,275397,1,8,0:0:0:0:
256,192,275480,1,8,0:0:0:0:
256,192,275562,1,0,0:0:0:0:
256,192,275727,1,0,0:0:0:0:
256,192,275892,5,0,0:0:0:0:
256,192,277209,1,12,0:0:0:0:
256,192,277373,1,12,0:0:0:0:
256,192,277703,1,12,0:0:0:0:
256,192,278033,1,12,0:0:0:0:
256,192,278561,5,0,0:0:0:0:
256,192,279846,1,4,0:0:0:0:
256,192,280010,1,4,0:0:0:0:
256,192,280340,1,4,0:0:0:0:
256,192,280670,1,12,0:0:0:0:
256,192,280999,1,12,0:0:0:0:
