osu file format v14

[General]
AudioFilename: audio.mp3
AudioLeadIn: 0
PreviewTime: 198546
Countdown: 0
SampleSet: Soft
StackLeniency: 0.7
Mode: 0
LetterboxInBreaks: 0
WidescreenStoryboard: 0

[Editor]
DistanceSpacing: 0.9
BeatDivisor: 4
GridSize: 4
TimelineZoom: 3.799998

[Metadata]
Title:Hoshikuzu no Contrail
TitleUnicode:星屑のコントレイル
Artist:Minase Inori
ArtistUnicode:水瀬いのり
Creator:_kotachi_
Version:Stardust
Source:
Tags:Innocent flower nanashima asami dubturt japanese female vocalist jpop j-pop
BeatmapID:1635124
BeatmapSetID:778526

[Difficulty]
HPDrainRate:5
CircleSize:3.8
OverallDifficulty:9
ApproachRate:9.3
SliderMultiplier:1.76
SliderTickRate:1

[Events]
//Background and Video events
0,0,"BG.jpg",0,0
//Break Periods
2,111982,113755
2,114509,116281
2,117035,118176
//Storyboard Layer 0 (Background)
//Storyboard Layer 1 (Fail)
//Storyboard Layer 2 (Pass)
//Storyboard Layer 3 (Foreground)
//Storyboard Sound Samples

[TimingPoints]
-638,315.789473684211,4,2,1,60,1,0
625,-111.111111111111,4,2,1,60,0,0
5046,-111.111111111111,4,2,1,45,0,0
5362,-111.111111111111,4,2,1,60,0,0
8519,-111.111111111111,4,2,3,40,0,0
8835,-111.111111111111,4,2,3,45,0,0
9151,-111.111111111111,4,2,3,50,0,0
9467,-111.111111111111,4,2,3,55,0,0
9783,-111.111111111111,4,2,3,70,0,0
10414,-133.333333333333,4,2,1,40,0,0
10730,-100,4,2,1,70,0,0
13256,-100,4,2,2,70,0,0
13414,-100,4,2,1,70,0,0
14756,-100,4,2,1,5,0,0
14835,-100,4,2,1,70,0,0
15151,-100,4,2,2,70,0,0
15309,-100,4,2,1,70,0,0
18309,-100,4,2,2,70,0,0
18467,-100,4,2,1,70,0,0
20835,-111.111111111111,4,2,2,50,0,0
23598,-111.111111111111,4,2,2,5,0,0
23677,-111.111111111111,4,2,2,50,0,0
28651,-111.111111111111,4,2,2,5,0,0
28730,-111.111111111111,4,2,2,50,0,0
30467,-111.111111111111,4,2,1,60,0,0
30940,-100,4,2,1,60,0,0
33388,-100,4,2,1,5,0,0
33467,-100,4,2,2,60,0,0
33625,-100,4,2,1,60,0,0
40098,-66.6666666666667,4,2,1,60,0,0
40414,-100,4,2,1,60,0,0
41046,-100,4,2,2,60,0,0
46019,-100,4,2,2,40,0,0
46098,-100,4,2,2,60,0,0
56046,-100,4,2,2,50,0,0
56204,-133.333333333333,4,2,1,60,0,0
58888,-100,4,2,1,60,0,0
58967,-100,4,2,1,5,0,0
59046,-111.111111111111,4,2,1,60,0,0
59125,-111.111111111111,4,2,1,5,0,0
59204,-125,4,2,1,55,0,0
59283,-125,4,2,1,5,0,0
59362,-142.857142857143,4,2,1,50,0,0
59440,-142.857142857143,4,2,1,5,0,0
59519,-166.666666666667,4,2,1,45,0,0
59598,-166.666666666667,4,2,1,5,0,0
59677,-166.666666666667,4,2,1,40,0,0
59756,-200,4,2,1,5,0,0
59835,-1000,4,2,1,35,0,0
59914,-1000,4,2,1,5,0,0
60309,-250,4,2,1,40,0,0
60467,-250,4,2,1,5,0,0
60625,-200,4,2,1,50,0,0
60783,-200,4,2,1,5,0,0
60940,-166.666666666667,4,2,1,60,0,0
61098,-166.666666666667,4,2,1,5,0,0
61256,-83.3333333333333,4,2,1,75,0,1
63783,-83.3333333333333,4,2,2,75,0,1
64098,-83.3333333333333,4,2,1,75,0,1
67809,-83.3333333333333,4,2,1,5,0,1
67888,-83.3333333333333,4,2,1,75,0,1
70730,-83.3333333333333,4,2,2,75,0,1
70888,-83.3333333333333,4,2,3,75,0,1
71362,-83.3333333333333,4,2,1,75,0,1
73888,-83.3333333333333,4,2,2,75,0,1
74204,-83.3333333333333,4,2,1,75,0,1
76414,-100,4,2,1,75,0,0
77677,-100,4,2,2,75,0,0
77835,-100,4,2,1,75,0,0
80204,-100,4,2,2,75,0,0
80362,-100,4,2,1,75,0,0
80993,-100,4,2,3,75,0,0
81467,-83.3333333333333,4,2,1,75,0,1
88019,-83.3333333333333,4,2,1,5,0,1
88098,-83.3333333333333,4,2,1,75,0,1
91098,-83.3333333333333,4,2,3,75,0,1
91572,-83.3333333333333,4,2,1,75,0,1
94098,-83.3333333333333,4,2,2,75,0,1
94414,-83.3333333333333,4,2,1,75,0,1
99151,-83.3333333333333,4,2,2,75,0,1
99309,-83.3333333333333,4,2,1,75,0,1
99940,-83.3333333333333,4,2,3,75,0,1
101677,-100,4,2,2,75,0,0
110835,-100,4,2,2,55,0,0
110993,-100,4,2,2,65,0,0
111151,-100,4,2,2,75,0,0
111309,-100,4,2,2,45,0,0
111467,-100,4,2,2,55,0,0
111625,-100,4,2,2,65,0,0
111783,-100,4,2,1,50,0,0
118730,-200,4,2,1,50,0,0
119283,-200,4,2,1,5,0,0
119362,-200,4,2,1,50,0,0
120625,-200,4,2,1,50,0,0
121414,-200,4,2,2,50,0,0
121809,-200,4,2,2,5,0,0
121888,-100,4,2,1,60,0,0
124414,-100,4,2,2,60,0,0
124730,-100,4,2,1,60,0,0
131362,-100,4,2,2,60,0,0
131440,-100,4,2,1,60,0,0
131993,-111.111111111111,4,2,2,60,0,0
132230,-111.111111111111,4,2,2,5,0,0
132309,-111.111111111111,4,2,2,60,0,0
142098,-100,4,2,2,50,0,0
142414,-100,4,2,2,60,0,0
149362,-133.333333333333,4,2,2,50,0,0
149677,-100,4,2,2,70,0,0
149756,-100,4,2,2,52,0,0
150309,-100,4,2,2,54,0,0
150940,-100,4,2,2,56,0,0
151572,-100,4,2,2,58,0,0
152204,-100,4,2,2,60,0,0
152835,-100,4,2,2,65,0,0
153467,-100,4,2,2,70,0,0
154098,-100,4,2,2,70,0,0
154730,-90.9090909090909,4,2,1,75,0,1
154967,-90.9090909090909,4,2,1,5,0,1
155046,-90.9090909090909,4,2,1,75,0,1
157256,-90.9090909090909,4,2,2,75,0,1
157493,-90.9090909090909,4,2,1,5,0,1
157572,-90.9090909090909,4,2,1,75,0,1
159151,-90.9090909090909,4,2,2,75,0,1
159230,-90.9090909090909,4,2,1,75,0,1
161125,-90.9090909090909,4,2,1,5,0,1
161204,-90.9090909090909,4,2,1,75,0,1
162309,-90.9090909090909,4,2,2,75,0,1
162625,-90.9090909090909,4,2,1,75,0,1
165072,-90.9090909090909,4,2,1,5,0,1
165151,-90.9090909090909,4,2,1,75,0,1
167362,-90.9090909090909,4,2,2,75,0,1
167519,-90.9090909090909,4,2,1,75,0,1
172414,-90.9090909090909,4,2,2,75,0,1
173993,-90.9090909090909,4,2,2,60,0,1
174309,-90.9090909090909,4,2,2,65,0,1
174625,-90.9090909090909,4,2,2,75,0,1
174940,-111.111111111111,4,2,2,60,0,0
176046,-90.9090909090908,4,2,2,60,0,0
176362,-111.111111111111,4,2,2,60,0,0
181098,-90.9090909090908,4,2,2,60,0,0
181414,-111.111111111111,4,2,2,60,0,0
185046,-100,4,2,1,60,0,0
192625,-100,4,2,2,60,0,0
192783,-100,4,2,1,60,0,0
194519,-100,4,2,2,60,0,0
195151,-90.9090909090909,4,2,1,60,0,0
195783,-90.9090909090909,4,2,2,60,0,0
195940,-90.9090909090909,4,2,1,60,0,0
197046,-90.9090909090909,4,2,2,60,0,0
197204,-90.9090909090909,4,2,1,60,0,0
197677,-90.9090909090909,4,2,2,60,0,0
199572,-90.9090909090909,4,2,2,30,0,0
199598,-90.9090909090909,4,2,2,32,0,0
199625,-90.9090909090909,4,2,2,34,0,0
199651,-90.9090909090909,4,2,2,36,0,0
199677,-90.9090909090909,4,2,2,38,0,0
199704,-90.9090909090909,4,2,2,40,0,0
199730,-90.9090909090909,4,2,2,42,0,0
199756,-90.9090909090909,4,2,2,44,0,0
199783,-90.9090909090909,4,2,2,46,0,0
199809,-90.9090909090909,4,2,2,48,0,0
199835,-90.9090909090909,4,2,2,50,0,0
199862,-90.9090909090909,4,2,2,52,0,0
199888,-90.9090909090909,4,2,2,54,0,0
199914,-90.9090909090909,4,2,2,56,0,0
199940,-90.9090909090909,4,2,2,58,0,0
199967,-90.9090909090909,4,2,2,60,0,0
199993,-90.9090909090909,4,2,2,61,0,0
200019,-90.9090909090909,4,2,2,62,0,0
200046,-90.9090909090909,4,2,2,63,0,0
200072,-90.9090909090909,4,2,2,64,0,0
200098,-90.9090909090909,4,2,2,65,0,0
200125,-90.9090909090909,4,2,2,66,0,0
200151,-90.9090909090909,4,2,2,67,0,0
200204,-111.111111111111,4,2,2,70,0,0
202256,-83.3333333333333,4,2,2,65,0,0
202730,-83.3333333333333,4,2,1,75,0,1
206756,-83.3333333333333,4,2,1,5,0,1
206835,-83.3333333333333,4,2,1,75,0,1
207783,-83.3333333333333,4,2,2,75,0,1
208098,-83.3333333333333,4,2,1,75,0,1
209677,-83.3333333333333,4,2,2,75,0,1
210309,-83.3333333333333,4,2,1,75,0,1
212835,-83.3333333333333,4,2,2,75,0,1
213151,-83.3333333333333,4,2,1,75,0,1
214730,-83.3333333333333,4,2,2,75,0,1
214888,-83.3333333333333,4,2,1,45,0,1
215046,-83.3333333333333,4,2,1,55,0,1
215204,-83.3333333333333,4,2,1,65,0,1
215362,-100,4,2,2,75,0,0
220730,-83.3333333333333,4,2,2,75,0,0
220967,-83.3333333333333,4,2,2,5,0,1
221046,-83.3333333333333,4,2,2,75,0,1
221519,-66.6666666666667,4,2,2,75,0,1
221756,-66.6666666666667,4,2,2,5,0,1
221835,-66.6666666666667,4,2,2,75,0,1
221914,-66.6666666666667,4,2,2,5,0,1
221993,-66.6666666666667,4,2,2,75,0,1
222230,-66.6666666666667,4,2,2,5,0,1
222309,-66.6666666666667,4,2,2,75,0,1
222862,-66.6666666666667,4,2,2,75,0,0
222940,-83.3333333333333,4,2,1,75,0,1
223177,-83.3333333333333,4,2,1,5,0,1
223256,-83.3333333333333,4,2,1,75,0,1
223335,-83.3333333333333,4,2,1,5,0,1
223414,-83.3333333333333,4,2,1,75,0,1
226967,-83.3333333333333,4,2,1,5,0,1
227046,-83.3333333333333,4,2,1,75,0,1
233046,-83.3333333333333,4,2,2,75,0,1
233362,-83.3333333333333,4,2,1,75,0,1
238098,-83.3333333333333,4,2,2,75,0,1
240467,-100,4,2,1,50,0,1
240625,-100,4,2,1,70,0,0
243151,-100,4,2,2,70,0,0
243467,-100,4,2,1,70,0,0
245046,-100,4,2,2,70,0,0
245677,-100,4,2,1,70,0,0
248204,-83.3333333333333,4,2,1,70,0,0
248835,-71.4285714285714,4,2,2,70,0,0
248993,-71.4285714285714,4,2,1,70,0,0
249467,-62.5,4,2,1,70,0,0
250098,-100,4,2,2,70,0,0
250730,-250,4,2,2,70,0,0
250967,-250,4,2,2,5,0,0
251046,-90.9090909090909,4,2,2,70,0,0
251362,-100,4,2,1,70,0,0
253256,-100,4,2,2,70,0,0
253572,-100,4,2,1,70,0,0
255151,-100,4,2,2,70,0,0
255783,-100,4,2,1,70,0,0
258309,-100,4,2,2,70,0,0
258467,-100,4,2,1,70,0,0
259414,-90.9090909090909,4,2,1,70,0,0
259730,-90.9090909090909,4,2,2,50,0,0
259888,-90.9090909090909,4,2,2,60,0,0
260046,-90.9090909090909,4,2,2,70,0,0
260914,-90.9090909090909,4,2,2,30,0,0
263362,-90.9090909090909,4,2,2,40,0,0
264625,-90.9090909090909,4,2,2,50,0,0
265888,-90.9090909090909,4,2,2,5,0,0

[Colours]
Combo1 : 57,191,255
Combo2 : 128,0,255
Combo3 : 18,124,255
Combo4 : 185,115,255

[HitObjects]
43,204,467,5,8,0:0:0:0:
46,225,546,1,8,0:0:0:0:
49,246,625,2,0,L|139:237,1,79.1999975830079,6|0,0:1|0:0,0:0:0:0:
202,151,940,2,0,L|112:142,1,79.1999975830079,2|0,0:1|0:0,0:0:0:0:
244,236,1256,1,2,0:1:0:0:
253,75,1414,2,0,L|163:66,1,79.1999975830079,4|2,0:3|0:1,0:0:0:0:
291,157,1730,1,8,0:0:0:0:
372,76,1888,6,0,B|403:124|403:124|392:233,1,158.399995166016,2|2,0:1|0:1,0:0:0:0:
244,236,2362,1,0,0:0:0:0:
309,147,2519,1,2,0:1:0:0:
287,328,2677,1,8,0:3:0:0:
287,328,2756,1,4,0:3:0:0:
287,328,2835,1,2,0:1:0:0:
203,151,2993,1,12,0:0:0:0:
393,224,3151,6,0,L|475:219,1,79.1999975830079,2|0,0:1|0:0,0:0:0:0:
408,60,3467,2,0,P|397:98|402:137,1,79.1999975830079,2|0,0:1|0:0,0:0:0:0:
495,105,3783,1,2,0:1:0:0:
318,16,3940,2,0,L|236:21,1,79.1999975830079,4|2,0:3|0:1,0:0:0:0:
112,108,4256,5,2,0:0:0:0:
112,108,4335,1,2,0:0:0:0:
112,108,4414,1,6,0:1:0:0:
329,167,4572,1,8,0:0:0:0:
329,167,4651,1,8,0:0:0:0:
329,167,4730,2,0,L|324:221,1,39.5999987915039,2|0,0:1|0:0,0:0:0:0:
242,60,4888,2,0,L|238:20,1,39.5999987915039,8|8,0:0|0:0,0:0:0:0:
340,62,5046,6,0,L|380:56,1,39.5999987915039,8|8,0:3|0:3,0:0:0:0:
151,114,5204,2,0,L|112:108,1,39.5999987915039,8|8,0:3|0:3,0:0:0:0:
329,167,5362,5,4,0:3:0:0:
148,11,5519,1,12,0:0:0:0:
212,217,5677,6,0,L|208:302,1,79.1999975830079,2|0,0:1|0:0,0:0:0:0:
329,167,5993,1,2,0:1:0:0:
244,120,6151,2,0,B|205:113|205:113|166:125,1,79.1999975830079,8|2,0:3|0:1,0:0:0:0:
212,217,6467,1,8,0:3:0:0:
330,75,6625,1,2,0:1:0:0:
388,251,6783,1,8,0:0:0:0:
212,217,6940,6,0,L|221:295,1,79.1999975830079,2|0,0:1|0:0,0:0:0:0:
338,88,7256,2,0,L|328:166,1,79.1999975830079,2|0,0:1|0:0,0:0:0:0:
157,46,7572,1,2,0:1:0:0:
167,124,7730,1,8,0:3:0:0:
241,16,7888,1,4,0:3:0:0:
82,96,8046,1,2,0:1:0:0:
253,145,8204,6,0,L|333:137,1,79.1999975830079,12|0,0:0|0:0,0:0:0:0:
176,215,8519,2,0,L|136:211,3,39.5999987915039,10|8|8|8,0:1|0:0|0:0|0:0,0:0:0:0:
270,242,8835,2,0,L|274:285,1,39.5999987915039,10|8,0:1|0:0,0:0:0:0:
167,124,8993,2,0,L|170:84,1,39.5999987915039,8|8,0:0|0:0,0:0:0:0:
294,243,9151,2,0,L|298:286,1,39.5999987915039,10|8,0:1|0:0,0:0:0:0:
149,114,9309,2,0,L|152:74,1,39.5999987915039,8|8,0:0|0:0,0:0:0:0:
342,11,9467,5,10,0:1:0:0:
378,24,9545,1,8,0:0:0:0:
403,55,9624,1,8,0:0:0:0:
409,94,9703,1,8,0:0:0:0:
395,130,9782,1,10,0:1:0:0:
364,154,9861,1,8,0:0:0:0:
325,160,9940,1,8,0:0:0:0:
289,146,10019,1,8,0:0:0:0:
265,115,10098,1,10,0:1:0:0:
265,115,10414,6,0,L|267:47,1,66.0000025177003
294,243,10730,6,0,B|227:234|227:234|189:248|189:248|121:240,1,176,6|8,0:1|0:0,0:0:0:0:
87,47,11204,1,2,0:0:0:0:
87,47,11283,1,2,0:0:0:0:
87,47,11362,1,2,0:1:0:0:
18,227,11519,1,2,0:1:0:0:
175,147,11677,1,8,0:0:0:0:
191,339,11835,5,2,0:0:0:0:
191,339,11914,1,2,0:0:0:0:
191,339,11993,2,0,L|279:330,1,88,2|0,0:1|0:0,0:0:0:0:
121,240,12309,1,8,0:0:0:0:
258,91,12467,2,0,L|262:137,1,44,2|2,0:0|0:0,0:0:0:0:
336,268,12625,1,2,0:1:0:0:
141,161,12783,1,2,0:1:0:0:
350,127,12940,2,0,L|262:135,1,88,8|2,0:0|0:0,0:0:0:0:
181,72,13177,1,2,0:0:0:0:
181,72,13256,6,0,B|121:51|121:51|141:161,1,176,6|8,0:0|0:0,0:0:0:0:
286,266,13730,1,2,0:0:0:0:
380,104,13888,2,0,L|478:95,1,88,2|2,0:1|0:0,0:0:0:0:
265,238,14204,2,0,L|167:229,1,88,8|0,0:0|0:0,0:0:0:0:
277,0,14519,6,0,L|294:136,1,132,2|0,0:1|0:0,0:0:0:0:
296,153,14835,1,8,0:0:0:0:
146,56,14993,2,0,L|211:69,1,44,2|2,0:0|0:0,0:0:0:0:
379,104,15151,1,6,0:0:0:0:
185,148,15309,5,8,0:0:0:0:
189,177,15387,1,8,0:0:0:0:
193,206,15466,1,8,0:0:0:0:
197,235,15545,1,8,0:0:0:0:
201,264,15624,1,8,0:0:0:0:
205,293,15704,1,8,0:0:0:0:
211,321,15783,6,0,B|307:296|294:365|381:336,1,176,6|8,0:1|0:0,0:0:0:0:
293,130,16256,1,2,0:0:0:0:
293,130,16335,1,2,0:0:0:0:
293,130,16414,1,2,0:1:0:0:
345,258,16572,1,2,0:1:0:0:
357,43,16730,1,8,0:0:0:0:
191,148,16888,5,2,0:0:0:0:
191,148,16967,1,2,0:0:0:0:
191,148,17046,2,0,L|8:133,1,176,2|8,0:1|0:0,0:0:0:0:
254,227,17519,1,2,0:0:0:0:
254,227,17598,1,2,0:0:0:0:
254,227,17677,1,2,0:1:0:0:
105,61,17835,1,2,0:1:0:0:
281,141,17993,2,0,L|261:43,1,88,8|2,0:0|0:1,0:0:0:0:
423,148,18309,5,6,0:0:0:0:
191,148,18467,1,2,0:0:0:0:
361,24,18625,1,8,0:0:0:0:
355,215,18783,2,0,L|354:303,1,88,2|2,0:0|0:1,0:0:0:0:
185,126,19098,2,0,L|186:38,1,88,2|8,0:1|0:0,0:0:0:0:
254,227,19414,1,2,0:1:0:0:
284,15,19572,5,12,0:0:0:0:
41,153,19730,1,2,0:1:0:0:
313,135,19888,5,8,0:0:0:0:
55,1,20046,2,0,L|65:49,1,44,2|0,0:1|0:0,0:0:0:0:
150,279,20204,5,8,0:0:0:0:
150,279,20283,1,8,0:0:0:0:
150,279,20362,2,0,L|194:284,1,44,2|0,0:1|0:0,0:0:0:0:
199,112,20519,2,0,L|194:155,1,44,8|0,0:0|0:0,0:0:0:0:
336,300,20677,2,0,L|343:256,1,44,2|2,0:1|0:1,0:0:0:0:
439,114,20835,6,0,B|394:97|358:121|358:121|326:141|283:128,1,158.399995166016,6|8,0:1|0:0,0:0:0:0:
167,27,21309,2,0,P|210:22|248:37,1,79.1999975830079,0|2,0:0|0:0,0:0:0:0:
161,191,21625,1,2,0:1:0:0:
81,53,21783,1,0,0:0:0:0:
199,112,21940,6,0,L|208:274,1,158.399995166016,8|2,0:0|0:0,0:0:0:0:
377,133,22414,2,0,P|308:143|334:208,1,158.399995166016,8|2,0:0|0:0,0:0:0:0:
465,130,22888,1,2,0:0:0:0:
421,254,23046,2,0,L|431:347,1,79.1999975830079,8|2,0:0|0:0,0:0:0:0:
192,292,23362,6,0,P|249:279|307:290,1,118.799996374512,6|0,0:0|0:0,0:0:0:0:
326,297,23677,2,0,L|316:215,1,79.1999975830079,8|0,0:0|0:0,0:0:0:0:
190,129,23993,1,2,0:0:0:0:
190,129,24151,2,0,L|180:50,1,79.1999975830079,2|0,0:0|0:0,0:0:0:0:
333,69,24467,6,0,B|441:58|441:58|476:95,1,158.399995166016,8|2,0:0|3:2,0:0:0:0:
416,166,24862,1,0,3:0:0:0:
416,166,24940,2,0,P|409:212|419:255,1,79.1999975830079,8|0,0:0|3:0,0:0:0:0:
414,244,25177,1,0,3:0:0:0:
414,244,25256,1,2,0:0:0:0:
475,94,25414,1,2,0:0:0:0:
322,229,25572,1,8,0:0:0:0:
512,213,25730,1,0,0:0:0:0:
358,340,25888,6,0,P|284:315|205:315,1,158.399995166016,6|8,0:1|0:0,0:0:0:0:
208,152,26362,1,0,0:0:0:0:
208,152,26519,2,0,L|228:232,2,79.1999975830079,2|2|0,0:0|0:0|0:0,0:0:0:0:
136,48,26993,6,0,B|88:32|88:32|116:148,1,158.399995166016,8|2,0:0|0:0,0:0:0:0:
228,60,27467,2,0,B|312:40|300:100|392:76,1,158.399995166016,8|2,0:0|0:0,0:0:0:0:
460,24,27940,1,2,0:0:0:0:
468,196,28098,2,0,L|472:116,1,79.1999975830079,8|0,0:0|0:0,0:0:0:0:
408,292,28414,6,0,L|284:276,1,118.799996374512,6|0,0:0|0:0,0:0:0:0:
268,272,28730,2,0,L|260:188,1,79.1999975830079,8|0,0:0|0:0,0:0:0:0:
360,56,29046,2,0,L|352:134,1,79.1999975830079,2|2,0:0|0:0,0:0:0:0:
232,64,29362,1,0,0:0:0:0:
176,244,29519,6,0,P|132:224|12:208,1,158.399995166016,8|2,0:0|0:2,0:0:0:0:
23,207,29914,1,0,3:0:0:0:
23,207,29993,1,8,0:0:0:0:
121,60,30151,2,0,L|126:112,1,39.5999987915039,0|0,3:0|3:0,0:0:0:0:
256,160,30309,5,8,0:0:0:0:
8,88,30467,1,10,0:0:0:0:
364,64,30940,6,0,P|344:144|340:256,1,176,6|8,0:1|0:0,0:0:0:0:
170,96,31414,2,0,P|211:110|247:135,1,88,2|2,0:0|0:1,0:0:0:0:
199,262,31730,1,10,0:1:0:0:
73,143,31888,2,0,L|66:55,1,88,8|0,0:0|0:0,0:0:0:0:
18,259,32204,6,0,P|36:335|111:312,1,176,10|8,0:1|0:0,0:0:0:0:
73,143,32677,1,2,0:0:0:0:
229,274,32835,2,0,L|325:260,1,88,2|10,0:1|0:1,0:0:0:0:
193,54,33151,2,0,B|159:75|159:75|180:179,1,132,8|0,0:0|0:0,0:0:0:0:
182,187,33467,6,0,L|273:171,1,88,6|0,0:0|0:0,0:0:0:0:
345,70,33783,1,8,0:0:0:0:
316,261,33940,2,0,L|229:274,1,88,8|2,0:1|0:1,0:0:0:0:
80,160,34256,2,0,P|79:203|93:245,1,88,10|8,0:1|0:0,0:0:0:0:
93,31,34572,1,2,0:0:0:0:
253,146,34730,6,0,B|308:179|308:179|426:145,1,176,2|8,0:1|0:0,0:0:0:0:
461,52,35204,1,2,0:0:0:0:
508,224,35362,2,0,L|514:117,1,88,2|10,0:1|0:1,0:0:0:0:
323,46,35677,1,8,0:0:0:0:
378,262,35835,1,0,3:0:0:0:
382,274,35914,1,0,3:0:0:0:
386,285,35993,6,0,B|322:296|322:296|281:270|281:270|211:281,1,176,6|8,0:1|0:0,0:0:0:0:
80,304,36467,1,2,0:0:0:0:
176,212,36625,2,0,B|189:170|189:170|178:126,1,88,2|10,0:1|0:1,0:0:0:0:
11,39,36940,2,0,B|-2:81|-2:81|9:125,1,88,8|0,0:0|0:0,0:0:0:0:
193,39,37256,6,0,B|229:23|269:30|269:30|288:49|288:49|327:58|361:47,1,176,10|8,0:1|0:0,0:0:0:0:
300,159,37730,1,0,0:0:0:0:
467,59,37888,2,0,L|475:157,1,88,10|2,0:1|0:1,0:0:0:0:
380,321,38204,2,0,L|387:233,1,88,8|0,0:0|0:0,0:0:0:0:
150,187,38519,6,0,P|158:257|242:227,1,176,10|8,0:1|0:0,0:0:0:0:
208,83,38993,1,0,0:0:0:0:
71,161,39151,2,0,L|60:68,1,88,10|2,0:1|0:1,0:0:0:0:
285,42,39467,2,0,P|295:84|285:126,1,88,8|0,0:0|3:0,0:0:0:0:
230,209,39704,1,0,3:0:0:0:
230,209,39783,6,0,L|317:208,1,88,10|0,0:1|0:0,0:0:0:0:
185,326,40098,2,0,B|140:318|122:276|122:276|88:340|27:324,1,198.000007553101,12|0,0:0|0:0,0:0:0:0:
45,246,40414,2,0,L|38:203,1,44,2|0,0:1|0:0,0:0:0:0:
45,27,40572,1,8,0:0:0:0:
88,19,40650,1,8,0:0:0:0:
131,27,40729,1,8,0:0:0:0:
168,50,40808,1,8,0:3:0:0:
195,85,40888,2,0,P|201:111|203:146,1,44,4|2,0:3|0:1,0:0:0:0:
93,132,41046,5,6,0:1:0:0:
248,21,41204,1,2,0:0:0:0:
201,168,41362,1,2,0:0:0:0:
45,27,41519,1,2,0:0:0:0:
122,278,41677,1,8,0:0:0:0:
122,278,41993,5,2,0:0:0:0:
201,168,42151,1,2,0:0:0:0:
30,214,42309,1,2,0:0:0:0:
207,333,42467,1,2,0:0:0:0:
195,85,42625,1,8,0:0:0:0:
195,85,42940,6,0,L|288:75,1,88,2|2,0:0|0:0,0:0:0:0:
117,223,43256,2,0,L|24:213,1,88,8|0,0:0|0:0,0:0:0:0:
306,189,43572,5,2,0:0:0:0:
164,291,43730,1,2,0:0:0:0:
372,253,43888,1,2,0:0:0:0:
282,75,44046,1,2,0:0:0:0:
346,340,44204,1,8,0:0:0:0:
346,340,44519,5,2,0:0:0:0:
281,229,44677,1,2,0:0:0:0:
405,228,44835,1,2,0:0:0:0:
208,282,44993,1,2,0:0:0:0:
466,333,45151,1,8,0:0:0:0:
466,332,45467,6,0,P|474:289|490:249,1,88,2|2,0:0|0:0,0:0:0:0:
267,80,45783,2,0,P|287:142|288:207,1,132,12|8,0:0|0:0,0:0:0:0:
281,229,46098,5,6,0:1:0:0:
366,115,46256,1,2,0:0:0:0:
201,161,46414,1,2,0:0:0:0:
381,98,46572,1,2,0:0:0:0:
331,317,46730,1,8,0:0:0:0:
331,317,47046,5,2,0:0:0:0:
416,197,47204,1,2,0:0:0:0:
281,229,47362,1,2,0:0:0:0:
481,335,47519,1,2,0:0:0:0:
490,116,47677,1,8,0:0:0:0:
490,116,47993,6,0,L|397:111,1,88,2|2,0:0|0:0,0:0:0:0:
193,233,48309,2,0,L|286:228,1,88,8|0,0:0|0:0,0:0:0:0:
237,37,48625,5,6,0:0:0:0:
337,166,48783,1,2,0:0:0:0:
378,31,48940,1,2,0:0:0:0:
363,243,49098,1,2,0:0:0:0:
161,135,49256,1,8,0:0:0:0:
161,135,49572,5,2,0:0:0:0:
313,89,49730,1,2,0:0:0:0:
193,228,49888,1,6,0:0:0:0:
309,70,50046,1,2,0:0:0:0:
305,336,50204,2,0,L|320:240,1,88,12|0,0:0|0:0,0:0:0:0:
144,128,50519,5,6,0:0:0:0:
100,125,50597,1,0,0:0:0:0:
63,148,50676,1,8,0:0:0:0:
46,189,50755,1,8,0:0:0:0:
54,231,50834,1,8,0:0:0:0:
85,261,50913,1,8,0:0:0:0:
127,269,50992,1,8,0:0:0:0:
167,251,51071,1,8,0:0:0:0:
192,216,51151,6,0,P|252:176|356:176,1,176,6|8,0:1|0:0,0:0:0:0:
305,336,51625,1,0,0:0:0:0:
431,220,51783,2,0,P|439:266|443:316,1,88,2|2,0:0|0:0,0:0:0:0:
252,140,52098,2,0,P|255:96|263:52,1,88,8|0,0:0|0:0,0:0:0:0:
305,336,52414,6,0,P|218:320|130:317,1,176,2|8,0:0|0:0,0:0:0:0:
287,241,52888,1,0,0:0:0:0:
111,114,53046,2,0,L|127:200,1,88,2|2,0:0|0:0,0:0:0:0:
248,67,53362,2,0,P|230:27|197:-4,1,88,8|0,0:0|0:0,0:0:0:0:
287,241,53677,6,0,B|384:215|370:283|470:252,1,176,2|8,0:0|0:0,0:0:0:0:
309,143,54151,1,0,0:0:0:0:
444,85,54309,2,0,P|429:128|422:173,1,88,2|2,0:0|0:0,0:0:0:0:
267,34,54625,2,0,P|282:77|289:122,1,88,8|0,0:0|0:0,0:0:0:0:
98,226,54940,5,2,0:0:0:0:
202,100,55098,1,0,0:0:0:0:
216,294,55256,1,8,0:0:0:0:
112,122,55414,1,0,0:0:0:0:
86,334,55572,2,0,L|-15:316,1,88,2|2,0:0|0:0,0:0:0:0:
207,197,55888,1,8,0:0:0:0:
29,81,56046,5,8,0:0:0:0:
29,81,56125,1,8,0:0:0:0:
29,81,56204,2,0,L|101:77,1,66.0000025177003,2|0,0:1|0:0,0:0:0:0:
185,42,56519,2,0,P|192:79|181:119,1,66.0000025177003,2|0,0:0|0:0,0:0:0:0:
272,146,56835,2,0,P|250:177|214:197,1,66.0000025177003,2|0,0:0|0:0,0:0:0:0:
262,281,57151,2,0,P|225:288|184:276,1,66.0000025177003,2|0,0:0|0:0,0:0:0:0:
337,220,57467,6,0,B|410:204|398:254|463:240,1,132.000005035401,2|2,0:0|0:0,0:0:0:0:
450,155,57940,1,0,0:0:0:0:
368,363,58098,2,0,P|368:320|358:290,1,66.0000025177003,2|0,0:0|0:0,0:0:0:0:
272,146,58414,5,2,0:0:0:0:
232,363,58572,1,0,0:0:0:0:
272,146,58888,6,0,L|252:192,1,44,2|0,0:0|0:0,0:0:0:0:
82,147,59046,6,0,L|122:169,1,39.5999987915039,2|0,0:0|0:0,0:0:0:0:
257,143,59204,6,0,L|238:186,1,35.2,2|0,0:0|0:0,0:0:0:0:
97,136,59362,6,0,L|136:158,1,30.7999990600586,2|0,0:0|0:0,0:0:0:0:
241,143,59519,6,0,L|224:184,1,26.399999194336,2|0,0:0|0:0,0:0:0:0:
107,127,59677,6,0,L|139:145,1,26.399999194336,2|0,0:0|0:0,0:0:0:0:
227,143,59835,6,0,L|216:173,1,17.6
215,261,60309,6,0,P|232:260|250:257,1,35.2
340,127,60625,6,0,P|331:142|323:169,1,44
398,314,60940,6,0,P|388:299|361:275,1,52.7999983886719
130,139,61256,6,0,P|59:210|91:305,1,211.199993554688,6|8,0:1|0:0,0:0:0:0:
240,162,61730,1,2,0:0:0:0:
66,56,61888,2,0,L|171:46,1,105.599996777344,2|2,0:1|0:1,0:0:0:0:
320,272,62204,2,0,L|214:262,1,105.599996777344,8|2,0:0|0:0,0:0:0:0:
278,51,62519,6,0,B|362:58|362:58|392:94|392:94|496:102,1,211.199993554688,2|8,0:1|0:0,0:0:0:0:
280,144,62993,1,2,0:0:0:0:
436,14,63151,1,2,0:1:0:0:
432,236,63309,1,2,0:1:0:0:
178,53,63467,1,10,0:0:0:0:
186,105,63545,1,8,0:0:0:0:
195,157,63624,1,8,0:0:0:0:
204,209,63703,1,8,0:0:0:0:
214,262,63783,6,0,B|91:237|131:321|12:292,1,211.199993554688,6|10,0:0|0:0,0:0:0:0:
122,17,64256,2,0,P|152:60|168:110,1,105.599996777344,2|2,0:0|0:1,0:0:0:0:
43,115,64572,1,10,0:1:0:0:
278,51,64730,1,8,0:0:0:0:
214,262,64888,1,2,0:0:0:0:
214,262,64967,1,2,0:0:0:0:
214,262,65046,6,0,P|210:202|227:158,1,105.599996777344,2|0,0:1|0:0,0:0:0:0:
379,74,65362,1,10,0:0:0:0:
309,221,65519,1,0,0:0:0:0:
278,51,65677,1,10,0:1:0:0:
457,251,65835,1,2,0:1:0:0:
512,61,65993,2,0,L|463:93,1,52.7999983886719,8|8,0:0|0:0,0:0:0:0:
309,221,66151,1,8,0:0:0:0:
309,221,66230,1,8,0:0:0:0:
309,220,66309,6,0,P|290:308|378:290,1,211.199993554688,6|8,0:1|0:0,0:0:0:0:
320,126,66783,1,2,0:0:0:0:
197,293,66940,2,0,L|88:304,1,105.599996777344,2|2,0:1|0:1,0:0:0:0:
246,94,67256,1,8,0:0:0:0:
324,310,67414,1,2,0:0:0:0:
136,223,67572,6,0,P|110:145|147:74,1,158.399995166016,2|0,0:1|0:0,0:0:0:0:
160,61,67888,2,0,L|54:51,1,105.599996777344,10|0,0:0|0:0,0:0:0:0:
197,292,68204,2,0,P|226:245|224:195,1,105.599996777344,10|2,0:1|0:1,0:0:0:0:
322,12,68519,2,0,L|343:127,1,105.599996777344,8|0,0:0|0:0,0:0:0:0:
485,305,68835,6,0,B|427:335|376:277|376:277|353:323|298:321,1,211.199993554688,6|8,0:1|0:0,0:0:0:0:
238,107,69309,1,2,0:0:0:0:
422,119,69467,2,0,P|399:173|361:196,1,105.599996777344,2|2,0:1|0:1,0:0:0:0:
222,10,69783,1,10,0:0:0:0:
148,214,69940,1,0,0:0:0:0:
96,30,70098,5,2,0:1:0:0:
341,116,70256,1,0,0:0:0:0:
170,307,70414,2,0,P|166:257|168:191,1,105.599996777344,8|0,0:0|0:0,0:0:0:0:
329,17,70730,5,6,0:0:0:0:
94,122,70888,1,8,0:0:0:0:
133,104,70966,1,8,0:0:0:0:
177,102,71046,1,10,0:1:0:0:
218,117,71124,1,8,0:0:0:0:
251,146,71203,1,8,0:0:0:0:
270,185,71282,1,8,0:0:0:0:
276,229,71362,6,0,B|330:260|373:225|373:225|417:187|477:211,1,211.199993554688,6|8,0:1|0:0,0:0:0:0:
378,333,71835,1,2,0:0:0:0:
377,126,71993,2,0,L|384:13,1,105.599996777344,2|2,0:1|0:1,0:0:0:0:
176,200,72309,2,0,P|227:224|296:227,1,105.599996777344,10|0,0:0|0:0,0:0:0:0:
131,32,72625,5,2,0:1:0:0:
39,215,72783,1,0,0:0:0:0:
251,126,72940,1,10,0:0:0:0:
23,90,73098,1,0,0:0:0:0:
119,317,73256,2,0,P|126:269|140:204,1,105.599996777344,10|2,0:1|0:1,0:0:0:0:
335,355,73572,2,0,P|324:306|312:251,1,105.599996777344,10|0,0:0|0:0,0:0:0:0:
169,79,73888,6,0,P|245:93|386:104,1,211.199993554688,6|8,0:0|0:0,0:0:0:0:
475,18,74362,1,2,0:0:0:0:
447,260,74519,1,2,0:1:0:0:
378,103,74677,1,2,0:1:0:0:
314,239,74835,1,10,0:0:0:0:
504,175,74993,1,0,0:0:0:0:
251,132,75151,5,10,0:1:0:0:
423,233,75309,1,0,0:0:0:0:
247,44,75467,1,10,0:0:0:0:
162,261,75625,1,0,0:0:0:0:
330,81,75783,2,0,L|445:67,1,105.599996777344,10|2,0:1|0:1,0:0:0:0:
147,140,76098,2,0,L|32:126,1,105.599996777344,8|2,0:0|0:1,0:0:0:0:
311,362,76414,6,0,P|312:278|321:176,1,176,6|0,0:1|0:0,0:0:0:0:
146,48,76888,2,0,B|210:39|210:39|249:67|249:67|313:55,1,176,8|2,0:0|0:1,0:1:0:0:
182,245,77362,2,0,P|184:198|176:154,1,88,8|0,0:0|0:0,0:0:0:0:
114,309,77677,5,6,0:0:0:0:
357,260,77835,2,0,L|159:242,1,176,2|8,0:1|0:0,0:1:0:0:
360,168,78309,1,0,0:0:0:0:
356,351,78467,1,2,0:1:0:0:
272,171,78625,1,8,0:0:0:0:
439,265,78783,1,2,0:1:0:0:
309,94,78940,6,0,B|264:75|221:103|221:103|184:127|126:99,1,176,6|0,0:1|0:0,0:0:0:0:
189,315,79414,2,0,P|191:264|198:220,1,88,8|0,0:0|0:0,0:0:0:0:
329,279,79730,1,2,0:1:0:0:
272,171,79888,1,8,0:0:0:0:
314,302,80046,1,2,0:1:0:0:
398,117,80204,5,6,0:0:0:0:
110,185,80362,1,2,0:1:0:0:
439,265,80519,5,8,0:0:0:0:
209,42,80677,1,2,0:1:0:0:
300,366,80835,6,0,L|304:306,1,44,2|0,0:1|0:0,0:0:0:0:
305,70,80993,1,8,0:0:0:0:
259,47,81071,1,8,0:0:0:0:
209,42,81150,1,10,0:1:0:0:
160,56,81230,1,8,0:1:0:0:
119,86,81308,1,8,0:0:0:0:
90,128,81387,1,8,0:0:0:0:
80,178,81467,6,0,B|109:320|109:320|157:270,1,211.199993554688,6|8,0:1|0:0,0:0:0:0:
278,163,81940,1,2,0:0:0:0:
311,345,82098,2,0,L|427:347,1,105.599996777344,2|2,0:1|0:1,0:0:0:0:
339,95,82414,1,8,0:0:0:0:
219,222,82572,1,2,0:0:0:0:
467,132,82730,6,0,P|458:187|455:246,1,105.599996777344,2|0,0:1|0:0,0:0:0:0:
254,53,83046,1,8,0:0:0:0:
373,258,83204,1,2,0:0:0:0:
389,28,83362,1,2,0:1:0:0:
219,222,83519,1,2,0:1:0:0:
137,23,83677,1,10,0:0:0:0:
85,22,83755,1,8,0:0:0:0:
41,49,83834,1,8,0:0:0:0:
22,98,83913,1,8,0:0:0:0:
34,148,83993,6,0,P|132:134|250:140,1,211.199993554688,6|8,0:1|0:0,0:0:0:0:
215,345,84467,2,0,P|202:297|204:239,1,105.599996777344,2|2,0:0|0:1,0:0:0:0:
327,78,84783,2,0,P|340:126|338:184,1,105.599996777344,10|8,0:1|0:0,0:0:0:0:
106,222,85098,1,2,0:0:0:0:
106,222,85177,1,2,0:0:0:0:
106,222,85256,5,2,0:1:0:0:
243,139,85414,1,0,0:0:0:0:
21,98,85572,1,10,0:0:0:0:
203,241,85730,1,0,0:0:0:0:
288,43,85888,1,10,0:1:0:0:
149,134,86046,1,2,0:1:0:0:
326,253,86204,2,0,L|290:209,1,52.7999983886719,12|0,0:0|0:0,0:0:0:0:
126,11,86362,1,8,0:0:0:0:
126,11,86440,1,8,0:0:0:0:
126,11,86519,6,0,P|118:108|104:235,1,211.199993554688,6|8,0:1|0:0,0:0:0:0:
243,139,86993,1,2,0:0:0:0:
158,323,87151,2,0,L|266:309,1,105.599996777344,2|2,0:1|0:1,0:0:0:0:
135,110,87467,1,8,0:0:0:0:
37,308,87625,1,2,0:0:0:0:
243,139,87783,6,0,B|306:131|306:131|339:148|339:148|401:137,1,158.399995166016,2|0,0:1|0:0,0:0:0:0:
422,132,88098,2,0,P|413:188|410:242,1,105.599996777344,10|0,0:0|0:0,0:0:0:0:
184,63,88414,2,0,L|298:48,1,105.599996777344,10|2,0:1|0:1,0:0:0:0:
281,317,88730,2,0,P|284:264|292:212,1,105.599996777344,10|0,0:0|0:0,0:0:0:0:
83,31,89046,6,0,B|98:90|98:90|90:130|90:130|118:159|118:159|135:231,1,211.199993554688,6|8,0:1|0:0,0:0:0:0:
330,135,89519,2,0,P|277:132|230:154,1,105.599996777344,2|2,0:0|0:1,0:0:0:0:
281,316,89835,1,2,0:1:0:0:
426,176,89993,2,0,L|409:72,1,105.599996777344,10|2,0:0|0:0,0:0:0:0:
206,271,90309,5,6,0:1:0:0:
258,58,90467,1,2,0:1:0:0:
298,235,90625,1,12,0:0:0:0:
168,59,90783,1,2,0:1:0:0:
408,71,90940,5,2,0:1:0:0:
97,134,91098,1,8,0:0:0:0:
140,137,91176,1,8,0:0:0:0:
184,141,91255,1,10,0:1:0:0:
228,145,91334,1,8,0:0:0:0:
272,148,91413,1,8,0:0:0:0:
316,152,91492,1,8,0:0:0:0:
360,156,91572,6,0,P|346:212|470:206,1,211.199993554688,6|8,0:1|0:0,0:0:0:0:
408,71,92046,1,2,0:0:0:0:
259,241,92204,2,0,L|270:357,1,105.599996777344,2|2,0:1|0:1,0:0:0:0:
84,165,92519,2,0,P|131:142|183:141,1,105.599996777344,10|0,0:0|0:0,0:0:0:0:
308,26,92835,5,2,0:1:0:0:
370,188,92993,1,0,0:0:0:0:
169,49,93151,1,10,0:0:0:0:
360,156,93309,1,0,0:0:0:0:
165,259,93467,2,0,P|125:253|56:251,1,105.599996777344,10|2,0:1|0:1,0:0:0:0:
353,129,93783,2,0,P|393:123|462:121,1,105.599996777344,10|2,0:0|0:1,0:0:0:0:
271,363,94098,6,0,B|284:321|257:280|257:280|281:254|281:254|251:218|270:158,1,211.199993554688,6|8,0:0|0:0,0:0:0:0:
388,318,94572,1,2,0:0:0:0:
353,129,94730,2,0,L|368:19,1,105.599996777344,2|2,0:1|0:1,0:0:0:0:
144,24,95046,2,0,L|159:129,1,105.599996777344,10|2,0:0|0:1,0:0:0:0:
384,219,95362,6,0,P|426:184|445:127,1,105.599996777344,10|0,0:1|0:0,0:0:0:0:
268,21,95677,2,0,L|253:125,1,105.599996777344,10|0,0:0|0:1,0:0:0:0:
310,298,95993,1,10,0:1:0:0:
354,128,96151,1,2,0:1:0:0:
211,275,96309,1,8,0:0:0:0:
410,318,96467,1,2,0:1:0:0:
253,125,96625,6,0,B|194:124|194:124|156:150|156:150|99:132|43:160,1,211.199993554688,6|8,0:1|0:0,0:0:0:0:
279,207,97098,1,2,0:0:0:0:
108,252,97256,2,0,P|117:304|122:361,1,105.599996777344,2|2,0:1|0:1,0:0:0:0:
109,66,97572,1,10,0:0:0:0:
279,207,97730,1,0,0:0:0:0:
233,16,97888,6,0,L|268:231,1,211.199993554688,2|8,0:1|0:0,0:0:0:0:
134,321,98362,1,0,0:0:0:0:
18,112,98519,2,0,P|50:152|99:170,1,105.599996777344,10|2,0:1|0:1,0:0:0:0:
342,104,98835,2,0,B|283:95|283:95|251:111|251:111|181:99,1,158.399995166016,10|0,0:0|0:0,0:0:0:0:
163,96,99151,5,6,0:0:0:0:
391,205,99309,1,2,0:0:0:0:
230,22,99467,1,8,0:0:0:0:
158,242,99625,1,2,0:0:0:0:
342,104,99783,1,2,0:1:0:0:
34,142,99940,5,8,0:0:0:0:
38,176,100018,1,8,0:0:0:0:
42,211,100098,1,10,0:1:0:0:
46,246,100176,1,8,0:0:0:0:
50,281,100255,1,8,0:0:0:0:
54,316,100334,1,8,0:0:0:0:
59,351,100413,1,10,0:1:0:0:
342,104,101204,6,0,L|333:168,2,52.7999983886719,2|4|8,0:1|0:3|0:0,0:0:0:0:
21,143,101677,5,14,0:0:0:0:
188,47,101835,1,0,0:0:0:0:
188,240,101993,1,2,0:0:0:0:
77,47,102151,5,12,0:0:0:0:
243,143,102309,1,2,0:0:0:0:
77,240,102467,1,2,0:0:0:0:
188,47,102625,5,12,0:0:0:0:
188,240,102783,1,0,0:0:0:0:
354,143,102940,5,2,0:1:0:0:
171,28,103098,1,12,0:0:0:0:
174,265,103256,2,0,L|272:246,1,88,0|2,0:0|0:0,0:0:0:0:
354,143,103572,5,12,0:0:0:0:
352,164,103650,1,0,0:0:0:0:
351,186,103729,1,2,0:0:0:0:
349,208,103808,1,2,0:0:0:0:
348,230,103887,1,12,0:0:0:0:
188,48,104046,1,2,0:0:0:0:
491,143,104204,5,6,0:0:0:0:
324,47,104362,1,0,0:0:0:0:
512,124,104520,1,2,0:0:0:0:
264,140,104678,5,12,0:0:0:0:
448,48,104836,1,2,0:0:0:0:
348,230,104994,1,2,0:0:0:0:
188,48,105152,5,12,0:0:0:0:
400,140,105310,1,0,0:0:0:0:
400,140,105388,1,0,0:0:0:0:
400,140,105467,5,2,0:0:0:0:
236,256,105625,2,0,L|242:168,1,88,12|0,0:0|0:0,0:0:0:0:
304,320,105940,1,2,0:0:0:0:
491,143,106098,5,12,0:0:0:0:
284,88,106256,2,0,B|224:76|224:76|180:108|180:108|104:100,1,176,6|2,0:1|0:0,0:0:0:0:
156,24,106651,1,2,0:0:0:0:
156,24,106730,5,6,0:0:0:0:
144,224,106888,1,0,0:0:0:0:
40,76,107046,1,2,0:0:0:0:
242,168,107204,5,12,0:0:0:0:
52,280,107362,1,2,0:0:0:0:
200,96,107519,1,2,0:0:0:0:
304,320,107677,5,12,0:0:0:0:
92,152,107835,1,0,0:0:0:0:
392,120,107993,5,2,0:0:0:0:
196,296,108151,1,12,0:0:0:0:
136,40,108309,1,0,0:0:0:0:
242,168,108467,1,2,0:0:0:0:
16,208,108625,6,0,L|4:116,1,88,12|2,0:0|0:0,0:0:0:0:
196,296,108940,1,12,0:0:0:0:
216,8,109098,1,10,0:0:0:0:
216,8,109177,1,8,0:0:0:0:
216,8,109256,5,6,0:0:0:0:
92,152,109414,1,0,0:0:0:0:
304,92,109572,1,2,0:0:0:0:
48,36,109730,5,12,0:0:0:0:
242,168,109888,1,2,0:0:0:0:
16,208,110046,1,2,0:0:0:0:
216,8,110204,5,12,0:0:0:0:
276,252,110362,1,10,0:0:0:0:
148,160,110519,5,6,0:0:0:0:
328,179,110677,1,4,0:3:0:0:
132,180,110835,5,8,0:0:0:0:
392,116,110993,1,8,0:0:0:0:
68,100,111151,5,8,0:0:0:0:
416,200,111309,1,8,0:0:0:0:
430,198,111387,1,8,0:0:0:0:
445,196,111466,1,8,0:0:0:0:
459,194,111545,1,8,0:0:0:0:
474,192,111624,1,8,0:0:0:0:
488,190,111703,1,8,0:0:0:0:
503,189,111782,5,6,0:1:0:0:
256,32,114309,5,6,0:1:0:0:
256,352,116835,5,6,0:1:0:0:
36,115,118730,6,0,P|89:167|80:241,1,154
8,194,119362,5,6,0:1:0:0:
229,92,119993,6,0,L|223:237,1,132
368,100,120625,5,2,0:3:0:0:
361,78,120940,1,2,0:3:0:0:
355,57,121256,1,2,0:3:0:0:
420,200,121414,6,0,L|300:188,1,110,6|0,0:0|0:0,0:0:0:0:
226,144,121888,6,0,B|122:124|162:196|58:172,1,176,6|8,0:1|0:0,0:0:0:0:
76,9,122362,2,0,P|89:50|94:94,1,88,2|2,0:0|0:1,0:0:0:0:
0,71,122677,1,10,0:1:0:0:
187,54,122835,2,0,L|278:49,1,88,8|0,0:0|0:0,0:0:0:0:
459,75,123151,6,0,P|378:103|344:181,1,176,10|8,0:1|0:0,0:0:0:0:
454,186,123625,1,2,0:0:0:0:
254,236,123783,2,0,L|242:149,1,88,2|10,0:1|0:1,0:0:0:0:
442,266,124098,2,0,L|429:357,1,88,8|0,0:0|0:0,0:0:0:0:
271,320,124414,6,0,P|156:332|89:343,1,176,6|8,0:0|0:0,0:0:0:0:
152,152,124888,2,0,P|159:195|156:238,1,88,2|2,0:0|0:1,0:0:0:0:
56,72,125204,1,10,0:1:0:0:
240,120,125362,1,8,0:0:0:0:
60,200,125519,1,2,0:0:0:0:
252,136,125677,6,0,B|312:164|312:164|432:140,1,176,2|8,0:1|0:0,0:0:0:0:
328,40,126151,1,0,0:0:0:0:
306,258,126309,2,0,L|396:240,1,88,10|2,0:1|0:1,0:0:0:0:
179,202,126625,2,0,P|171:245|171:289,1,88,8|0,0:0|3:0,0:0:0:0:
256,341,126862,1,0,3:0:0:0:
256,341,126940,6,0,L|268:157,1,176,6|8,0:1|0:0,0:0:0:0:
126,39,127414,1,0,0:0:0:0:
178,201,127572,2,0,P|135:201|91:207,1,88,10|2,0:1|0:1,0:0:0:0:
250,54,127888,2,0,P|293:53|337:59,1,88,8|0,0:0|0:1,0:0:0:0:
443,175,128204,6,0,L|259:164,1,176,10|8,0:1|0:0,0:0:0:0:
361,290,128677,1,0,0:0:0:0:
178,201,128835,2,0,P|135:201|91:207,1,88,10|2,0:1|0:1,0:0:0:0:
256,345,129151,2,0,L|262:242,1,88,8|0,0:0|0:0,0:0:0:0:
232,48,129467,6,0,P|218:125|297:135,1,176,10|8,0:1|0:0,0:0:0:0:
106,98,129940,1,0,0:0:0:0:
167,289,130098,2,0,P|171:245|178:201,1,88,10|2,0:1|0:1,0:0:0:0:
16,61,130414,2,0,P|22:104|27:148,1,88,12|0,0:0|0:0,0:0:0:0:
16,276,130730,5,14,0:1:0:0:
177,201,130888,1,8,0:0:0:0:
177,201,130967,1,8,0:0:0:0:
177,201,131046,2,0,L|171:248,1,44,8|0,0:0|0:0,0:0:0:0:
104,64,131204,1,2,0:1:0:0:
250,156,131362,5,6,0:0:0:0:
280,169,131440,1,0,0:0:0:0:
312,168,131519,1,8,0:0:0:0:
342,155,131598,1,8,0:0:0:0:
364,131,131677,1,8,0:3:0:0:
386,107,131756,1,4,0:3:0:0:
416,94,131835,1,2,0:1:0:0:
448,93,131914,1,2,0:1:0:0:
479,107,131993,6,0,P|472:174|475:243,1,118.799996374512,6|0,0:1|0:0,0:0:0:0:
478,245,132309,2,0,L|379:227,1,79.1999975830079,8|0,0:0|0:0,0:0:0:0:
302,270,132625,1,2,0:0:0:0:
297,91,132783,2,0,L|314:177,1,79.1999975830079,2|0,0:0|0:0,0:0:0:0:
226,339,133098,6,0,P|198:260|233:191,1,158.399995166016,8|2,0:0|0:0,0:0:0:0:
374,77,133572,2,0,B|281:99|311:38|221:62,1,158.399995166016,8|2,0:0|0:0,0:0:0:0:
228,196,134046,1,2,0:0:0:0:
141,83,134204,1,8,0:0:0:0:
244,208,134362,1,0,0:0:0:0:
57,100,134519,6,0,P|65:165|71:261,1,158.399995166016,6|8,0:0|0:0,0:0:0:0:
244,208,134993,2,0,P|205:199|151:191,1,79.1999975830079,0|2,0:0|0:0,0:0:0:0:
77,283,135309,1,2,0:0:0:0:
155,109,135467,1,0,0:0:0:0:
264,291,135625,6,0,B|314:272|314:272|422:295,1,158.399995166016,8|2,0:0|0:0,0:0:0:0:
346,93,136098,2,0,P|333:150|416:166,1,158.399995166016,8|2,0:0|0:0,0:0:0:0:
460,42,136572,1,2,0:0:0:0:
489,225,136730,1,8,0:0:0:0:
346,93,136888,5,4,0:3:0:0:
346,93,136967,1,4,0:3:0:0:
346,93,137046,2,0,L|176:101,1,158.399995166016,6|8,0:1|0:0,0:0:0:0:
32,75,137519,2,0,P|30:114|40:152,1,79.1999975830079,0|2,0:0|0:0,0:0:0:0:
139,240,137835,2,0,P|141:201|131:163,1,79.1999975830079,2|0,0:0|0:0,0:0:0:0:
61,326,138151,6,0,L|236:320,1,158.399995166016,8|2,0:0|0:0,0:0:0:0:
330,181,138625,2,0,P|300:206|284:242,1,79.1999975830079,8|0,0:0|0:0,0:0:0:0:
456,166,138940,2,0,P|448:127|425:95,1,79.1999975830079,2|2,0:0|0:0,0:0:0:0:
406,283,139256,2,0,P|443:295|482:291,1,79.1999975830079,8|0,0:0|0:0,0:0:0:0:
330,181,139572,6,0,P|251:167|174:172,1,158.399995166016,6|8,0:0|0:0,0:0:0:0:
91,243,140046,2,0,L|102:321,1,79.1999975830079,0|2,0:0|0:0,0:0:0:0:
90,126,140362,1,2,0:0:0:0:
4,220,140519,1,0,0:0:0:0:
20,48,140677,2,0,B|74:36|74:36|121:52|121:52|199:36,1,158.399995166016,8|2,0:0|0:0,0:0:0:0:
347,65,141151,2,0,P|309:71|263:109,1,79.1999975830079,12|0,0:0|0:0,0:0:0:0:
243,272,141467,5,2,0:0:0:0:
262,275,141545,1,0,0:0:0:0:
282,274,141624,1,8,0:0:0:0:
301,270,141703,1,8,0:0:0:0:
319,261,141783,1,10,3:2:0:0:
334,249,141862,1,0,0:0:0:0:
347,234,141940,1,8,0:0:0:0:
356,216,142019,1,8,0:0:0:0:
360,197,142098,6,0,L|344:146,1,44,2|2,0:0|0:0,0:0:0:0:
203,156,142256,2,0,L|189:197,1,44,4|4,0:3|0:3,0:0:0:0:
228,64,142414,6,0,B|199:75|162:68|162:68|131:99|131:99|97:93|65:106,1,176,6|2,0:1|0:0,0:0:0:0:
94,266,142888,1,2,0:0:0:0:
203,156,143046,1,8,0:0:0:0:
14,194,143204,1,0,0:0:0:0:
169,333,143362,6,0,B|271:357|232:287|343:317,1,176,2|8,0:0|0:0,0:0:0:0:
204,249,143835,1,0,0:0:0:0:
337,132,143993,2,0,P|328:177|320:228,1,88,2|2,0:0|0:0,0:0:0:0:
148,85,144309,2,0,P|188:67|231:68,1,88,8|0,0:0|0:0,0:0:0:0:
439,156,144625,6,0,P|423:242|412:329,1,176,6|8,0:0|0:0,0:0:0:0:
337,132,145098,1,0,0:0:0:0:
204,249,145256,2,0,L|116:257,1,88,2|2,0:0|0:0,0:0:0:0:
187,69,145572,6,0,B|242:48|242:48|225:163,1,176,8|2,0:0|0:0,0:0:0:0:
28,264,146046,1,0,0:0:0:0:
62,97,146204,2,0,L|72:199,1,88,8|0,0:0|0:0,0:0:0:0:
169,335,146519,6,0,L|229:330,1,44,2|0,0:0|0:0,0:0:0:0:
298,272,146677,2,0,L|341:275,1,44,8|8,0:0|0:0,0:0:0:0:
435,337,146835,1,8,0:0:0:0:
437,293,146913,1,8,0:0:0:0:
440,249,146992,1,8,0:0:0:0:
443,205,147071,1,8,0:0:0:0:
445,161,147150,5,6,0:1:0:0:
256,340,148414,5,2,0:0:0:0:
256,340,149362,6,0,L|256:272,1,66.0000025177003
272,108,149677,5,14,0:0:0:0:
239,101,149755,1,0,3:0:0:0:
207,106,149834,1,0,3:0:0:0:
179,124,149913,1,0,3:0:0:0:
160,150,149993,2,0,L|148:104,1,44,10|0,0:0|3:0,0:0:0:0:
101,232,150151,2,0,L|112:274,3,44,0|0|10|0,3:0|3:0|0:0|3:0,0:0:0:0:
227,345,150467,2,0,P|232:323|240:304,1,44,0|0,3:0|3:0,0:0:0:0:
51,326,150625,2,0,P|32:314|11:306,1,44,10|0,0:0|3:0,0:0:0:0:
185,232,150783,2,0,P|203:220|224:212,1,44,0|0,3:0|3:0,0:0:0:0:
410,310,150940,5,10,0:0:0:0:
366,307,151018,1,0,3:0:0:0:
333,280,151097,1,0,3:0:0:0:
322,238,151176,1,0,3:0:0:0:
339,198,151256,1,10,0:0:0:0:
375,175,151334,1,0,3:0:0:0:
418,179,151413,1,0,3:0:0:0:
451,207,151492,1,0,3:0:0:0:
464,250,151572,6,0,L|508:243,1,44,10|0,0:0|3:0,0:0:0:0:
440,102,151730,2,0,L|396:95,1,44,0|0,3:0|3:0,0:0:0:0:
279,244,151888,2,0,L|323:237,1,44,10|0,0:0|3:0,0:0:0:0:
263,61,152046,2,0,L|219:54,1,44,0|0,3:0|3:0,0:0:0:0:
131,272,152204,5,10,0:0:0:0:
126,293,152282,1,0,3:0:0:0:
122,315,152361,1,0,3:0:0:0:
118,336,152440,1,0,3:0:0:0:
113,356,152519,1,10,0:0:0:0:
103,313,152597,1,0,3:0:0:0:
93,270,152676,1,0,3:0:0:0:
84,227,152755,1,0,3:0:0:0:
74,184,152835,6,0,L|65:134,1,44,10|0,0:0|3:0,0:0:0:0:
208,308,152993,2,0,L|200:351,1,44,0|0,3:0|3:0,0:0:0:0:
50,187,153151,2,0,L|41:137,1,44,10|0,0:0|3:0,0:0:0:0:
229,313,153309,2,0,L|221:356,1,44,0|0,3:0|3:0,0:0:0:0:
181,212,153467,5,10,0:0:0:0:
221,195,153545,1,0,3:0:0:0:
264,201,153624,1,0,3:0:0:0:
299,227,153703,1,0,3:0:0:0:
316,267,153783,1,10,0:0:0:0:
333,307,153862,1,0,3:0:0:0:
368,333,153941,1,0,3:0:0:0:
411,339,154020,1,0,3:0:0:0:
462,328,154098,5,10,0:0:0:0:
490,289,154177,1,8,0:0:0:0:
496,240,154257,1,8,0:0:0:0:
477,196,154336,1,8,0:0:0:0:
439,166,154415,1,10,0:0:0:0:
401,136,154493,1,8,0:0:0:0:
382,92,154571,1,8,0:0:0:0:
388,43,154650,1,8,0:0:0:0:
415,4,154730,6,0,P|343:46|273:37,1,145.200004431152,6|0,0:1|0:0,0:0:0:0:
260,35,155046,2,0,L|271:160,1,96.8000029541017,8|2,0:0|0:0,0:0:0:0:
268,131,155283,1,2,0:1:0:0:
268,131,155362,1,2,0:1:0:0:
408,250,155519,1,10,0:1:0:0:
209,258,155677,1,0,0:0:0:0:
430,109,155835,6,0,L|439:162,1,48.4000014770508,10|2,0:0|0:0,0:0:0:0:
363,336,155993,1,2,0:0:0:0:
247,155,156151,1,2,0:1:0:0:
161,334,156309,1,8,0:0:0:0:
351,170,156467,1,2,0:0:0:0:
139,140,156625,1,2,0:1:0:0:
261,338,156783,2,0,L|254:239,1,96.8000029541017,10|8,0:1|0:0,0:0:0:0:
189,48,157098,5,8,0:0:0:0:
189,48,157177,1,8,0:0:0:0:
189,48,157256,2,0,L|335:63,1,145.200004431152,6|0,0:2|0:0,0:0:0:0:
358,66,157572,1,8,0:0:0:0:
251,193,157730,2,0,L|253:241,1,48.4000014770508,2|2,0:0|0:0,0:0:0:0:
351,170,157888,1,10,0:1:0:0:
139,139,158046,1,10,0:1:0:0:
261,338,158204,1,0,0:0:0:0:
71,238,158362,6,0,B|116:211|162:241|162:241|210:271|254:240,1,193.600005908203,10|2,0:0|0:1,0:0:0:0:
344,215,158756,1,0,0:0:0:0:
344,215,158835,2,0,L|340:276,1,48.4000014770508,8|0,0:0|0:0,0:0:0:0:
247,144,158993,2,0,L|243:82,1,48.4000014770508,2|0,0:0|0:0,0:0:0:0:
444,157,159151,5,6,0:0:0:0:
442,205,159229,1,0,0:0:0:0:
441,253,159308,1,8,0:0:0:0:
439,302,159387,1,8,0:0:0:0:
438,350,159467,1,8,0:3:0:0:
416,340,159545,1,8,0:3:0:0:
392,335,159624,1,4,0:3:0:0:
368,335,159703,1,4,0:3:0:0:
344,341,159783,6,0,P|291:347|247:330,1,96.8000029541017,6|0,0:1|0:0,0:0:0:0:
247,144,160098,2,0,B|311:120|311:120|301:273,1,193.600005908203,8|2,0:0|0:1,0:0:0:0:
99,105,160572,1,10,0:1:0:0:
138,276,160730,1,2,0:0:0:0:
185,46,160888,6,0,B|296:27|296:27|260:71,1,145.200004431152,10|0,0:0|0:0,0:0:0:0:
371,67,161204,2,0,L|268:51,1,96.8000029541017,10|8,0:1|0:0,0:0:0:0:
443,186,161519,1,2,0:0:0:0:
455,22,161677,1,2,0:1:0:0:
455,22,161835,1,10,0:1:0:0:
306,164,161993,1,8,0:0:0:0:
512,268,162151,5,2,0:1:0:0:
512,268,162230,1,2,0:1:0:0:
512,268,162309,2,0,P|438:272|318:281,1,193.600005908203,6|8,0:0|0:0,0:0:0:0:
156,323,162783,1,2,0:0:0:0:
319,361,162940,1,10,0:1:0:0:
137,300,163098,1,10,0:1:0:0:
318,197,163256,1,0,0:0:0:0:
39,209,163414,6,0,B|111:198|111:198|153:217|153:217|226:206,1,193.600005908203,10|2,0:0|0:1,0:0:0:0:
178,41,163888,2,0,B|160:74|160:74|174:140,1,96.8000029541017,8|2,0:0|0:0,0:0:0:0:
172,131,164125,1,2,0:0:0:0:
172,131,164204,1,2,0:1:0:0:
321,51,164362,1,10,0:1:0:0:
226,206,164519,1,8,0:0:0:0:
436,204,164677,5,8,0:0:0:0:
436,204,164756,1,8,0:0:0:0:
436,204,164835,2,0,B|444:291|444:291|392:333,1,145.200004431152,6|0,0:1|0:0,0:0:0:0:
301,300,165151,2,0,P|248:293|204:304,1,96.8000029541017,8|2,0:0|0:0,0:0:0:0:
134,337,165388,1,2,0:0:0:0:
134,337,165467,1,2,0:1:0:0:
178,131,165625,2,0,L|188:227,1,96.8000029541017,4|2,0:3|0:0,0:0:0:0:
44,67,165940,6,0,B|86:45|131:61|131:61|173:38|173:38|246:64,1,193.600005908203,10|10,0:0|0:1,0:0:0:0:
370,140,166414,2,0,P|322:148|277:135,1,96.8000029541017,8|2,0:0|0:0,0:0:0:0:
329,59,166651,1,2,0:0:0:0:
329,59,166730,1,10,0:1:0:0:
356,238,166888,1,4,0:3:0:0:
421,64,167046,1,8,0:0:0:0:
336,251,167204,1,2,0:0:0:0:
225,56,167362,5,6,0:0:0:0:
316,265,167519,2,0,L|215:248,1,96.8000029541017,2|8,0:0|0:0,0:0:0:0:
104,108,167835,1,2,0:0:0:0:
113,124,167914,1,2,0:0:0:0:
122,140,167993,2,0,L|116:253,1,96.8000029541017,2|4,0:1|0:3,0:0:0:0:
15,150,168309,1,2,0:0:0:0:
270,160,168467,6,0,B|335:176|369:126|369:126|396:172|440:171,1,193.600005908203,12|10,0:0|0:1,0:0:0:0:
471,0,168940,2,0,P|455:45|443:92,1,96.8000029541017,8|2,0:0|0:0,0:0:0:0:
393,332,169256,2,0,P|381:285|364:239,1,96.8000029541017,2|10,0:1|0:0,0:0:0:0:
332,243,169493,1,8,0:0:0:0:
300,246,169572,1,8,0:0:0:0:
268,250,169651,1,8,0:0:0:0:
236,253,169730,1,8,0:0:0:0:
204,257,169809,1,8,0:0:0:0:
172,260,169888,5,6,0:1:0:0:
239,85,170046,1,2,0:0:0:0:
356,230,170204,1,8,0:0:0:0:
147,252,170362,5,2,0:0:0:0:
258,67,170520,1,2,0:1:0:0:
362,255,170678,1,4,0:3:0:0:
121,238,170835,5,2,0:0:0:0:
283,51,170993,1,8,0:0:0:0:
363,285,171151,1,2,0:0:0:0:
94,217,171309,5,10,0:1:0:0:
314,38,171467,1,8,0:0:0:0:
359,319,171625,1,2,0:0:0:0:
150,79,171783,5,4,0:3:0:0:
150,79,171862,1,0,0:0:0:0:
150,79,171940,1,8,0:0:0:0:
150,79,172019,1,8,0:0:0:0:
150,79,172098,2,0,L|159:140,1,48.4000014770508,8|8,0:0|0:3,0:0:0:0:
229,242,172256,2,0,L|221:289,1,48.4000014770508,4|2,0:3|0:1,0:0:0:0:
325,122,172414,5,12,0:1:0:0:
138,238,172572,1,2,0:0:0:0:
359,319,172730,1,2,0:0:0:0:
42,126,172888,5,12,0:0:0:0:
229,242,173046,1,2,0:0:0:0:
8,322,173204,1,2,0:0:0:0:
150,79,173362,5,12,0:0:0:0:
211,363,173519,1,2,0:0:0:0:
437,151,173677,5,12,0:1:0:0:
133,174,173835,1,2,0:0:0:0:
135,158,173913,1,2,0:0:0:0:
138,142,173992,1,8,0:0:0:0:
141,126,174071,1,8,0:0:0:0:
144,110,174150,1,8,0:0:0:0:
146,94,174229,1,8,0:0:0:0:
150,79,174309,5,8,0:0:0:0:
93,98,174387,1,8,0:0:0:0:
53,143,174466,1,8,0:0:0:0:
39,201,174545,1,8,0:0:0:0:
56,259,174624,1,8,0:0:0:0:
98,301,174703,1,8,0:0:0:0:
155,318,174782,1,8,0:0:0:0:
214,305,174861,1,8,0:0:0:0:
259,265,174940,6,0,L|252:179,1,79.1999975830079,6|0,0:1|0:0,0:0:0:0:
336,139,175256,2,0,P|348:176|344:215,1,79.1999975830079,2|0,0:0|0:0,0:0:0:0:
254,94,175572,2,0,P|241:56|245:17,1,79.1999975830079,2|0,0:0|0:0,0:0:0:0:
335,46,175888,1,2,0:0:0:0:
155,189,176046,6,0,L|256:185,1,96.8000029541017,12|2,0:0|0:0,0:0:0:0:
452,302,176519,5,2,0:0:0:0:
452,302,176677,2,0,L|372:304,1,79.1999975830079,8|2,0:3|0:1,0:0:0:0:
273,280,176993,1,4,0:3:0:0:
344,215,177151,1,2,0:1:0:0:
304,369,177309,1,12,0:0:0:0:
178,272,177467,6,0,L|87:265,1,79.1999975830079,2|0,0:0|0:0,0:0:0:0:
53,175,177783,2,0,L|144:168,1,79.1999975830079,2|0,0:0|0:0,0:0:0:0:
193,34,178098,2,0,L|201:130,1,79.1999975830079,2|8,0:0|0:3,0:0:0:0:
207,120,178335,1,8,0:3:0:0:
207,120,178414,2,0,L|297:112,1,79.1999975830079,2|0,0:1|0:0,0:0:0:0:
450,109,178730,5,4,0:3:0:0:
366,77,178888,1,4,0:3:0:0:
285,113,179046,1,2,0:1:0:0:
255,195,179204,1,8,0:3:0:0:
292,274,179362,1,2,0:1:0:0:
373,304,179519,1,2,0:1:0:0:
453,269,179677,1,4,0:3:0:0:
482,186,179835,1,0,0:0:0:0:
366,77,179993,6,0,L|371:183,1,79.1999975830079,6|0,0:0|0:0,0:0:0:0:
292,274,180309,2,0,L|295:194,1,79.1999975830079,2|0,0:0|0:0,0:0:0:0:
253,109,180625,2,0,P|221:134|203:168,1,79.1999975830079,2|0,0:0|0:0,0:0:0:0:
206,34,180940,1,2,0:0:0:0:
137,216,181098,6,0,B|123:170|123:170|136:123,1,96.8000029541017,12|2,0:0|0:0,0:0:0:0:
299,288,181572,6,0,L|285:365,1,79.1999975830079,2|8,0:0|0:3,0:0:0:0:
203,168,181888,1,4,0:3:0:0:
216,253,182046,1,2,0:0:0:0:
278,117,182204,1,4,0:3:0:0:
291,202,182362,1,2,0:0:0:0:
262,33,182519,6,0,B|208:24|208:24|164:48|164:48|96:36,1,158.399995166016,12|2,0:0|0:0,0:0:0:0:
48,192,182993,2,0,P|55:230|62:269,1,79.1999975830079,4|0,0:3|0:0,0:0:0:0:
199,132,183309,1,2,0:1:0:0:
199,132,183467,2,0,P|191:170|184:209,1,79.1999975830079,12|0,0:0|0:0,0:0:0:0:
79,112,183783,5,6,0:1:0:0:
169,295,183940,1,8,0:0:0:0:
304,140,184098,1,10,0:0:0:0:
303,130,184177,1,8,0:0:0:0:
303,120,184255,1,8,0:0:0:0:
303,110,184334,1,8,0:0:0:0:
303,100,184414,5,10,0:0:0:0:
337,118,184492,1,8,0:0:0:0:
355,153,184571,1,8,0:0:0:0:
352,192,184650,1,8,0:0:0:0:
328,222,184729,1,2,0:0:0:0:
252,259,185046,6,0,B|196:248|196:248|148:269|148:269|82:258,1,176,6|8,0:1|0:0,0:0:0:0:
208,336,185519,1,2,0:0:0:0:
146,101,185677,2,0,B|129:130|129:130|138:195,1,88,2|2,0:1|0:1,0:0:0:0:
373,140,185993,6,0,B|321:163|277:120|277:120|250:151|213:149,1,176,10|2,0:0|0:1,0:0:0:0:
307,331,186467,1,0,0:0:0:0:
307,331,186625,2,0,P|313:287|326:246,1,88,10|0,0:0|0:0,0:0:0:0:
136,183,186940,2,0,P|149:224|155:268,1,88,2|2,0:1|0:1,0:0:0:0:
54,142,187256,1,8,0:0:0:0:
215,149,187414,5,0,3:0:0:0:
215,149,187493,1,0,3:0:0:0:
215,149,187572,2,0,B|192:27|192:27|241:41,1,176,10|8,0:1|0:0,0:0:0:0:
332,83,188046,1,2,0:0:0:0:
127,93,188204,2,0,P|81:98|37:110,1,88,2|2,0:1|0:1,0:0:0:0:
79,287,188519,6,0,P|146:246|101:181,1,176,10|2,0:0|0:1,0:0:0:0:
2,214,188993,1,0,0:0:0:0:
222,278,189151,2,0,B|254:279|276:262|276:262|313:289|313:289|343:266|386:277,1,176,10|2,0:0|0:1,0:0:0:0:
224,191,189625,1,2,0:1:0:0:
220,360,189783,1,8,0:0:0:0:
328,195,189940,1,0,3:0:0:0:
328,195,190019,1,0,3:0:0:0:
328,195,190098,6,0,P|357:98|289:43,2,176,6|8|2,0:1|0:0|0:1,0:0:0:0:
129,184,190888,1,2,0:1:0:0:
277,128,191046,1,8,0:0:0:0:
222,278,191204,1,2,0:0:0:0:
186,118,191362,6,0,L|190:30,1,88,2|0,0:1|0:0,0:0:0:0:
48,168,191677,2,0,P|52:218|79:256,1,88,10|0,0:0|0:0,0:0:0:0:
307,216,191993,1,2,0:1:0:0:
129,184,192151,1,2,0:1:0:0:
315,115,192309,1,8,0:0:0:0:
148,199,192467,1,2,0:0:0:0:
396,172,192625,5,6,0:0:0:0:
396,172,192783,2,0,L|501:163,1,88,2|8,0:0|0:0,0:0:0:0:
230,69,193098,5,2,0:0:0:0:
230,69,193256,2,0,L|125:60,1,88,2|2,0:1|0:1,0:0:0:0:
320,42,193572,5,8,0:0:0:0:
279,186,193730,1,10,0:1:0:0:
418,71,193888,5,12,0:0:0:0:
473,318,194046,1,2,0:1:0:0:
422,44,194204,5,8,0:0:0:0:
351,303,194362,1,2,0:1:0:0:
315,24,194519,5,10,0:0:0:0:
293,25,194597,1,8,0:0:0:0:
271,27,194676,1,8,0:0:0:0:
249,29,194755,1,8,0:0:0:0:
227,30,194834,1,10,0:0:0:0:
205,32,194913,1,8,0:0:0:0:
183,34,194992,1,8,0:0:0:0:
161,36,195072,1,8,0:0:0:0:
139,38,195151,6,0,L|21:28,1,96.8000029541017,6|0,0:1|0:0,0:0:0:0:
226,165,195467,2,0,L|344:155,1,96.8000029541017,8|0,0:0|0:0,0:0:0:0:
54,244,195783,6,0,B|43:292|43:292|61:335,1,96.8000029541017,6|0,0:0|0:0,0:0:0:0:
226,165,196098,2,0,B|237:117|237:117|218:73,1,96.8000029541017,8|2,0:0|0:0,0:0:0:0:
215,340,196414,5,6,0:1:0:0:
135,127,196572,1,2,0:0:0:0:
337,270,196730,2,0,L|433:259,1,96.8000029541017,8|0,0:0|0:0,0:0:0:0:
54,244,197046,5,6,0:0:0:0:
325,158,197204,1,2,0:0:0:0:
135,127,197362,5,8,0:0:0:0:
317,300,197519,1,2,0:1:0:0:
332,37,197677,5,10,0:0:0:0:
317,300,197834,1,10,0:1:0:0:
317,300,198151,5,10,0:0:0:0:
117,97,198309,1,10,0:0:0:0:
117,97,198625,5,10,0:0:0:0:
445,241,198783,1,6,0:0:0:0:
445,241,199572,6,0,L|443:212,22,16.1333338256836
441,205,200204,6,0,B|411:165|359:150|307:181|290:241|290:241|260:351|146:362|83:299|75:238|119:202|166:206|194:229|194:229|167:194|166:139|198:108|251:108|251:108|212:175|158:164|104:138|88:101|85:47,1,950.399970996095,6|0,0:1|0:0,0:0:0:0:
374,248,202256,6,0,L|387:306,2,52.7999983886719,2|2|12,0:0|0:0|0:0,0:0:0:0:
382,203,202730,6,0,B|335:223|300:182|300:182|279:255|203:248,1,211.199993554688,6|8,0:1|0:0,0:0:0:0:
168,0,203204,2,0,P|183:50|196:101,1,105.599996777344,2|2,0:0|0:1,0:0:0:0:
6,257,203519,2,0,P|18:205|34:155,1,105.599996777344,10|8,0:1|0:0,0:0:0:0:
213,248,203835,5,2,0:0:0:0:
213,248,203914,1,2,0:0:0:0:
213,248,203993,1,2,0:1:0:0:
71,50,204151,1,0,0:0:0:0:
307,61,204309,1,10,0:0:0:0:
66,151,204467,1,0,0:0:0:0:
329,72,204625,6,0,P|329:127|323:187,1,105.599996777344,10|2,0:1|0:1,0:1:0:0:
59,284,204940,1,8,0:0:0:0:
104,259,205018,1,8,0:0:0:0:
156,262,205097,1,8,0:0:0:0:
198,294,205176,1,8,0:0:0:0:
216,342,205256,6,0,B|286:321|286:321|351:348|351:348|429:327,1,211.199993554688,6|8,0:1|0:0,0:0:0:0:
507,180,205730,1,2,0:0:0:0:
351,256,205888,2,0,B|363:216|363:216|334:156,1,105.599996777344,2|2,0:1|0:1,0:0:0:0:
256,19,206204,1,8,0:0:0:0:
427,138,206362,1,2,0:0:0:0:
203,240,206519,6,0,P|128:228|30:220,1,158.399995166016,2|0,0:1|0:0,0:0:0:0:
19,220,206835,1,10,0:0:0:0:
216,342,206993,1,0,0:0:0:0:
212,118,207151,1,10,0:1:0:0:
119,311,207309,1,2,0:1:0:0:
297,151,207467,2,0,P|301:98|274:52,1,105.599996777344,8|0,0:0|0:0,0:0:0:0:
328,292,207783,6,0,B|390:243|488:271|488:271|450:302,1,211.199993554688,6|8,0:0|0:0,0:0:0:0:
247,344,208256,1,2,0:0:0:0:
251,138,208414,2,0,L|245:249,1,105.599996777344,2|2,0:1|0:1,0:0:0:0:
177,25,208730,1,10,0:0:0:0:
372,77,208888,1,0,0:0:0:0:
91,160,209046,5,6,0:1:0:0:
276,53,209204,1,2,0:1:0:0:
243,278,209362,2,0,L|236:331,1,52.7999983886719,8|0,0:0|3:3,0:0:0:0:
180,132,209519,2,0,P|213:125|251:125,1,52.7999983886719,2|0,3:1|3:0,0:0:0:0:
440,135,209677,5,14,0:0:0:0:
467,179,209755,1,8,0:0:0:0:
474,231,209834,1,8,0:0:0:0:
459,281,209913,1,8,0:0:0:0:
424,320,209992,1,10,0:1:0:0:
376,341,210071,1,8,0:0:0:0:
323,340,210150,1,8,0:0:0:0:
276,318,210229,1,8,0:0:0:0:
243,278,210309,6,0,B|188:254|141:294|141:294|97:328|45:301,1,211.199993554688,6|8,0:1|0:0,0:0:0:0:
212,172,210783,1,2,0:0:0:0:
10,123,210940,2,0,P|63:125|115:133,1,105.599996777344,2|2,0:1|0:1,0:0:0:0:
348,274,211256,2,0,P|298:273|237:278,1,105.599996777344,10|0,0:0|0:0,0:0:0:0:
200,64,211572,5,2,0:1:0:0:
120,240,211730,1,0,0:0:0:0:
100,24,211888,1,10,0:0:0:0:
260,248,212046,1,0,0:1:0:0:
360,20,212204,2,0,P|403:48|434:90,1,105.599996777344,10|2,0:1|0:1,0:0:0:0:
152,160,212519,2,0,L|257:156,1,105.599996777344,10|2,0:0|0:1,0:1:0:0:
424,308,212835,6,0,B|312:276|336:368|216:340,1,211.199993554688,6|8,0:0|0:0,0:0:0:0:
348,192,213309,1,2,0:0:0:0:
156,258,213467,1,2,0:1:0:0:
252,68,213625,1,2,0:1:0:0:
260,256,213783,1,10,0:0:0:0:
148,72,213940,1,0,0:0:0:0:
64,312,214098,5,10,0:1:0:0:
208,168,214256,1,0,0:0:0:0:
20,48,214414,1,12,0:0:0:0:
156,258,214572,1,0,0:0:0:0:
280,36,214730,5,6,0:0:0:0:
104,168,214888,1,8,0:0:0:0:
316,40,215046,5,8,0:0:0:0:
72,160,215204,1,8,0:0:0:0:
376,108,215362,6,0,P|360:156|384:288,1,176,6|0,0:1|0:0,0:0:0:0:
248,168,215835,2,0,B|128:176|128:176|184:224,1,176,8|2,0:0|0:1,0:0:0:0:
264,343,216309,2,0,P|265:300|253:258,1,88,8|0,0:0|0:0,0:0:0:0:
176,312,216625,5,6,0:0:0:0:
428,246,216783,2,0,L|252:257,1,176,2|8,0:0|0:0,0:0:0:0:
328,52,217256,1,0,0:0:0:0:
376,152,217414,1,2,0:0:0:0:
272,140,217572,1,8,0:0:0:0:
432,68,217730,1,0,0:0:0:0:
216,44,217888,6,0,B|176:84|176:84|200:212,1,176,6|0,0:1|0:0,0:0:0:0:
375,247,218362,2,0,P|334:233|290:227,1,88,8|0,0:0|0:0,0:0:0:0:
200,320,218677,1,2,0:0:0:0:
312,320,218835,1,8,0:0:0:0:
176,300,218993,1,2,0:0:0:0:
375,247,219151,5,6,0:0:0:0:
168,88,219309,1,2,0:0:0:0:
388,112,219467,5,8,0:0:0:0:
92,240,219625,1,2,0:0:0:0:
488,160,219783,5,10,0:0:0:0:
486,170,219861,1,8,0:0:0:0:
484,181,219940,1,8,0:0:0:0:
482,192,220019,1,8,0:0:0:0:
481,203,220098,1,8,0:0:0:0:
60,128,220256,1,8,0:0:0:0:
375,247,220414,6,0,L|367:295,1,44,8|4,0:3|0:3,0:0:0:0:
248,124,220572,2,0,L|256:80,1,44,2|2,0:0|0:0,0:0:0:0:
244,320,220730,6,0,B|196:296|196:296|92:308,1,158.399995166016,12|0,0:0|0:0,0:0:0:0:
60,312,221046,1,8,0:3:0:0:
77,276,221124,1,4,0:3:0:0:
84,237,221203,1,2,0:0:0:0:
80,198,221282,1,2,0:0:0:0:
65,162,221361,1,2,0:0:0:0:
320,212,221519,6,0,B|356:212|384:192|384:192|432:220|432:220|460:192|504:188,1,198.000007553101,6|0,0:1|0:0,0:0:0:0:
496,336,221835,2,0,L|500:268,1,66.0000025177003,2|0,0:1|0:0,0:0:0:0:
432,24,221993,2,0,P|484:68|392:88,1,198.000007553101,12|0,0:0|0:0,0:0:0:0:
316,32,222309,5,14,0:0:0:0:
281,67,222387,1,8,0:0:0:0:
235,82,222466,1,8,0:0:0:0:
186,74,222545,1,8,0:0:0:0:
147,45,222624,1,10,0:0:0:0:
157,110,222704,1,8,0:0:0:0:
167,175,222783,1,8,0:0:0:0:
177,241,222862,1,8,0:0:0:0:
188,306,222940,6,0,B|244:288|244:288|356:304,1,158.399995166016,6|0,0:1|0:0,0:0:0:0:
436,312,223256,2,0,L|492:300,1,52.7999983886719,10|0,0:0|0:0,0:0:0:0:
416,192,223414,2,0,L|400:72,1,105.599996777344,2|2,0:0|0:1,0:0:0:0:
147,45,223730,2,0,P|183:89|240:104,1,105.599996777344,10|8,0:1|0:0,0:0:0:0:
376,0,224046,5,2,0:0:0:0:
376,0,224125,1,2,0:0:0:0:
376,0,224204,1,2,0:1:0:0:
264,256,224362,1,0,0:0:0:0:
228,16,224519,1,10,0:0:0:0:
416,192,224678,1,0,0:0:0:0:
131,147,224836,6,0,P|79:148|27:156,1,105.599996777344,10|2,0:1|0:1,0:1:0:0:
208,328,225151,1,8,0:0:0:0:
255,307,225229,1,8,0:0:0:0:
285,264,225308,1,8,0:0:0:0:
286,212,225387,1,8,0:0:0:0:
260,167,225467,6,0,P|296:261|396:278,1,211.199993554688,6|8,0:1|0:0,0:0:0:0:
280,76,225940,1,2,0:0:0:0:
171,248,226098,2,0,L|59:244,1,105.599996777344,2|2,0:1|0:1,0:0:0:0:
280,76,226414,1,8,0:0:0:0:
255,307,226572,1,2,0:0:0:0:
196,0,226730,6,0,P|198:87|224:161,1,158.399995166016,2|0,0:1|0:0,0:0:0:0:
236,176,227046,2,0,P|185:158|124:161,1,105.599996777344,10|0,0:0|0:0,0:0:0:0:
332,334,227362,1,10,0:1:0:0:
366,99,227519,1,2,0:1:0:0:
171,248,227677,2,0,P|118:248|69:230,1,105.599996777344,10|0,0:0|0:0,0:0:0:0:
447,163,227993,6,0,B|458:296|458:296|435:266|391:264,1,211.199993554688,6|8,0:1|0:0,0:0:0:0:
266,117,228467,2,0,P|313:95|365:98,1,105.599996777344,2|2,0:0|0:1,0:0:0:0:
259,262,228783,1,2,0:1:0:0:
167,110,228940,2,0,P|185:60|224:26,1,105.599996777344,10|2,0:0|0:0,0:0:0:0:
181,335,229257,5,6,0:1:0:0:
266,117,229415,1,2,0:1:0:0:
170,356,229573,1,12,0:0:0:0:
83,86,229731,1,2,0:1:0:0:
364,190,229888,5,2,0:1:0:0:
78,220,230046,1,8,0:0:0:0:
118,201,230124,1,8,0:0:0:0:
161,196,230203,1,8,0:0:0:0:
205,201,230282,1,8,0:0:0:0:
245,218,230361,1,8,0:0:0:0:
280,245,230440,1,8,0:0:0:0:
306,279,230519,6,0,B|379:316|445:258|445:258|424:287|431:325,1,211.199993554688,6|8,0:1|0:0,0:0:0:0:
284,119,230993,1,2,0:0:0:0:
170,301,231151,2,0,L|160:195,1,105.599996777344,2|2,0:1|0:1,0:0:0:0:
312,23,231467,2,0,P|259:23|212:46,1,105.599996777344,10|0,0:0|0:0,0:0:0:0:
306,279,231783,5,2,0:1:0:0:
373,88,231940,1,0,0:0:0:0:
427,315,232098,1,10,0:0:0:0:
395,73,232256,1,0,0:0:0:0:
177,118,232414,2,0,L|68:110,1,105.599996777344,10|2,0:1|0:1,0:0:0:0:
306,279,232730,2,0,P|315:227|296:162,1,105.599996777344,10|2,0:0|0:1,0:0:0:0:
23,233,233046,6,0,B|100:242|100:242|144:213|144:213|223:222,1,211.199993554688,6|8,0:0|0:0,0:0:0:0:
216,102,233519,1,2,0:0:0:0:
296,376,233677,2,0,B|318:344|318:344|304:268,1,105.599996777344,2|2,0:1|0:1,0:0:0:0:
30,1,233993,6,0,P|82:12|131:32,1,105.599996777344,10|0,0:0|0:0,0:0:0:0:
481,37,234309,2,0,P|428:39|378:57,1,105.599996777344,10|0,0:1|0:0,0:0:0:0:
97,163,234625,2,0,P|52:191|17:231,1,105.599996777344,10|0,0:0|0:0,0:0:0:0:
386,363,234940,6,0,B|404:312|404:312|390:259,1,105.599996777344,10|2,0:1|0:1,0:0:0:0:
111,262,235256,2,0,B|93:313|93:313|106:367,1,105.599996777344,10|2,0:0|0:1,0:0:0:0:
452,200,235572,6,0,B|390:170|390:170|244:198,1,211.199993554688,6|8,0:1|0:0,0:0:0:0:
183,317,236045,1,2,0:0:0:0:
87,158,236204,2,0,L|110:261,1,105.599996777344,2|2,0:1|0:1,0:0:0:0:
261,80,236519,1,10,0:0:0:0:
83,50,236677,1,0,0:0:0:0:
314,198,236835,6,0,B|397:182|397:182|441:207|441:207|515:192,1,211.199993554688,2|8,0:1|0:0,0:0:0:0:
376,282,237309,1,0,0:0:0:0:
444,20,237467,2,0,P|467:67|458:123,1,105.599996777344,10|2,0:1|0:1,0:0:0:0:
185,121,237783,1,8,0:0:0:0:
382,82,237940,1,2,0:1:0:0:
77,273,238098,5,12,0:0:0:0:
36,76,238256,1,2,0:1:0:0:
186,300,238414,5,8,0:0:0:0:
214,42,238572,1,2,0:1:0:0:
301,336,238730,5,12,0:0:0:0:
411,44,238888,2,0,L|420:102,1,52.7999983886719,10|8,0:1|0:0,0:0:0:0:
132,172,239046,6,0,L|203:156,1,52.7999983886719,8|8,0:0|0:0,0:0:0:0:
462,260,239204,2,0,L|391:276,1,52.7999983886719,8|8,0:0|0:0,0:0:0:0:
72,364,239362,5,6,0:0:0:0:
411,240,240467,6,0,L|404:194,1,44,2|2,0:0|0:0,0:0:0:0:
226,106,240625,6,0,P|314:107|397:80,1,176,6|8,0:1|0:0,0:0:0:0:
199,15,241098,1,2,0:0:0:0:
199,15,241177,1,2,0:0:0:0:
199,15,241256,1,2,0:1:0:0:
257,203,241413,1,2,0:1:0:0:
291,25,241571,1,8,0:0:0:0:
164,188,241729,5,2,0:0:0:0:
164,188,241808,1,2,0:0:0:0:
164,188,241888,2,0,L|76:179,1,88,2|0,0:1|0:0,0:0:0:0:
226,293,242203,1,8,0:0:0:0:
342,103,242361,2,0,L|402:92,1,44,2|2,0:0|0:0,0:0:0:0:
188,102,242519,1,2,0:1:0:0:
362,198,242677,1,2,0:1:0:0:
198,297,242835,2,0,L|110:305,1,88,8|2,0:0|0:0,0:0:0:0:
21,247,243071,1,2,0:0:0:0:
21,247,243151,6,0,B|-4:187|1:137|1:137|29:158|61:158,1,176,6|8,0:0|0:0,0:0:0:0:
198,297,243625,1,2,0:0:0:0:
178,66,243783,2,0,L|192:158,1,88,2|2,0:1|0:0,0:0:0:0:
306,318,244099,2,0,L|291:219,1,88,8|0,0:0|0:0,0:0:0:0:
394,12,244414,6,0,L|411:148,1,132,10|0,0:1|0:0,0:0:0:0:
411,165,244730,1,10,0:0:0:0:
191,152,244888,2,0,L|147:143,1,44,2|2,0:0|0:0,0:0:0:0:
324,233,245046,1,6,0:0:0:0:
184,51,245204,1,2,0:1:0:0:
120,263,245362,1,8,0:0:0:0:
298,58,245519,1,2,0:1:0:0:
303,79,245598,1,2,0:1:0:0:
307,101,245677,6,0,P|343:71|470:87,1,176,6|8,0:1|0:0,0:0:0:0:
389,293,246151,1,2,0:0:0:0:
389,293,246230,1,2,0:0:0:0:
389,293,246309,1,2,0:1:0:0:
397,166,246467,1,2,0:1:0:0:
511,324,246625,1,8,0:0:0:0:
291,225,246783,5,2,0:0:0:0:
291,225,246862,1,2,0:0:0:0:
291,225,246941,2,0,B|233:207|233:207|190:234|190:234|125:228,1,176,2|8,0:1|0:0,0:0:0:0:
261,326,247414,1,2,0:0:0:0:
261,326,247493,1,2,0:0:0:0:
261,326,247572,1,2,0:1:0:0:
200,128,247730,1,2,0:1:0:0:
25,207,247888,2,0,L|45:305,1,88,8|2,0:0|0:1,0:0:0:0:
267,207,248204,6,0,L|152:203,1,105.599996777344,6|0,0:1|0:0,0:0:0:0:
360,327,248519,1,8,0:0:0:0:
332,166,248677,1,2,0:0:0:0:
327,148,248755,1,2,0:0:0:0:
323,131,248835,6,0,L|183:127,1,123.199996240234,6|2,0:0|0:1,0:0:0:0:
383,337,249151,1,8,0:0:0:0:
385,89,249309,1,2,0:0:0:0:
380,71,249387,1,2,0:0:0:0:
376,54,249467,6,0,L|231:50,1,140.8,6|2,0:1|0:0,0:0:0:0:
408,350,249783,1,8,0:0:0:0:
460,19,249940,5,2,0:0:0:0:
460,19,250019,1,2,0:0:0:0:
460,19,250098,1,6,0:0:0:0:
341,246,250256,5,8,0:0:0:0:
299,259,250334,1,8,0:0:0:0:
257,249,250413,1,8,0:0:0:0:
227,218,250492,1,8,0:0:0:0:
196,187,250572,1,8,0:0:0:0:
154,177,250651,1,8,0:0:0:0:
113,191,250730,6,0,L|107:136,1,52.8
72,56,251046,6,0,B|175:37|149:111|258:91,1,193.600005908203,14|2,0:1|0:1,0:0:0:0:
380,42,251519,1,10,0:1:0:0:
221,7,251677,1,8,0:0:0:0:
351,158,251835,6,0,L|340:245,1,88,2|2,0:0|0:1,0:0:0:0:
255,91,252151,1,2,0:0:0:0:
453,124,252309,1,8,0:0:0:0:
257,191,252467,5,2,0:0:0:0:
257,191,252546,1,2,0:0:0:0:
257,191,252625,1,10,0:1:0:0:
366,70,252783,1,10,0:1:0:0:
426,219,252940,1,8,0:0:0:0:
366,70,253098,1,10,0:1:0:0:
319,273,253256,6,0,P|231:277|143:285,1,176,6|8,0:0|0:0,0:0:0:0:
136,104,253730,1,2,0:0:0:0:
136,104,253809,1,2,0:0:0:0:
136,104,253888,2,0,L|150:197,1,88,2|2,0:1|0:1,0:0:0:0:
40,317,254204,2,0,L|53:229,1,88,10|0,0:0|0:0,0:0:0:0:
245,147,254519,6,0,B|336:127|325:192|431:165,1,176,10|8,0:1|0:0,0:0:0:0:
413,26,254993,1,2,0:1:0:0:
395,39,255071,1,2,0:1:0:0:
381,56,255150,1,6,0:0:0:0:
273,249,255309,5,8,0:0:0:0:
250,238,255387,1,8,0:0:0:0:
226,229,255466,1,10,0:0:0:0:
202,222,255545,1,8,0:0:0:0:
178,217,255624,1,8,0:0:0:0:
153,214,255703,1,8,0:0:0:0:
131,214,255783,6,0,P|150:152|88:45,1,176,6|8,0:1|0:0,0:0:0:0:
49,258,256256,1,2,0:0:0:0:
49,258,256335,1,2,0:0:0:0:
49,258,256414,2,0,L|62:352,1,88,10|10,0:1|0:1,0:0:0:0:
237,137,256730,1,10,0:0:0:0:
37,148,256888,1,2,0:0:0:0:
250,238,257046,6,0,L|361:224,1,88,2|2,0:1|0:0,0:0:0:0:
104,55,257362,1,8,0:0:0:0:
263,31,257519,1,2,0:0:0:0:
163,211,257677,2,0,P|160:251|176:297,1,88,2|2,0:1|0:1,0:0:0:0:
343,119,257993,5,8,0:0:0:0:
187,62,258151,1,2,0:0:0:0:
393,43,258309,5,6,0:0:0:0:
163,211,258467,1,2,0:0:0:0:
163,211,258546,1,2,0:0:0:0:
163,211,258625,1,8,0:0:0:0:
391,195,258783,1,2,0:0:0:0:
187,62,258940,2,0,L|90:71,1,88,2|10,0:1|0:1,0:0:0:0:
343,119,259256,1,8,0:0:0:0:
129,289,259414,6,0,B|185:311|228:265|228:265|258:303|314:299,1,193.600005908203,6|10,0:1|0:0,0:0:0:0:
189,88,259888,1,10,0:0:0:0:
391,195,260046,1,10,0:0:0:0:
163,211,260204,5,8,0:3:0:0:
129,196,260282,1,0,0:0:0:0:
94,191,260361,1,8,0:0:0:0:
58,196,260440,1,8,0:0:0:0:
25,211,260519,2,0,L|34:152,1,48.4000014770508,8|8,0:0|0:3,0:0:0:0:
215,58,260677,2,0,L|222:106,1,48.4000014770508,4|2,0:3|0:0,0:0:0:0:
269,335,260835,5,6,0:1:0:0:
256,192,260914,12,0,265888,0:0:0:0:
