osu file format v14

[General]
AudioFilename: audio.mp3
AudioLeadIn: 0
PreviewTime: 198541
Countdown: 0
SampleSet: Soft
StackLeniency: 0.2
Mode: 0
LetterboxInBreaks: 0
WidescreenStoryboard: 0

[Editor]
Bookmarks: 538,10643,20748,30853,40959,51064,61169,71274,81380,91485,101590,111695,121801,131906,142327,154643,164748,174853,184959,200116,210222,220643,230432,240538,250959,265801
DistanceSpacing: 0.8
BeatDivisor: 4
GridSize: 4
TimelineZoom: 2.2

[Metadata]
Title:Hoshikuzu no Contrail
TitleUnicode:星屑のコントレイル
Artist:Minase Inori
ArtistUnicode:水瀬いのり
Creator:Andrea
Version:Reminiscence
Source:
Tags:Japanese Pop J-Pop JPop osuplayer111 Sekai Sekaii Sekai-nyan Collab Collaboration Full Version Female Vocals Inorin Innocent Flower Stardust
BeatmapID:3005302
BeatmapSetID:1462993

[Difficulty]
HPDrainRate:6.5
CircleSize:4
OverallDifficulty:8
ApproachRate:9
SliderMultiplier:1.6
SliderTickRate:1

[Events]
//Background and Video events
0,0,"BG.jpg",0,0
//Break Periods
//Storyboard Layer 0 (Background)
//Storyboard Layer 1 (Fail)
//Storyboard Layer 2 (Pass)
//Storyboard Layer 3 (Foreground)
//Storyboard Layer 4 (Overlay)
//Storyboard Sound Samples

[TimingPoints]
544,315.789473684211,4,2,1,70,1,0
544,-100,4,2,1,70,0,0
2517,-100,4,2,1,5,0,0
2596,-100,4,2,1,70,0,0
3307,-100,4,2,1,5,0,0
3386,-100,4,2,1,70,0,0
6622,-100,4,2,1,5,0,0
6701,-100,4,2,1,70,0,0
8359,-100,4,2,1,5,0,0
8438,-100,4,2,1,70,0,0
10333,-125,4,2,1,60,0,0
10570,-125,4,2,1,5,0,0
10649,-100,4,2,1,70,0,0
20754,-111.111111111111,4,2,1,60,0,0
21465,-111.111111111111,4,2,1,5,0,0
21544,-111.111111111111,4,2,1,60,0,0
22570,-111.111111111111,4,2,1,5,0,0
22649,-111.111111111111,4,2,1,60,0,0
23517,-111.111111111111,4,2,1,5,0,0
23596,-111.111111111111,4,2,1,60,0,0
25096,-111.111111111111,4,2,1,5,0,0
25175,-111.111111111111,4,2,1,60,0,0
26044,-111.111111111111,4,2,1,5,0,0
26122,-111.111111111111,4,2,1,60,0,0
27622,-111.111111111111,4,2,1,5,0,0
27701,-111.111111111111,4,2,1,60,0,0
30149,-111.111111111111,4,2,1,5,0,0
30228,-111.111111111111,4,2,1,60,0,0
30544,-125,4,2,1,60,0,0
30780,-111.111111111111,4,2,1,5,0,0
30859,-100,4,2,1,70,0,0
38359,-100,4,2,1,5,0,0
38438,-100,4,2,1,70,0,0
41833,-100,4,2,1,5,0,0
41912,-100,4,2,1,70,0,0
42780,-100,4,2,1,5,0,0
42859,-100,4,2,1,70,0,0
45307,-100,4,2,1,5,0,0
45386,-100,4,2,1,70,0,0
47833,-100,4,2,1,5,0,0
47912,-100,4,2,1,70,0,0
50359,-100,4,2,1,5,0,0
50438,-100,4,2,1,70,0,0
52570,-100,4,2,1,5,0,0
52649,-100,4,2,1,70,0,0
54780,-100,4,2,1,5,0,0
54859,-100,4,2,1,70,0,0
55412,-100,4,2,1,5,0,0
55491,-100,4,2,1,70,0,0
56122,-111.111111111111,4,2,1,60,0,0
59754,-125,4,2,1,60,0,0
61175,-90.9090909090909,4,2,1,80,0,1
62675,-90.9090909090909,4,2,1,5,0,1
62754,-90.9090909090909,4,2,1,80,0,1
62991,-90.9090909090909,4,2,1,5,0,1
63070,-90.9090909090909,4,2,1,80,0,1
63938,-90.9090909090909,4,2,1,5,0,1
64017,-90.9090909090909,4,2,1,80,0,1
65201,-90.9090909090909,4,2,1,5,0,1
65280,-90.9090909090909,4,2,1,80,0,1
67096,-90.9090909090909,4,2,1,5,0,1
67175,-90.9090909090909,4,2,1,80,0,1
68991,-90.9090909090909,4,2,1,5,0,1
69070,-90.9090909090909,4,2,1,80,0,1
69938,-90.9090909090909,4,2,1,5,0,1
70017,-90.9090909090909,4,2,1,80,0,1
70570,-90.9090909090909,4,2,1,5,0,1
70649,-90.9090909090909,4,2,1,80,0,1
72465,-90.9090909090909,4,2,1,5,0,1
72544,-90.9090909090909,4,2,1,80,0,1
75307,-90.9090909090909,4,2,1,5,0,1
75386,-90.9090909090909,4,2,1,80,0,1
78780,-90.9090909090909,4,2,1,5,0,1
78859,-90.9090909090909,4,2,1,80,0,1
82886,-90.9090909090909,4,2,1,5,0,1
82965,-90.9090909090909,4,2,1,80,0,1
83201,-90.9090909090909,4,2,1,5,0,1
83280,-90.9090909090909,4,2,1,80,0,1
84149,-90.9090909090909,4,2,1,5,0,1
84228,-90.9090909090909,4,2,1,80,0,1
85412,-90.9090909090909,4,2,1,5,0,1
85491,-90.9090909090909,4,2,1,80,0,1
87307,-90.9090909090909,4,2,1,5,0,1
87386,-90.9090909090909,4,2,1,80,0,1
92675,-90.9090909090909,4,2,1,5,0,1
92754,-90.9090909090909,4,2,1,80,0,1
96465,-90.9090909090909,4,2,1,5,0,1
96544,-90.9090909090909,4,2,1,80,0,1
98991,-90.9090909090909,4,2,1,5,0,1
99070,-90.9090909090909,4,2,1,80,0,1
100333,-111.111111111111,4,2,1,60,0,0
100570,-111.111111111111,4,2,1,5,0,0
100649,-111.111111111111,4,2,1,60,0,0
101596,-100,4,2,1,70,0,0
106412,-100,4,2,1,5,0,0
106491,-100,4,2,1,70,0,0
111701,-111.111111111111,4,2,1,60,0,0
114149,-111.111111111111,4,2,1,5,0,0
114228,-111.111111111111,4,2,1,60,0,0
117938,-111.111111111111,4,2,1,5,0,0
118017,-111.111111111111,4,2,1,60,0,0
121807,-100,4,2,1,70,0,0
122044,-100,4,2,1,5,0,0
122122,-100,4,2,1,70,0,0
122991,-100,4,2,1,5,0,0
123070,-100,4,2,1,70,0,0
124254,-100,4,2,1,5,0,0
124333,-100,4,2,1,70,0,0
124570,-100,4,2,1,5,0,0
124649,-100,4,2,1,70,0,0
125833,-100,4,2,1,5,0,0
125912,-100,4,2,1,70,0,0
126149,-100,4,2,1,5,0,0
126228,-100,4,2,1,70,0,0
127096,-100,4,2,1,5,0,0
127175,-100,4,2,1,70,0,0
127412,-100,4,2,1,5,0,0
127491,-100,4,2,1,70,0,0
143833,-100,4,2,1,5,0,0
143912,-100,4,2,1,70,0,0
144780,-100,4,2,1,5,0,0
144859,-100,4,2,1,70,0,0
146359,-100,4,2,1,5,0,0
146438,-100,4,2,1,70,0,0
147070,-111.111111111111,4,2,1,60,0,0
147622,-111.111111111111,4,2,1,5,0,0
147701,-111.111111111111,4,2,1,60,0,0
148965,-111.111111111111,4,2,1,5,0,0
149280,-111.111111111111,4,2,1,60,0,0
149596,-100,4,2,1,70,0,0
167991,-100,4,2,1,5,0,0
168070,-100,4,2,1,70,0,0
174859,-111.111111111111,4,2,1,60,0,0
179912,310.880829015544,4,2,1,60,1,0
179912,-111.111111111111,4,2,1,60,0,0
181155,315.789473684211,4,2,1,60,1,8
181155,-111.111111111111,4,2,1,60,0,8
183523,342.857142857143,4,2,1,60,1,8
183694,309.278350515464,4,2,1,60,1,8
183694,-111.111111111111,4,2,1,60,0,8
184856,-111.111111111111,4,2,1,5,0,0
184931,297.029702970297,4,2,1,70,1,0
185228,355.029585798817,4,2,1,70,1,8
185583,314.13612565445,4,2,1,70,1,8
186211,317.460317460317,4,2,1,70,1,8
186845,309.278350515464,4,2,1,70,1,8
187463,319.148936170213,4,2,1,70,1,8
189377,312.5,4,2,1,70,1,8
190002,307.692307692308,4,2,1,70,1,0
190309,319.148936170213,4,2,1,70,1,8
190628,319.148936170213,4,2,1,70,1,8
192542,315.789473684211,4,2,1,70,1,8
192778,-100,4,2,1,5,0,0
192857,-100,4,2,1,70,0,0
194042,-100,4,2,1,5,0,0
194120,-100,4,2,1,70,0,0
195068,315.789473684211,4,2,1,70,1,0
195304,-100,4,2,1,5,0,0
195383,-100,4,2,1,70,0,0
197199,-100,4,2,1,5,0,0
197278,-100,4,2,1,70,0,0
198699,-125,4,2,1,60,0,0
199094,-125,4,2,1,5,0,0
199173,-125,4,2,1,60,0,0
200120,-200,4,2,1,60,0,0
200910,-200,4,2,1,5,0,0
201068,-200,4,2,1,60,0,0
201857,-111.111111111111,4,2,1,5,0,0
202015,-111.111111111111,4,2,1,60,0,0
202568,-111.111111111111,4,2,1,5,0,0
202646,-90.9090909090909,4,2,1,80,0,1
207936,-90.9090909090909,4,2,1,5,0,1
208015,-90.9090909090909,4,2,1,80,0,1
210462,-90.9090909090909,4,2,1,5,0,1
210541,-90.9090909090909,4,2,1,80,0,1
211725,-90.9090909090909,4,2,1,5,0,1
211804,-90.9090909090909,4,2,1,80,0,1
214252,-90.9090909090909,4,2,1,5,0,1
214331,-90.9090909090909,4,2,1,80,0,1
219304,-90.9090909090909,4,2,1,5,0,1
219383,-90.9090909090909,4,2,1,80,0,1
239278,-111.111111111111,4,2,1,60,0,0
240541,-100,4,2,1,70,0,0
250883,-100,4,2,1,5,0,0
250962,-100,4,2,1,70,0,0
252462,-100,4,2,1,5,0,0
252541,-100,4,2,1,70,0,0
259568,-100,4,2,1,5,0,0
259646,-100,4,2,1,70,0,0
264541,-100,4,2,1,60,0,0
264857,-100,4,2,1,40,0,0
265173,-100,4,2,1,20,0,0
265489,-100,4,2,1,10,0,0
265804,-100,4,2,1,5,0,0

[Colours]
Combo1 : 210,50,87
Combo2 : 250,213,128
Combo3 : 141,145,176
SliderBorder : 210,50,87
SliderTrackOverride : 250,213,128

[HitObjects]
256,192,386,5,8,3:2:0:0:
256,192,465,1,8,3:2:0:0:
256,192,544,2,0,B|336:164|336:220|412:192,2,160,6|2|2,3:2|3:2|3:2,0:0:0:0:
300,296,1333,2,0,B|224:324|224:268|144:296,1,160,10|10,0:0|0:0,0:0:0:0:
44,248,1807,5,2,3:2:0:0:
44,136,1965,1,0,0:0:0:0:
144,89,2122,1,2,3:2:0:0:
244,136,2280,2,0,P|292:136|352:88,1,120,2|0,0:0|0:0,0:0:0:0:
372,60,2596,1,8,0:0:0:0:
468,116,2754,1,0,3:2:0:0:
468,268,2912,5,12,0:0:0:0:
348,289,3070,2,0,P|302:251|244:248,1,120,2|0,3:2|0:0,0:0:0:0:
204,256,3386,1,2,3:2:0:0:
96,292,3544,1,0,0:0:0:0:
56,188,3701,1,2,3:2:0:0:
164,152,3859,1,2,0:0:0:0:
204,256,4017,1,0,3:2:0:0:
152,116,4175,5,2,3:2:0:0:
152,116,4254,1,0,3:2:0:0:
152,116,4333,2,0,L|188:100,3,40,6|0|8|8,3:2|3:0|0:0|0:0,0:0:0:0:
228,120,4649,2,0,L|264:104,3,40,2|0|10|8,3:2|3:0|0:0|0:0,0:0:0:0:
304,124,4965,2,0,L|340:108,3,40,0|0|8|0,3:2|3:0|0:0|3:0,0:0:0:0:
380,124,5280,1,0,3:2:0:0:
500,224,5438,5,12,0:0:0:0:
444,320,5596,2,0,P|376:355|308:319,1,160,2|2,3:2|3:2,0:0:0:0:
256,220,6070,1,8,0:0:0:0:
204,319,6228,1,2,3:2:0:0:
152,220,6386,6,0,B|92:200|92:244|36:220,1,120,10|0,0:0|0:0,0:0:0:0:
35,219,6701,1,10,0:0:0:0:
76,100,6859,2,0,B|156:72|156:128|232:100,1,160,2|2,3:2|3:2,0:0:0:0:
348,24,7333,2,0,B|272:52|272:-4|192:24,1,160,2|8,0:0|0:0,0:0:0:0:
120,176,7807,1,0,3:2:0:0:
120,176,7965,1,8,0:0:0:0:
204,320,8122,6,0,P|256:346|308:320,1,120,6|0,3:2|0:0,0:0:0:0:
332,288,8438,2,0,L|360:252,3,40,8|8|8|8,3:2|0:0|0:0|0:0,0:0:0:0:
400,248,8754,2,0,L|428:212,3,40,8|8|8|8,3:2|0:0|0:0|0:0,0:0:0:0:
468,216,9070,2,0,L|496:180,3,40,8|8|8|8,3:2|0:0|0:0|0:0,0:0:0:0:
496,140,9386,5,8,3:2:0:0:
478,104,9465,1,8,0:0:0:0:
450,75,9544,1,8,0:0:0:0:
415,57,9622,1,8,0:0:0:0:
376,51,9701,1,8,3:2:0:0:
336,57,9780,1,8,0:0:0:0:
301,75,9859,1,8,0:0:0:0:
273,104,9938,1,8,0:0:0:0:
256,139,10017,1,8,3:2:0:0:
256,139,10333,6,0,L|160:96,1,96,2|0,0:0|0:0,0:0:0:0:
128,84,10649,5,4,3:2:0:0:
0,192,10807,1,0,3:0:0:0:
0,192,10886,1,0,3:0:0:0:
0,192,10965,1,8,0:0:0:0:
128,300,11122,1,0,3:0:0:0:
128,300,11201,1,0,3:0:0:0:
128,300,11280,2,0,P|164:315|200:300,1,80,2|2,3:2|3:2,0:0:0:0:
256,192,11596,1,10,0:0:0:0:
312,300,11754,1,0,3:0:0:0:
312,300,11833,1,0,3:0:0:0:
312,300,11912,6,0,L|392:240,1,80,2|0,3:2|0:0,0:0:0:0:
448,152,12228,1,8,0:0:0:0:
320,144,12386,1,0,3:0:0:0:
320,144,12465,1,0,3:0:0:0:
320,144,12544,2,0,L|256:192,1,80,2|2,3:2|3:2,0:0:0:0:
168,248,12859,1,10,0:0:0:0:
136,92,13017,1,8,0:0:0:0:
136,92,13096,1,8,0:0:0:0:
136,92,13175,6,0,B|172:75|172:75|208:92,1,80,6|0,3:2|0:0,0:0:0:0:
320,144,13491,1,8,0:0:0:0:
168,172,13649,1,0,3:0:0:0:
168,172,13728,1,0,3:0:0:0:
168,172,13807,1,2,3:2:0:0:
218,326,13965,1,2,3:2:0:0:
88,231,14122,1,10,0:0:0:0:
249,231,14280,1,0,0:0:0:0:
118,326,14438,6,0,L|0:208,1,160,2|8,3:2|0:0,0:0:0:0:
168,172,14912,1,0,3:0:0:0:
264,273,15070,1,2,3:2:0:0:
303,295,15149,1,0,3:0:0:0:
346,287,15228,1,8,3:2:0:0:
374,253,15307,1,8,0:0:0:0:
374,209,15386,1,8,3:2:0:0:
346,175,15465,1,8,0:0:0:0:
303,168,15544,1,8,0:0:0:0:
264,190,15622,1,8,0:0:0:0:
249,231,15701,6,0,L|236:332,1,80,6|0,3:2|0:0,0:0:0:0:
374,253,16017,1,8,0:0:0:0:
180,192,16175,1,0,3:0:0:0:
180,192,16254,1,0,3:0:0:0:
180,192,16333,1,2,3:2:0:0:
328,96,16491,1,2,3:2:0:0:
328,96,16570,1,0,3:2:0:0:
328,96,16649,2,0,L|338:16,1,80,10|0,0:0|0:0,0:0:0:0:
128,88,16965,5,2,3:2:0:0:
180,192,17122,1,0,0:0:0:0:
256,76,17280,1,8,0:0:0:0:
48,160,17438,1,0,3:0:0:0:
48,160,17517,1,0,3:0:0:0:
48,160,17596,2,0,P|33:124|48:88,1,80,2|2,3:2|3:2,0:0:0:0:
128,16,17912,1,10,0:0:0:0:
180,192,18070,1,0,3:2:0:0:
180,192,18149,1,0,3:0:0:0:
180,192,18228,6,0,L|148:272,1,80,4|0,3:2|0:0,0:0:0:0:
192,364,18544,1,8,0:0:0:0:
308,308,18701,2,0,P|376:344|444:308,1,160,2|2,0:0|3:2,0:0:0:0:
376,228,19175,1,10,0:0:0:0:
443,308,19333,1,0,3:2:0:0:
484,140,19491,5,14,0:0:0:0:
376,228,19649,1,0,3:2:0:0:
256,48,19807,5,10,0:0:0:0:
364,136,19965,1,0,3:2:0:0:
220,152,20122,5,6,3:2:0:0:
368,48,20280,1,8,0:0:0:0:
376,228,20438,1,10,3:2:0:0:
376,228,20754,6,0,P|410:288|376:348,1,143.999995605469,6|10,3:2|0:0,0:0:0:0:
296,288,21228,2,0,B|244:272|244:308|188:288,1,107.999996704102,2|0,0:0|0:0,0:0:0:0:
148,288,21544,1,2,3:2:0:0:
76,220,21701,1,2,0:0:0:0:
148,148,21859,2,0,P|200:148|264:76,1,143.999995605469,8|0,0:0|3:2,0:0:0:0:
159,51,22333,2,0,L|267:87,1,107.999996704102,8|0,0:0|0:0,0:0:0:0:
304,96,22649,5,2,3:2:0:0:
400,120,22807,1,0,3:2:0:0:
372,216,22965,1,10,0:0:0:0:
276,192,23122,1,0,3:0:0:0:
304,96,23280,2,0,L|196:64,1,107.999996704102,6|0,3:2|0:0,0:0:0:0:
159,51,23596,1,10,0:0:0:0:
88,120,23754,1,0,0:0:0:0:
160,188,23912,6,0,P|145:220|159:252,1,71.9999978027344,2|0,3:2|3:2,0:0:0:0:
208,344,24228,1,2,0:0:0:0:
304,344,24386,2,0,B|360:344|360:344|388:324|388:324|444:324,1,143.999995605469,8|0,0:0|3:2,0:0:0:0:
460,284,24780,1,0,3:0:0:0:
460,284,24859,2,0,B|460:244|460:244|472:220|472:220|472:176,1,107.999996704102,8|0,0:0|0:0,0:0:0:0:
472,136,25175,2,0,B|436:136|436:136|404:116,1,71.9999978027344,2|0,3:2|3:2,0:0:0:0:
320,64,25491,2,0,B|284:64|284:64|253:83,1,71.9999978027344,10|0,0:0|0:0,0:0:0:0:
100,116,25807,6,0,B|129:145|129:145|137:170|137:170|165:198,1,107.999996704102,6|0,3:2|0:0,0:0:0:0:
196,228,26122,1,10,0:0:0:0:
268,300,26280,1,2,0:0:0:0:
192,368,26438,1,0,3:2:0:0:
120,296,26596,1,2,3:2:0:0:
196,228,26754,1,2,0:0:0:0:
268,300,26912,6,0,P|327:333|387:300,1,143.999995605469,8|0,0:0|3:2,0:0:0:0:
328,216,27386,2,0,B|308:164|344:164|328:108,1,107.999996704102,8|0,0:0|0:0,0:0:0:0:
328,68,27701,1,2,3:2:0:0:
244,12,27859,1,0,3:2:0:0:
160,68,28017,2,0,P|127:53|95:67,1,71.9999978027344,10|0,0:0|0:0,0:0:0:0:
40,184,28333,6,0,L|120:312,1,143.999995605469,6|10,3:2|0:0,0:0:0:0:
204,360,28807,1,0,0:0:0:0:
288,272,28965,2,0,P|255:257|223:271,1,71.9999978027344,2|0,3:2|3:2,0:0:0:0:
308,360,29280,1,2,0:0:0:0:
288,272,29438,2,0,L|336:128,1,143.999995605469,8|0,0:0|3:2,0:0:0:0:
276,84,29833,1,0,3:0:0:0:
276,84,29912,6,0,L|240:188,1,107.999996704102,8|0,0:0|0:0,0:0:0:0:
240,186,30228,1,0,3:2:0:0:
288,272,30386,1,2,3:2:0:0:
240,186,30544,2,0,P|192:186|150:150,1,96,2|0,0:0|0:0,0:0:0:0:
120,123,30859,5,6,3:2:0:0:
224,72,31017,1,0,0:0:0:0:
240,186,31175,2,0,L|196:278,1,80,10|2,0:0|0:0,0:0:0:0:
304,328,31491,2,0,L|348:236,1,80,0|2,3:2|3:2,0:0:0:0:
307,151,31807,1,10,0:0:0:0:
463,151,31965,6,0,B|383:123|383:179|307:151,1,160,2|0,0:0|0:0,0:0:0:0:
188,68,32438,2,0,B|268:96|268:40|344:68,1,160,8|2,0:0|3:2,0:0:0:0:
188,68,32912,1,0,3:2:0:0:
104,168,33070,1,10,0:0:0:0:
40,68,33228,1,0,0:0:0:0:
104,168,33386,6,0,P|68:235|103:303,1,160,6|10,3:2|0:0,0:0:0:0:
232,204,33859,2,0,L|148:236,1,80,2|0,0:0|3:2,0:0:0:0:
188,104,34175,2,0,L|272:72,1,80,2|8,3:2|0:0,0:0:0:0:
356,40,34491,1,2,0:0:0:0:
432,156,34649,6,0,B|449:192|449:192|432:228,1,80,0|0,3:2|0:0,0:0:0:0:
340,192,34965,2,0,B|264:220|264:164|184:192,1,160,8|2,0:0|3:2,0:0:0:0:
80,228,35438,2,0,B|63:192|63:192|80:156,1,80,0|10,3:2|0:0,0:0:0:0:
184,56,35754,1,8,0:0:0:0:
184,56,35833,1,8,0:0:0:0:
184,56,35912,6,0,B|256:20|256:20|328:56,1,160,6|8,3:2|0:0,0:0:0:0:
256,152,36386,1,0,0:0:0:0:
327,55,36544,2,0,P|342:91|327:127,1,80,2|0,3:2|3:2,0:0:0:0:
192,188,36859,2,0,P|176:224|191:260,1,80,8|0,0:0|0:0,0:0:0:0:
324,348,37175,6,0,B|272:348|256:315|256:315|240:348|188:348,1,160,2|8,3:2|0:0,0:0:0:0:
256,220,37649,1,0,0:0:0:0:
324,348,37807,1,2,3:2:0:0:
188,347,37965,1,0,3:2:0:0:
256,220,38122,2,0,B|316:196|316:248|372:224,1,120,10|0,0:0|0:0,0:0:0:0:
432,188,38438,6,0,B|449:152|449:152|432:116,1,80,2|0,3:2|0:0,0:0:0:0:
476,32,38754,2,0,L|336:128,1,160,8|0,0:0|3:2,0:0:0:0:
227,53,39228,1,0,3:2:0:0:
227,190,39386,1,10,0:0:0:0:
344,122,39544,1,0,0:0:0:0:
227,53,39701,6,0,L|144:48,1,80,2|0,3:2|3:2,0:0:0:0:
48,44,40017,1,8,0:0:0:0:
48,44,40175,1,2,0:0:0:0:
127,238,40333,5,2,3:2:0:0:
101,201,40412,1,0,3:0:0:0:
105,158,40491,1,8,0:0:0:0:
136,127,40570,1,8,0:0:0:0:
180,123,40649,1,2,3:2:0:0:
216,148,40728,1,4,3:0:0:0:
227,190,40807,1,4,3:0:0:0:
209,230,40886,1,8,3:0:0:0:
169,249,40965,6,0,L|148:328,1,80,4|0,3:2|3:2,0:0:0:0:
105,158,41280,2,0,L|126:79,1,80,0|0,3:2|3:2,0:0:0:0:
264,32,41596,2,0,L|234:151,1,120,8|0,3:2|0:0,0:0:0:0:
227,190,41912,1,2,3:2:0:0:
196,300,42070,1,0,3:2:0:0:
304,328,42228,1,0,3:2:0:0:
335,218,42386,1,0,3:2:0:0:
227,190,42544,2,0,P|176:188|124:136,1,120,8|0,3:2|0:0,0:0:0:0:
108,104,42859,6,0,P|93:68|108:32,1,80,2|0,3:2|3:2,0:0:0:0:
227,190,43175,2,0,P|242:226|227:262,1,80,8|0,3:2|0:0,0:0:0:0:
248,68,43491,1,2,3:2:0:0:
108,104,43649,1,0,3:2:0:0:
227,190,43807,1,0,3:2:0:0:
252,44,43965,1,0,3:2:0:0:
108,80,44122,1,8,3:2:0:0:
227,190,44280,6,0,L|212:272,1,80,2|0,0:0|3:2,0:0:0:0:
368,296,44596,1,0,3:2:0:0:
212,268,44754,1,0,3:2:0:0:
352,376,44912,1,0,3:2:0:0:
196,348,45070,2,0,B|136:332|136:372|80:348,1,120,8|0,3:2|0:0,0:0:0:0:
112,280,45386,2,0,P|127:243|112:207,1,80,2|0,3:2|3:2,0:0:0:0:
52,112,45701,1,8,3:2:0:0:
219,63,45859,1,8,0:0:0:0:
219,63,45938,1,8,0:0:0:0:
219,63,46017,6,0,P|255:48|292:64,1,80,4|0,3:2|3:2,0:0:0:0:
464,168,46333,1,2,3:2:0:0:
464,168,46491,2,0,P|427:183|391:167,1,80,0|8,3:2|3:2,0:0:0:0:
292,64,46807,1,2,0:0:0:0:
292,64,46965,2,0,L|360:12,1,80,0|0,3:2|3:2,0:0:0:0:
454,118,47280,2,0,L|386:170,1,80,0|0,3:2|3:2,0:0:0:0:
252,256,47596,6,0,P|192:256|152:296,1,120,8|0,3:2|0:0,0:0:0:0:
128,328,47912,2,0,L|64:276,1,80,2|0,3:2|3:2,0:0:0:0:
28,172,48228,1,8,3:2:0:0:
28,172,48386,1,0,0:0:0:0:
119,47,48544,6,0,B|155:30|155:30|191:47,1,80,4|0,3:2|3:2,0:0:0:0:
191,47,48859,1,2,3:2:0:0:
292,144,49017,2,0,B|256:161|256:161|220:144,1,80,0|8,3:2|3:2,0:0:0:0:
321,47,49333,2,0,B|357:30|357:30|393:47,1,80,2|0,0:0|3:2,0:0:0:0:
492,152,49649,1,2,3:2:0:0:
392,252,49807,1,0,3:2:0:0:
496,352,49965,1,0,3:2:0:0:
392,252,50122,2,0,B|332:236|332:276|276:252,1,120,8|0,3:2|0:0,0:0:0:0:
232,252,50438,5,6,3:2:0:0:
163,112,50596,1,8,0:0:0:0:
183,78,50675,1,8,0:0:0:0:
217,56,50754,1,10,3:2:0:0:
256,49,50833,1,8,0:0:0:0:
295,56,50912,1,8,0:0:0:0:
329,78,50991,1,8,0:0:0:0:
349,112,51070,6,0,L|345:275,1,160,6|8,3:2|0:0,0:0:0:0:
344,376,51544,1,0,0:0:0:0:
256,304,51701,2,0,L|260:208,1,80,0|2,3:2|3:2,0:0:0:0:
424,136,52017,2,0,L|427:215,1,80,10|2,0:0|0:0,0:0:0:0:
256,304,52333,6,0,P|204:324|144:300,1,120,0|0,3:2|0:0,0:0:0:0:
80,344,52649,2,0,L|200:204,1,160,8|2,0:0|3:2,0:0:0:0:
256,140,53122,1,0,3:2:0:0:
352,228,53280,2,0,B|369:192|369:192|352:156,1,80,10|0,0:0|0:0,0:0:0:0:
188,79,53596,6,0,P|255:44|323:79,1,160,2|10,3:2|0:0,0:0:0:0:
256,140,54070,1,0,0:0:0:0:
160,228,54228,2,0,B|143:192|143:192|160:156,1,80,2|0,3:2|3:2,0:0:0:0:
212,296,54544,2,0,L|64:344,1,120,10|0,0:0|0:0,0:0:0:0:
192,380,54859,6,0,L|272:352,1,80,0|2,3:2|0:0,0:0:0:0:
352,192,55175,2,0,P|368:236|336:304,1,120,10|0,0:0|0:0,0:0:0:0:
412,336,55491,2,0,P|436:296|440:248,1,80,2|0,3:2|3:2,0:0:0:0:
352,192,55807,1,10,0:0:0:0:
441,121,55965,1,10,0:0:0:0:
441,121,56044,1,8,0:0:0:0:
441,121,56122,5,2,3:2:0:0:
256,32,56438,1,2,0:0:0:0:
256,32,56754,1,2,0:0:0:0:
256,32,57070,1,2,0:0:0:0:
96,192,57386,5,2,0:0:0:0:
96,192,57701,1,2,0:0:0:0:
96,192,58017,1,2,0:0:0:0:
96,192,58333,5,2,0:0:0:0:
184,292,58491,1,2,0:0:0:0:
184,292,58807,5,2,0:0:0:0:
256,196,58965,1,0,0:0:0:0:
328,292,59122,1,2,0:0:0:0:
168,300,59280,5,0,0:0:0:0:
256,180,59438,1,2,0:0:0:0:
344,300,59596,1,2,0:0:0:0:
256,164,59754,6,0,L|384:136,1,128,2|0,0:0|0:0,0:0:0:0:
504,200,60228,2,0,L|378:227,1,128,2|2,0:0|0:0,0:0:0:0:
378,227,60859,1,2,0:0:0:0:
276,68,61175,6,0,B|213:68|213:68|161:44|161:44|105:44,1,176.000005371094,6|8,3:2|0:0,0:0:0:0:
16,156,61649,1,0,0:0:0:0:
105,44,61807,1,0,3:2:0:0:
192,156,61965,1,0,3:2:0:0:
104,268,62122,2,0,P|88:308|103:348,1,88.000002685547,10|2,0:0|0:0,0:0:0:0:
240,308,62438,2,0,B|304:288|304:332|372:308,1,132.00000402832,0|0,3:2|0:0,0:0:0:0:
412,308,62754,2,0,B|392:244|436:244|412:176,1,132.00000402832,8|0,0:0|0:0,0:0:0:0:
412,136,63070,5,2,3:2:0:0:
300,52,63228,1,0,3:2:0:0:
188,136,63386,1,10,0:0:0:0:
56,240,63544,1,8,0:0:0:0:
56,240,63622,1,8,0:0:0:0:
56,240,63701,6,0,L|160:324,1,132.00000402832,6|0,3:2|0:0,0:0:0:0:
200,268,64017,2,0,L|129:209,1,88.000002685547,10|2,0:0|0:0,0:0:0:0:
256,20,64333,1,0,3:2:0:0:
308,182,64491,1,2,3:2:0:0:
170,82,64649,1,8,0:0:0:0:
341,82,64807,1,2,0:0:0:0:
203,182,64965,6,0,P|147:182|91:230,1,132.00000402832,0|0,3:2|0:0,0:0:0:0:
72,268,65280,2,0,B|54:308|54:308|72:348,1,88.000002685547,10|0,0:0|0:0,0:0:0:0:
203,262,65596,2,0,B|221:222|221:222|203:182,1,88.000002685547,2|0,3:2|3:2,0:0:0:0:
160,48,65912,1,10,0:0:0:0:
352,48,66070,1,8,0:0:0:0:
352,48,66149,1,8,0:0:0:0:
352,48,66228,6,0,P|424:48|488:128,1,176.000005371094,6|8,3:2|0:0,0:0:0:0:
364,192,66701,1,0,0:0:0:0:
487,260,66859,2,0,P|437:329|368:332,1,132.00000402832,0|0,3:2|0:0,0:0:0:0:
352,336,67175,1,10,0:0:0:0:
256,232,67333,1,2,0:0:0:0:
160,336,67491,6,0,P|119:351|79:336,1,88.000002685547,0|0,3:2|0:0,0:0:0:0:
256,232,67807,2,0,P|296:216|336:231,1,88.000002685547,10|0,0:0|0:0,0:0:0:0:
456,308,68122,1,2,3:2:0:0:
460,168,68280,1,0,3:2:0:0:
336,231,68438,1,10,0:0:0:0:
456,308,68596,1,0,0:0:0:0:
352,136,68754,6,0,L|268:32,1,132.00000402832,6|0,3:2|0:0,0:0:0:0:
236,8,69070,2,0,P|195:-7|155:7,1,88.000002685547,8|2,0:0|0:0,0:0:0:0:
0,136,69386,2,0,P|40:150|81:135,1,88.000002685547,0|0,3:0|3:2,0:0:0:0:
154,7,69701,2,0,L|236:109,1,132.00000402832,10|0,0:0|0:0,0:0:0:0:
264,144,70017,1,0,3:2:0:0:
360,248,70175,1,0,0:0:0:0:
264,352,70333,2,0,P|204:352|148:304,1,132.00000402832,8|0,0:0|0:0,0:0:0:0:
128,272,70649,5,2,3:2:0:0:
52,152,70807,1,8,0:0:0:0:
59,117,70886,1,8,0:0:0:0:
79,89,70965,1,10,3:2:0:0:
108,70,71044,1,8,0:0:0:0:
143,63,71122,1,8,0:0:0:0:
177,71,71201,1,8,0:0:0:0:
205,91,71280,6,0,L|380:80,1,176.000005371094,6|8,3:2|0:0,0:0:0:0:
500,68,71754,1,2,0:0:0:0:
408,156,71912,2,0,L|320:160,1,88.000002685547,0|0,3:0|3:2,0:0:0:0:
216,256,72228,2,0,P|268:256|324:324,1,132.00000402832,10|0,0:0|0:0,0:0:0:0:
256,356,72544,6,0,L|156:372,1,88.000002685547,0|0,3:2|0:0,0:0:0:0:
84,240,72859,2,0,B|66:280|66:280|84:320,1,88.000002685547,10|0,0:0|0:0,0:0:0:0:
180,232,73175,2,0,B|198:192|198:192|180:152,1,88.000002685547,2|0,3:2|3:2,0:0:0:0:
128,52,73491,1,10,0:0:0:0:
292,56,73649,1,8,3:2:0:0:
292,56,73728,1,8,3:2:0:0:
292,56,73807,6,0,B|376:24|376:88|464:56,1,176.000005371094,4|8,3:2|0:0,0:0:0:0:
336,132,74280,1,0,0:0:0:0:
463,56,74438,2,0,L|471:144,1,88.000002685547,0|0,3:2|3:2,0:0:0:0:
343,219,74754,2,0,L|335:131,1,88.000002685547,10|0,0:0|0:0,0:0:0:0:
428,304,75070,6,0,P|364:296|308:340,1,132.00000402832,2|0,3:2|0:0,0:0:0:0:
240,328,75386,2,0,B|200:346|200:346|160:328,1,88.000002685547,10|0,0:0|0:0,0:0:0:0:
84,232,75701,1,2,3:2:0:0:
159,327,75859,1,0,3:2:0:0:
32,352,76017,1,10,0:0:0:0:
76,209,76175,1,8,3:2:0:0:
76,209,76254,1,8,3:2:0:0:
76,209,76333,6,0,L|136:41,1,176.000005371094,6|0,3:2|0:0,0:0:0:0:
315,26,76807,2,0,L|255:191,1,176.000005371094,8|0,0:0|3:2,0:0:0:0:
204,300,77280,1,8,0:0:0:0:
255,191,77438,1,0,0:0:0:0:
340,296,77596,6,0,B|384:296|416:257|416:257|448:296|492:296,1,176.000005371094,4|0,3:2|0:0,0:0:0:0:
404,152,78070,1,8,0:0:0:0:
340,296,78228,1,2,3:2:0:0:
491,295,78386,1,0,3:2:0:0:
404,152,78544,2,0,P|356:132|272:172,1,132.00000402832,8|0,0:0|0:0,0:0:0:0:
212,136,78859,6,0,L|116:124,1,88.000002685547,4|0,3:2|0:0,0:0:0:0:
136,36,79175,1,0,0:0:0:0:
57,198,79333,2,0,L|232:220,1,176.000005371094,8|0,0:0|3:2,0:0:0:0:
132,308,79807,1,8,0:0:0:0:
232,220,79965,1,0,3:2:0:0:
292,324,80122,6,0,P|367:361|443:323,1,176.000005371094,12|8,0:0|0:0,0:0:0:0:
292,324,80596,1,0,3:2:0:0:
443,323,80754,1,2,3:2:0:0:
360,208,80912,5,8,0:0:0:0:
333,184,80991,1,8,0:0:0:0:
307,160,81070,1,8,3:2:0:0:
281,136,81149,1,8,0:0:0:0:
255,113,81228,1,8,0:0:0:0:
229,89,81307,1,8,0:0:0:0:
200,68,81386,6,0,P|124:30|48:68,1,176.000005371094,6|8,3:2|0:0,0:0:0:0:
124,164,81859,1,0,0:0:0:0:
200,260,82017,2,0,P|240:275|280:260,1,88.000002685547,0|0,3:2|3:2,0:0:0:0:
124,164,82333,2,0,P|83:148|43:163,1,88.000002685547,10|2,0:0|0:0,0:0:0:0:
112,244,82649,2,0,L|176:128,1,132.00000402832,0|0,3:2|0:0,0:0:0:0:
192,92,82965,2,0,P|244:92|304:40,1,132.00000402832,8|0,0:0|0:0,0:0:0:0:
328,8,83280,5,2,3:2:0:0:
416,92,83438,1,0,3:2:0:0:
328,176,83596,1,10,0:0:0:0:
192,92,83754,1,8,3:2:0:0:
192,92,83833,1,8,0:0:0:0:
192,92,83912,6,0,P|140:92|80:144,1,132.00000402832,6|0,3:2|0:0,0:0:0:0:
96,184,84228,1,10,0:0:0:0:
148,346,84386,1,2,0:0:0:0:
10,246,84544,1,0,3:2:0:0:
181,246,84701,1,2,3:2:0:0:
43,346,84859,1,8,0:0:0:0:
96,184,85017,1,2,0:0:0:0:
148,346,85175,6,0,B|200:326|200:370|276:346,1,132.00000402832,0|0,3:2|0:0,0:0:0:0:
322,346,85491,1,10,0:0:0:0:
412,264,85649,1,0,0:0:0:0:
322,178,85807,2,0,B|282:160|282:160|242:178,1,88.000002685547,2|0,3:2|3:2,0:0:0:0:
128,228,86122,1,10,0:0:0:0:
206,103,86280,1,8,0:0:0:0:
206,103,86359,1,8,0:0:0:0:
206,103,86438,6,0,B|282:59|282:59|358:103,1,176.000005371094,6|8,3:2|0:0,0:0:0:0:
468,160,86912,1,0,0:0:0:0:
380,312,87070,2,0,L|448:200,1,132.00000402832,0|0,3:2|0:0,0:0:0:0:
468,160,87386,2,0,P|427:144|387:159,1,88.000002685547,10|2,0:0|0:0,0:0:0:0:
316,260,87701,1,0,3:2:0:0:
196,260,87859,1,0,0:0:0:0:
124,159,88017,6,0,P|84:144|44:160,1,88.000002685547,10|0,0:0|0:0,0:0:0:0:
196,260,88333,2,0,P|181:300|196:340,1,88.000002685547,2|0,3:2|3:2,0:0:0:0:
316,260,88649,2,0,P|330:300|315:340,1,88.000002685547,10|0,0:0|0:0,0:0:0:0:
256,192,88965,2,0,B|224:108|288:108|256:20,1,176.000005371094,2|8,3:2|0:0,0:0:0:0:
328,152,89438,2,0,B|412:120|412:184|500:152,1,176.000005371094,2|0,0:0|3:2,0:0:0:0:
368,232,89912,5,10,0:0:0:0:
452,72,90070,1,2,0:0:0:0:
368,232,90228,2,0,P|382:272|367:312,1,88.000002685547,2|0,3:2|3:2,0:0:0:0:
256,192,90544,2,0,P|241:151|256:111,1,88.000002685547,10|0,0:0|3:2,0:0:0:0:
332,16,90859,5,2,3:2:0:0:
180,16,91017,1,8,0:0:0:0:
161,45,91096,1,8,0:0:0:0:
142,75,91175,1,10,3:2:0:0:
123,105,91254,1,8,0:0:0:0:
104,134,91333,1,8,0:0:0:0:
85,164,91412,1,8,0:0:0:0:
66,194,91491,6,0,B|150:162|150:226|238:194,1,176.000005371094,6|8,3:2|0:0,0:0:0:0:
352,120,91965,1,2,0:0:0:0:
237,194,92122,1,0,3:2:0:0:
364,276,92280,1,0,3:2:0:0:
352,120,92438,2,0,P|400:104|476:136,1,132.00000402832,10|0,0:0|0:0,0:0:0:0:
492,168,92754,5,0,3:2:0:0:
424,16,92912,1,0,0:0:0:0:
352,120,93070,2,0,P|336:160|351:200,1,88.000002685547,10|0,0:0|0:0,0:0:0:0:
492,168,93386,2,0,P|507:127|492:87,1,88.000002685547,2|0,3:2|3:2,0:0:0:0:
448,268,93701,1,10,0:0:0:0:
312,308,93859,1,8,3:2:0:0:
312,308,93938,1,8,3:2:0:0:
312,308,94017,6,0,L|120:296,1,176.000005371094,4|8,3:2|0:0,0:0:0:0:
8,284,94491,1,0,0:0:0:0:
112,208,94649,2,0,L|204:216,1,88.000002685547,0|0,3:2|3:2,0:0:0:0:
160,112,94965,2,0,L|72:104,1,88.000002685547,10|0,0:0|0:0,0:0:0:0:
312,116,95280,6,0,B|356:116|388:77|388:77|420:116|464:116,1,176.000005371094,2|10,3:2|0:0,0:0:0:0:
384,216,95754,1,0,0:0:0:0:
312,116,95912,1,2,3:2:0:0:
463,115,96070,1,0,3:2:0:0:
384,216,96228,2,0,L|308:336,1,132.00000402832,10|0,0:0|0:0,0:0:0:0:
288,364,96544,6,0,B|196:396|196:332|112:364,1,176.000005371094,6|8,3:2|0:0,0:0:0:0:
40,268,97017,2,0,P|2:192|40:116,1,176.000005371094,2|0,0:0|3:2,0:0:0:0:
156,12,97491,1,10,0:0:0:0:
39,116,97649,1,0,0:0:0:0:
176,148,97807,6,0,L|356:124,1,176.000005371094,0|8,3:2|0:0,0:0:0:0:
476,108,98280,1,0,0:0:0:0:
336,44,98438,2,0,L|244:56,1,88.000002685547,2|0,3:2|3:2,0:0:0:0:
216,224,98754,2,0,L|347:206,1,132.00000402832,10|0,0:0|0:0,0:0:0:0:
392,200,99070,5,4,3:2:0:0:
352,328,99228,1,0,0:0:0:0:
488,292,99386,2,0,B|506:252|506:252|488:212,1,88.000002685547,8|0,0:0|0:0,0:0:0:0:
346,206,99701,1,0,3:2:0:0:
232,304,99859,5,8,0:0:0:0:
196,301,99938,1,8,0:0:0:0:
161,298,100017,1,10,3:2:0:0:
126,295,100096,1,8,0:0:0:0:
91,292,100175,1,10,0:0:0:0:
56,289,100254,1,8,0:0:0:0:
24,286,100333,6,0,P|12:226|36:166,1,107.999996704102,2|0,3:2|0:0,0:0:0:0:
92,128,100649,2,0,L|116:195,1,71.9999978027344,2|0,0:0|0:0,0:0:0:0:
161,298,100965,1,2,0:0:0:0:
256,216,101122,1,4,0:3:0:0:
256,216,101201,1,4,0:3:0:0:
256,216,101280,1,8,0:0:0:0:
116,195,101438,1,2,0:0:0:0:
164,324,101596,6,0,P|127:339|91:324,1,80,12|0,3:2|3:2,0:0:0:0:
24,212,101912,1,0,3:2:0:0:
91,59,102070,6,0,P|127:44|164:60,1,80,12|0,0:0|3:2,0:0:0:0:
256,152,102386,1,0,3:2:0:0:
380,264,102544,6,0,B|416:281|416:281|452:264,1,80,12|0,0:0|3:2,0:0:0:0:
508,148,102859,1,0,3:2:0:0:
452,32,103017,6,0,B|416:15|416:15|380:32,1,80,12|0,0:0|3:2,0:0:0:0:
320,148,103333,1,0,3:2:0:0:
200,32,103491,6,0,B|164:15|164:15|128:32,1,80,12|0,0:0|3:2,0:0:0:0:
16,92,103807,1,12,0:0:0:0:
127,32,103965,1,0,3:2:0:0:
128,196,104122,6,0,P|112:232|127:268,1,80,12|0,0:0|3:2,0:0:0:0:
216,360,104438,1,0,3:2:0:0:
340,252,104596,6,0,L|404:316,1,80,12|0,0:0|3:2,0:0:0:0:
492,224,104912,1,0,3:2:0:0:
368,112,105070,6,0,L|304:48,1,80,12|0,0:0|3:2,0:0:0:0:
256,172,105386,1,0,3:2:0:0:
144,112,105544,6,0,L|200:55,1,80,12|0,0:0|3:2,0:0:0:0:
311,55,105859,1,0,3:2:0:0:
256,172,106017,1,8,3:2:0:0:
200,55,106175,2,0,L|116:140,1,120,4|0,3:2|0:0,0:0:0:0:
88,176,106491,1,2,3:2:0:0:
88,176,106570,1,2,3:2:0:0:
88,176,106649,6,0,P|72:212|87:248,1,80,12|0,0:0|3:2,0:0:0:0:
196,320,106965,1,0,3:2:0:0:
259,168,107122,6,0,P|275:131|260:95,1,80,12|0,0:0|3:2,0:0:0:0:
164,12,107438,1,0,3:2:0:0:
308,96,107596,6,0,P|323:132|307:168,1,80,12|0,0:0|3:2,0:0:0:0:
196,232,107912,1,0,3:2:0:0:
332,328,108070,6,0,B|368:345|368:345|404:328,1,80,12|0,0:0|3:2,0:0:0:0:
488,232,108386,1,0,3:2:0:0:
404,88,108544,6,0,B|368:71|368:71|332:88,1,80,12|0,0:0|3:2,0:0:0:0:
256,192,108859,1,8,0:0:0:0:
256,192,109017,1,0,3:2:0:0:
108,88,109175,6,0,B|144:71|144:71|180:88,1,80,12|0,0:0|3:2,0:0:0:0:
256,192,109491,1,0,3:2:0:0:
180,340,109649,6,0,B|144:357|144:357|108:340,1,80,12|0,0:0|3:2,0:0:0:0:
16,252,109965,1,0,3:2:0:0:
76,96,110122,6,0,P|61:60|76:24,1,80,12|0,0:0|3:0,0:0:0:0:
76,23,110438,1,0,3:2:0:0:
176,100,110596,6,0,P|191:136|176:172,1,80,12|0,0:0|3:2,0:0:0:0:
100,276,110912,1,8,0:0:0:0:
175,172,111070,5,4,3:2:0:0:
252,276,111228,1,8,0:0:0:0:
278,258,111307,1,8,0:0:0:0:
305,241,111386,1,8,3:2:0:0:
332,223,111465,1,8,0:0:0:0:
359,206,111544,1,8,0:0:0:0:
386,188,111622,1,8,0:0:0:0:
412,171,111701,6,0,P|446:231|412:291,1,143.999995605469,4|0,3:2|0:0,0:0:0:0:
332,223,112175,2,0,L|360:80,1,143.999995605469,2|0,0:0|0:0,0:0:0:0:
224,24,112649,2,0,B|256:8|256:8|288:24,1,71.9999978027344,2|0,0:0|0:0,0:0:0:0:
196,112,112965,5,2,0:0:0:0:
196,112,113596,1,2,0:0:0:0:
196,112,113912,2,0,B|141:131|141:92|83:112,1,107.999996704102,2|0,0:0|0:0,0:0:0:0:
56,48,114228,6,0,L|108:212,1,143.999995605469,4|2,3:2|0:0,0:0:0:0:
196,216,114701,1,0,0:0:0:0:
196,216,114859,2,0,L|239:353,1,143.999995605469,2|2,0:0|0:0,0:0:0:0:
239,353,115491,1,2,0:0:0:0:
316,72,116122,2,0,P|256:38|196:72,1,143.999995605469,2|2,0:0|0:0,0:0:0:0:
156,272,116754,6,0,B|228:248|228:296|296:272,1,143.999995605469,4|0,3:2|0:0,0:0:0:0:
396,192,117228,2,0,B|324:216|324:168|256:192,1,143.999995605469,2|0,0:0|0:0,0:0:0:0:
384,116,117701,2,0,L|436:232,1,107.999996704102,2|0,0:0|0:0,0:0:0:0:
448,256,118017,1,2,0:0:0:0:
320,52,118649,2,0,B|256:19|256:19|192:52,1,143.999995605469,2|2,0:0|0:0,0:0:0:0:
56,192,119280,6,0,B|112:192|112:192|140:212|140:212|196:212,1,143.999995605469,4|2,3:2|0:0,0:0:0:0:
196,316,119754,1,0,0:0:0:0:
196,316,119912,2,0,B|252:316|252:316|280:336|280:336|336:336,1,143.999995605469,2|2,0:0|0:0,0:0:0:0:
368,192,120544,5,2,0:0:0:0:
368,192,120859,1,2,0:0:0:0:
368,192,121175,1,8,0:0:0:0:
484,192,121333,1,4,3:2:0:0:
256,88,121807,6,0,P|200:88|148:48,1,120,6|0,3:2|0:0,0:0:0:0:
116,24,122122,2,0,L|48:80,1,80,10|2,0:0|0:0,0:0:0:0:
124,164,122438,1,0,3:2:0:0:
54,74,122596,1,2,0:0:0:0:
124,164,122754,2,0,L|204:256,1,120,10|0,0:0|0:0,0:0:0:0:
236,288,123070,6,0,P|220:324|235:360,1,80,0|0,3:2|0:0,0:0:0:0:
343,324,123386,1,8,0:0:0:0:
343,324,123544,1,0,0:0:0:0:
453,360,123701,2,0,P|468:323|452:287,1,80,2|0,3:2|0:0,0:0:0:0:
360,192,124017,2,0,B|300:172|300:216|244:192,1,120,10|0,0:0|0:0,0:0:0:0:
268,120,124333,6,0,B|208:100|208:144|152:120,1,120,6|0,3:2|0:0,0:0:0:0:
180,48,124649,1,10,0:0:0:0:
72,120,124807,2,0,P|56:156|71:192,1,80,2|0,0:0|3:2,0:0:0:0:
267,192,125122,2,0,P|282:155|267:119,1,80,2|8,0:0|0:0,0:0:0:0:
180,48,125438,1,2,0:0:0:0:
267,119,125596,2,0,L|380:56,1,120,0|0,3:2|0:0,0:0:0:0:
412,128,125912,2,0,L|299:191,1,120,8|0,0:0|0:0,0:0:0:0:
264,208,126228,5,2,3:2:0:0:
164,256,126386,1,0,0:0:0:0:
164,144,126544,1,10,0:0:0:0:
149,120,126622,1,8,0:0:0:0:
134,96,126701,1,8,0:0:0:0:
120,72,126780,1,8,0:0:0:0:
105,48,126859,6,0,P|48:48|4:88,1,120,6|0,3:2|0:0,0:0:0:0:
8,132,127175,2,0,L|68:236,1,120,8|0,0:0|0:0,0:0:0:0:
92,276,127491,1,2,3:2:0:0:
152,372,127649,1,0,0:0:0:0:
252,324,127807,1,8,0:0:0:0:
192,228,127965,1,0,0:0:0:0:
92,276,128122,6,0,B|57:226|57:226|56:183|56:183|24:137,1,160,2|8,3:2|0:0,0:0:0:0:
24,137,128596,1,0,0:0:0:0:
140,208,128754,2,0,L|188:276,1,80,2|0,3:2|0:0,0:0:0:0:
204,120,129070,2,0,L|156:52,1,80,10|0,0:0|0:0,0:0:0:0:
324,56,129386,6,0,B|404:28|404:84|480:56,2,160,2|8|0,3:2|0:0|3:2,0:0:0:0:
256,144,130175,1,0,0:0:0:0:
188,232,130333,1,8,0:0:0:0:
188,232,130412,1,0,3:2:0:0:
188,232,130491,1,2,3:2:0:0:
324,232,130649,1,6,3:2:0:0:
256,120,130807,1,0,3:2:0:0:
188,232,130965,6,0,P|172:268|187:304,1,80,8|0,0:0|3:2,0:0:0:0:
324,304,131280,2,0,P|339:268|324:232,1,80,2|8,3:2|0:0,0:0:0:0:
304,192,131517,1,8,0:0:0:0:
304,192,131596,1,4,0:3:0:0:
216,52,131754,1,12,3:3:0:0:
216,52,131833,1,8,3:3:0:0:
216,52,131912,6,0,L|36:120,1,160,6|8,3:2|0:0,0:0:0:0:
88,8,132386,1,0,0:0:0:0:
66,108,132544,2,0,P|50:144|65:180,1,80,0|0,3:2|3:2,0:0:0:0:
128,268,132859,1,2,3:2:0:0:
200,179,133017,6,0,P|132:143|64:179,1,160,10|0,0:0|3:2,0:0:0:0:
128,268,133491,2,0,P|196:304|264:268,1,160,8|2,0:0|3:2,0:0:0:0:
342,190,133965,1,0,3:2:0:0:
263,268,134122,2,0,L|335:340,1,80,10|0,0:0|0:0,0:0:0:0:
498,190,134438,6,0,B|418:162|418:218|342:190,1,160,6|10,3:2|0:0,0:0:0:0:
272,75,134912,1,2,0:2:0:0:
250,169,135070,1,0,3:2:0:0:
342,190,135228,1,2,3:2:0:0:
365,97,135386,1,2,0:2:0:0:
272,75,135544,6,0,L|104:64,1,160,10|0,0:0|3:2,0:0:0:0:
44,168,136017,2,0,L|203:178,1,160,8|2,0:0|3:2,0:0:0:0:
332,184,136491,1,0,3:2:0:0:
203,178,136649,2,0,B|186:214|186:214|203:250,1,80,10|8,0:0|0:0,0:0:0:0:
122,286,136886,1,8,0:0:0:0:
122,286,136965,6,0,B|86:214|86:214|122:142,1,160,6|10,3:2|0:0,0:0:0:0:
176,52,137438,1,2,0:0:0:0:
46,110,137596,2,0,L|7:193,2,80,0|2|0,3:2|3:2|3:2,0:0:0:0:
176,52,138070,6,0,B|256:24|256:80|332:52,1,160,10|0,0:0|3:2,0:0:0:0:
396,156,138544,2,0,B|413:192|413:192|396:228,1,80,10|0,0:0|0:0,0:0:0:0:
292,332,138859,2,0,B|256:349|256:349|220:332,1,80,2|0,3:2|3:2,0:0:0:0:
116,228,139175,2,0,B|99:192|99:192|116:156,1,80,10|0,0:0|0:0,0:0:0:0:
256,60,139491,6,0,B|284:140|228:140|256:216,1,160,6|10,3:2|0:0,0:0:0:0:
205,369,139965,1,2,0:0:0:0:
155,215,140122,1,0,3:2:0:0:
285,310,140280,1,2,3:2:0:0:
124,310,140438,1,2,0:0:0:0:
255,215,140596,6,0,P|323:179|391:215,1,160,10|0,0:0|3:2,0:0:0:0:
288,76,141070,2,0,L|128:64,1,160,8|2,0:0|3:2,0:0:0:0:
20,132,141544,1,8,0:0:0:0:
20,132,141622,1,8,0:0:0:0:
20,132,141701,1,10,3:2:0:0:
92,240,141859,5,8,0:0:0:0:
119,253,141938,1,8,3:2:0:0:
148,268,142017,1,14,3:2:0:0:
176,283,142096,1,4,0:3:0:0:
205,297,142175,1,4,0:3:0:0:
234,312,142254,1,4,0:3:0:0:
262,329,142333,6,0,P|330:365|398:329,1,160,12|0,0:0|3:2,0:0:0:0:
476,248,142807,1,2,3:2:0:0:
476,136,142965,2,0,P|491:100|476:64,1,80,10|2,0:0|0:0,0:0:0:0:
344,136,143280,2,0,P|329:172|344:208,1,80,0|0,3:2|0:0,0:0:0:0:
475,63,143596,2,0,L|360:32,1,120,8|0,0:0|0:0,0:0:0:0:
316,20,143912,5,2,3:2:0:0:
256,112,144070,1,0,3:2:0:0:
196,20,144228,1,10,0:0:0:0:
256,144,144386,1,0,3:0:0:0:
256,144,144465,1,0,3:0:0:0:
256,144,144544,6,0,B|236:200|276:200|256:264,1,120,6|0,3:2|0:0,0:0:0:0:
188,232,144859,1,10,0:0:0:0:
324,176,145017,1,0,0:0:0:0:
388,308,145175,1,2,3:2:0:0:
252,364,145333,1,0,3:2:0:0:
188,232,145491,6,0,B|112:260|112:204|32:232,1,160,10|0,0:0|3:2,0:0:0:0:
152,164,145965,1,2,0:0:0:0:
256,280,146122,2,0,B|312:300|312:260|376:280,1,120,10|0,0:0|0:0,0:0:0:0:
416,280,146438,1,2,3:2:0:0:
488,192,146596,1,8,3:2:0:0:
488,192,146675,1,8,0:0:0:0:
488,192,146754,1,10,3:2:0:0:
416,104,146912,1,10,0:0:0:0:
416,104,146991,1,8,0:0:0:0:
416,104,147070,6,0,B|292:52|292:144|168:104,1,251.999992309571,4|0,3:2|0:0,0:0:0:0:
171,104,147701,1,2,0:0:0:0:
32,248,148017,1,2,0:0:0:0:
171,104,148333,6,0,P|304:104|360:232,1,287.999991210938,2|0,3:2|0:0,0:0:0:0:
360,231,149280,1,2,0:0:0:0:
256,296,149438,1,0,0:0:0:0:
152,231,149596,6,0,L|120:208,3,40,12|8|8|8,3:2|0:0|0:0|0:0,0:0:0:0:
104,164,149912,2,0,L|72:141,3,40,8|8|8|8,3:2|0:0|0:0|0:0,0:0:0:0:
64,92,150228,2,0,L|32:69,3,40,8|8|8|8,3:2|0:0|0:0|0:0,0:0:0:0:
48,24,150544,5,8,3:2:0:0:
68,24,150622,1,8,0:0:0:0:
88,24,150701,1,8,0:0:0:0:
108,24,150780,1,8,0:0:0:0:
128,24,150859,1,8,3:2:0:0:
148,24,150938,1,8,0:0:0:0:
168,24,151017,1,8,0:0:0:0:
188,24,151096,1,8,0:0:0:0:
208,24,151175,6,0,L|248:48,3,40,8|8|8|8,3:2|0:0|0:0|0:0,0:0:0:0:
244,92,151491,2,0,L|284:116,3,40,8|8|8|8,3:2|0:0|0:0|0:0,0:0:0:0:
292,160,151807,2,0,L|332:184,3,40,8|8|8|8,3:2|0:0|0:0|0:0,0:0:0:0:
368,204,152122,5,10,3:2:0:0:
379,220,152201,1,8,0:0:0:0:
386,238,152280,1,8,0:0:0:0:
388,258,152359,1,8,0:0:0:0:
384,278,152438,1,8,3:2:0:0:
375,296,152517,1,8,0:0:0:0:
362,310,152596,1,8,0:0:0:0:
345,321,152675,1,8,0:0:0:0:
326,327,152754,6,0,L|280:340,3,40,8|8|8|8,3:2|0:0|0:0|0:0,0:0:0:0:
256,304,153070,2,0,L|209:316,3,40,8|8|8|8,3:2|0:0|0:0|0:0,0:0:0:0:
176,288,153386,2,0,L|129:300,3,40,8|8|8|8,3:2|0:0|0:0|0:0,0:0:0:0:
100,268,153701,5,8,3:2:0:0:
88,251,153780,1,8,0:0:0:0:
82,232,153859,1,8,0:0:0:0:
80,212,153938,1,8,0:0:0:0:
83,193,154017,1,8,3:2:0:0:
90,174,154096,1,8,0:0:0:0:
103,159,154175,1,8,0:0:0:0:
118,146,154254,1,8,0:0:0:0:
136,138,154333,2,0,L|180:120,3,40,8|8|8|8,3:2|0:0|0:0|0:0,0:0:0:0:
220,108,154649,6,0,B|300:80|300:136|376:108,1,160,6|8,3:2|0:0,0:0:0:0:
260,184,155122,1,0,0:0:0:0:
380,28,155280,1,0,3:2:0:0:
380,28,155438,2,0,B|300:56|300:0|224:28,1,160,0|10,3:2|0:0,0:0:0:0:
184,44,155833,1,2,3:2:0:0:
184,44,155912,6,0,L|96:32,1,80,2|0,3:2|3:2,0:0:0:0:
32,128,156228,2,0,L|111:138,1,80,8|2,0:0|0:0,0:0:0:0:
188,288,156544,2,0,B|205:252|205:252|188:216,1,80,0|2,3:2|3:2,0:0:0:0:
84,268,156859,2,0,B|67:304|67:304|84:340,1,80,8|8,0:0|0:0,0:0:0:0:
116,368,157096,1,8,0:0:0:0:
116,368,157175,6,0,L|200:376,1,80,4|2,3:2|0:0,0:0:0:0:
323,288,157491,2,0,B|271:288|255:255|255:255|239:288|187:288,1,160,8|2,0:0|3:2,0:0:0:0:
188,264,157965,2,0,B|240:264|256:231|256:231|272:264|324:264,1,160,0|10,3:2|0:0,0:0:0:0:
292,140,158438,6,0,B|256:123|256:123|220:140,1,80,2|0,0:0|3:2,0:0:0:0:
220,36,158754,2,0,B|256:19|256:19|292:36,1,80,8|2,0:0|3:2,0:0:0:0:
324,64,158991,1,2,3:2:0:0:
324,64,159070,2,0,L|416:48,1,80,2|8,3:2|0:0,0:0:0:0:
496,152,159386,1,8,3:2:0:0:
464,158,159465,1,8,0:3:0:0:
433,164,159544,1,12,0:3:0:0:
401,170,159622,1,8,0:3:0:0:
372,176,159701,6,0,P|336:243|372:311,1,160,4|10,3:2|0:0,0:0:0:0:
372,176,160175,1,0,0:0:0:0:
228,60,160333,1,2,3:2:0:0:
406,82,160491,1,0,3:2:0:0:
274,169,160649,1,2,0:0:0:0:
330,19,160807,6,0,L|272:176,1,160,10|0,0:0|3:2,0:0:0:0:
232,272,161280,1,8,0:0:0:0:
274,169,161438,1,2,0:0:0:0:
192,364,161596,2,0,P|155:379|119:364,1,80,0|0,3:2|3:2,0:0:0:0:
201,168,161912,2,0,P|237:153|273:168,1,80,10|0,0:0|3:2,0:0:0:0:
300,196,162149,1,0,3:2:0:0:
300,196,162228,6,0,B|380:168|380:224|456:196,1,160,4|8,3:2|0:0,0:0:0:0:
348,284,162701,1,2,0:0:0:0:
300,196,162859,1,0,3:2:0:0:
256,112,163017,1,0,3:2:0:0:
348,284,163175,1,2,0:0:0:0:
256,112,163333,6,0,B|184:76|184:76|112:112,1,160,8|0,0:0|3:2,0:0:0:0:
12,192,163807,1,8,0:0:0:0:
112,273,163965,1,2,3:2:0:0:
112,273,164044,1,0,3:0:0:0:
112,273,164122,2,0,L|144:188,1,80,0|0,3:2|3:2,0:0:0:0:
272,248,164438,2,0,L|304:333,1,80,10|8,0:0|0:0,0:0:0:0:
320,360,164675,1,8,0:0:0:0:
320,360,164754,5,4,3:2:0:0:
424,320,164912,1,2,0:0:0:0:
380,216,165070,1,8,0:0:0:0:
272,248,165228,1,2,0:0:0:0:
424,320,165386,2,0,P|460:335|496:320,1,80,0|0,3:2|3:2,0:0:0:0:
492,192,165701,5,2,3:2:0:0:
496,64,165859,2,0,P|460:49|424:64,1,80,8|0,0:0|0:0,0:0:0:0:
328,124,166175,1,2,3:2:0:0:
256,40,166333,1,8,0:0:0:0:
184,124,166491,1,2,3:2:0:0:
184,124,166570,1,0,3:2:0:0:
184,124,166649,2,0,P|199:160|184:196,1,80,0|0,3:2|3:2,0:0:0:0:
84,124,166965,2,0,P|68:87|83:51,1,80,10|0,0:0|3:2,0:0:0:0:
184,196,167280,5,4,3:2:0:0:
256,284,167438,1,2,0:0:0:0:
328,196,167596,1,8,0:0:0:0:
256,108,167754,2,0,B|296:84|296:84|372:84,1,120,2|0,0:0|0:0,0:0:0:0:
412,84,168070,1,2,3:2:0:0:
492,164,168228,1,2,0:0:0:0:
412,300,168386,6,0,P|344:335|276:299,1,160,12|0,0:0|3:2,0:0:0:0:
200,216,168859,1,8,0:0:0:0:
276,299,169017,1,2,0:0:0:0:
200,216,169175,1,8,3:2:0:0:
175,202,169254,1,8,0:0:0:0:
156,182,169333,1,8,0:0:0:0:
144,157,169412,1,8,0:0:0:0:
139,129,169491,1,8,3:2:0:0:
144,102,169570,1,8,0:0:0:0:
156,77,169649,1,8,0:0:0:0:
176,57,169728,1,8,0:0:0:0:
200,44,169807,6,0,B|236:27|236:27|272:44,1,80,6|2,3:2|0:0,0:0:0:0:
392,136,170122,2,0,B|356:153|356:153|320:136,1,80,10|2,0:0|0:0,0:0:0:0:
440,44,170438,2,0,B|476:27|476:27|512:44,1,80,2|2,3:2|3:2,0:0:0:0:
392,136,170754,1,2,0:0:0:0:
448,232,170912,1,10,0:0:0:0:
348,280,171070,1,2,3:2:0:0:
292,184,171228,1,2,3:2:0:0:
448,232,171386,6,0,P|463:268|448:304,1,80,10|2,0:0|3:2,0:0:0:0:
292,184,171701,1,2,3:2:0:0:
392,136,171859,1,10,0:0:0:0:
375,108,171938,1,8,0:0:0:0:
351,87,172017,1,10,3:2:0:0:
322,74,172096,1,8,0:0:0:0:
291,70,172175,1,10,0:0:0:0:
259,75,172254,1,8,0:0:0:0:
231,90,172333,5,6,3:2:0:0:
96,160,172491,1,2,3:2:0:0:
96,160,172649,1,2,3:2:0:0:
268,160,172807,5,14,0:0:0:0:
132,229,172965,1,2,3:2:0:0:
132,229,173122,1,2,3:2:0:0:
304,228,173280,5,14,0:0:0:0:
168,297,173438,1,2,3:2:0:0:
168,297,173596,1,2,3:2:0:0:
304,228,173754,6,0,L|336:268,1,40,10|8,0:0|0:0,0:0:0:0:
384,216,173912,2,0,L|359:184,1,40,10|8,3:2|0:0,0:0:0:0:
416,144,174070,2,0,L|448:184,1,40,8|8,0:0|0:0,0:0:0:0:
484,232,174228,1,8,3:2:0:0:
490,263,174307,1,8,0:0:0:0:
486,294,174386,1,8,0:0:0:0:
473,323,174465,1,8,0:0:0:0:
452,347,174544,1,8,3:2:0:0:
425,363,174622,1,8,0:0:0:0:
393,370,174701,1,8,0:0:0:0:
362,367,174780,1,8,0:0:0:0:
332,355,174859,6,0,L|316:204,1,143.999995605469,6|2,3:2|3:2,0:0:0:0:
304,100,175333,1,0,0:0:0:0:
163,100,175491,2,0,B|235:76|235:124|303:100,1,143.999995605469,2|2,3:2|3:2,0:0:0:0:
200,180,175965,1,12,0:0:0:0:
136,28,176122,6,0,L|88:168,1,143.999995605469,0|2,3:2|3:2,0:0:0:0:
40,272,176596,1,4,3:3:0:0:
156,256,176754,1,0,3:2:0:0:
89,164,176912,1,4,3:3:0:0:
156,256,177070,2,0,P|188:270|220:256,1,71.9999978027344,2|8,3:2|0:0,0:0:0:0:
420,192,177386,6,0,B|372:192|360:162|360:162|348:192|300:192,1,143.999995605469,4|0,3:2|3:2,0:0:0:0:
400,280,177859,1,2,0:0:0:0:
448,100,178017,1,0,3:2:0:0:
424,201,178175,1,4,3:3:0:0:
424,201,178254,1,4,3:3:0:0:
424,201,178333,2,0,L|500:225,1,71.9999978027344,4|2,3:3|0:0,0:0:0:0:
448,100,178649,6,0,L|308:64,1,143.999995605469,2|0,3:2|3:2,0:0:0:0:
200,0,179122,1,4,3:3:0:0:
204,128,179280,1,0,3:2:0:0:
318,72,179438,1,8,3:3:0:0:
318,72,179517,1,8,3:3:0:0:
318,72,179596,2,0,L|389:90,1,71.9999978027344,2|2,3:2|0:0,0:0:0:0:
320,256,179912,6,0,B|256:223|256:223|192:256,1,143.999995605469,6|2,3:2|3:2,0:0:0:0:
256,332,180378,1,0,0:0:0:0:
192,236,180533,2,0,B|256:203|256:203|320:236,1,143.999995605469,2|2,3:2|3:2,0:0:0:0:
256,332,181000,1,8,0:0:0:0:
123,287,181155,5,0,3:2:0:0:
79,154,181312,1,0,0:0:0:0:
192,236,181470,1,2,3:2:0:0:
53,236,181628,1,2,3:3:0:0:
166,154,181786,2,0,L|240:136,1,71.9999978027344,0|4,3:2|3:3,0:0:0:0:
344,212,182102,2,0,L|270:230,1,71.9999978027344,2|2,3:2|0:0,0:0:0:0:
392,136,182418,6,0,B|424:120|424:120|456:136,1,71.9999978027344,12|0,3:2|0:0,0:0:0:0:
344,212,182733,1,0,3:2:0:0:
392,136,182891,1,2,3:3:0:0:
500,228,183049,2,0,B|468:244|468:244|436:228,1,71.9999978027344,0|0,3:2|3:0,0:0:0:0:
340,312,183365,2,0,B|372:296|372:296|404:312,1,71.9999978027344,14|2,3:2|3:2,0:0:0:0:
256,236,183694,5,2,3:2:0:0:
140,308,183848,1,8,0:0:0:0:
124,293,183925,1,8,0:0:0:0:
111,275,184003,1,8,3:2:0:0:
102,256,184080,1,8,0:0:0:0:
97,235,184157,1,8,0:0:0:0:
96,213,184235,1,8,0:0:0:0:
98,192,184312,1,8,3:2:0:0:
105,171,184389,1,8,0:0:0:0:
115,152,184467,1,8,0:0:0:0:
129,136,184544,1,8,0:0:0:0:
144,120,184621,2,0,L|256:108,1,107.999996704102,10|0,3:2|0:0,0:0:0:0:
296,104,184931,6,0,B|348:104|364:71|364:71|380:104|432:104,1,160,6|8,3:2|0:0,0:0:0:0:
364,192,185405,1,2,0:0:0:0:
292,280,185583,2,0,P|255:295|219:280,1,80,0|0,3:2|3:2,0:0:0:0:
148,192,185897,2,0,B|176:116|120:116|148:36,1,160,10|0,0:0|3:2,0:0:0:0:
76,152,186369,1,0,0:0:0:0:
220,76,186528,6,0,P|256:60|292:76,1,80,10|0,0:0|0:0,0:0:0:0:
380,8,186845,1,0,3:2:0:0:
468,76,186999,1,0,3:2:0:0:
380,144,187154,1,10,0:0:0:0:
220,76,187308,1,0,3:0:0:0:
220,76,187386,1,0,3:0:0:0:
220,76,187463,6,0,B|160:76|160:76|124:100|124:100|68:100,1,160,6|8,3:2|0:0,0:0:0:0:
188,152,187941,2,0,B|228:152|228:152|264:172,1,80,2|0,0:0|3:2,0:0:0:0:
364,220,188260,1,0,3:2:0:0:
364,220,188420,2,0,L|440:76,1,160,10|0,0:0|3:2,0:0:0:0:
438,78,188899,1,0,0:0:0:0:
504,200,189058,6,0,L|465:273,1,80,10|0,0:0|0:0,0:0:0:0:
364,220,189377,1,0,3:2:0:0:
406,366,189533,1,0,3:2:0:0:
304,316,189689,1,10,0:0:0:0:
466,270,189845,1,8,0:0:0:0:
466,270,189923,1,8,0:0:0:0:
466,270,190002,6,0,P|502:202|466:134,1,160,6|8,3:2|0:0,0:0:0:0:
388,52,190468,1,0,0:0:0:0:
292,108,190628,2,0,P|255:123|219:108,1,80,0|0,3:2|3:2,0:0:0:0:
124,52,190947,1,10,0:0:0:0:
46,134,191106,1,2,0:0:0:0:
124,216,191266,6,0,B|169:248|169:248|185:288|185:288|234:322,1,160,0|8,3:2|0:0,0:0:0:0:
235,323,191745,1,0,0:0:0:0:
100,296,191904,2,0,L|35:250,1,80,0|0,3:2|3:2,0:0:0:0:
256,244,192223,2,0,L|321:290,1,80,8|0,0:0|3:0,0:0:0:0:
432,284,192542,6,0,B|395:258|395:258|383:235|383:235|340:205,1,120,4|0,3:2|0:0,0:0:0:0:
308,180,192857,1,8,0:0:0:0:
220,88,193015,2,0,P|256:73|292:88,1,80,0|0,0:0|3:2,0:0:0:0:
204,180,193331,1,0,3:2:0:0:
292,88,193489,1,10,0:0:0:0:
256,244,193647,1,2,3:2:0:0:
220,88,193805,6,0,B|175:88|175:88|151:76|151:76|100:76,1,120,12|0,0:0|0:0,0:0:0:0:
56,76,194120,1,10,0:0:0:0:
0,192,194278,1,0,3:2:0:0:
56,308,194436,1,14,3:2:0:0:
112,192,194594,1,8,0:0:0:0:
144,192,194673,1,8,0:0:0:0:
176,192,194752,1,10,3:2:0:0:
208,192,194831,1,8,0:0:0:0:
240,192,194910,1,8,0:0:0:0:
272,192,194989,1,8,0:0:0:0:
304,192,195068,6,0,B|360:176|360:216|424:192,1,120,14|0,3:2|0:0,0:0:0:0:
468,192,195383,1,8,3:2:0:0:
256,28,195699,1,8,3:2:0:0:
44,192,196015,1,10,3:2:0:0:
140,248,196173,1,2,3:2:0:0:
140,136,196331,5,8,3:2:0:0:
256,356,196646,1,8,3:2:0:0:
372,136,196962,2,0,B|316:120|316:160|252:136,1,120,10|0,3:2|0:0,0:0:0:0:
284,68,197278,1,10,3:2:0:0:
284,68,197436,1,0,3:0:0:0:
348,212,197594,5,8,3:2:0:0:
192,80,197752,1,8,3:2:0:0:
72,324,198068,5,8,3:2:0:0:
228,192,198225,1,8,3:2:0:0:
504,344,198541,5,10,3:2:0:0:
348,212,198699,2,0,L|232:328,1,160,10|0,3:2|0:0,0:0:0:0:
200,356,199173,1,2,0:0:0:0:
52,216,199489,1,2,0:0:0:0:
200,72,199804,1,2,0:0:0:0:
348,212,200120,6,0,P|328:248|320:172,1,200,6|0,3:2|0:0,0:0:0:0:
384,140,201068,1,2,0:0:0:0:
280,96,201225,2,0,P|216:128|184:208,1,160,2|0,0:0|0:0,0:0:0:0:
208,300,202015,5,2,0:0:0:0:
44,224,202173,1,0,3:0:0:0:
44,224,202252,1,0,3:0:0:0:
44,224,202331,2,0,L|32:104,1,107.999996704102,8|0,0:0|0:0,0:0:0:0:
112,139,202646,6,0,L|129:314,1,176.000005371094,6|10,3:2|0:0,0:0:0:0:
40,364,203120,1,2,0:0:0:0:
129,314,203278,1,0,3:2:0:0:
224,280,203436,1,2,3:2:0:0:
129,314,203594,2,0,L|120:226,1,88.000002685547,8|2,0:0|0:0,0:0:0:0:
296,136,203910,6,0,B|256:118|256:118|216:136,1,88.000002685547,0|0,3:2|0:0,0:0:0:0:
180,48,204225,2,0,B|256:4|256:4|332:48,1,176.000005371094,10|2,0:0|3:2,0:0:0:0:
416,152,204699,2,0,B|434:192|434:192|416:232,1,88.000002685547,0|10,3:2|0:0,0:0:0:0:
256,320,205015,1,8,0:0:0:0:
256,320,205094,1,8,0:0:0:0:
256,320,205173,6,0,B|224:232|288:232|256:148,1,176.000005371094,6|8,3:2|0:0,0:0:0:0:
168,232,205646,1,0,0:0:0:0:
344,228,205804,2,0,B|326:272|326:272|344:312,1,88.000002685547,0|0,3:2|3:2,0:0:0:0:
168,232,206120,2,0,B|186:192|186:192|168:152,1,88.000002685547,10|2,0:0|0:0,0:0:0:0:
320,40,206436,5,0,3:2:0:0:
192,40,206594,1,0,0:0:0:0:
256,148,206752,2,0,B|288:232|224:232|256:320,1,176.000005371094,10|2,0:0|3:2,0:0:0:0:
256,148,207225,1,0,3:2:0:0:
216,52,207383,2,0,P|256:37|296:52,1,88.000002685547,10|0,0:0|0:0,0:0:0:0:
440,56,207699,6,0,L|348:168,1,132.00000402832,6|0,3:2|0:0,0:0:0:0:
400,228,208015,2,0,L|464:148,1,88.000002685547,8|2,0:0|0:0,0:0:0:0:
472,288,208331,2,0,L|417:356,1,88.000002685547,0|0,3:0|3:2,0:0:0:0:
180,332,208646,2,0,B|224:332|256:293|256:293|288:332|332:332,1,176.000005371094,10|0,0:0|3:2,0:0:0:0:
108,256,209120,5,0,3:2:0:0:
53,86,209278,1,8,0:0:0:0:
196,191,209436,1,0,0:0:0:0:
19,191,209594,1,2,3:2:0:0:
163,86,209752,1,8,0:0:0:0:
197,80,209831,1,8,0:0:0:0:
232,74,209910,1,10,3:2:0:0:
267,68,209989,1,8,0:0:0:0:
301,62,210068,1,8,0:0:0:0:
336,56,210146,1,8,0:0:0:0:
372,52,210225,6,0,P|402:108|372:164,1,132.00000402832,6|0,3:2|0:0,0:0:0:0:
336,196,210541,1,8,0:0:0:0:
296,312,210699,2,0,P|255:327|215:312,1,88.000002685547,2|0,0:0|3:2,0:0:0:0:
176,196,211015,1,0,3:2:0:0:
216,80,211173,2,0,P|256:65|296:80,1,88.000002685547,10|0,0:0|0:0,0:0:0:0:
336,196,211489,2,0,L|384:320,1,132.00000402832,0|0,3:2|0:0,0:0:0:0:
404,360,211804,5,10,0:0:0:0:
288,316,211962,1,0,0:0:0:0:
436,216,212120,2,0,L|404:135,1,88.000002685547,2|0,3:2|3:2,0:0:0:0:
255,234,212436,2,0,L|287:315,1,88.000002685547,10|0,0:0|3:2,0:0:0:0:
152,200,212752,6,0,B|130:141|130:141|90:100|90:100|71:47,1,176.000005371094,4|8,3:2|0:0,0:0:0:0:
71,47,213225,1,0,0:0:0:0:
223,151,213383,2,0,L|255:235,1,88.000002685547,0|0,3:2|3:2,0:0:0:0:
300,348,213699,1,10,0:0:0:0:
254,233,213857,1,0,0:0:0:0:
376,256,214015,6,0,P|440:256|480:204,1,132.00000402832,2|0,3:2|0:0,0:0:0:0:
488,160,214331,1,10,3:2:0:0:
420,56,214489,1,0,0:0:0:0:
324,136,214646,1,2,3:2:0:0:
324,136,214804,1,8,0:0:0:0:
188,40,214962,1,2,3:2:0:0:
188,40,215120,1,8,0:0:0:0:
80,168,215278,6,0,P|42:243|80:319,1,176.000005371094,6|2,3:2|0:0,0:0:0:0:
176,244,215752,2,0,B|260:212|260:276|348:244,1,176.000005371094,8|0,0:0|3:2,0:0:0:0:
216,320,216225,1,8,0:0:0:0:
300,164,216383,1,0,0:0:0:0:
142,85,216541,6,0,L|302:165,1,176.000005371094,4|0,3:2|0:0,0:0:0:0:
412,216,217015,1,8,0:0:0:0:
460,104,217173,2,0,L|300:24,1,176.000005371094,2|8,0:0|0:0,0:0:0:0:
302,25,217646,1,0,0:0:0:0:
142,85,217804,6,0,B|115:141|115:141|71:178|71:178|48:229,1,176.000005371094,4|0,3:2|0:0,0:0:0:0:
0,344,218278,1,8,0:0:0:0:
48,229,218436,2,0,B|91:221|91:221|125:249,1,88.000002685547,0|0,0:0|3:2,0:0:0:0:
77,364,218752,2,0,B|33:371|33:371|0:343,1,88.000002685547,8|0,0:0|3:2,0:0:0:0:
136,166,219068,6,0,L|241:248,1,132.00000402832,12|0,0:0|0:0,0:0:0:0:
276,276,219383,1,12,0:0:0:0:
388,364,219541,1,0,3:2:0:0:
480,260,219699,1,8,3:2:0:0:
368,172,219857,5,8,0:0:0:0:
344,145,219936,1,8,0:0:0:0:
316,124,220015,1,8,0:0:0:0:
284,108,220094,1,8,0:0:0:0:
251,99,220173,1,8,0:0:0:0:
216,96,220252,1,8,0:0:0:0:
181,99,220331,1,4,3:3:0:0:
192,132,220410,1,4,3:3:0:0:
180,164,220488,1,4,3:3:0:0:
152,184,220567,1,4,3:3:0:0:
116,184,220646,6,0,L|165:354,1,176.000005371094,12|4,0:0|3:3,0:0:0:0:
164,353,221041,1,4,3:3:0:0:
164,353,221120,1,4,3:3:0:0:
256,228,221278,1,8,3:3:0:0:
348,353,221436,2,0,P|363:312|349:271,1,88.000002685547,14|0,0:0|0:0,0:0:0:0:
256,192,221752,1,0,3:0:0:0:
332,72,221910,6,0,B|256:28|256:28|180:72,1,176.000005371094,12|8,0:0|0:0,0:0:0:0:
40,136,222383,1,8,0:0:0:0:
61,163,222462,1,8,0:0:0:0:
83,190,222541,1,8,3:2:0:0:
105,218,222620,1,8,0:0:0:0:
127,245,222699,1,8,0:0:0:0:
149,273,222778,1,8,0:0:0:0:
172,300,222857,6,0,B|256:268|256:332|344:300,1,176.000005371094,6|10,3:2|0:0,0:0:0:0:
216,372,223331,1,2,0:0:0:0:
256,216,223489,2,0,B|296:234|296:234|336:216,1,88.000002685547,0|2,3:2|3:2,0:0:0:0:
416,104,223804,2,0,B|376:86|376:86|336:104,1,88.000002685547,8|2,0:0|0:0,0:0:0:0:
148,108,224120,6,0,L|308:20,1,176.000005371094,0|10,3:2|0:0,0:0:0:0:
148,108,224594,1,0,0:0:0:0:
56,60,224752,1,2,3:2:0:0:
32,164,224910,1,0,3:2:0:0:
148,108,225068,2,0,B|166:148|166:148|148:188,1,88.000002685547,10|8,0:0|0:0,0:0:0:0:
116,224,225304,1,8,0:0:0:0:
116,224,225383,6,0,L|288:280,1,176.000005371094,6|8,3:2|0:0,0:0:0:0:
396,324,225857,1,0,0:0:0:0:
282,197,226015,2,0,P|267:237|282:277,1,88.000002685547,0|0,3:2|3:2,0:0:0:0:
404,192,226331,2,0,P|418:151|403:111,1,88.000002685547,10|2,0:0|0:0,0:0:0:0:
256,24,226646,5,0,3:2:0:0:
256,128,226804,1,0,0:0:0:0:
84,23,226962,2,0,B|168:-9|168:55|256:23,1,176.000005371094,10|2,0:0|3:2,0:0:0:0:
128,116,227436,1,0,3:2:0:0:
84,23,227594,1,10,0:0:0:0:
8,112,227752,1,0,3:0:0:0:
128,116,227910,6,0,L|96:296,1,176.000005371094,6|8,3:2|0:0,0:0:0:0:
208,252,228383,1,2,0:0:0:0:
378,307,228541,1,0,3:2:0:0:
273,164,228699,1,0,3:2:0:0:
273,341,228857,1,10,0:0:0:0:
378,197,229015,1,2,0:0:0:0:
273,341,229173,6,0,L|312:244,1,88.000002685547,0|0,3:2|3:2,0:0:0:0:
332,96,229489,2,0,B|288:96|256:57|256:57|224:96|180:96,1,176.000005371094,8|2,0:0|3:2,0:0:0:0:
60,284,229962,1,8,0:0:0:0:
36,258,230041,1,8,0:0:0:0:
23,225,230120,1,10,3:2:0:0:
23,190,230199,1,8,0:0:0:0:
23,159,230278,1,8,0:0:0:0:
36,126,230357,1,8,0:0:0:0:
60,100,230436,6,0,L|224:168,1,176.000005371094,6|8,3:2|0:0,0:0:0:0:
264,40,230910,2,0,L|177:4,1,88.000002685547,2|0,0:0|3:2,0:0:0:0:
182,6,231225,1,0,3:2:0:0:
332,128,231383,2,0,P|408:166|484:128,1,176.000005371094,10|0,0:0|3:2,0:0:0:0:
408,20,231857,1,0,0:0:0:0:
483,128,232015,2,0,P|498:168|483:208,1,88.000002685547,10|0,0:0|0:0,0:0:0:0:
332,208,232331,2,0,P|316:167|331:127,1,88.000002685547,2|0,3:2|3:2,0:0:0:0:
408,20,232646,1,10,0:0:0:0:
331,127,232804,1,0,3:0:0:0:
232,280,232962,6,0,B|169:280|169:280|117:256|117:256|61:256,1,176.000005371094,4|8,3:2|0:0,0:0:0:0:
61,256,233436,1,0,0:0:0:0:
184,200,233594,2,0,B|228:200|228:200|268:172,1,88.000002685547,0|0,3:2|3:2,0:0:0:0:
92,336,233910,2,0,B|48:336|48:336|8:364,1,88.000002685547,10|0,0:0|0:0,0:0:0:0:
232,280,234225,2,0,B|316:248|316:312|404:280,1,176.000005371094,2|10,3:2|0:0,0:0:0:0:
276,352,234699,1,0,0:0:0:0:
360,208,234857,2,0,P|375:168|360:128,1,88.000002685547,2|0,3:2|3:2,0:0:0:0:
256,40,235173,1,10,0:0:0:0:
359,127,235331,1,0,3:2:0:0:
153,127,235489,6,0,B|77:83|77:83|1:127,1,176.000005371094,6|8,3:2|0:0,0:0:0:0:
76,236,235962,1,2,0:0:0:0:
153,127,236120,2,0,L|236:176,1,88.000002685547,0|0,3:2|3:2,0:0:0:0:
227,325,236436,2,0,L|76:236,1,176.000005371094,10|0,0:0|3:2,0:0:0:0:
0,127,236910,1,0,0:0:0:0:
112,56,237068,2,0,P|152:41|192:56,1,88.000002685547,8|0,0:0|0:0,0:0:0:0:
292,144,237383,1,2,3:2:0:0:
392,232,237541,1,0,3:2:0:0:
488,144,237699,1,10,0:0:0:0:
388,56,237857,1,0,3:2:0:0:
272,172,238015,6,0,P|231:187|191:172,1,88.000002685547,4|0,3:2|3:2,0:0:0:0:
112,44,238331,2,0,P|152:28|192:43,1,88.000002685547,8|0,0:0|3:2,0:0:0:0:
272,172,238646,1,0,3:2:0:0:
292,200,238725,1,0,3:0:0:0:
320,224,238804,1,8,0:0:0:0:
352,240,238883,1,8,0:0:0:0:
388,248,238962,1,10,3:2:0:0:
424,240,239041,1,8,0:0:0:0:
456,224,239120,1,10,0:0:0:0:
484,200,239199,1,8,0:0:0:0:
504,172,239278,5,4,3:2:0:0:
324,28,239594,1,2,0:0:0:0:
388,248,239910,1,2,0:0:0:0:
208,104,240225,1,2,0:0:0:0:
80,220,240383,1,2,0:0:0:0:
80,220,240462,1,2,0:0:0:0:
80,220,240541,6,0,P|147:255|215:219,1,160,6|8,3:2|0:0,0:0:0:0:
348,164,241015,1,2,0:2:0:0:
348,164,241094,1,2,0:2:0:0:
348,164,241173,2,0,P|415:128|483:163,1,160,2|10,3:2|0:0,0:0:0:0:
324,348,241646,1,2,0:2:0:0:
324,348,241725,1,2,0:2:0:0:
324,348,241804,6,0,B|272:348|256:315|256:315|240:348|188:348,1,160,2|8,3:2|0:0,0:0:0:0:
256,232,242278,1,2,0:2:0:0:
256,232,242357,1,2,0:2:0:0:
256,232,242436,2,0,B|228:152|284:152|256:76,1,160,2|10,3:2|0:0,0:0:0:0:
256,76,242910,1,0,3:0:0:0:
344,228,243068,6,0,B|327:192|327:192|344:156,1,80,6|0,3:2|0:0,0:0:0:0:
168,80,243383,2,0,B|185:116|185:116|168:152,1,80,8|2,0:0|0:0,0:0:0:0:
117,306,243699,1,2,3:2:0:0:
67,152,243857,1,2,3:2:0:0:
197,247,244015,1,10,0:0:0:0:
36,247,244173,1,2,0:0:0:0:
167,152,244331,6,0,B|247:124|247:180|323:152,1,160,2|8,3:2|0:0,0:0:0:0:
420,80,244804,1,0,0:0:0:0:
322,152,244962,1,2,3:2:0:0:
420,220,245120,1,0,3:2:0:0:
320,288,245278,1,10,0:0:0:0:
320,288,245357,1,8,0:0:0:0:
320,288,245436,1,2,3:2:0:0:
322,152,245594,6,0,B|246:180|246:124|166:152,1,160,6|8,3:2|0:0,0:0:0:0:
52,88,246068,1,2,0:0:0:0:
52,88,246146,1,2,0:0:0:0:
52,88,246225,2,0,B|52:140|19:156|19:156|52:172|52:224,1,160,2|10,3:2|0:0,0:0:0:0:
184,336,246699,1,2,0:0:0:0:
184,336,246778,1,2,0:0:0:0:
184,336,246857,6,0,B|256:300|256:300|328:336,1,160,2|8,3:2|0:0,0:0:0:0:
292,212,247331,1,2,0:0:0:0:
292,212,247410,1,2,0:0:0:0:
292,212,247489,2,0,B|256:195|256:195|220:212,1,80,2|2,3:2|3:2,0:0:0:0:
220,112,247804,2,0,B|256:95|256:95|292:112,1,80,10|0,0:0|3:2,0:0:0:0:
103,183,248120,5,6,3:2:0:0:
220,112,248278,1,0,0:0:0:0:
118,24,248436,2,0,L|102:196,1,160,10|6,0:0|3:2,0:0:0:0:
92,312,248910,1,0,3:0:0:0:
103,183,249068,1,10,0:0:0:0:
28,244,249225,1,0,0:0:0:0:
288,180,249383,5,6,3:2:0:0:
172,252,249541,1,0,3:2:0:0:
274,340,249699,2,0,L|290:168,1,160,8|6,0:0|3:2,0:0:0:0:
296,64,250173,1,8,0:0:0:0:
412,124,250331,1,10,0:0:0:0:
409,155,250410,1,8,0:0:0:0:
406,187,250489,1,10,0:0:0:0:
403,219,250568,1,8,0:0:0:0:
404,252,250646,2,0,P|356:252|304:312,1,120,10|0,3:2|0:0,0:0:0:0:
288,340,250962,5,6,3:2:0:0:
168,340,251120,2,0,B|132:357|132:357|96:340,1,80,2|0,0:0|3:2,0:0:0:0:
16,248,251436,1,2,3:2:0:0:
96,156,251594,2,0,B|132:139|132:139|168:156,1,80,10|2,0:0|0:0,0:0:0:0:
244,248,251910,1,0,3:2:0:0:
168,340,252068,1,2,0:0:0:0:
244,248,252225,6,0,B|300:228|300:268|364:248,1,120,10|0,0:0|0:0,0:0:0:0:
408,248,252541,1,2,3:2:0:0:
488,160,252699,1,2,3:2:0:0:
408,68,252857,1,8,0:0:0:0:
488,160,253015,1,2,3:2:0:0:
292,112,253173,6,0,P|255:96|219:111,1,80,2|2,3:2|0:0,0:0:0:0:
128,192,253489,1,8,0:0:0:0:
219,272,253646,1,2,0:0:0:0:
219,272,253725,1,2,0:0:0:0:
219,272,253804,2,0,P|255:287|292:272,1,80,2|2,3:2|3:2,0:0:0:0:
384,192,254120,5,10,0:0:0:0:
292,112,254278,1,2,0:0:0:0:
292,112,254357,1,2,0:0:0:0:
292,112,254436,2,0,L|336:44,1,80,0|2,3:2|0:0,0:0:0:0:
256,192,254752,1,8,0:0:0:0:
176,44,254910,2,0,L|220:112,1,80,2|0,0:0|3:2,0:0:0:0:
340,288,255225,5,10,0:0:0:0:
316,308,255304,1,8,0:0:0:0:
288,324,255383,1,8,3:2:0:0:
256,328,255462,1,8,0:0:0:0:
224,324,255541,1,10,0:0:0:0:
196,308,255620,1,8,0:0:0:0:
172,288,255699,6,0,P|104:323|36:287,1,160,6|8,3:2|0:0,0:0:0:0:
68,172,256173,2,0,P|104:156|140:172,1,80,2|0,0:0|3:2,0:0:0:0:
244,232,256489,1,2,3:2:0:0:
312,132,256646,1,10,0:0:0:0:
208,72,256804,1,2,0:0:0:0:
140,172,256962,1,0,3:2:0:0:
268,248,257120,5,2,0:0:0:0:
268,248,257199,1,2,0:0:0:0:
268,248,257278,2,0,P|304:263|340:247,1,80,10|2,0:0|0:0,0:0:0:0:
384,131,257594,2,0,P|347:115|311:131,1,80,2|2,3:2|3:2,0:0:0:0:
184,240,257910,1,10,0:0:0:0:
184,240,258068,1,2,3:2:0:0:
88,96,258225,5,4,3:2:0:0:
184,24,258383,1,2,0:0:0:0:
184,24,258462,1,2,0:0:0:0:
184,24,258541,2,0,P|220:9|256:24,1,80,10|2,0:0|0:0,0:0:0:0:
352,96,258857,1,0,3:2:0:0:
256,24,259015,1,2,3:2:0:0:
240,144,259173,1,10,0:0:0:0:
220,308,259331,6,0,L|340:324,1,120,6|0,3:2|0:0,0:0:0:0:
384,328,259646,1,10,0:0:0:0:
480,232,259804,1,2,3:2:0:0:
384,136,259962,1,2,3:2:0:0:
500,248,260120,1,0,3:2:0:0:
364,120,260278,5,4,3:3:0:0:
342,96,260357,1,4,3:3:0:0:
315,80,260436,1,4,3:3:0:0:
284,72,260515,1,4,3:3:0:0:
252,72,260594,1,4,3:3:0:0:
221,82,260673,1,4,3:3:0:0:
195,100,260752,6,0,B|143:100|127:67|127:67|111:100|59:100,1,160,4|2,3:2|0:0,0:0:0:0:
188,304,261383,1,2,0:0:0:0:
188,304,261541,2,0,B|240:304|256:337|256:337|272:304|324:304,1,160,2|0,0:0|0:0,0:0:0:0:
328,184,262015,2,0,B|256:220|256:220|184:184,1,160,2|0,0:0|0:0,0:0:0:0:
188,64,262489,2,0,P|255:99|323:64,1,160,2|0,0:0|0:0,0:0:0:0:
436,112,262962,2,0,B|464:192|408:192|436:268,1,160,2|0,0:0|0:0,0:0:0:0:
208,340,263594,6,0,B|148:340|148:340|112:316|112:316|56:316,1,160,2|0,0:0|0:0,0:0:0:0:
176,256,264068,2,0,B|236:256|236:256|272:280|272:280|328:280,1,160,2|0,0:0|0:0,0:0:0:0:
256,192,264541,12,0,265804,0:0:0:0:
