osu file format v14

[General]
AudioFilename: audio.mp3
AudioLeadIn: 0
PreviewTime: 146866
Countdown: 0
SampleSet: Soft
StackLeniency: 0.7
Mode: 0
LetterboxInBreaks: 0
WidescreenStoryboard: 1

[Editor]
DistanceSpacing: 2.2
BeatDivisor: 4
GridSize: 4
TimelineZoom: 1.4

[Metadata]
Title:Heart no Iro
TitleUnicode:ハートノイロ
Artist:Minase Inori
ArtistUnicode:水瀬 いのり
Creator:Sekai
Version:kusano's Insane
Source:
Tags:Sekaii Sekai-nyan SkyFlame Heart's Color Blue Compass kusano AsuKow - ex - -_ex_- japanese jpop j-pop pop
BeatmapID:3297595
BeatmapSetID:1615138

[Difficulty]
HPDrainRate:6
CircleSize:4
OverallDifficulty:7
ApproachRate:9
SliderMultiplier:1.56
SliderTickRate:1

[Events]
//Background and Video events
0,0,"snowwhitebg.jpg",0,0
//Break Periods
2,101983,107813
2,176237,184388
//Storyboard Layer 0 (Background)
//Storyboard Layer 1 (Fail)
//Storyboard Layer 2 (Pass)
//Storyboard Layer 3 (Foreground)
//Storyboard Layer 4 (Overlay)
//Storyboard Sound Samples

[TimingPoints]
12944,331.491712707182,4,2,1,60,1,0
13937,-100,4,2,2,60,0,0
15264,-100,4,2,1,60,0,0
15595,-100,4,2,2,60,0,0
15926,-100,4,2,1,60,0,0
16756,-100,4,2,2,60,0,0
17750,-100,4,2,1,60,0,0
18247,-100,4,2,2,60,0,0
19739,-100,4,2,1,60,0,0
20899,-100,4,2,2,60,0,0
21728,-100,4,2,1,60,0,0
22060,-100,4,2,2,60,0,0
24214,-100,4,2,3,60,0,0
24546,-100,4,2,4,60,0,0
24711,-100,4,2,2,60,0,0
25872,-100,4,2,2,60,0,0
26203,-111.111111111111,4,2,2,60,0,0
30844,-111.111111111111,4,2,1,60,0,0
31507,-100,4,2,2,60,0,0
47087,-100,4,2,1,60,0,0
47419,-100,4,2,2,60,0,0
57695,-100,4,2,1,60,0,0
58026,-100,4,2,2,60,0,0
62667,-100,4,2,1,60,0,0
63330,-100,4,2,2,60,0,0
68634,-250,4,2,2,60,0,0
71286,-90.9090909090909,4,2,3,70,0,1
72446,-90.9090909090909,4,2,2,70,0,1
81313,-90.9090909090909,4,2,1,70,0,1
81894,-90.9090909090909,4,2,3,70,0,1
83054,-90.9090909090909,4,2,2,70,0,1
89850,-100,4,2,1,60,0,0
93330,-100,4,2,1,50,0,0
93662,-100,4,2,2,60,0,0
94656,-100,4,2,1,60,0,0
95153,-100,4,2,2,60,0,0
98303,-100,4,2,1,60,0,0
98966,-100,4,2,2,60,0,0
99960,-100,4,2,1,60,0,0
100457,-100,4,2,2,60,0,0
101452,-100,4,2,1,60,0,0
101783,-100,4,2,2,60,0,0
108413,-100,4,2,1,60,0,0
108745,-100,4,2,2,60,0,0
109076,-100,4,2,1,60,0,0
109739,-100,4,2,2,60,0,0
110236,-100,4,2,1,60,0,0
111562,-100,4,2,3,60,0,0
111894,-100,4,2,1,60,0,0
112060,-100,4,2,2,60,0,0
120678,-100,4,2,1,60,0,0
121010,-100,4,2,2,60,0,0
122667,-100,4,2,1,60,0,0
122999,-125,4,2,2,60,0,0
127805,-125,4,2,1,60,0,0
128303,-111.111111111111,4,2,2,60,0,0
133275,-111.111111111111,4,2,1,60,0,0
133606,-100,4,2,2,60,0,0
138413,-100,4,2,1,60,0,0
138910,-100,4,2,2,60,0,0
144214,-250,4,2,2,60,0,0
146203,-250,4,2,1,60,0,0
146866,-142.857142857143,4,2,1,60,0,0
147198,-90.9090909090909,4,2,3,70,0,1
148026,-90.9090909090909,4,2,2,70,0,1
156977,-90.9090909090909,4,2,1,70,0,1
157474,-90.9090909090909,4,2,2,70,0,1
159463,-90.9090909090909,4,2,1,70,0,1
160126,-90.9090909090909,4,2,2,70,0,1
160788,-90.9090909090909,4,2,1,70,0,1
161286,-90.9090909090909,4,2,2,70,0,1
162115,-90.9090909090909,4,2,1,70,0,1
162778,-90.9090909090909,4,2,2,70,0,1
165264,-90.9090909090909,4,2,1,70,0,1
165430,-100,4,2,3,60,0,0
166093,-100,4,2,1,60,0,0
166590,-100,4,2,2,60,0,0
167253,-100,4,2,1,60,0,0
168082,-100,4,2,2,60,0,0
168578,-100,4,2,1,60,0,0
169242,-100,4,2,2,60,0,0
170568,-100,4,2,3,60,0,0
170734,-100,4,2,2,60,0,0
174048,-100,4,2,1,60,0,0
174546,-100,4,2,2,60,0,0
175540,-100,4,2,1,60,0,0
175706,-100,4,2,2,60,0,0
176037,-100,4,2,1,60,0,0
184988,-125,4,2,5,60,0,0
185319,-125,4,2,2,60,0,0
185816,-125,4,2,1,60,0,0
186645,-125,4,2,2,60,0,0
187474,-125,4,2,1,60,0,0
187639,-125,4,2,2,60,0,0
187805,-125,4,2,1,60,0,0
187970,-125,4,2,2,60,0,0
188800,-125,4,2,1,60,0,0
189297,-125,4,2,2,60,0,0
190788,-125,4,2,1,60,0,0
191949,-125,4,2,2,60,0,0
192777,-125,4,2,1,60,0,0
192943,-125,4,2,2,60,0,0
193108,-125,4,2,1,60,0,0
193275,-125,4,2,2,60,0,0
193772,-125,4,2,1,60,0,0
194269,-125,4,2,2,60,0,0
195264,-125,4,2,1,60,0,0
195595,-125,4,2,2,60,0,0
195761,-100,4,2,2,60,0,0
197253,-100,4,2,2,60,0,0
200734,-100,4,2,1,60,0,0
201065,-100,4,2,2,60,0,0
209684,-100,4,2,1,60,0,0
213164,-90.9090909090909,4,2,1,70,0,1
214325,-90.9090909090909,4,2,2,70,0,1
221120,-90.9090909090909,4,2,1,70,0,1
222281,-90.9090909090909,4,2,2,70,0,1
226093,-90.9090909090909,4,2,1,70,0,1
226424,-90.9090909090909,4,2,2,70,0,1
228413,-90.9090909090909,4,2,1,70,0,1
229076,-100,4,2,1,60,0,0
231397,-100,4,2,2,60,0,0
232723,-100,4,2,1,60,0,0
233054,-166.666666666667,4,2,2,60,0,0
234380,-100,4,2,1,60,0,0
235374,-100,4,2,2,60,0,0
236700,-100,4,2,1,60,0,0
237032,-100,4,2,2,60,0,0
237363,-100,4,2,1,60,0,0
238192,-100,4,2,2,60,0,0
240513,-100,4,2,1,60,0,0
240844,-100,4,2,2,60,0,0
241176,-100,4,2,1,60,0,0
242336,-100,4,2,2,60,0,0
247142,-100,4,2,1,60,0,0
248468,-100,4,2,2,60,0,0
248800,-100,4,2,1,60,0,0
249794,-100,4,2,1,5,0,0

[Colours]
Combo1 : 255,157,157
Combo2 : 224,27,56
SliderBorder : 255,255,255
SliderTrackOverride : 255,157,157

[HitObjects]
456,96,12943,6,0,P|381:84|324:133,1,156,6|2,1:2|3:3,0:0:0:0:
308,220,13441,2,0,L|320:304,1,78,2|0,2:2|0:0,0:0:0:0:
468,168,13772,2,0,L|456:84,1,78,2|2,2:2|3:3,0:0:0:0:
264,72,14104,6,0,P|189:83|132:34,1,156,6|0,1:2|0:0,0:0:0:0:
48,16,14601,2,0,P|-8:64|0:144,1,156,2|0,3:3|0:0,0:0:0:0:
40,216,15098,1,2,2:2:0:0:
120,176,15264,1,2,3:3:0:0:
168,248,15430,1,2,2:2:0:0:
168,248,15513,1,0,0:0:0:0:
168,248,15595,6,0,P|243:259|300:210,1,156,4|2,1:2|3:3,0:0:0:0:
344,104,16093,2,0,P|269:93|212:142,1,156,2|0,2:2|0:0,0:0:0:0:
300,209,16590,1,2,3:3:0:0:
300,209,16756,6,0,P|375:198|432:247,1,156,6|0,1:2|0:0,0:0:0:0:
452,332,17253,1,0,0:0:0:0:
348,288,17419,2,0,L|256:300,1,78,6|0,1:2|0:0,0:0:0:0:
196,248,17750,1,8,3:3:0:0:
196,248,17916,2,0,L|104:260,1,78,4|0,3:3|1:1,0:0:0:0:
32,236,18247,6,0,P|12:160|52:92,1,156,6|2,1:2|1:2,0:0:0:0:
124,52,18745,2,0,L|216:56,1,78,2|8,1:2|2:2,0:0:0:0:
325,124,19076,2,0,L|248:128,1,78,2|0,2:2|1:1,0:0:0:0:
376,48,19408,5,6,1:2:0:0:
376,48,19739,2,0,L|468:52,2,78,8|4|4,3:3|3:3|3:3,0:0:0:0:
504,128,20236,2,0,P|508:168|488:212,1,78,8|2,2:2|1:2,0:0:0:0:
384,280,20568,2,0,P|380:240|400:196,1,78,2|2,2:2|2:2,0:0:0:0:
172,128,20899,6,0,P|252:144|308:92,1,156,4|2,1:2|2:2,0:0:0:0:
136,32,21397,2,0,P|56:16|0:68,1,156,2|8,1:2|3:3,0:0:0:0:
0,148,21894,1,6,3:3:0:0:
0,148,22060,6,0,L|16:240,1,78,6|0,1:2|0:0,0:0:0:0:
188,188,22391,2,0,L|174:111,1,78,0|8,1:1|2:2,0:0:0:0:
32,316,22723,2,0,P|91:362|164:344,1,156,6|0,1:2|1:1,0:0:0:0:
216,272,23220,1,8,2:2:0:0:
216,272,23551,5,0,1:1:0:0:
368,224,23717,2,0,P|380:296|336:368,1,156,14|2,2:2|1:2,0:0:0:0:
128,268,24214,2,0,P|136:228|168:200,1,78,14|2,3:3|1:2,0:0:0:0:
248,184,24546,1,14,3:3:0:0:
40,296,24711,6,0,P|28:224|72:148,2,156,6|6|6,1:2|1:2|1:2,0:0:0:0:
136,208,25540,2,0,L|224:212,1,78,2|0,2:2|1:1,0:0:0:0:
352,144,25872,2,0,L|264:140,1,78,8|0,2:2|0:0,0:0:0:0:
220,68,26203,5,6,1:2:0:0:
160,136,26369,1,2,1:2:0:0:
220,68,27032,1,2,2:2:0:0:
300,224,27198,1,10,2:2:0:0:
160,136,27363,1,6,1:2:0:0:
312,56,27695,5,0,1:1:0:0:
213,211,27861,2,0,P|144:232|80:184,2,140.399995715332,6|2|10,1:2|2:2|2:2,0:0:0:0:
404,60,28855,6,0,P|448:112|444:192,1,140.399995715332,6|2,1:2|2:2,0:0:0:0:
396,256,29352,2,0,L|320:248,1,70.1999978576661,2|8,2:2|2:2,0:0:0:0:
252,196,29684,2,0,L|172:204,1,70.1999978576661,2|0,2:2|1:1,0:0:0:0:
92,212,30015,1,6,1:2:0:0:
92,212,30347,5,0,1:1:0:0:
208,108,30513,1,4,1:2:0:0:
208,108,30844,5,10,3:3:0:0:
140,48,31010,1,0,1:1:0:0:
140,48,31093,1,0,1:1:0:0:
140,48,31176,2,0,P|88:36|32:72,1,105.299996786499,10|0,2:2|0:0,0:0:0:0:
20,96,31507,6,0,P|6:133|0:180,1,78,6|0,1:2|0:0,0:0:0:0:
144,260,31839,2,0,P|158:223|164:176,1,78,10|2,2:2|2:2,0:0:0:0:
4,256,32170,2,0,L|20:336,1,78,0|2,1:1|1:2,0:0:0:0:
144,260,32502,1,8,2:2:0:0:
112,344,32667,1,2,2:2:0:0:
264,316,32833,6,0,L|248:236,1,78,0|0,1:1|0:0,0:0:0:0:
112,176,33164,1,8,2:2:0:0:
144,260,33329,1,0,0:0:0:0:
16,156,33496,2,0,L|32:76,1,78,2|0,1:2|1:1,0:0:0:0:
264,163,33827,2,0,L|248:243,1,78,10|0,2:2|0:0,0:0:0:0:
124,84,34159,6,0,P|180:36|264:52,1,156,2|10,1:2|2:2,0:0:0:0:
328,100,34656,1,2,2:2:0:0:
200,192,34822,2,0,L|206:114,1,78,0|2,1:1|1:2,0:0:0:0:
380,32,35153,2,0,P|412:72|404:144,1,117,8|0,2:2|0:0,0:0:0:0:
380,168,35485,5,2,1:2:0:0:
480,16,35651,1,0,1:1:0:0:
328,100,35816,2,0,P|296:140|304:212,1,117,8|0,2:2|0:0,0:0:0:0:
328,236,36148,1,2,2:2:0:0:
228,84,36314,1,0,1:1:0:0:
380,168,36479,1,8,2:2:0:0:
248,284,36645,1,8,2:2:0:0:
248,284,36728,1,8,2:2:0:0:
248,284,36811,6,0,P|176:300|116:244,1,156,6|8,1:2|2:2,0:0:0:0:
104,164,37308,1,0,0:0:0:0:
0,292,37474,2,0,P|8:256|36:220,1,78,0|2,1:1|1:2,0:0:0:0:
192,192,37805,1,10,2:2:0:0:
176,104,37971,6,0,P|168:68|140:32,2,78,2|0|0,1:2|1:1|0:0,0:0:0:0:
120,248,38468,2,0,P|128:284|156:320,1,78,10|0,2:2|0:0,0:0:0:0:
224,364,38800,1,2,1:2:0:0:
308,272,38966,1,0,1:1:0:0:
308,272,39048,1,0,1:1:0:0:
308,272,39131,2,0,L|224:276,1,78,10|0,2:2|0:0,0:0:0:0:
404,355,39463,6,0,P|451:296|432:224,1,156,2|10,1:2|2:2,0:0:0:0:
299,194,39960,2,0,P|302:233|311:294,1,78,2|0,1:2|0:0,0:0:0:0:
380,144,40292,2,0,P|376:104|368:44,1,78,2|8,1:2|2:2,0:0:0:0:
212,156,40623,6,0,P|136:144|76:200,1,156,2|0,2:2|1:1,0:0:0:0:
52,276,41120,1,8,2:2:0:0:
0,152,41286,1,0,0:0:0:0:
160,228,41452,2,0,L|148:316,1,78,2|0,1:2|1:1,0:0:0:0:
64,88,41783,2,0,L|76:0,1,78,10|0,2:2|0:0,0:0:0:0:
308,152,42115,6,0,P|232:164|172:108,1,156,2|10,1:2|2:2,0:0:0:0:
320,20,42612,2,0,P|360:20|404:44,1,78,2|0,2:2|1:1,0:0:0:0:
328,240,42943,2,0,P|288:240|244:216,1,78,2|8,1:2|2:2,0:0:0:0:
256,84,43275,1,2,2:2:0:0:
392,120,43441,6,0,P|444:172|436:256,1,156,2|8,1:2|2:2,0:0:0:0:
380,316,43938,1,2,2:2:0:0:
304,268,44104,2,0,P|228:256|164:320,1,156,2|8,1:2|2:2,0:0:0:0:
140,384,44601,1,2,2:2:0:0:
8,324,44767,6,0,L|88:312,1,78,6|0,1:2|0:0,0:0:0:0:
140,384,45098,1,8,2:2:0:0:
32,232,45264,2,0,P|28:192|44:148,1,78,0|0,1:1|1:1,0:0:0:0:
92,84,45595,1,0,0:0:0:0:
32,232,45761,1,8,2:2:0:0:
205,175,45927,6,0,L|128:164,1,78,2|0,1:2|0:0,0:0:0:0:
208,320,46258,2,0,L|285:308,1,78,2|8,1:2|2:2,0:0:0:0:
372,296,46590,1,0,1:1:0:0:
205,175,46756,1,0,1:1:0:0:
285,308,46921,1,8,2:2:0:0:
416,220,47087,1,10,3:3:0:0:
428,208,47170,1,0,0:0:0:0:
436,192,47253,1,4,3:3:0:0:
440,176,47336,1,0,0:0:0:0:
440,160,47419,6,0,P|416:88|352:44,1,156,6|8,1:2|2:2,0:0:0:0:
264,32,47916,2,0,L|172:44,2,78,2|0|0,2:2|1:1|1:1,0:0:0:0:
140,116,48413,2,0,P|108:92|96:52,1,78,10|0,2:2|0:0,0:0:0:0:
296,116,48745,5,0,1:1:0:0:
340,192,48910,1,0,1:1:0:0:
316,276,49076,2,0,P|292:308|236:328,1,78,8|0,2:2|1:1,0:0:0:0:
52,260,49408,1,2,2:2:0:0:
124,208,49573,2,0,L|136:164,2,39,0|2|8,1:1|2:2|2:2,0:0:0:0:
136,296,49905,1,2,1:2:0:0:
220,168,50071,6,0,P|176:96|108:92,1,156,2|8,1:2|2:2,0:0:0:0:
48,152,50568,1,0,0:0:0:0:
216,256,50734,2,0,P|280:240|308:156,1,156,2|10,1:2|2:2,0:0:0:0:
280,80,51231,1,2,2:2:0:0:
412,100,51397,6,0,L|400:184,1,78,0|0,1:1|1:1,0:0:0:0:
296,240,51728,2,0,L|307:317,1,78,8|0,2:2|1:1,0:0:0:0:
128,300,52060,1,2,0:2:0:0:
136,296,52142,1,2,0:2:0:0:
144,296,52225,1,2,1:2:0:0:
152,300,52308,1,0,0:2:0:0:
156,308,52391,2,0,P|116:348|56:340,1,117,10|0,2:2|1:1,0:0:0:0:
28,312,52723,6,0,L|32:232,1,78,2|0,1:2|0:0,0:0:0:0:
36,144,53054,1,10,2:2:0:0:
208,232,53220,2,0,L|204:152,1,78,2|0,1:2|0:0,0:0:0:0:
32,66,53551,2,0,L|35:143,1,78,2|8,1:2|2:2,0:0:0:0:
256,88,53883,1,2,1:2:0:0:
256,88,53966,1,0,1:1:0:0:
256,88,54048,6,0,P|180:72|124:124,1,156,0|10,1:1|2:2,0:0:0:0:
108,208,54546,1,0,0:0:0:0:
292,164,54711,2,0,L|289:241,1,78,2|0,1:2|1:1,0:0:0:0:
104,285,55043,2,0,L|108:205,1,78,10|0,2:2|0:0,0:0:0:0:
368,284,55374,6,0,P|310:332|237:316,1,156,2|8,1:2|2:2,0:0:0:0:
192,240,55872,1,0,1:1:0:0:
292,164,56037,2,0,L|396:172,1,78,0|0,0:0|1:1,0:0:0:0:
180,120,56369,2,0,L|76:128,1,78,8|0,2:2|0:0,0:0:0:0:
264,72,56700,5,0,1:1:0:0:
208,212,56866,1,0,1:1:0:0:
292,164,57032,1,8,2:2:0:0:
180,120,57198,1,0,0:0:0:0:
264,72,57363,5,0,1:1:0:0:
120,188,57529,1,8,2:2:0:0:
292,256,57695,1,10,3:3:0:0:
180,120,57861,1,4,3:3:0:0:
140,272,58026,6,0,P|148:344|220:380,1,156,6|8,1:2|2:2,0:0:0:0:
56,252,58524,2,0,P|28:268|0:300,2,39,2|0|0,2:2|0:0|0:0,0:0:0:0:
220,296,58855,1,0,1:1:0:0:
52,356,59021,2,0,L|28:176,1,156,10|0,2:2|1:1,0:0:0:0:
20,116,59518,5,0,1:1:0:0:
20,116,59684,2,0,P|61:110|108:132,1,78,8|0,2:2|1:1,0:0:0:0:
168,172,60015,2,0,P|224:180|276:144,1,117,2|2,2:2|2:2,0:0:0:0:
292,108,60347,1,8,2:2:0:0:
136,252,60513,1,2,2:2:0:0:
204,96,60678,6,0,L|196:16,2,78,2|0|8,1:2|1:1|2:2,0:0:0:0:
352,168,61176,1,2,2:2:0:0:
236,224,61341,1,2,1:2:0:0:
292,108,61507,1,8,2:2:0:0:
416,228,61673,1,10,2:2:0:0:
268,352,61839,6,0,B|228:280|184:344|140:232,1,156,6|0,1:2|1:1,0:0:0:0:
32,356,62336,2,0,P|72:360|116:340,1,78,8|0,2:2|0:0,0:0:0:0:
236,224,62667,2,0,L|228:176,1,39,8|4,3:3|3:3,0:0:0:0:
156,92,62833,2,0,L|148:140,1,39,0|8,1:1|2:2,0:0:0:0:
80,200,62999,2,0,P|52:168|48:128,1,78,10|8,2:2|3:3,0:0:0:0:
216,24,63330,6,0,P|244:56|248:96,1,78,6|0,1:2|0:0,0:0:0:0:
335,87,63662,2,0,P|333:126|311:157,1,78,8|2,2:2|2:2,0:0:0:0:
103,288,63993,6,0,P|72:266|58:231,1,78,8|0,2:2|1:1,0:0:0:0:
148,129,64325,2,0,P|133:165|141:203,1,78,10|0,2:2|1:1,0:0:0:0:
375,221,64656,6,0,P|398:190|400:152,1,78,8|0,2:2|1:1,0:0:0:0:
372,314,64988,2,0,P|410:307|439:282,1,78,8|0,2:2|1:1,0:0:0:0:
192,260,65319,6,0,P|197:296|182:332,1,78,10|0,2:2|1:1,0:0:0:0:
44,333,65651,2,0,P|79:318|103:288,1,78,10|2,2:2|1:2,0:0:0:0:
140,132,65982,5,12,2:2:0:0:
216,88,66148,1,0,0:0:0:0:
216,176,66314,1,8,2:2:0:0:
140,220,66479,1,0,0:0:0:0:
296,224,66645,5,8,2:2:0:0:
296,136,66811,1,0,1:1:0:0:
372,180,66977,1,8,2:2:0:0:
372,268,67142,1,0,1:1:0:0:
140,220,67308,5,8,2:2:0:0:
140,308,67474,1,0,1:1:0:0:
64,352,67640,1,8,2:2:0:0:
64,264,67805,1,8,2:2:0:0:
140,308,67971,5,8,2:2:0:0:
64,172,68137,1,8,2:2:0:0:
220,264,68303,1,8,2:2:0:0:
64,264,68468,1,8,2:2:0:0:
220,176,68634,6,0,B|280:136|336:180|336:180|320:112|376:72|376:72|304:72|280:12,1,358.8,6|0,1:2|0:0,0:0:0:0:
280,4,70623,5,14,2:2:0:0:
232,380,71286,6,0,P|216:320|136:288,1,128.700003927612,6|0,1:2|0:0,0:0:0:0:
116,284,71618,1,10,2:2:0:0:
280,272,71783,2,0,P|313:243|325:203,1,85.8000026184083,2|0,2:2|1:1,0:0:0:0:
512,336,72115,2,0,P|484:303|443:291,1,85.8000026184083,2|8,1:2|2:2,0:0:0:0:
228,348,72446,6,0,P|312:364|364:296,1,171.600005236817,6|2,1:2|1:2,0:0:0:0:
492,208,72943,2,0,P|448:204|408:220,1,85.8000026184083,8|2,2:2|2:2,0:0:0:0:
280,272,73275,2,0,P|236:276|196:260,1,85.8000026184083,0|2,1:1|1:2,0:0:0:0:
136,196,73606,1,8,2:2:0:0:
280,272,73772,1,0,0:0:0:0:
196,128,73938,6,0,P|136:104|76:128,1,128.700003927612,6|0,1:2|0:0,0:0:0:0:
52,160,74269,2,0,P|44:200|60:248,1,85.8000026184083,8|2,2:2|2:2,0:0:0:0:
248,196,74601,1,2,1:2:0:0:
78,125,74767,1,0,1:1:0:0:
240,40,74932,1,8,2:2:0:0:
160,208,75098,6,0,P|200:276|292:272,1,171.600005236817,4|0,1:2|1:1,0:0:0:0:
340,208,75595,1,8,2:2:0:0:
196,120,75761,2,0,P|152:122|104:128,1,85.8000026184083,0|0,0:0|1:1,0:0:0:0:
240,40,76093,2,0,P|283:37|332:32,1,85.8000026184083,2|8,1:2|2:2,0:0:0:0:
444,176,76424,1,10,2:2:0:0:
444,176,76507,1,8,2:2:0:0:
444,176,76590,6,0,P|508:120|484:40,1,171.600005236817,6|10,1:2|2:2,0:0:0:0:
292,120,77087,2,0,P|297:163|308:220,1,85.8000026184083,2|0,1:2|1:1,0:0:0:0:
416,92,77419,2,0,P|410:48|400:-8,1,85.8000026184083,2|8,1:2|2:2,0:0:0:0:
216,216,77750,6,0,P|240:272|304:292,1,128.700003927612,2|0,1:2|0:0,0:0:0:0:
344,284,78082,1,0,1:1:0:0:
204,128,78247,1,8,2:2:0:0:
132,248,78413,1,0,0:0:0:0:
304,204,78579,1,0,1:1:0:0:
244,36,78745,2,0,B|232:4|232:4|218:58,1,85.8000026184083,2|8,1:2|2:2,0:0:0:0:
112,152,79076,1,2,2:2:0:0:
368,268,79242,6,0,P|396:192|336:124,1,171.600005236817,2|10,1:2|2:2,0:0:0:0:
216,216,79739,2,0,P|219:261|224:308,1,85.8000026184083,2|0,2:2|1:1,0:0:0:0:
268,376,80071,1,2,1:2:0:0:
108,352,80236,2,0,P|104:306|100:260,1,85.8000026184083,8|0,2:2|0:0,0:0:0:0:
0,184,80568,6,0,P|80:192|136:128,1,171.600005236817,2|8,1:2|2:2,0:0:0:0:
140,40,81065,1,2,2:2:0:0:
32,76,81231,2,0,L|44:132,2,42.9000013092041,2|8|4,1:2|3:3|3:3,0:0:0:0:
216,88,81562,1,0,1:1:0:0:
252,80,81645,1,8,3:3:0:0:
288,72,81728,1,4,3:3:0:0:
324,64,81811,1,0,1:1:0:0:
360,56,81894,6,0,B|392:56|417:76|417:76|448:64|484:72,1,128.700003927612,6|0,1:2|0:0,0:0:0:0:
512,84,82225,1,10,2:2:0:0:
279,175,82391,2,0,P|315:153|355:137,1,85.8000026184083,2|0,2:2|1:1,0:0:0:0:
460,152,82723,1,2,1:2:0:0:
296,264,82888,1,8,2:2:0:0:
120,168,83054,6,0,P|156:182|196:206,1,85.8000026184083,6|0,1:2|0:0,0:0:0:0:
376,316,83385,2,0,P|392:276|384:236,1,85.8000026184083,2|8,1:2|2:2,0:0:0:0:
204,125,83717,2,0,P|188:165|196:205,1,85.8000026184083,2|0,2:2|1:1,0:0:0:0:
364,144,84048,1,2,1:2:0:0:
204,296,84214,2,0,B|144:272|132:320|68:288,1,128.700003927612,8|0,2:2|0:0,0:0:0:0:
44,264,84546,6,0,P|20:184|84:128,1,171.600005236817,6|10,1:2|2:2,0:0:0:0:
280,191,85043,2,0,P|240:199|184:207,1,85.8000026184083,2|0,1:2|0:0,0:0:0:0:
108,208,85374,1,2,1:2:0:0:
300,276,85540,1,8,2:2:0:0:
188,72,85706,6,0,P|170:85|160:120,5,42.9000013092041,6|2|2|2|2|2,1:2|0:0|0:0|0:0|1:2|0:2,0:0:0:0:
164,120,86203,5,10,2:2:0:0:
200,108,86286,1,2,0:0:0:0:
240,108,86369,1,2,0:0:0:0:
276,120,86452,1,2,0:0:0:0:
304,148,86535,2,0,P|316:172|320:200,1,42.9000013092041,2|2,1:2|0:2,0:0:0:0:
236,240,86700,2,0,P|224:216|220:188,1,42.9000013092041,10|0,2:2|0:0,0:0:0:0:
364,84,86866,5,2,0:2:0:0:
389,110,86949,1,2,0:2:0:0:
406,147,87032,1,10,2:2:0:0:
411,185,87115,1,0,0:0:0:0:
397,221,87198,6,0,P|380:242|356:257,1,42.9000013092041,6|0,1:2|0:0,0:0:0:0:
255,325,87363,2,0,B|223:300|175:300|175:300|215:276|235:240,1,171.600005236817,2|0,0:0|0:0,0:0:0:0:
68,136,87861,6,0,P|84:157|108:172,1,42.9000013092041,4|0,1:2|0:0,0:0:0:0:
235,240,88026,2,0,B|267:214|315:214|315:214|275:190|255:154,1,171.600005236817,2|2,2:2|1:2,0:0:0:0:
436,48,88524,6,0,P|419:69|395:84,1,42.9000013092041,6|0,1:2|0:0,0:0:0:0:
255,154,88689,2,0,B|222:128|174:128|174:128|214:104|234:68,1,171.600005236817,8|2,2:2|1:2,0:0:0:0:
477,248,89187,6,0,P|425:183|343:187,1,171.600005236817,10|10,2:2|2:2,0:0:0:0:
268,244,89684,1,2,1:2:0:0:
268,244,89767,1,8,2:2:0:0:
268,244,89850,1,4,1:2:0:0:
256,192,89932,12,2,92502,2:2:0:0:
192,244,93330,5,2,2:2:0:0:
216,328,93496,1,8,2:2:0:0:
64,300,93662,6,0,L|72:200,1,78,6|0,1:2|0:0,0:0:0:0:
168,160,93993,1,0,1:1:0:0:
192,244,94159,1,8,2:2:0:0:
12,164,94325,6,0,L|20:64,1,78,6|2,1:2|2:2,0:0:0:0:
24,0,94656,1,8,3:3:0:0:
144,76,94822,1,4,3:3:0:0:
144,76,95153,6,0,P|216:56|284:104,1,156,6|2,1:2|1:2,0:0:0:0:
320,176,95651,1,10,2:2:0:0:
400,140,95816,2,0,L|464:132,2,39,0|8|2,1:1|2:2|1:2,0:0:0:0:
360,64,96148,1,0,1:1:0:0:
320,176,96314,6,0,L|332:276,1,78,2|0,1:2|1:1,0:0:0:0:
340,340,96645,1,8,2:2:0:0:
204,308,96811,2,0,L|194:230,1,78,0|8,1:1|2:2,0:0:0:0:
310,98,97142,2,0,L|319:175,1,78,0|10,1:1|2:2,0:0:0:0:
128,180,97474,1,2,1:2:0:0:
121,164,97557,1,0,0:0:0:0:
120,146,97640,1,10,2:2:0:0:
124,129,97723,1,8,2:2:0:0:
136,116,97805,6,0,B|168:92|168:52|168:52|120:56|100:12,1,156,4|0,1:2|1:1,0:0:0:0:
52,88,98303,1,10,3:3:0:0:
220,152,98468,2,0,P|260:86|247:11,1,156,2|2,1:2|1:2,0:0:0:0:
32,172,98966,6,0,P|-7:237|5:312,1,156,6|0,1:2|1:1,0:0:0:0:
64,376,99463,1,8,2:2:0:0:
132,324,99629,2,0,P|208:308|268:356,1,156,6|8,1:2|3:3,0:0:0:0:
336,300,100126,2,0,P|376:304|416:284,1,78,4|8,3:3|2:2,0:0:0:0:
460,220,100457,5,4,2:2:0:0:
408,152,100623,1,2,0:0:0:0:
332,192,100789,1,0,0:0:0:0:
332,192,100955,2,0,P|280:140|304:60,1,156,2|2,0:0|1:2,0:0:0:0:
364,12,101452,1,8,1:3:0:0:
364,12,101783,5,6,1:2:0:0:
48,124,108413,6,0,L|68:264,1,117,8|0,2:2|0:0,0:0:0:0:
73,283,108745,2,0,P|109:300|171:294,1,78,12|0,2:2|0:0,0:0:0:0:
224,260,109076,1,10,3:3:0:0:
241,250,109159,1,4,3:3:0:0:
261,246,109242,1,0,1:1:0:0:
281,246,109325,1,0,1:1:0:0:
301,250,109408,1,10,2:2:0:0:
317,262,109739,6,0,P|368:319|449:317,1,156,6|2,1:2|1:2,0:0:0:0:
508,260,110236,2,0,L|501:164,1,78,10|0,3:3|1:1,0:0:0:0:
497,93,110568,1,2,3:3:0:0:
403,207,110734,1,0,1:1:0:0:
339,76,110899,1,8,2:2:0:0:
221,181,111065,6,0,P|259:173|318:171,1,78,10|8,1:2|2:2,0:0:0:0:
246,37,111397,2,0,P|208:45|149:47,1,78,8|10,1:2|3:3,0:0:0:0:
81,32,111728,1,10,1:2:0:0:
221,181,111894,1,8,3:3:0:0:
48,116,112060,2,0,P|26:117|4:127,2,39,12|8|0,3:3|2:2|1:1,0:0:0:0:
150,120,112391,6,0,P|124:191|165:255,1,156,6|8,1:2|2:2,0:0:0:0:
252,277,112888,1,0,0:0:0:0:
385,204,113054,2,0,P|345:199|303:212,1,78,0|2,1:1|1:2,0:0:0:0:
252,277,113385,1,10,2:2:0:0:
399,338,113551,6,0,P|424:267|384:203,1,156,2|0,2:2|1:1,0:0:0:0:
242,199,114048,2,0,L|254:295,1,78,10|0,2:2|1:1,0:0:0:0:
375,120,114380,2,0,L|363:24,1,78,2|0,2:2|1:1,0:0:0:0:
142,130,114711,2,0,L|154:226,1,78,10|0,2:2|1:1,0:0:0:0:
281,51,115043,6,0,P|208:65|148:17,1,156,2|10,1:2|2:2,0:0:0:0:
0,83,115540,2,0,P|34:69|78:67,1,78,2|0,2:2|1:1,0:0:0:0:
202,205,115872,2,0,P|168:219|124:221,1,78,2|8,1:2|2:2,0:0:0:0:
42,191,116203,1,2,2:2:0:0:
142,130,116369,5,0,1:1:0:0:
59,274,116535,1,0,1:1:0:0:
195,366,116700,2,0,L|186:288,1,78,8|0,2:2|1:1,0:0:0:0:
50,113,117032,2,0,L|41:190,1,78,2|0,2:2|1:1,0:0:0:0:
186,288,117363,2,0,P|245:280|283:235,1,117,10|0,2:2|1:1,0:0:0:0:
290,194,117695,6,0,L|277:27,1,156,2|10,1:2|2:2,0:0:0:0:
512,66,118192,2,0,L|499:233,1,156,2|2,1:2|1:2,0:0:0:0:
489,309,118689,1,8,2:2:0:0:
411,202,118855,1,2,1:2:0:0:
269,323,119021,6,0,P|343:341|400:285,1,156,2|8,1:2|2:2,0:0:0:0:
411,202,119518,1,2,1:2:0:0:
209,179,119684,2,0,P|203:218|211:256,1,78,2|0,2:2|1:1,0:0:0:0:
389,117,120015,2,0,P|346:80|282:85,1,117,12|0,2:2|0:0,0:0:0:0:
248,101,120347,5,6,1:2:0:0:
400,18,120513,1,8,2:2:0:0:
316,166,120678,1,8,3:3:0:0:
467,73,120844,1,4,3:3:0:0:
248,101,121010,1,12,1:3:0:0:
397,206,121176,2,0,B|419:220|419:220|437:206|437:206|473:216|503:191,1,117,0|0,1:1|0:0,0:0:0:0:
454,130,121507,6,0,P|456:92|450:130,1,117,8|0,2:2|0:0,0:0:0:0:
328,253,121839,2,0,P|386:303|460:288,1,156,12|0,2:2|1:1,0:0:0:0:
238,88,122336,2,0,L|220:255,2,156,8|10|6,2:2|3:3|1:2,0:0:0:0:
174,28,123164,6,0,P|142:27|103:28,2,62.4,0|0|2,0:0|0:0|2:2,0:0:0:0:
39,83,123662,1,0,0:0:0:0:
104,135,123827,1,0,0:0:0:0:
58,204,123993,2,0,P|27:258|9:341,1,124.8,2|0,2:2|0:0,0:0:0:0:
174,287,124490,2,0,P|143:276|106:275,1,62.4
9,364,124822,1,0,0:0:0:0:
9,364,124988,2,0,P|56:352|114:354,2,93.6,2|2|2,2:2|2:2|2:2,0:0:0:0:
187,381,125651,6,0,P|242:357|267:295,1,124.8,6|0,2:2|0:0,0:0:0:0:
243,217,126148,1,0,0:0:0:0:
157,227,126314,2,0,P|163:261|178:295,2,62.4,2|0|2,2:2|0:0|2:2,0:0:0:0:
191,145,126811,1,2,2:2:0:0:
330,210,126977,5,2,2:2:0:0:
281,137,127142,1,0,0:0:0:0:
243,217,127308,1,0,0:0:0:0:
293,288,127474,1,2,0:0:0:0:
380,281,127640,1,2,0:0:0:0:
426,210,127805,1,8,3:3:0:0:
426,210,127888,1,0,0:0:0:0:
426,210,127971,2,0,P|437:167|428:110,1,93.6,6|0,3:3|0:0,0:0:0:0:
410,75,128303,6,0,P|357:33|276:40,1,140.399995715332,6|2,1:2|1:2,0:0:0:0:
210,81,128800,2,0,P|194:110|175:171,1,70.1999978576661,2|8,2:2|2:2,0:0:0:0:
108,70,129131,2,0,P|92:40|73:-20,1,70.1999978576661,2|0,2:2|0:0,0:0:0:0:
210,221,129463,2,0,P|138:220|99:158,1,140.399995715332,2|8,1:2|2:2,0:0:0:0:
282,151,129960,2,0,P|297:184|317:241,1,70.1999978576661,2|0,1:2|0:0,0:0:0:0:
191,318,130292,2,0,P|223:305|255:290,1,70.1999978576661,10|0,2:2|0:0,0:0:0:0:
366,280,130623,2,0,P|351:311|338:344,1,70.1999978576661,2|0,2:2|1:1,0:0:0:0:
486,310,130955,6,0,P|460:266|470:211,1,105.299996786499,6|0,1:2|0:0,0:0:0:0:
494,176,131286,2,0,L|485:103,1,70.1999978576661,0|0,1:1|0:0,0:0:0:0:
474,16,131618,1,8,2:2:0:0:
316,49,131783,2,0,L|325:122,1,70.1999978576661,0|0,0:0|1:1,0:0:0:0:
334,209,132115,1,8,2:2:0:0:
175,243,132281,1,0,1:1:0:0:
175,243,132446,2,0,L|166:170,1,70.1999978576661,8|0,2:2|1:1,0:0:0:0:
156,83,132778,1,0,1:1:0:0:
0,182,132943,1,8,2:2:0:0:
0,182,133275,2,0,L|9:255,1,70.1999978576661,6|0,3:3|1:1,0:0:0:0:
46,338,133606,6,0,P|117:357|177:298,1,156,6|8,1:2|2:2,0:0:0:0:
195,220,134104,1,2,1:2:0:0:
88,196,134269,2,0,L|97:274,1,78,0|0,0:0|1:1,0:0:0:0:
259,285,134601,1,10,2:2:0:0:
156,137,134767,1,0,0:0:0:0:
283,201,134932,1,0,1:1:0:0:
174,306,135098,1,0,1:1:0:0:
350,264,135264,2,0,P|369:233|371:182,1,78,8|0,2:2|1:1,0:0:0:0:
452,105,135595,6,0,P|390:112|339:68,1,117,2|2,2:2|2:2,0:0:0:0:
325,43,135927,1,8,2:2:0:0:
459,188,136093,1,2,1:2:0:0:
299,154,136258,2,0,P|222:161|176:228,1,156,2|8,1:2|2:2,0:0:0:0:
164,309,136756,1,2,1:2:0:0:
252,307,136921,2,0,P|269:274|265:223,2,78,2|0|10,2:2|1:1|2:2,0:0:0:0:
106,170,137419,6,0,P|89:203|93:254,1,78,2|0,2:2|1:1,0:0:0:0:
162,102,137750,1,0,1:1:0:0:
9,189,137916,1,8,2:2:0:0:
39,68,138082,1,0,1:1:0:0:
76,260,138247,1,0,0:0:0:0:
268,213,138413,1,8,3:3:0:0:
268,213,138496,1,0,1:0:0:0:
268,213,138579,1,10,2:2:0:0:
268,213,138662,1,0,1:0:0:0:
268,213,138745,1,0,1:1:0:0:
268,213,138827,1,0,1:0:0:0:
268,213,138910,6,0,P|328:172|324:98,1,117,6|0,1:2|0:0,0:0:0:0:
326,88,139242,2,0,P|314:50|299:9,1,78,8|2,2:2|2:2,0:0:0:0:
426,123,139573,2,0,P|439:159|451:197,1,78,8|0,2:2|1:1,0:0:0:0:
182,278,139905,2,0,P|169:242|158:204,1,78,10|0,2:2|1:1,0:0:0:0:
116,65,140236,6,0,P|104:102|91:138,1,78,8|0,2:2|0:0,0:0:0:0:
48,219,140568,1,8,2:2:0:0:
187,121,140734,1,0,1:1:0:0:
91,301,140899,1,10,2:2:0:0:
90,138,141065,1,0,1:1:0:0:
283,105,141231,1,10,2:2:0:0:
125,52,141397,1,2,1:2:0:0:
253,191,141562,6,0,P|327:189|374:124,1,156,12|8,2:2|2:2,0:0:0:0:
509,21,142060,2,0,P|467:25|437:42,1,78,0|8,0:0|2:2,0:0:0:0:
469,130,142391,1,0,1:1:0:0:
342,37,142557,2,0,L|260:29,1,78,8|0,2:2|1:1,0:0:0:0:
59,79,142888,6,0,P|138:62|198:115,1,156,8|8,2:2|2:2,0:0:0:0:
105,226,143385,2,0,P|108:187|116:134,1,78,0|8,1:1|2:2,0:0:0:0:
193,105,143717,1,0,1:1:0:0:
396,176,143883,2,0,P|393:215|385:268,1,78,8|0,2:2|1:1,0:0:0:0:
337,335,144214,6,0,B|300:343|283:363|283:363|251:344|256:302|256:302|206:326|149:324|149:324|190:273|161:214,1,358.8,6|0,1:2|0:0,0:0:0:0:
89,260,146203,5,10,3:3:0:0:
64,255,146286,1,4,3:3:0:0:
43,242,146369,1,8,2:2:0:0:
28,222,146452,1,8,2:2:0:0:
19,199,146535,1,8,2:2:0:0:
15,174,146618,1,0,1:1:0:0:
19,149,146700,1,0,1:1:0:0:
28,126,146783,1,8,3:3:0:0:
44,106,146866,2,0,P|71:95|128:93,1,81.8999975006104,2|0,1:2|1:1,0:0:0:0:
164,107,147198,5,14,2:2:0:0:
309,50,147363,2,0,P|325:92|320:135,1,85.8000026184083,2|0,2:2|1:1,0:0:0:0:
152,274,147695,2,0,P|136:232|141:189,1,85.8000026184083,2|8,1:2|2:2,0:0:0:0:
374,222,148026,6,0,P|287:224|240:289,1,171.600005236817,6|2,1:2|1:2,0:0:0:0:
419,378,148524,2,0,P|435:336|430:293,1,85.8000026184083,8|2,2:2|2:2,0:0:0:0:
374,222,148855,1,0,1:1:0:0:
512,365,149021,1,2,1:2:0:0:
345,306,149187,1,8,2:2:0:0:
442,159,149352,1,0,0:0:0:0:
284,238,149518,6,0,P|197:246|145:186,1,171.600005236817,6|8,1:2|2:2,0:0:0:0:
134,93,150015,1,2,2:2:0:0:
57,151,150181,2,0,P|48:193|60:234,1,85.8000026184083,2|0,1:2|1:1,0:0:0:0:
123,306,150513,1,8,2:2:0:0:
363,264,150678,6,0,P|385:203|362:135,1,128.700003927612,4|0,1:2|0:0,0:0:0:0:
339,103,151010,1,0,1:1:0:0:
459,277,151176,1,8,2:2:0:0:
293,197,151341,1,0,1:1:0:0:
293,197,151424,1,8,2:2:0:0:
293,197,151507,1,0,1:1:0:0:
439,104,151673,2,0,P|460:140|466:198,1,85.8000026184083,2|8,1:2|2:2,0:0:0:0:
459,277,152004,1,2,1:2:0:0:
214,255,152170,6,0,P|192:174|253:109,1,171.600005236817,6|10,1:2|2:2,0:0:0:0:
373,204,152667,2,0,P|329:212|289:194,1,85.8000026184083,2|0,2:2|1:1,0:0:0:0:
211,35,152999,2,0,P|255:27|295:45,1,85.8000026184083,2|8,1:2|2:2,0:0:0:0:
214,255,153330,6,0,P|170:263|130:245,1,85.8000026184083,2|0,1:2|0:0,0:0:0:0:
67,176,153662,1,0,1:1:0:0:
106,340,153827,1,8,2:2:0:0:
274,322,153993,2,0,P|303:260|281:198,1,128.700003927612
252,171,154325,2,0,P|246:126|261:86,1,85.8000026184083,2|8,1:2|2:2,0:0:0:0:
316,10,154656,1,2,2:2:0:0:
165,114,154822,6,0,P|80:119|32:54,1,171.600005236817,6|10,1:2|2:2,0:0:0:0:
330,137,155319,2,0,P|414:128|475:190,1,171.600005236817,2|2,2:2|1:2,0:0:0:0:
490,277,155816,2,0,P|482:324|461:361,1,85.8000026184083,8|0,2:2|1:1,0:0:0:0:
324,276,156148,5,2,1:2:0:0:
328,256,156231,1,0,0:0:0:0:
340,240,156314,1,8,2:2:0:0:
451,201,156479,2,0,P|478:239|489:280,1,85.8000026184083,0|2,1:1|1:2,0:0:0:0:
367,366,156811,1,10,2:2:0:0:
341,375,156894,1,0,0:0:0:0:
313,377,156977,1,8,3:3:0:0:
285,371,157060,1,0,0:0:0:0:
261,357,157142,2,0,P|246:336|238:319,1,42.9000013092041,4|0,3:3|0:0,0:0:0:0:
317,203,157308,2,0,P|329:220|339:239,1,42.9000013092041,0|0,1:1|1:1,0:0:0:0:
193,248,157474,6,0,P|109:230|44:287,1,171.600005236817,6|2,1:2|2:2,0:0:0:0:
95,384,157971,2,0,P|121:353|131:307,1,85.8000026184083,2|8,1:2|2:2,0:0:0:0:
47,115,158303,2,0,P|21:146|11:192,1,85.8000026184083,2|0,2:2|0:0,0:0:0:0:
268,299,158634,6,0,P|283:239|245:179,1,128.700003927612,6|0,1:2|0:0,0:0:0:0:
212,156,158966,1,10,2:2:0:0:
193,248,159131,1,0,0:0:0:0:
286,97,159297,1,2,1:2:0:0:
126,186,159463,1,8,3:3:0:0:
301,190,159629,1,6,3:3:0:0:
226,33,159794,1,0,1:1:0:0:
301,190,159960,1,0,1:1:0:0:
499,36,160126,6,0,B|489:83|441:91|441:91|422:136|374:133,1,171.600005236817,6|2,1:2|2:2,0:0:0:0:
286,49,160623,2,0,P|331:42|387:68,1,85.8000026184083,2|8,1:2|3:3,0:0:0:0:
472,222,160955,2,0,P|427:229|371:203,1,85.8000026184083,2|4,2:2|3:3,0:0:0:0:
195,49,161286,6,0,L|173:195,1,128.700003927612,6|0,1:2|0:0,0:0:0:0:
168,225,161618,1,8,2:2:0:0:
50,164,161783,2,0,P|31:203|33:250,1,85.8000026184083,0|0,0:0|1:1,0:0:0:0:
261,212,162115,2,0,P|280:173|278:126,1,85.8000026184083,8|2,3:3|1:2,0:0:0:0:
108,292,162446,2,0,P|89:331|91:378,1,85.8000026184083,8|2,3:3|1:2,0:0:0:0:
170,350,162695,1,8,2:2:0:0:
170,350,162778,5,6,1:2:0:0:
85,212,162943,1,0,0:0:0:0:
19,301,163109,1,8,2:2:0:0:
244,320,163275,2,0,P|263:281|261:234,1,85.8000026184083,0|0,1:1|0:0,0:0:0:0:
39,59,163606,2,0,P|20:98|22:145,1,85.8000026184083,2|8,1:2|2:2,0:0:0:0:
85,212,163938,1,2,2:2:0:0:
233,155,164104,5,2,1:2:0:0:
143,130,164269,1,0,1:1:0:0:
143,130,164352,1,0,0:0:0:0:
143,130,164435,1,12,2:2:0:0:
123,298,164601,1,2,1:2:0:0:
301,213,164767,1,10,2:2:0:0:
223,312,164932,1,8,2:2:0:0:
226,295,165015,1,8,2:2:0:0:
229,278,165098,1,10,2:2:0:0:
385,189,165264,2,0,L|376:135,1,42.9000013092041,10|8,2:2|2:2,0:0:0:0:
364,66,165430,5,4,1:2:0:0:
468,154,165595,1,2,0:0:0:0:
475,185,165678,1,2,0:0:0:0:
470,216,165761,1,2,0:0:0:0:
456,245,165844,1,2,0:0:0:0:
432,265,165927,1,2,0:0:0:0:
402,277,166010,1,0,0:0:0:0:
370,275,166093,2,0,P|348:268|327:255,5,39,8|8|0|4|4|0,3:3|3:3|0:0|3:3|3:3|1:1,0:0:0:0:
303,227,166590,6,0,P|229:214|165:271,1,156,6|0,1:2|1:1,0:0:0:0:
130,342,167087,1,8,2:2:0:0:
54,293,167253,2,0,P|32:297|6:310,2,39,10|10|6,3:3|3:3|3:3,0:0:0:0:
223,338,167584,1,0,1:1:0:0:
223,338,167667,1,0,1:1:0:0:
223,338,167750,1,8,2:2:0:0:
303,227,167916,1,0,1:1:0:0:
223,167,168082,5,14,1:2:0:0:
323,320,168247,2,0,P|399:332|456:282,1,156,10|8,1:2|3:3,0:0:0:0:
486,197,168745,1,8,3:3:0:0:
388,146,168910,1,2,1:2:0:0:
378,158,168993,1,8,2:2:0:0:
373,173,169076,1,10,2:2:0:0:
211,71,169242,6,0,P|289:89|348:43,1,156,6|0,1:2|1:1,0:0:0:0:
138,128,169739,2,0,P|82:112|28:141,1,117,8|0,2:2|0:0,0:0:0:0:
4,173,170071,1,8,2:2:0:0:
128,38,170236,1,10,2:2:0:0:
94,210,170402,1,10,2:2:0:0:
34,36,170568,1,10,3:3:0:0:
138,128,170734,5,6,1:2:0:0:
159,134,170816,1,2,0:0:0:0:
181,134,170899,1,2,0:0:0:0:
203,128,170982,1,0,0:0:0:0:
222,116,171065,2,0,P|234:97|240:70,1,39,10|2,2:2|0:0,0:0:0:0:
402,111,171231,1,0,0:0:0:0:
381,105,171313,1,2,0:0:0:0:
359,105,171396,1,0,1:2:0:0:
337,111,171479,1,0,0:0:0:0:
318,123,171562,2,0,P|306:142|300:169,1,39,2|2,1:2|0:0,0:0:0:0:
236,205,171728,5,10,2:2:0:0:
311,36,171894,1,0,1:1:0:0:
379,195,172060,5,2,2:2:0:0:
222,116,172225,1,0,1:1:0:0:
317,274,172391,1,8,2:2:0:0:
402,111,172557,1,0,1:1:0:0:
236,205,172723,1,2,2:2:0:0:
409,283,172888,1,0,1:1:0:0:
303,153,173054,1,8,2:2:0:0:
222,300,173220,1,0,1:1:0:0:
140,256,173385,6,0,P|99:257|60:274,1,78,6|0,1:2|1:1,0:0:0:0:
33,304,173634,1,2,0:0:0:0:
33,304,173717,1,10,2:2:0:0:
155,174,173883,1,2,1:2:0:0:
161,151,173966,1,2,0:0:0:0:
160,128,174048,1,10,3:3:0:0:
153,105,174131,1,2,0:0:0:0:
141,85,174214,1,0,1:1:0:0:
124,68,174297,1,2,1:2:0:0:
103,57,174380,1,8,2:2:0:0:
79,53,174463,1,0,0:0:0:0:
55,54,174546,6,0,L|16:213,1,156,6|0,1:2|1:1,0:0:0:0:
34,297,175043,1,8,2:2:0:0:
278,295,175209,2,0,P|293:214|253:149,1,156,6|8,1:2|1:3,0:0:0:0:
190,96,175706,1,12,3:3:0:0:
102,150,175872,1,0,1:1:0:0:
43,66,176037,1,6,1:2:0:0:
134,303,184988,5,6,3:3:0:0:
134,303,185319,2,0,P|152:243|164:172,1,124.8,14|0,2:2|0:0,0:0:0:0:
63,65,185816,2,0,P|73:126|77:188,1,124.8,10|0,3:3|0:0,0:0:0:0:
0,301,186314,2,0,P|6:269|9:232,1,62.4,6|0,3:3|1:1,0:0:0:0:
153,103,186645,6,0,P|210:82|298:89,1,124.8,6|2,1:2|1:2,0:0:0:0:
359,103,187142,1,2,2:2:0:0:
298,167,187308,1,8,2:2:0:0:
298,167,187474,2,0,L|306:249,1,62.4,2|0,3:3|1:1,0:0:0:0:
452,179,187805,6,0,L|444:97,1,62.4,2|0,3:3|1:1,0:0:0:0:
438,30,188137,1,10,2:2:0:0:
273,82,188303,2,0,P|211:71|162:104,1,124.8,2|8,1:2|2:2,0:0:0:0:
122,182,188800,1,8,3:3:0:0:
189,239,188966,1,6,3:3:0:0:
107,268,189131,1,0,1:1:0:0:
174,324,189297,6,0,P|234:342|296:312,1,124.8,6|2,1:2|1:2,0:0:0:0:
344,251,189794,2,0,P|349:220|352:175,1,62.4,2|8,2:2|2:2,0:0:0:0:
460,155,190126,2,0,P|455:186|452:231,1,62.4,2|0,2:2|1:1,0:0:0:0:
297,88,190457,6,0,P|357:102|409:71,1,124.8,10|10,2:2|3:3,0:0:0:0:
462,0,190955,1,6,3:3:0:0:
409,71,191120,1,0,1:1:0:0:
445,151,191286,1,8,3:3:0:0:
497,80,191452,1,4,3:3:0:0:
340,12,191618,1,10,2:2:0:0:
297,88,191783,1,0,0:0:0:0:
218,49,191949,6,0,P|151:44|80:41,1,124.8,6|2,1:2|1:2,0:0:0:0:
4,131,192446,1,2,2:2:0:0:
4,131,192612,2,0,P|33:126|75:122,1,62.4,8|2,2:2|3:3,0:0:0:0:
219,133,192943,2,0,P|190:138|148:142,1,62.4,0|2,1:1|3:3,0:0:0:0:
95,203,193275,5,0,1:1:0:0:
238,245,193441,2,0,P|248:185|220:131,1,124.8,8|8,2:2|3:3,0:0:0:0:
7,215,193938,2,0,P|3:247|16:286,1,62.4,10|2,2:2|3:3,0:0:0:0:
158,336,194269,2,0,P|162:304|149:265,1,62.4,2|2,1:2|3:3,0:0:0:0:
131,237,194518,1,2,3:3:0:0:
131,237,194601,6,0,P|109:177|125:113,1,124.8,6|2,1:2|1:2,0:0:0:0:
372,26,195264,2,0,P|394:86|378:150,1,124.8,8|0,1:3|1:1,0:0:0:0:
301,185,195761,6,0,L|213:176,1,78,6|0,1:2|0:0,0:0:0:0:
133,166,196093,1,0,1:1:0:0:
270,97,196258,1,8,2:2:0:0:
254,266,196424,2,0,L|91:253,1,156,4|0,1:2|1:1,0:0:0:0:
7,245,196921,1,8,2:2:0:0:
133,166,197087,1,8,2:2:0:0:
133,166,197170,1,8,2:2:0:0:
133,166,197253,6,0,L|125:65,1,78,4|0,1:2|0:0,0:0:0:0:
2,20,197584,2,0,L|10:121,1,78,10|0,2:2|0:0,0:0:0:0:
15,188,197916,1,14,2:2:0:0:
199,224,198082,2,0,P|217:193|216:143,1,78,2|8,1:2|2:2,0:0:0:0:
373,72,198413,6,0,P|297:86|239:35,1,156,6|2,1:2|1:2,0:0:0:0:
316,178,198910,1,8,2:2:0:0:
478,112,199076,2,0,L|470:193,1,78,2|0,1:2|0:0,0:0:0:0:
460,279,199408,1,2,1:2:0:0:
316,178,199573,1,8,2:2:0:0:
347,290,199739,1,0,0:0:0:0:
265,251,199905,6,0,P|190:237|125:281,1,156,6|10,1:2|2:2,0:0:0:0:
86,358,200402,1,2,1:2:0:0:
210,321,200568,1,8,2:2:0:0:
92,211,200734,2,0,P|116:241|126:281,1,78,10|4,3:3|3:3,0:0:0:0:
343,308,201065,6,0,P|361:232|315:168,1,156,6|0,1:2|1:1,0:0:0:0:
237,131,201562,2,0,P|195:134|138:137,1,78,8|0,2:2|0:0,0:0:0:0:
327,84,201894,2,0,P|368:80|426:78,1,78,0|0,1:1|1:1,0:0:0:0:
153,212,202225,2,0,P|99:188|82:132,1,117,8|0,2:2|0:2,0:0:0:0:
89,91,202557,1,4,1:2:0:0:
168,15,202723,5,0,1:1:0:0:
251,88,202888,2,0,P|290:94|325:83,1,78,10|0,2:2|1:1,0:0:0:0:
362,55,203137,1,8,2:2:0:0:
362,55,203220,1,2,1:2:0:0:
247,182,203385,1,2,1:2:0:0:
416,170,203551,2,0,P|376:163|341:174,1,78,8|2,2:2|1:2,0:0:0:0:
264,312,203883,6,0,P|303:318|338:307,1,78,0|0,1:1|1:1,0:0:0:0:
407,251,204214,1,10,2:2:0:0:
264,312,204380,1,0,0:0:0:0:
177,258,204546,1,2,1:2:0:0:
293,106,204711,1,0,1:1:0:0:
93,220,204877,2,0,B|66:208|66:208|55:158|103:132,1,117,10|0,2:2|0:0,0:0:0:0:
141,113,205209,5,14,2:2:0:0:
0,129,205374,1,0,1:1:0:0:
156,25,205540,1,0,1:1:0:0:
237,151,205706,2,0,P|242:112|229:76,1,78,14|0,2:2|1:1,0:0:0:0:
156,25,206037,1,0,1:1:0:0:
0,219,206203,2,0,P|-5:258|8:294,1,78,14|0,2:2|1:1,0:0:0:0:
73,355,206535,5,0,1:1:0:0:
217,292,206700,2,0,P|178:286|142:299,1,78,14|0,2:2|1:1,0:0:0:0:
73,355,207032,1,0,1:1:0:0:
158,205,207198,1,14,2:2:0:0:
188,369,207363,1,0,1:1:0:0:
61,267,207529,2,0,P|41:211|59:152,1,117,14|0,2:2|0:0,0:0:0:0:
83,119,207861,6,0,P|117:99|172:76,1,78,14|0,2:2|1:1,0:0:0:0:
239,55,208192,1,0,1:1:0:0:
158,205,208358,2,0,P|192:185|247:162,1,78,14|0,2:2|1:1,0:0:0:0:
314,141,208689,1,0,1:1:0:0:
226,290,208855,1,14,2:2:0:0:
382,226,209021,1,2,2:2:0:0:
314,141,209187,5,2,2:2:0:0:
323,307,209352,1,10,1:2:0:0:
227,169,209518,1,2,2:2:0:0:
398,144,209684,1,10,3:3:0:0:
153,224,209850,1,2,2:2:0:0:
243,80,210015,1,6,3:3:0:0:
86,151,210181,1,2,1:2:0:0:
153,52,210347,1,2,1:2:0:0:
59,61,210513,5,10,1:2:0:0:
59,61,210679,1,8,1:2:0:0:
261,362,211673,6,0,L|291:182,1,156,10|10,1:2|1:2,0:0:0:0:
301,118,212170,1,8,1:2:0:0:
315,30,212999,5,2,0:0:0:0:
315,30,213082,1,2,0:0:0:0:
315,30,213164,2,0,P|395:11|470:71,1,171.600005236817,6|8,1:2|2:2,0:0:0:0:
497,149,213662,1,2,2:2:0:0:
365,179,213827,2,0,P|360:137|380:94,1,85.8000026184083,2|0,1:2|1:1,0:0:0:0:
464,59,214159,1,8,2:2:0:0:
392,264,214325,6,0,P|330:265|284:215,1,128.700003927612,4|0,1:2|0:0,0:0:0:0:
276,174,214656,2,0,L|286:60,1,85.8000026184083,0|8,1:1|2:2,0:0:0:0:
116,28,214988,2,0,L|106:142,1,85.8000026184083,0|0,1:1|1:1,0:0:0:0:
268,259,215319,2,0,L|278:145,1,85.8000026184083,2|8,1:2|2:2,0:0:0:0:
283,79,215651,1,10,2:2:0:0:
44,156,215816,6,0,P|18:231|64:306,1,171.600005236817,6|10,1:2|2:2,0:0:0:0:
196,198,216314,2,0,P|152:190|108:208,1,85.8000026184083,2|0,2:2|1:1,0:0:0:0:
160,352,216645,2,0,P|204:360|248:342,1,85.8000026184083,2|8,1:2|2:2,0:0:0:0:
310,288,216977,6,0,P|337:231|325:166,1,128.700003927612,2|0,1:2|0:0,0:0:0:0:
301,129,217308,1,0,1:1:0:0:
415,269,217474,1,8,2:2:0:0:
248,214,217640,2,0,P|203:214|151:230,1,85.8000026184083,0|0,0:0|1:1,0:0:0:0:
123,248,217888,1,0,0:0:0:0:
123,248,217971,1,2,1:2:0:0:
20,144,218137,2,0,P|65:144|117:160,1,85.8000026184083,8|2,2:2|2:2,0:0:0:0:
290,102,218468,6,0,P|206:112|151:46,1,171.600005236817,6|10,1:2|2:2,0:0:0:0:
269,12,218966,2,0,P|311:11|349:31,1,85.8000026184083,2|0,2:2|1:1,0:0:0:0:
400,111,219297,1,2,1:2:0:0:
236,217,219463,2,0,P|236:175|256:137,1,85.8000026184083,12|0,2:2|1:1,0:0:0:0:
290,102,219711,1,8,2:2:0:0:
290,102,219794,5,6,1:2:0:0:
150,230,219960,1,8,2:2:0:0:
194,314,220126,1,0,1:1:0:0:
212,330,220209,1,8,2:2:0:0:
234,341,220292,1,10,2:2:0:0:
258,346,220374,1,8,2:2:0:0:
283,346,220457,2,0,P|309:340|348:324,1,42.9000013092041,2|8,1:2|2:2,0:0:0:0:
373,219,220623,2,0,P|358:241|342:280,1,42.9000013092041,8|8,2:2|2:2,0:0:0:0:
453,329,220789,1,0,1:1:0:0:
469,311,220872,1,8,2:2:0:0:
480,289,220955,1,8,2:2:0:0:
485,265,221037,1,8,2:2:0:0:
485,240,221120,6,0,P|476:180|446:117,1,128.700003927612,6|0,1:2|0:0,0:0:0:0:
414,83,221452,1,10,2:2:0:0:
291,223,221618,2,0,P|332:232|379:214,1,85.8000026184083,2|0,1:2|1:1,0:0:0:0:
267,85,221949,2,0,P|226:76|179:94,1,85.8000026184083,2|8,1:2|2:2,0:0:0:0:
51,310,222281,6,0,P|115:327|171:289,1,128.700003927612,6|0,1:2|0:0,0:0:0:0:
186,251,222612,2,0,L|178:157,1,85.8000026184083,2|8,1:2|2:2,0:0:0:0:
5,106,222943,2,0,L|13:200,1,85.8000026184083,2|0,1:2|1:1,0:0:0:0:
106,78,223275,1,2,1:2:0:0:
326,192,223441,2,0,P|262:179|203:223,1,128.700003927612,8|0,2:2|0:0,0:0:0:0:
186,251,223772,5,6,1:2:0:0:
312,326,223938,2,0,P|310:301|298:270,2,42.9000013092041,0|0|10,1:1|0:0|2:2,0:0:0:0:
114,196,224269,2,0,P|94:232|100:289,1,85.8000026184083,2|8,1:2|2:2,0:0:0:0:
395,256,224601,2,0,P|415:220|409:163,1,85.8000026184083,6|0,1:2|0:0,0:0:0:0:
178,90,224932,6,0,P|176:112|190:147,5,42.9000013092041,6|2|2|2|2|2,1:2|0:0|0:0|0:0|1:2|0:0,0:0:0:0:
258,100,225430,1,10,2:2:0:0:
253,57,225513,1,2,0:0:0:0:
227,24,225595,1,2,1:2:0:0:
186,9,225678,1,2,1:2:0:0:
143,14,225761,1,2,1:2:0:0:
109,41,225844,1,2,0:0:0:0:
95,83,225927,1,10,2:2:0:0:
103,126,226010,1,0,0:0:0:0:
128,161,226093,1,10,3:3:0:0:
139,203,226176,1,0,0:0:0:0:
128,245,226258,1,6,3:3:0:0:
102,281,226341,1,0,0:0:0:0:
62,296,226424,5,6,1:2:0:0:
62,296,226590,2,0,P|36:214|6:133,1,171.600005236817
256,36,227087,6,0,L|256:208,1,171.600005236817,4|0,1:2|0:0,0:0:0:0:
450,296,227584,5,10,2:2:0:0:
450,296,227667,1,8,2:2:0:0:
450,296,227750,2,0,P|475:214|505:133,1,171.600005236817,6|0,1:2|1:1,0:0:0:0:
469,45,228247,1,2,1:2:0:0:
384,80,228413,1,2,1:2:0:0:
368,80,228496,1,8,3:3:0:0:
352,80,228579,1,8,3:3:0:0:
336,80,228662,1,4,3:3:0:0:
320,80,228745,1,10,1:2:0:0:
304,80,228827,1,8,3:3:0:0:
288,80,228910,1,6,3:3:0:0:
272,80,228993,1,0,1:1:0:0:
257,80,229076,6,0,L|160:80,1,78,6|2,1:2|1:2,0:0:0:0:
91,79,229408,1,10,2:2:0:0:
18,213,229573,2,0,P|56:217|103:194,1,78,2|0,1:2|1:1,0:0:0:0:
253,163,229905,2,0,P|215:159|168:182,1,78,2|8,1:2|2:2,0:0:0:0:
175,337,230236,6,0,P|179:299|156:252,1,78,2|0,1:2|1:1,0:0:0:0:
102,41,230568,2,0,P|98:79|121:126,1,78,2|8,1:2|2:2,0:0:0:0:
323,219,230899,2,0,P|342:165|311:99,1,117,2|0,1:2|0:0,0:0:0:0:
284,82,231231,1,2,1:2:0:0:
415,219,231397,2,0,P|453:205|489:190,1,78,12|2,2:2|1:2,0:0:0:0:
205,44,231728,6,0,P|130:70|54:104,1,156,6|0,1:2|0:0,0:0:0:0:
0,168,232225,1,0,1:1:0:0:
191,262,232391,1,8,2:2:0:0:
199,250,232474,1,0,0:0:0:0:
203,237,232557,1,2,1:2:0:0:
205,223,232640,1,0,0:0:0:0:
204,208,232723,1,8,3:3:0:0:
197,196,232805,1,0,0:0:0:0:
189,184,232888,1,6,3:3:0:0:
177,175,232971,1,0,0:0:0:0:
161,170,233054,6,0,B|124:154|124:154|111:247|28:266|28:266|70:269|96:305|96:305|74:314|65:349,1,327.599990002442,6|2,1:2|2:2,0:0:0:0:
311,338,234380,6,0,P|251:293|176:305,1,156,6|2,1:2|3:3,0:0:0:0:
340,244,234877,2,0,P|356:210|356:165,1,78,2|0,2:2|0:0,0:0:0:0:
250,62,235209,2,0,P|234:96|234:141,1,78,2|2,2:2|3:3,0:0:0:0:
94,213,235540,6,0,P|172:205|230:265,1,156,6|0,1:2|0:0,0:0:0:0:
289,324,236037,2,0,P|366:343|423:297,1,156,2|0,3:3|0:0,0:0:0:0:
452,211,236535,1,2,2:2:0:0:
338,179,236700,2,0,P|332:218|350:268,1,78,2|2,3:3|2:2,0:0:0:0:
512,150,237032,6,0,P|506:74|444:20,1,156,4|2,1:2|3:3,0:0:0:0:
360,8,237529,2,0,L|266:17,1,78,2|0,2:2|0:0,0:0:0:0:
172,196,237861,2,0,L|266:187,1,78,8|2,3:3|3:3,0:0:0:0:
190,26,238192,6,0,P|108:12|45:68,1,156,6|0,1:2|1:1,0:0:0:0:
17,137,238689,1,8,2:2:0:0:
193,188,238855,2,0,P|210:155|207:100,1,78,6|0,1:2|0:0,0:0:0:0:
190,26,239187,1,0,1:1:0:0:
17,137,239352,2,0,P|17:175|35:210,1,78,8|0,2:2|1:1,0:0:0:0:
247,127,239684,6,0,P|171:109|115:160,1,156,6|10,1:2|2:2,0:0:0:0:
126,248,240181,1,2,2:2:0:0:
17,137,240347,1,0,1:1:0:0:
193,188,240513,1,10,3:3:0:0:
147,333,240678,1,4,1:3:0:0:
0,370,240844,6,0,P|-16:314|12:256,1,117,6|0,1:2|0:0,0:0:0:0:
39,228,241176,2,0,L|104:159,1,78,8|4,3:3|3:3,0:0:0:0:
157,105,241507,1,4,1:3:0:0:
324,224,241673,2,0,P|286:238|250:235,1,78,0|2,1:1|0:0,0:0:0:0:
170,194,242004,1,2,1:2:0:0:
157,105,242170,1,2,2:2:0:0:
336,24,242336,6,0,P|343:65|326:115,1,78,4|0,1:2|0:0,0:0:0:0:
273,161,242667,1,2,1:2:0:0:
426,64,242833,1,2,2:2:0:0:
271,236,242999,2,0,P|264:195|281:145,1,78,4|8,1:2|2:2,0:0:0:0:
334,99,243330,1,10,2:2:0:0:
312,303,243496,6,0,P|236:311|190:255,1,156,6|0,1:2|1:1,0:0:0:0:
185,161,243993,1,8,2:2:0:0:
108,324,244159,2,0,P|107:267|64:215,1,117,6|0,1:2|0:0,0:0:0:0:
32,201,244490,1,0,1:1:0:0:
189,254,244656,1,8,2:2:0:0:
213,254,244739,1,0,0:0:0:0:
236,247,244822,1,0,1:1:0:0:
254,231,244905,1,0,1:1:0:0:
266,210,244988,5,0,1:1:0:0:
407,123,245153,2,0,P|330:135|273:73,1,156,14|2,2:2|1:2,0:0:0:0:
333,14,245651,2,0,P|382:11|419:25,1,78,14|2,2:2|1:2,0:0:0:0:
485,73,245982,1,10,2:2:0:0:
434,224,246148,6,0,P|385:227|348:213,1,78,6|0,1:2|0:0,0:0:0:0:
200,79,246479,2,0,P|249:76|286:90,1,78,6|8,1:2|2:2,0:0:0:0:
404,141,246811,1,2,1:2:0:0:
221,238,246977,2,0,L|231:161,1,78,14|8,2:2|3:3,0:0:0:0:
414,63,247308,1,4,3:3:0:0:
411,82,247391,1,4,3:3:0:0:
409,102,247474,1,0,1:1:0:0:
406,122,247557,1,0,1:1:0:0:
404,141,247640,1,0,1:1:0:0:
152,348,247971,5,10,1:2:0:0:
360,348,248137,1,10,1:2:0:0:
256,32,248468,1,14,1:2:0:0:
256,312,248800,6,0,B|296:264|352:288|400:200|328:120|256:165|256:165|184:120|104:200|172:288|216:268|228:272,1,468,14|0,1:2|0:0,0:0:0:0:
