osu file format v14

[General]
AudioFilename: audio.mp3
AudioLeadIn: 0
PreviewTime: 146866
Countdown: 0
SampleSet: Soft
StackLeniency: 0.7
Mode: 0
LetterboxInBreaks: 0
WidescreenStoryboard: 1

[Editor]
Bookmarks: 31507,47419,71286,87198,101783,112391,122999,133606,147198,162778,176037,176120,176203,176286,176369,176452,176535,176618,176700,176783,176866,176949,177032,177115,177198,177281,177363,177446,177529,177612,177695,177778,177861,177943,178026,178109,178192,178275,178358,178441,178524,178606,178689,178772,178855,178938,179021,179104,179187,179269,179352,179435,179518,179601,179684,179767,179850,179932,180015,180098,180181,180264,180347,180430,180513,180595,180678,180761,180844,180927,181010,181093,181176,181258,181341,181424,181507,181590,181673,181756,181839,181921,182004,182087,182170,182253,182336,182419,182502,182584,182667,182750,182833,182916,182999,183082,183164,183247,183330,183413,183496,183579,183662,183745,183827,183910,183993,184076,184159,184325,184408,184490,184573,184656,184739,184822,184905,199905,213164,226424
DistanceSpacing: 1.4
BeatDivisor: 4
GridSize: 32
TimelineZoom: 2.999999

[Metadata]
Title:Heart no Iro
TitleUnicode:ハートノイロ
Artist:Minase Inori
ArtistUnicode:水瀬 いのり
Creator:Sekai
Version:Ex & AsuKo's Hard
Source:
Tags:Sekaii Sekai-nyan SkyFlame Heart's Color Blue Compass kusano AsuKow - ex - -_ex_- japanese jpop j-pop pop
BeatmapID:3297594
BeatmapSetID:1615138

[Difficulty]
HPDrainRate:5
CircleSize:4
OverallDifficulty:6
ApproachRate:8
SliderMultiplier:1.4
SliderTickRate:1

[Events]
//Background and Video events
0,0,"snowwhitebg.jpg",0,0
//Break Periods
2,91707,92746
2,176237,184238
//Storyboard Layer 0 (Background)
//Storyboard Layer 1 (Fail)
//Storyboard Layer 2 (Pass)
//Storyboard Layer 3 (Foreground)
//Storyboard Layer 4 (Overlay)
//Storyboard Sound Samples

[TimingPoints]
12944,331.491712707182,4,2,1,60,1,0
12944,-125,4,2,1,60,0,0
13938,-125,4,2,2,60,0,0
15264,-125,4,2,1,60,0,0
15595,-125,4,2,2,60,0,0
15927,-125,4,2,1,60,0,0
16756,-125,4,2,2,60,0,0
17750,-125,4,2,1,60,0,0
18247,-117.647058823529,4,2,2,60,0,0
19739,-117.647058823529,4,2,1,60,0,0
20899,-117.647058823529,4,2,2,60,0,0
21728,-117.647058823529,4,2,1,60,0,0
22060,-117.647058823529,4,2,2,60,0,0
23551,-111.111111111111,4,2,2,60,0,0
24214,-111.111111111111,4,2,3,60,0,0
24546,-111.111111111111,4,2,4,60,0,0
24711,-111.111111111111,4,2,2,60,0,0
26203,-125,4,2,2,60,0,0
30844,-125,4,2,1,60,0,0
31424,-125,4,2,1,5,0,0
31507,-111.111111111111,4,2,2,60,0,0
47087,-111.111111111111,4,2,1,60,0,0
47419,-111.111111111111,4,2,2,60,0,0
57695,-111.111111111111,4,2,1,60,0,0
58026,-111.111111111111,4,2,2,60,0,0
62667,-111.111111111111,4,2,1,60,0,0
63330,-100,4,2,2,60,0,0
71286,-90.9090909090909,4,2,3,70,0,1
72446,-90.9090909090909,4,2,2,70,0,1
81314,-90.9090909090909,4,2,1,70,0,1
81894,-90.9090909090909,4,2,3,70,0,1
83054,-90.9090909090909,4,2,2,70,0,1
87198,-111.111111111111,4,2,2,70,0,0
88524,-100,4,2,2,70,0,0
89850,-142.857142857143,4,2,1,60,0,0
93496,-111.111111111111,4,2,1,60,0,0
93662,-111.111111111111,4,2,2,60,0,0
94656,-111.111111111111,4,2,1,60,0,0
95153,-100,4,2,2,60,0,0
98303,-100,4,2,1,60,0,0
98966,-100,4,2,2,60,0,0
99960,-100,4,2,1,60,0,0
100457,-100,4,2,2,60,0,0
101452,-100,4,2,1,60,0,0
101783,-117.647058823529,4,2,2,60,0,0
102943,-117.647058823529,4,2,1,60,0,0
103275,-117.647058823529,4,2,2,60,0,0
104932,-117.647058823529,4,2,1,60,0,0
105015,-117.647058823529,4,2,2,60,0,0
105264,-117.647058823529,4,2,1,60,0,0
105927,-117.647058823529,4,2,2,60,0,0
107584,-117.647058823529,4,2,1,60,0,0
108745,-111.111111111111,4,2,2,60,0,0
109076,-111.111111111111,4,2,1,60,0,0
109739,-111.111111111111,4,2,2,60,0,0
110236,-111.111111111111,4,2,1,60,0,0
111562,-111.111111111111,4,2,3,60,0,0
111894,-111.111111111111,4,2,1,60,0,0
112060,-111.111111111111,4,2,2,60,0,0
112391,-100,4,2,2,60,0,0
120678,-100,4,2,1,60,0,0
121010,-100,4,2,2,60,0,0
122667,-100,4,2,1,60,0,0
122999,-125,4,2,2,60,0,0
127805,-125,4,2,1,60,0,0
128303,-125,4,2,2,60,0,0
133109,-125,4,2,1,60,0,0
133606,-111.111111111111,4,2,2,60,0,0
138413,-111.111111111111,4,2,1,60,0,0
138910,-100,4,2,2,60,0,0
146203,-100,4,2,1,60,0,0
147198,-90.9090909090909,4,2,3,70,0,1
148026,-90.9090909090909,4,2,2,70,0,1
156977,-90.9090909090909,4,2,1,70,0,1
157474,-100,4,2,2,70,0,0
159463,-100,4,2,1,70,0,0
160126,-100,4,2,2,70,0,0
160789,-100,4,2,1,70,0,0
161286,-100,4,2,2,70,0,0
162115,-100,4,2,1,70,0,0
162778,-90.9090909090909,4,2,2,70,0,1
165181,-90.9090909090909,4,2,1,70,0,1
165430,-90.9090909090909,4,2,3,60,0,0
166093,-90.9090909090909,4,2,1,60,0,0
166590,-100,4,2,2,60,0,0
167253,-100,4,2,1,60,0,0
168082,-100,4,2,2,60,0,0
168579,-100,4,2,1,60,0,0
169242,-100,4,2,2,60,0,0
170568,-100,4,2,3,60,0,0
170734,-100,4,2,2,60,0,0
174048,-100,4,2,1,60,0,0
174546,-100,4,2,2,60,0,0
175540,-100,4,2,1,60,0,0
175706,-100,4,2,2,60,0,0
176037,-100,4,2,1,60,0,0
178689,-100,4,2,2,60,0,0
184988,-100,4,2,5,60,0,0
185319,-125,4,2,2,60,0,0
185816,-125,4,2,1,60,0,0
186645,-111.111111111111,4,2,2,60,0,0
187474,-111.111111111111,4,2,1,60,0,0
187557,-111.111111111111,4,2,2,60,0,0
187805,-111.111111111111,4,2,1,60,0,0
187888,-111.111111111111,4,2,2,60,0,0
188800,-111.111111111111,4,2,1,60,0,0
189214,-111.111111111111,4,2,1,5,0,0
189297,-111.111111111111,4,2,2,60,0,0
190789,-111.111111111111,4,2,1,60,0,0
191866,-111.111111111111,4,2,1,5,0,0
191949,-111.111111111111,4,2,2,60,0,0
192778,-111.111111111111,4,2,1,60,0,0
192861,-111.111111111111,4,2,2,60,0,0
193109,-111.111111111111,4,2,1,60,0,0
193192,-111.111111111111,4,2,2,60,0,0
193772,-111.111111111111,4,2,1,60,0,0
194187,-111.111111111111,4,2,2,60,0,0
195264,-111.111111111111,4,2,1,60,0,0
195513,-111.111111111111,4,2,2,60,0,0
197170,-111.111111111111,4,2,2,60,0,0
197253,-111.111111111111,4,2,2,60,0,0
199905,-111.111111111111,4,2,2,60,0,0
200734,-111.111111111111,4,2,1,60,0,0
201065,-111.111111111111,4,2,2,60,0,0
209684,-111.111111111111,4,2,1,60,0,0
210513,-125,4,2,1,60,0,0
213164,-90.9090909090909,4,2,1,70,0,1
214325,-90.9090909090909,4,2,2,70,0,1
221120,-90.9090909090909,4,2,1,70,0,1
222281,-90.9090909090909,4,2,2,70,0,1
226093,-90.9090909090909,4,2,1,70,0,1
226424,-111.111111111111,4,2,2,70,0,0
228330,-111.111111111111,4,2,1,70,0,0
229076,-100,4,2,1,60,0,0
231397,-100,4,2,2,60,0,0
232723,-100,4,2,1,60,0,0
233054,-111.111111111111,4,2,2,60,0,0
234380,-117.647058823529,4,2,1,60,0,0
235374,-117.647058823529,4,2,2,60,0,0
236700,-117.647058823529,4,2,1,60,0,0
237032,-117.647058823529,4,2,2,60,0,0
237363,-117.647058823529,4,2,1,60,0,0
238192,-117.647058823529,4,2,2,60,0,0
239684,-111.111111111111,4,2,2,60,0,0
240513,-111.111111111111,4,2,1,60,0,0
240844,-111.111111111111,4,2,2,60,0,0
241176,-111.111111111111,4,2,1,60,0,0
242336,-111.111111111111,4,2,2,60,0,0
247142,-111.111111111111,4,2,1,60,0,0
248468,-111.111111111111,4,2,2,60,0,0
248800,-111.111111111111,4,2,1,60,0,0
249794,-111.111111111111,4,2,1,5,0,0

[Colours]
Combo1 : 255,157,157
Combo2 : 224,27,56
SliderBorder : 255,255,255
SliderTrackOverride : 255,157,157

[HitObjects]
76,110,12943,6,0,P|128:82|203:97,1,140,6|2,1:2|3:3,0:0:0:0:
248,163,13441,2,0,P|233:210|209:294,1,112,2|2,2:2|2:2,0:0:0:0:
377,362,14104,6,0,P|392:314|416:230,1,112,6|0,1:2|0:0,0:0:0:0:
468,202,14601,2,0,P|448:140|431:77,1,112,2|0,3:3|0:0,0:0:0:0:
398,25,15098,1,2,2:2:0:0:
333,70,15264,2,0,P|288:59|259:53,1,56,2|2,3:3|2:2,0:0:0:0:
211,16,15595,6,0,B|240:58|240:58|215:138,1,112,4|2,1:2|3:3,0:0:0:0:
165,172,16093,2,0,B|136:214|136:214|154:272,1,112,2|0,2:2|0:0,0:0:0:0:
119,342,16590,1,2,3:3:0:0:
193,367,16756,6,0,P|247:356|323:341,1,112,6|0,1:2|0:0,0:0:0:0:
357,288,17253,1,0,0:0:0:0:
300,232,17419,2,0,L|309:176,1,56,6|0,1:2|0:0,0:0:0:0:
353,112,17750,1,8,3:3:0:0:
286,70,17916,2,0,P|243:66|193:94,1,84,4|0,3:3|0:0,0:0:0:0:
174,109,18247,6,0,P|186:159|204:234,1,119.000002269745,6|2,1:2|1:2,0:0:0:0:
174,304,18745,2,0,P|133:294|105:288,1,59.5000011348725,2|8,1:2|2:2,0:0:0:0:
0,244,19076,2,0,P|29:237|57:230,1,59.5000011348725,2|0,2:2|1:1,0:0:0:0:
120,174,19408,5,6,1:2:0:0:
265,255,19739,2,0,P|255:302|250:324,2,59.5000011348725,8|4|4,3:3|3:3|3:3,0:0:0:0:
324,196,20236,2,0,P|366:211|398:222,1,59.5000011348725,8|2,2:2|1:2,0:0:0:0:
467,228,20568,1,2,2:2:0:0:
467,228,20734,1,2,2:2:0:0:
507,155,20899,5,4,1:2:0:0:
404,23,21231,1,2,2:2:0:0:
404,23,21397,2,0,P|366:38|335:51,1,59.5000011348725,2|8,1:2|2:2,0:0:0:0:
296,110,21728,2,0,P|258:95|227:82,1,59.5000011348725,8|6,3:3|3:3,0:0:0:0:
173,37,22060,6,0,P|119:12|47:37,1,119.000002269745,6|0,1:2|1:1,0:0:0:0:
7,87,22557,1,8,2:2:0:0:
62,148,22723,2,0,P|46:213|32:279,1,119.000002269745,6|0,1:2|1:1,0:0:0:0:
13,344,23220,1,8,2:2:0:0:
185,379,23551,5,0,1:1:0:0:
244,313,23717,2,0,P|230:263|209:183,1,125.999996154785,14|2,2:2|1:2,0:0:0:0:
149,127,24214,2,0,P|156:98|168:53,1,62.9999980773926,14|2,3:3|1:2,0:0:0:0:
227,2,24546,1,14,3:3:0:0:
288,64,24711,5,6,1:2:0:0:
456,11,25043,1,6,1:2:0:0:
502,180,25374,1,6,1:2:0:0:
429,230,25540,2,0,P|393:220|361:214,1,62.9999980773926,2|0,2:2|1:1,0:0:0:0:
280,199,25872,1,8,2:2:0:0:
155,74,26203,5,6,1:2:0:0:
155,74,26369,1,0,1:1:0:0:
12,283,27198,1,10,2:2:0:0:
74,329,27363,6,0,P|112:319|140:310,1,56,6|0,1:2|0:0,0:0:0:0:
203,292,27695,1,0,1:1:0:0:
147,236,27861,1,6,1:2:0:0:
313,69,28358,1,0,1:1:0:0:
368,124,28524,2,0,P|359:163|351:193,1,56,10|0,2:2|1:1,0:0:0:0:
367,260,28855,5,6,1:2:0:0:
367,260,29021,1,0,1:1:0:0:
164,377,29518,1,8,2:2:0:0:
108,321,29684,2,0,P|121:276|131:245,1,56,2|0,2:2|1:1,0:0:0:0:
179,211,30015,6,0,P|166:166|156:135,1,56,6|0,1:2|0:0,0:0:0:0:
159,78,30347,1,0,1:1:0:0:
227,116,30513,1,4,1:2:0:0:
354,35,30844,2,0,L|383:47,3,28,10|0|0|0,3:3|0:0|1:1|1:1,0:0:0:0:
404,62,31176,2,0,P|389:112|373:164,1,84,10|0,2:2|0:0,0:0:0:0:
385,168,31507,6,0,P|436:195|448:270,1,125.999996154785,6|10,1:2|2:2,0:0:0:0:
408,335,32004,2,0,P|371:327|335:319,1,62.9999980773926,2|0,2:2|1:1,0:0:0:0:
279,263,32336,1,2,1:2:0:0:
279,263,32502,2,0,P|248:269|217:276,1,62.9999980773926,8|2,2:2|2:2,0:0:0:0:
157,340,32833,6,0,B|90:328|94:372|35:359,1,125.999996154785,0|8,1:1|2:2,0:0:0:0:
1,184,33496,2,0,P|27:203|58:204,1,62.9999980773926,2|0,1:2|1:1,0:0:0:0:
118,139,33827,2,0,P|112:105|105:69,1,62.9999980773926,10|0,2:2|0:0,0:0:0:0:
173,17,34159,6,0,P|234:9|287:41,1,125.999996154785,2|10,1:2|2:2,0:0:0:0:
343,109,34656,2,0,P|309:118|271:130,1,62.9999980773926,2|0,2:2|1:1,0:0:0:0:
223,192,34988,2,0,P|272:228|334:225,1,125.999996154785,2|0,1:2|0:0,0:0:0:0:
414,167,35485,5,2,1:2:0:0:
414,167,35651,1,0,1:1:0:0:
483,219,35816,2,0,P|478:249|471:286,1,62.9999980773926,8|2,2:2|1:2,0:0:0:0:
429,358,36148,2,0,B|378:352|378:352|357:361|357:361|290:353,1,125.999996154785,2|8,2:2|2:2,0:0:0:0:
221,351,36645,5,8,2:2:0:0:
221,351,36728,1,8,2:2:0:0:
221,351,36811,2,0,B|145:377|145:377|95:357,2,125.999996154785,6|8|0,1:2|2:2|1:1,0:0:0:0:
266,274,37640,1,2,1:2:0:0:
266,274,37805,2,0,P|257:226|250:190,1,62.9999980773926,10|2,2:2|1:2,0:0:0:0:
250,195,38054,5,8,2:2:0:0:
250,195,38137,2,0,P|228:173|198:167,1,62.9999980773926,0|0,1:1|0:0,0:0:0:0:
110,153,38468,2,0,P|93:64|85:25,2,125.999996154785,10|2|10,2:2|1:2|2:2,0:0:0:0:
0,292,39463,6,0,B|26:271|60:280|60:280|79:304|115:301,1,125.999996154785,2|10,1:2|2:2,0:0:0:0:
200,269,39960,1,2,1:2:0:0:
200,269,40126,1,0,0:0:0:0:
268,324,40292,2,0,P|298:314|337:303,1,62.9999980773926,2|8,1:2|2:2,0:0:0:0:
421,334,40623,5,2,2:2:0:0:
421,334,40706,1,2,0:0:0:0:
421,334,40789,2,0,P|451:329|474:308,1,62.9999980773926,0|0,1:1|1:1,0:0:0:0:
496,223,41120,1,8,2:2:0:0:
368,101,41452,2,0,P|341:117|310:119,1,62.9999980773926,2|0,1:2|1:1,0:0:0:0:
326,33,41783,2,0,P|352:16|383:14,1,62.9999980773926,10|0,2:2|0:0,0:0:0:0:
471,27,42115,6,0,P|466:87|458:162,1,125.999996154785,2|10,1:2|2:2,0:0:0:0:
391,209,42612,2,0,P|360:225|330:226,1,62.9999980773926,2|0,2:2|1:1,0:0:0:0:
255,183,42943,2,0,P|223:185|196:200,1,62.9999980773926,2|8,1:2|2:2,0:0:0:0:
158,282,43275,5,2,2:2:0:0:
158,282,43441,2,0,P|144:221|131:159,1,125.999996154785,2|8,1:2|2:2,0:0:0:0:
112,72,43938,1,2,2:2:0:0:
112,72,44104,2,0,P|142:63|184:49,1,62.9999980773926,2|0,1:2|1:1,0:0:0:0:
268,89,44435,1,8,2:2:0:0:
268,89,44601,1,2,2:2:0:0:
360,17,44767,5,6,1:2:0:0:
510,108,45098,2,0,P|480:98|450:105,1,62.9999980773926,8|0,2:2|1:1,0:0:0:0:
400,179,45430,1,0,1:1:0:0:
400,179,45595,1,0,0:0:0:0:
328,237,45761,1,8,2:2:0:0:
267,173,45927,1,2,1:2:0:0:
143,298,46258,6,0,P|113:309|82:306,1,62.9999980773926,2|8,1:2|2:2,0:0:0:0:
3,265,46590,2,0,P|6:234|9:202,1,62.9999980773926,0|0,1:1|1:1,0:0:0:0:
72,139,46921,1,8,2:2:0:0:
72,139,47087,2,0,P|67:107|65:76,1,62.9999980773926,10|4,3:3|3:3,0:0:0:0:
124,10,47419,6,0,P|187:12|223:80,1,125.999996154785,6|8,1:2|2:2,0:0:0:0:
258,139,47916,2,0,P|241:184|232:212,1,62.9999980773926,2|0,2:2|1:1,0:0:0:0:
178,264,48247,1,0,1:1:0:0:
245,321,48413,2,0,P|287:312|317:306,1,62.9999980773926,10|0,2:2|0:0,0:0:0:0:
389,340,48745,6,0,B|359:296|359:296|378:212,1,125.999996154785,0|8,1:1|2:2,0:0:0:0:
434,159,49242,1,0,1:1:0:0:
370,97,49408,2,0,P|379:49|386:6,1,62.9999980773926,2|0,2:2|1:1,0:0:0:0:
285,126,49739,1,8,2:2:0:0:
285,126,49905,1,2,1:2:0:0:
238,50,50071,6,0,P|178:27|112:53,1,125.999996154785,2|8,1:2|2:2,0:0:0:0:
49,96,50568,1,0,0:0:0:0:
105,164,50734,2,0,P|91:212|83:241,1,62.9999980773926,2|0,1:2|1:1,0:0:0:0:
28,290,51065,1,10,2:2:0:0:
99,342,51231,6,0,P|146:328|236:305,1,125.999996154785,2|0,2:2|1:1,0:0:0:0:
288,252,51728,2,0,P|276:207|266:169,1,62.9999980773926,8|0,2:2|1:1,0:0:0:0:
234,110,51977,2,0,L|245:74,3,31.4999990386963,0|2|0|2,0:0|0:0|1:1|0:0,0:0:0:0:
252,56,52391,2,0,P|298:73|335:85,1,62.9999980773926,10|0,2:2|1:1,0:0:0:0:
385,29,52723,6,0,P|445:21|498:90,1,125.999996154785,2|10,1:2|2:2,0:0:0:0:
507,148,53220,2,0,P|496:192|487:233,1,62.9999980773926,2|0,1:2|0:0,0:0:0:0:
426,295,53551,2,0,P|415:251|406:210,1,62.9999980773926,2|8,1:2|2:2,0:0:0:0:
360,160,53883,6,0,P|313:185|298:268,1,125.999996154785,2|0,1:2|0:0,0:0:0:0:
270,336,54380,2,0,P|222:322|188:313,1,62.9999980773926,10|0,2:2|0:0,0:0:0:0:
124,251,54711,2,0,P|172:237|206:228,1,62.9999980773926,2|0,1:2|1:1,0:0:0:0:
92,342,55043,2,0,P|43:330|10:273,1,94.499997116089,10|0,2:2|0:0,0:0:0:0:
3,274,55374,6,0,P|17:205|34:128,1,125.999996154785,2|8,1:2|2:2,0:0:0:0:
16,62,55872,1,0,1:1:0:0:
98,92,56037,2,0,P|141:77|170:67,1,62.9999980773926,0|0,0:0|1:1,0:0:0:0:
223,12,56369,1,8,2:2:0:0:
266,89,56535,6,0,P|254:135|246:168,1,62.9999980773926,0|0,0:0|1:1,0:0:0:0:
294,226,56866,1,0,1:1:0:0:
227,284,57032,1,8,2:2:0:0:
286,349,57198,2,0,P|329:339|355:333,1,62.9999980773926,0|0,0:0|1:1,0:0:0:0:
428,369,57529,1,8,2:2:0:0:
488,304,57695,2,0,P|475:258|468:232,1,62.9999980773926,10|4,3:3|3:3,0:0:0:0:
450,157,58026,6,0,P|390:179|325:203,1,125.999996154785,6|8,1:2|2:2,0:0:0:0:
267,261,58524,2,0,P|216:250|180:242,1,62.9999980773926,2|0,2:2|0:0,0:0:0:0:
151,177,58855,1,0,1:1:0:0:
99,248,59021,2,0,P|113:288|123:323,1,62.9999980773926,10|0,2:2|0:0,0:0:0:0:
15,225,59352,6,0,P|-4:168|35:104,1,125.999996154785,0|8,1:1|2:2,0:0:0:0:
77,40,59850,1,0,1:1:0:0:
136,105,60015,2,0,P|174:93|209:84,1,62.9999980773926,2|0,2:2|1:1,0:0:0:0:
275,137,60347,1,8,2:2:0:0:
275,137,60513,1,2,2:2:0:0:
327,66,60678,6,0,P|386:39|449:60,1,125.999996154785,2|8,1:2|2:2,0:0:0:0:
495,125,61176,1,2,2:2:0:0:
450,200,61341,2,0,P|407:190|376:183,1,62.9999980773926,2|8,1:2|2:2,0:0:0:0:
315,236,61673,1,10,2:2:0:0:
250,175,61839,6,0,P|194:158|119:142,1,125.999996154785,6|0,1:2|1:1,0:0:0:0:
51,188,62336,2,0,P|63:238|68:259,1,62.9999980773926,8|0,2:2|0:0,0:0:0:0:
105,328,62667,2,0,L|142:312,3,31.4999990386963,8|4|0|8,3:3|3:3|1:1|2:2,0:0:0:0:
156,296,62999,2,0,P|205:310|229:318,1,62.9999980773926,10|8,2:2|3:3,0:0:0:0:
293,357,63330,6,0,P|341:327|350:266,1,105,6|0,1:2|0:0,0:0:0:0:
338,258,63662,2,0,P|297:240|263:228,1,70,8|2,2:2|2:2,0:0:0:0:
424,320,63993,2,0,P|465:302|499:290,1,70,8|0,2:2|1:1,0:0:0:0:
502,195,64325,2,0,P|487:149|476:116,1,70,10|0,2:2|1:1,0:0:0:0:
404,22,64656,6,0,P|389:68|378:101,1,70,8|0,2:2|1:1,0:0:0:0:
305,150,64988,2,0,P|320:196|331:229,1,70,8|0,2:2|1:1,0:0:0:0:
251,279,65319,2,0,P|206:311|137:294,1,105,10|0,2:2|0:0,0:0:0:0:
129,293,65651,2,0,P|147:234|153:208,1,70,10|2,2:2|1:2,0:0:0:0:
76,159,65982,5,12,2:2:0:0:
219,25,66314,2,0,P|260:41|290:54,1,70,8|0,2:2|0:0,0:0:0:0:
378,107,66645,2,0,P|337:123|307:136,1,70,8|0,2:2|1:1,0:0:0:0:
213,179,66977,2,0,P|221:134|231:94,1,70,8|0,2:2|1:1,0:0:0:0:
309,217,67308,5,8,2:2:0:0:
165,350,67640,2,0,P|123:338|92:329,2,70,8|8|8,2:2|2:2|2:2,0:0:0:0:
258,378,68137,2,0,P|300:366|331:357,1,70,8|8,2:2|2:2,0:0:0:0:
394,288,68468,1,8,2:2:0:0:
463,368,68634,5,6,1:2:0:0:
6,53,70623,2,0,B|48:7|126:32|126:32|156:100|218:95,1,245,14|0,2:2|0:0,0:0:0:0:
238,73,71286,6,0,P|270:51|308:47,1,77.0000023498536,6|0,1:2|0:0,0:0:0:0:
405,0,71618,1,10,2:2:0:0:
455,94,71783,2,0,P|449:132|441:183,1,77.0000023498536,2|0,2:2|1:1,0:0:0:0:
422,276,72115,2,0,P|456:252|497:252,1,77.0000023498536,2|8,1:2|2:2,0:0:0:0:
440,355,72446,6,0,B|396:366|369:342|377:338|346:309|294:331,1,154.000004699707,6|2,1:2|1:2,0:0:0:0:
189,354,72943,1,8,2:2:0:0:
93,302,73109,2,0,P|98:263|104:225,1,77.0000023498536,2|0,2:2|1:1,0:0:0:0:
189,158,73441,2,0,P|131:186|50:144,1,154.000004699707,2|0,1:2|0:0,0:0:0:0:
128,65,73938,6,0,B|188:57|188:57|217:73|217:73|286:63,1,154.000004699707,6|8,1:2|2:2,0:0:0:0:
363,0,74435,1,2,2:2:0:0:
449,56,74601,2,0,L|432:136,1,77.0000023498536,2|0,1:2|1:1,0:0:0:0:
507,205,74932,1,8,2:2:0:0:
418,276,75098,6,0,L|254:244,1,154.000004699707,4|0,1:2|1:1,0:0:0:0:
186,174,75595,1,8,2:2:0:0:
164,279,75761,2,0,L|188:360,1,77.0000023498536,0|0,0:0|1:1,0:0:0:0:
88,377,76093,2,0,L|4:360,1,77.0000023498536,2|8,1:2|2:2,0:0:0:0:
10,261,76424,5,10,2:2:0:0:
10,261,76507,1,8,2:2:0:0:
10,261,76590,2,0,P|51:198|125:186,1,154.000004699707,6|10,1:2|2:2,0:0:0:0:
198,264,77087,1,2,1:2:0:0:
288,204,77253,2,0,P|282:165|275:117,1,77.0000023498536,0|2,1:1|1:2,0:0:0:0:
322,30,77584,1,8,2:2:0:0:
214,17,77750,6,0,P|136:26|54:36,1,154.000004699707,2|0,1:2|1:1,0:0:0:0:
3,126,78247,1,8,2:2:0:0:
100,172,78413,2,0,P|112:209|104:246,1,77.0000023498536,0|0,0:0|1:1,0:0:0:0:
5,289,78745,2,0,P|-3:326|8:362,1,77.0000023498536,2|8,1:2|2:2,0:0:0:0:
114,382,79076,1,2,2:2:0:0:
218,354,79242,6,0,B|248:324|294:327|294:327|313:354|355:357,1,154.000004699707,2|10,1:2|2:2,0:0:0:0:
462,367,79739,1,2,2:2:0:0:
508,269,79905,2,0,P|501:233|492:189,1,77.0000023498536,0|2,1:1|1:2,0:0:0:0:
394,155,80236,1,8,2:2:0:0:
512,11,80568,6,0,B|461:-10|430:18|438:22|411:46|367:35,1,154.000004699707,2|8,1:2|2:2,0:0:0:0:
262,9,81065,1,2,2:2:0:0:
199,97,81231,2,0,P|207:136|214:177,1,77.0000023498536,2|4,1:2|3:3,0:0:0:0:
295,242,81562,2,0,P|294:263|292:285,3,38.5000011749268,0|8|4|0,1:1|3:3|3:3|1:1,0:0:0:0:
309,321,81894,6,0,P|336:298|387:296,1,77.0000023498536,6|0,1:2|0:0,0:0:0:0:
444,376,82225,1,10,2:2:0:0:
499,283,82391,2,0,P|508:248|488:201,1,77.0000023498536,2|0,2:2|1:1,0:0:0:0:
393,172,82723,2,0,P|401:132|412:87,1,77.0000023498536,2|8,1:2|2:2,0:0:0:0:
322,32,83054,6,0,B|292:2|246:5|246:5|227:32|185:35,2,154.000004699707,6|2|2,1:2|1:2|2:2,0:0:0:0:
409,96,83883,1,0,1:1:0:0:
409,96,84048,1,2,1:2:0:0:
492,27,84214,1,8,2:2:0:0:
286,109,84546,6,0,B|317:155|317:155|279:247,1,154.000004699707,6|10,1:2|2:2,0:0:0:0:
234,344,85043,1,2,1:2:0:0:
94,184,85374,2,0,P|89:223|83:269,1,77.0000023498536,2|8,1:2|2:2,0:0:0:0:
5,335,85706,6,0,P|70:298|146:326,1,154.000004699707,6|0,1:2|1:1,0:0:0:0:
239,364,86203,2,0,P|274:357|334:342,1,77.0000023498536,8|0,2:2|0:0,0:0:0:0:
422,352,86535,1,0,1:1:0:0:
396,247,86700,2,0,L|321:227,1,77.0000023498536,10|0,2:2|0:0,0:0:0:0:
264,134,87032,5,10,2:2:0:0:
264,134,87115,1,10,2:2:0:0:
264,134,87198,2,0,B|186:47|260:-51|348:17|318:76,1,251.999992309571,6|4,1:2|1:2,0:0:0:0:
258,347,88358,5,2,1:2:0:0:
258,347,88441,1,0,1:1:0:0:
258,347,88524,2,0,B|177:336|198:391|125:377,1,140,6|0,1:2|1:1,0:0:0:0:
27,361,89021,1,2,1:2:0:0:
27,361,89104,1,0,1:1:0:0:
27,361,89187,2,0,P|20:278|16:214,1,140,10|10,2:2|2:2,0:0:0:0:
16,130,89684,5,2,1:2:0:0:
16,130,89767,1,8,2:2:0:0:
16,130,89850,2,0,B|178:105|102:279|283:233|283:233|297:138|207:125|159:182,1,489.999985046387,6|0,1:2|0:0,0:0:0:0:
172,170,93496,5,8,2:2:0:0:
229,237,93662,2,0,P|290:220|354:205,1,125.999996154785,6|0,1:2|1:1,0:0:0:0:
421,153,94159,1,8,2:2:0:0:
475,222,94325,2,0,B|495:270|495:270|451:352,1,125.999996154785,6|8,1:2|3:3,0:0:0:0:
379,371,94822,2,0,P|340:361|304:356,1,62.9999980773926,4|0,3:3|1:1,0:0:0:0:
220,342,95153,6,0,P|233:287|256:194,1,140,6|2,1:2|1:2,0:0:0:0:
319,132,95651,2,0,P|308:74|305:47,1,70,10|0,2:2|1:1,0:0:0:0:
294,43,95899,1,8,2:2:0:0:
294,43,95982,1,2,1:2:0:0:
209,92,96148,1,0,1:1:0:0:
130,32,96314,6,0,P|58:76|49:132,1,140,2|8,1:2|2:2,0:0:0:0:
89,215,96811,2,0,P|131:203|172:194,1,70,0|8,1:1|2:2,0:0:0:0:
178,185,97060,1,8,2:2:0:0:
178,185,97142,2,0,P|209:193|226:198,3,35,0|0|10|8,1:1|0:0|2:2|2:2,0:0:0:0:
237,204,97474,2,0,P|279:193|310:187,1,70,2|10,1:2|2:2,0:0:0:0:
378,123,97805,6,0,B|416:169|416:169|396:255,1,140,4|0,1:2|1:1,0:0:0:0:
453,329,98303,1,10,3:3:0:0:
362,365,98468,2,0,P|319:355|195:339,1,140,2|2,1:2|1:2,0:0:0:0:
125,349,98966,6,0,P|79:327|86:224,1,140,6|0,1:2|1:1,0:0:0:0:
2,172,99463,1,8,2:2:0:0:
77,108,99629,2,0,P|135:121|224:141,1,140,6|8,1:2|3:3,0:0:0:0:
297,189,100126,2,0,P|284:227|273:261,1,70,4|8,3:3|2:2,0:0:0:0:
389,159,100457,5,4,2:2:0:0:
389,159,101286,1,0,1:1:0:0:
459,242,101452,2,0,P|500:194|491:125,1,105,8|0,1:3|0:0,0:0:0:0:
479,136,101783,6,0,P|488:77|498:18,2,119.000002269745,6|0|0,1:2|1:1|1:1,0:0:0:0:
389,159,102612,1,2,2:2:0:0:
389,159,102778,2,0,P|360:154|331:151,1,59.5000011348725,2|2,1:2|3:3,0:0:0:0:
272,88,103109,6,0,P|297:41|366:29,2,119.000002269745,0|2|2,1:1|1:2|1:2,0:0:0:0:
249,168,103938,1,2,3:3:0:0:
249,168,104021,1,2,3:3:0:0:
249,168,104104,2,0,P|207:158|176:152,1,59.5000011348725,2|2,1:2|3:3,0:0:0:0:
129,98,104435,6,0,P|104:51|35:39,2,119.000002269745,2|2|0,1:2|1:2|1:1,0:0:0:0:
113,180,105264,2,0,P|102:207|104:236,1,59.5000011348725,2|0,3:3|1:1,0:0:0:0:
151,305,105595,6,0,P|180:309|209:313,1,59.5000011348725,2|0,3:3|1:1,0:0:0:0:
275,365,105927,1,2,3:3:0:0:
275,365,106093,1,0,1:1:0:0:
437,329,106424,2,0,B|469:297|469:297|450:216,1,119.000002269745,2|2,1:2|1:2,0:0:0:0:
401,158,106921,5,2,3:3:0:0:
401,158,107004,1,2,3:3:0:0:
401,158,107087,2,0,P|413:89|425:31,1,119.000002269745,2|2,1:2|1:2,0:0:0:0:
345,10,107584,1,2,3:3:0:0:
345,10,107750,2,0,L|275:27,1,59.5000011348725,0|2,1:1|2:2,0:0:0:0:
207,50,108082,1,0,1:1:0:0:
317,174,108413,6,0,L|292:115,1,59.5000011348725,8|0,2:2|1:1,0:0:0:0:
228,179,108745,2,0,B|165:188|174:147|106:156,1,125.999996154785,12|10,2:2|3:3,0:0:0:0:
26,192,109242,1,0,1:1:0:0:
26,192,109325,1,0,1:1:0:0:
26,192,109408,2,0,P|19:142|16:124,1,62.9999980773926,10|8,2:2|2:2,0:0:0:0:
14,113,109656,5,8,2:2:0:0:
14,113,109739,2,0,P|56:64|116:59,1,125.999996154785,6|2,1:2|1:2,0:0:0:0:
198,96,110236,2,0,P|189:126|178:175,1,62.9999980773926,10|0,3:3|1:1,0:0:0:0:
125,226,110568,2,0,P|134:256|141:286,1,62.9999980773926,2|0,3:3|1:1,0:0:0:0:
203,349,110899,1,8,2:2:0:0:
265,286,111065,6,0,P|297:276|332:290,1,62.9999980773926,10|8,1:2|2:2,0:0:0:0:
397,335,111397,1,8,1:2:0:0:
458,272,111562,1,10,3:3:0:0:
390,215,111728,2,0,P|384:178|378:135,1,62.9999980773926,10|8,1:2|3:3,0:0:0:0:
339,74,112060,2,0,L|310:87,3,31.4999990386963,12|8|0|0,3:3|2:2|1:1|0:0,0:0:0:0:
289,108,112391,6,0,P|236:92|143:72,2,140,6|8|0,1:2|2:2|1:1,0:0:0:0:
361,175,113220,1,2,1:2:0:0:
286,238,113385,2,0,P|296:286|302:320,1,70,10|2,2:2|2:2,0:0:0:0:
231,378,113717,6,0,P|187:366|151:357,1,70,0|0,1:1|1:1,0:0:0:0:
71,325,114048,2,0,P|41:284|52:214,1,105,10|0,2:2|0:0,0:0:0:0:
63,210,114380,2,0,P|76:162|88:123,1,70,2|0,2:2|1:1,0:0:0:0:
153,73,114711,2,0,P|166:121|178:160,1,70,10|0,2:2|1:1,0:0:0:0:
250,200,115043,6,0,P|304:179|328:94,1,140,2|10,1:2|2:2,0:0:0:0:
374,18,115540,2,0,P|416:34|446:43,1,70,2|0,2:2|1:1,0:0:0:0:
502,117,115872,2,0,P|460:133|430:142,1,70,2|8,1:2|2:2,0:0:0:0:
348,183,116203,6,0,P|369:247|376:272,1,70,2|0,2:2|1:1,0:0:0:0:
453,301,116535,1,0,1:1:0:0:
368,350,116700,2,0,P|322:341|283:334,1,70,8|0,2:2|1:1,0:0:0:0:
218,279,117032,2,0,P|172:288|133:295,1,70,2|0,2:2|1:1,0:0:0:0:
270,192,117363,2,0,P|255:138|245:102,1,70,10|0,2:2|1:1,0:0:0:0:
176,60,117695,6,0,P|119:30|46:67,1,140,2|10,1:2|2:2,0:0:0:0:
6,143,118192,2,0,P|25:193|35:223,1,70,2|0,1:2|0:0,0:0:0:0:
97,280,118524,2,0,P|136:263|180:249,1,70,2|8,1:2|2:2,0:0:0:0:
258,273,118855,1,2,1:2:0:0:
322,198,119021,6,0,P|366:158|471:170,1,140,2|8,1:2|2:2,0:0:0:0:
507,229,119518,1,2,1:2:0:0:
441,302,119684,2,0,P|395:297|291:288,1,140,2|12,2:2|2:2,0:0:0:0:
234,360,120181,1,2,2:2:0:0:
153,304,120347,1,6,1:2:0:0:
73,361,120513,6,0,P|27:349|-10:339,2,70,8|8|4,2:2|3:3|3:3,0:0:0:0:
153,304,121010,1,12,1:3:0:0:
234,360,121176,2,0,L|316:338,1,70,0|0,1:1|1:1,0:0:0:0:
396,365,121507,5,8,2:2:0:0:
275,210,121839,1,12,2:2:0:0:
350,148,122004,1,0,0:0:0:0:
434,197,122170,2,0,P|503:178|525:116,1,140,0|0,1:1|1:1,0:0:0:0:
470,36,122667,2,0,P|434:45|392:55,1,70,10|0,3:3|0:0,0:0:0:0:
324,39,122999,6,0,B|221:4|221:4|155:21,2,168,6|2|2,1:2|2:2|2:2,0:0:0:0:
421,162,124325,2,0,B|378:140|337:157|337:157|327:198|276:201,1,168
205,169,124988,6,0,L|188:81,2,84,2|2|2,2:2|2:2|2:2,0:0:0:0:
211,247,125651,2,0,P|174:287|119:297,1,112,6|0,2:2|0:0,0:0:0:0:
1,194,126314,2,0,P|11:119|18:71,1,112,2|2,2:2|2:2,0:0:0:0:
69,25,126811,5,2,2:2:0:0:
69,25,126977,2,0,B|115:41|178:34|178:34|154:40|125:67,1,168,2|0,2:2|0:0,0:0:0:0:
233,180,127805,1,8,3:3:0:0:
178,236,127971,1,6,3:3:0:0:
282,352,128303,6,0,P|308:343|328:324,1,56,6|0,1:2|0:0,0:0:0:0:
388,274,128634,2,0,P|368:256|341:248,1,56,2|2,1:2|2:2,0:0:0:0:
314,174,128966,2,0,P|321:118|327:62,1,112,8|0,2:2|0:0,0:0:0:0:
396,21,129463,5,2,1:2:0:0:
396,21,129546,1,0,1:1:0:0:
396,21,129629,2,0,P|450:20|493:55,1,112,0|2,1:1|1:2,0:0:0:0:
425,184,130292,2,0,P|369:179|313:173,1,112,10|2,2:2|2:2,0:0:0:0:
222,44,130955,6,0,P|167:43|124:78,1,112,6|0,1:2|1:1,0:0:0:0:
36,213,131618,2,0,P|91:218|147:223,1,112,8|0,2:2|1:1,0:0:0:0:
233,245,132115,5,8,2:2:0:0:
233,245,132198,1,0,0:0:0:0:
233,245,132281,1,0,1:1:0:0:
203,317,132446,2,0,P|147:311|91:306,1,112,8|0,2:2|1:1,0:0:0:0:
23,342,132943,2,0,P|12:316|13:288,1,56,8|8,2:2|3:3,0:0:0:0:
36,213,133275,1,6,3:3:0:0:
59,58,133606,6,0,P|106:28|195:40,1,125.999996154785,6|8,1:2|2:2,0:0:0:0:
254,67,134104,2,0,P|236:173|229:207,1,125.999996154785,2|0,1:2|1:1,0:0:0:0:
270,270,134601,2,0,P|310:260|346:252,1,62.9999980773926,10|0,2:2|0:0,0:0:0:0:
244,355,134932,6,0,P|204:345|168:337,1,62.9999980773926,0|0,1:1|1:1,0:0:0:0:
108,290,135264,2,0,P|129:230|138:206,1,62.9999980773926,8|0,2:2|1:1,0:0:0:0:
97,147,135595,2,0,P|59:156|24:164,1,62.9999980773926,2|0,2:2|1:1,0:0:0:0:
165,71,135927,1,8,2:2:0:0:
165,71,136093,1,2,1:2:0:0:
201,150,136258,6,0,P|256:136|334:121,1,125.999996154785,2|8,1:2|2:2,0:0:0:0:
405,86,136756,1,2,1:2:0:0:
459,157,136921,2,0,P|450:199|428:285,1,125.999996154785,2|10,2:2|2:2,0:0:0:0:
479,353,137419,1,2,2:2:0:0:
393,371,137584,6,0,P|343:353|317:346,1,62.9999980773926,0|0,1:1|1:1,0:0:0:0:
239,289,137916,2,0,P|289:271|315:264,1,62.9999980773926,8|0,2:2|1:1,0:0:0:0:
399,221,138247,2,0,P|386:276|381:304,1,62.9999980773926,0|8,0:0|3:3,0:0:0:0:
294,177,138579,2,0,P|301:122|350:82,1,94.499997116089,10|0,2:2|0:0,0:0:0:0:
349,80,138910,6,0,P|398:91|431:99,1,70,6|0,1:2|0:0,0:0:0:0:
295,3,139242,2,0,P|246:14|213:22,1,70,8|2,2:2|2:2,0:0:0:0:
162,92,139573,2,0,P|113:81|80:73,1,70,8|0,2:2|1:1,0:0:0:0:
14,134,139905,2,0,P|29:183|36:216,1,70,10|0,2:2|1:1,0:0:0:0:
111,310,140236,6,0,P|119:276|130:242,1,70,8|0,2:2|0:0,0:0:0:0:
194,167,140568,2,0,P|150:143|121:129,1,70,8|0,2:2|1:1,0:0:0:0:
237,237,140899,2,0,P|290:218|327:181,1,105,10|0,2:2|0:0,0:0:0:0:
328,159,141231,2,0,P|375:151|414:144,1,70,10|2,2:2|1:2,0:0:0:0:
446,62,141562,6,0,P|478:97|478:201,1,140,12|8,2:2|2:2,0:0:0:0:
446,276,142060,2,0,P|380:264|302:249,1,140,2|0,0:0|1:1,0:0:0:0:
245,325,142557,1,8,2:2:0:0:
245,325,142888,6,0,P|196:325|143:253,1,140,8|8,2:2|2:2,0:0:0:0:
80,333,143385,2,0,P|45:298|58:209,1,140,0|0,1:1|1:1,0:0:0:0:
102,127,143883,2,0,P|90:81|80:42,1,70,8|0,2:2|1:1,0:0:0:0:
6,118,144214,5,6,1:2:0:0:
470,18,145540,2,0,B|409:169|533:131|478:285,1,280,6|10,2:2|3:3,0:0:0:0:
460,311,146286,1,4,3:3:0:0:
460,311,146369,2,0,L|470:351,4,35,8|8|8|0|0,2:2|2:2|2:2|1:1|1:1,0:0:0:0:
384,248,146866,2,0,P|350:258|317:269,1,70,2|0,1:2|1:1,0:0:0:0:
296,279,147115,5,0,1:1:0:0:
296,279,147198,1,14,2:2:0:0:
190,253,147363,2,0,P|152:235|112:250,1,77.0000023498536,2|0,2:2|1:1,0:0:0:0:
34,311,147695,2,0,P|28:271|23:227,1,77.0000023498536,2|8,1:2|2:2,0:0:0:0:
0,123,148026,6,0,P|45:65|120:62,1,154.000004699707,6|2,1:2|1:2,0:0:0:0:
200,135,148524,1,8,2:2:0:0:
291,78,148689,2,0,P|287:116|283:156,1,77.0000023498536,2|0,2:2|1:1,0:0:0:0:
255,259,149021,2,0,P|304:194|374:195,1,154.000004699707,2|0,1:2|0:0,0:0:0:0:
477,210,149518,6,0,B|488:166|464:139|460:147|431:116|452:65,1,154.000004699707,6|8,1:2|2:2,0:0:0:0:
358,12,150015,1,2,2:2:0:0:
278,84,150181,2,0,P|240:77|202:70,1,77.0000023498536,2|0,1:2|1:1,0:0:0:0:
108,16,150513,1,8,2:2:0:0:
24,81,150678,6,0,P|16:119|29:154,1,77.0000023498536,4|0,1:2|0:0,0:0:0:0:
127,198,151010,2,0,P|140:233|132:270,1,77.0000023498536,0|8,1:1|2:2,0:0:0:0:
46,365,151341,1,0,1:1:0:0:
46,365,151424,1,8,2:2:0:0:
46,365,151507,2,0,P|82:360|135:354,1,77.0000023498536,0|2,1:1|1:2,0:0:0:0:
223,314,151839,1,8,2:2:0:0:
316,366,152004,1,2,1:2:0:0:
397,297,152170,6,0,B|418:198|418:198|401:226|377:230,1,154.000004699707,6|10,1:2|2:2,0:0:0:0:
282,180,152667,2,0,P|268:134|285:103,1,77.0000023498536,2|0,2:2|1:1,0:0:0:0:
321,9,152999,2,0,P|358:15|406:23,1,77.0000023498536,2|8,1:2|2:2,0:0:0:0:
503,37,153330,6,0,P|430:47|404:116,1,154.000004699707,2|0,1:2|1:1,0:0:0:0:
488,184,153827,1,8,2:2:0:0:
411,259,153993,2,0,P|370:254|327:247,1,77.0000023498536,0|0,0:0|1:1,0:0:0:0:
250,317,154325,1,2,1:2:0:0:
178,236,154490,2,0,P|166:199|183:151,1,77.0000023498536,8|2,2:2|2:2,0:0:0:0:
238,75,154822,6,0,B|177:75|177:75|152:55|152:55|85:56,1,154.000004699707,6|10,1:2|2:2,0:0:0:0:
1,118,155319,2,0,P|-6:154|10:188,1,77.0000023498536,2|0,2:2|1:1,0:0:0:0:
101,244,155651,2,0,P|139:239|177:235,1,77.0000023498536,2|8,1:2|2:2,0:0:0:0:
280,268,155982,1,0,1:1:0:0:
343,180,156148,6,0,P|336:139|330:104,2,77.0000023498536,2|8|0,1:2|2:2|1:1,0:0:0:0:
431,242,156645,1,2,1:2:0:0:
379,336,156811,2,0,B|337:333|318:306|318:306|272:303|242:333,1,154.000004699707,10|4,2:2|3:3,0:0:0:0:
147,281,157308,1,0,1:1:0:0:
64,350,157474,6,0,B|31:302|31:302|59:207,1,140,6|2,1:2|2:2,0:0:0:0:
84,129,157971,2,0,P|76:95|66:62,1,70,2|8,1:2|2:2,0:0:0:0:
156,22,158303,2,0,P|165:55|173:89,1,70,2|0,2:2|0:0,0:0:0:0:
217,177,158634,6,0,P|284:164|339:203,2,140,6|10|2,1:2|2:2|1:2,0:0:0:0:
146,245,159463,1,8,3:3:0:0:
146,245,159629,1,6,3:3:0:0:
217,310,159794,1,0,1:1:0:0:
365,181,160126,6,0,P|355:249|345:327,1,140,6|2,1:2|2:2,0:0:0:0:
432,365,160623,2,0,P|490:354|506:337,1,70,2|8,1:2|3:3,0:0:0:0:
501,249,160955,2,0,P|495:214|489:176,1,70,2|4,2:2|3:3,0:0:0:0:
443,93,161286,6,0,B|394:63|394:63|367:100|319:87,1,140,6|8,1:2|2:2,0:0:0:0:
248,29,161783,1,0,0:0:0:0:
248,29,161949,2,0,P|226:56|221:90,1,70,0|8,1:1|3:3,0:0:0:0:
274,174,162281,1,2,1:2:0:0:
210,248,162446,2,0,L|137:234,1,70,8|2,3:3|1:2,0:0:0:0:
117,242,162695,5,8,2:2:0:0:
117,242,162778,2,0,P|135:307|140:328,1,77.0000023498536,6|0,1:2|0:0,0:0:0:0:
23,218,163109,2,0,P|41:152|47:131,1,77.0000023498536,8|0,2:2|1:1,0:0:0:0:
7,41,163441,1,0,0:0:0:0:
113,30,163606,2,0,P|159:44|195:56,1,77.0000023498536,2|8,1:2|2:2,0:0:0:0:
250,141,163938,1,2,2:2:0:0:
313,53,164104,6,0,P|374:26|458:45,1,154.000004699707,2|12,1:2|2:2,0:0:0:0:
508,140,164601,1,2,1:2:0:0:
411,187,164767,2,0,P|357:176|321:169,1,77.0000023498536,10|8,2:2|2:2,0:0:0:0:
236,128,165098,2,0,L|196:141,3,38.5000011749268,10|8|10|8,2:2|3:3|2:2|2:2,0:0:0:0:
169,152,165430,5,4,1:2:0:0:
169,152,166093,2,0,L|179:193,5,38.5000011749268,8|8|0|4|4|0,3:3|3:3|0:0|3:3|3:3|1:1,0:0:0:0:
186,216,166590,6,0,P|131:251|134:336,1,140,6|0,1:2|1:1,0:0:0:0:
208,372,167087,1,8,2:2:0:0:
291,316,167253,1,10,3:3:0:0:
291,316,167336,1,10,3:3:0:0:
291,316,167419,2,0,P|336:323|375:331,1,70,6|0,3:3|1:1,0:0:0:0:
425,254,167750,2,0,P|441:210|419:138,1,105,8|0,2:2|0:0,0:0:0:0:
412,133,168082,5,14,1:2:0:0:
328,182,168247,1,10,1:2:0:0:
328,182,168579,1,8,3:3:0:0:
251,120,168745,1,8,3:3:0:0:
181,188,168910,2,0,L|195:230,2,35,2|8|10,1:2|2:2|2:2,0:0:0:0:
88,153,169242,6,0,P|71:91|115:33,1,140,6|0,1:2|1:1,0:0:0:0:
209,14,169739,2,0,P|256:25|297:35,1,70,8|2,2:2|2:2,0:0:0:0:
340,105,170071,1,8,2:2:0:0:
421,51,170236,1,10,2:2:0:0:
494,115,170402,2,0,P|482:162|474:192,1,70,10|10,2:2|3:3,0:0:0:0:
399,244,170734,6,0,L|344:231,3,35,6|0|0|0,1:2|0:0|0:0|0:0,0:0:0:0:
334,228,171065,1,8,2:2:0:0:
245,269,171231,2,0,L|262:320,4,35,0|0|2|0|0,0:0|0:0|1:2|0:0|1:1,0:0:0:0:
177,198,171728,1,8,2:2:0:0:
85,232,171894,6,0,P|44:183|61:103,1,140,0|0,1:1|1:1,0:0:0:0:
129,48,172391,1,8,2:2:0:0:
200,114,172557,1,0,1:1:0:0:
288,72,172723,2,0,P|281:30|276:-2,1,70,2|0,2:2|1:1,0:0:0:0:
357,121,173054,2,0,P|404:108|437:101,1,70,8|0,2:2|1:1,0:0:0:0:
510,150,173385,6,0,P|496:192|487:227,1,70,2|0,1:2|1:1,0:0:0:0:
469,238,173634,1,0,0:0:0:0:
469,238,173717,2,0,P|483:280|492:315,1,70,8|0,2:2|1:1,0:0:0:0:
409,357,174048,1,10,3:3:0:0:
409,357,174131,1,0,0:0:0:0:
409,357,174214,2,0,L|375:346,3,35,0|0|8|0,1:1|1:1|2:2|0:0,0:0:0:0:
346,336,174546,6,0,P|288:344|197:358,1,140,6|0,1:2|1:1,0:0:0:0:
110,343,175043,1,8,2:2:0:0:
156,256,175209,2,0,B|175:208|175:208|135:121,1,140,6|8,1:2|1:3,0:0:0:0:
44,96,175706,2,0,P|52:148|59:189,1,70,12|0,3:3|1:1,0:0:0:0:
13,254,176037,5,6,1:2:0:0:
13,254,184988,5,6,3:3:0:0:
111,132,185319,6,0,B|159:99|201:131|190:133|221:163|268:140,2,168,14|10|6,2:2|3:3|3:3,0:0:0:0:
47,178,186479,5,0,1:1:0:0:
47,178,186562,1,0,0:0:0:0:
47,178,186645,2,0,P|30:143|35:108,1,62.9999980773926,6|0,1:2|0:0,0:0:0:0:
68,39,186977,1,2,1:2:0:0:
68,39,187142,1,2,2:2:0:0:
155,52,187308,2,0,P|218:40|288:29,1,125.999996154785,8|0,2:2|1:1,0:0:0:0:
359,67,187805,5,2,3:3:0:0:
359,67,187888,1,2,3:3:0:0:
359,67,187971,2,0,P|355:92|351:134,1,62.9999980773926,0|10,1:1|2:2,0:0:0:0:
292,196,188303,2,0,P|295:227|299:258,1,62.9999980773926,2|0,1:2|0:0,0:0:0:0:
336,343,188634,1,8,2:2:0:0:
336,343,188800,1,8,3:3:0:0:
394,277,188966,2,0,P|435:255|480:266,1,94.499997116089,6|0,3:3|0:0,0:0:0:0:
509,300,189297,6,0,P|500:221|495:172,1,125.999996154785,6|2,1:2|1:2,0:0:0:0:
489,86,189794,1,2,2:2:0:0:
489,86,189960,2,0,P|458:139|398:152,1,125.999996154785,8|0,2:2|1:1,0:0:0:0:
328,95,190457,6,0,P|326:63|324:28,1,62.9999980773926,10|4,2:2|1:2,0:0:0:0:
241,13,190789,1,10,3:3:0:0:
241,13,190955,1,6,3:3:0:0:
178,74,191120,2,0,P|144:64|117:57,2,62.9999980773926,0|8|4,1:1|3:3|3:3,0:0:0:0:
243,133,191618,2,0,P|265:173|251:217,1,94.499997116089,10|0,2:2|0:0,0:0:0:0:
242,260,191949,6,0,B|295:251|295:251|317:262|317:262|378:253,1,125.999996154785,6|2,1:2|1:2,0:0:0:0:
398,336,192446,2,0,P|366:340|335:344,1,62.9999980773926,2|8,2:2|2:2,0:0:0:0:
247,354,192778,2,0,P|182:344|104:335,1,125.999996154785,2|2,3:3|3:3,0:0:0:0:
99,334,193192,5,2,3:3:0:0:
99,334,193275,2,0,P|48:302|37:242,1,125.999996154785,0|2,1:1|1:2,0:0:0:0:
50,55,193938,2,0,P|27:31|-17:22,2,62.9999980773926,10|2|2,2:2|3:3|1:2,0:0:0:0:
101,138,194435,5,2,3:3:0:0:
101,138,194518,1,2,3:3:0:0:
101,138,194601,2,0,P|166:128|244:119,1,125.999996154785,6|2,1:2|1:2,0:0:0:0:
294,65,195098,1,2,2:2:0:0:
294,65,195264,2,0,P|323:64|362:61,1,62.9999980773926,8|2,1:3|3:3,0:0:0:0:
377,66,195513,1,2,3:3:0:0:
377,66,195595,1,0,1:1:0:0:
457,18,195761,6,0,B|490:54|490:54|466:127,1,125.999996154785,6|0,1:2|1:1,0:0:0:0:
412,206,196258,1,8,2:2:0:0:
478,265,196424,2,0,P|413:260|343:256,1,125.999996154785,4|0,1:2|1:1,0:0:0:0:
273,215,196921,2,0,P|257:162|280:125,1,94.499997116089,8|8,2:2|2:2,0:0:0:0:
286,86,197253,6,0,B|233:92|233:92|220:104|220:104|161:110,1,125.999996154785,4|10,1:2|2:2,0:0:0:0:
121,39,197750,1,0,0:0:0:0:
121,39,197916,2,0,P|92:20|60:16,1,62.9999980773926,14|2,2:2|1:2,0:0:0:0:
1,77,198247,1,8,2:2:0:0:
73,127,198413,6,0,P|70:158|66:197,1,62.9999980773926,6|0,1:2|0:0,0:0:0:0:
18,263,198745,2,0,P|19:294|33:322,1,62.9999980773926,2|8,1:2|2:2,0:0:0:0:
116,354,199076,2,0,P|174:347|249:340,1,125.999996154785,2|2,1:2|1:2,0:0:0:0:
313,285,199573,2,0,P|300:233|286:174,1,94.499997116089,8|0,2:2|0:0,0:0:0:0:
307,169,199905,6,0,P|346:177|393:186,1,62.9999980773926,6|0,1:2|1:1,0:0:0:0:
443,134,200236,1,10,2:2:0:0:
490,208,200402,2,0,P|476:253|466:286,1,62.9999980773926,2|8,1:2|2:2,0:0:0:0:
406,366,200734,2,0,P|396:335|387:305,1,62.9999980773926,10|4,3:3|3:3,0:0:0:0:
314,256,201065,6,0,P|251:259|209:326,1,125.999996154785,6|0,1:2|1:1,0:0:0:0:
159,374,201562,2,0,P|103:364|73:358,1,62.9999980773926,8|0,2:2|0:0,0:0:0:0:
23,322,201894,1,0,1:1:0:0:
23,322,202060,1,0,1:1:0:0:
76,252,202225,2,0,P|67:207|62:180,1,62.9999980773926,8|0,2:2|1:1,0:0:0:0:
28,108,202557,6,0,P|71:76|137:78,1,94.499997116089,4|0,1:2|0:0,0:0:0:0:
136,92,202888,2,0,P|188:85|218:80,1,62.9999980773926,10|0,2:2|1:1,0:0:0:0:
218,67,203137,1,8,2:2:0:0:
218,67,203220,2,0,P|270:74|300:79,1,62.9999980773926,2|2,1:2|1:2,0:0:0:0:
344,15,203551,1,8,2:2:0:0:
411,72,203717,6,0,P|435:102|412:197,1,125.999996154785,2|0,1:2|1:1,0:0:0:0:
340,210,204214,2,0,P|298:199|258:190,1,62.9999980773926,10|0,2:2|0:0,0:0:0:0:
197,158,204546,2,0,P|155:169|115:178,1,62.9999980773926,2|0,1:2|1:1,0:0:0:0:
48,164,204877,2,0,P|22:206|25:272,1,94.499997116089,10|0,2:2|0:0,0:0:0:0:
32,279,205209,6,0,P|79:285|157:297,1,125.999996154785,14|0,2:2|1:1,0:0:0:0:
254,371,205706,2,0,P|301:365|379:353,1,125.999996154785,14|0,2:2|1:1,0:0:0:0:
508,350,206203,2,0,B|527:308|527:308|493:215,1,125.999996154785,14|0,2:2|1:1,0:0:0:0:
395,207,206700,6,0,P|349:218|318:225,1,62.9999980773926,14|0,2:2|1:1,0:0:0:0:
277,290,207032,1,0,1:1:0:0:
223,219,207198,2,0,P|237:158|243:136,1,62.9999980773926,14|0,2:2|1:1,0:0:0:0:
153,60,207529,2,0,P|209:46|266:37,1,94.499997116089,14|0,2:2|0:0,0:0:0:0:
267,22,207861,6,0,P|326:31|407:43,1,125.999996154785,14|0,2:2|1:1,0:0:0:0:
508,104,208358,2,0,P|445:119|416:183,1,125.999996154785,14|0,2:2|1:1,0:0:0:0:
452,298,208855,2,0,P|494:286|526:279,1,62.9999980773926,14|2,2:2|2:2,0:0:0:0:
372,359,209187,5,2,2:2:0:0:
322,265,209352,2,0,P|310:223|303:191,1,62.9999980773926,10|2,1:2|2:2,0:0:0:0:
365,124,209684,1,10,3:3:0:0:
299,62,209850,2,0,P|261:73|226:83,1,62.9999980773926,2|6,2:2|3:3,0:0:0:0:
186,150,210181,2,0,P|148:139|113:129,1,62.9999980773926,2|2,1:2|1:2,0:0:0:0:
46,90,210513,5,10,1:2:0:0:
16,172,210678,1,8,1:2:0:0:
16,172,211673,5,10,1:2:0:0:
126,282,212004,1,10,1:2:0:0:
186,210,212170,1,8,1:2:0:0:
186,210,212999,5,2,0:0:0:0:
186,210,213082,1,2,0:0:0:0:
186,210,213164,2,0,B|228:186|265:209|257:214|289:237|332:214,1,154.000004699707,6|8,1:2|2:2,0:0:0:0:
417,147,213662,1,2,2:2:0:0:
501,213,213827,2,0,P|493:250|484:295,1,77.0000023498536,2|0,1:2|1:1,0:0:0:0:
379,313,214159,1,8,2:2:0:0:
332,214,214325,6,0,P|298:199|255:207,1,77.0000023498536,4|0,1:2|0:0,0:0:0:0:
180,330,214656,2,0,P|209:308|223:266,1,77.0000023498536,0|8,1:1|2:2,0:0:0:0:
153,142,214988,2,0,P|156:178|185:211,1,77.0000023498536,0|0,1:1|1:1,0:0:0:0:
247,123,215319,2,0,P|243:86|214:53,1,77.0000023498536,2|8,1:2|2:2,0:0:0:0:
116,18,215651,1,10,2:2:0:0:
27,86,215816,6,0,P|39:161|50:238,1,154.000004699707,6|10,1:2|2:2,0:0:0:0:
31,344,216314,2,0,P|69:350|104:335,1,77.0000023498536,2|0,2:2|1:1,0:0:0:0:
170,249,216645,1,2,1:2:0:0:
242,329,216811,1,8,2:2:0:0:
321,247,216977,6,0,B|409:288|409:288|472:257,1,154.000004699707,2|0,1:2|1:1,0:0:0:0:
505,165,217474,2,0,P|498:125|492:85,1,77.0000023498536,8|0,2:2|0:0,0:0:0:0:
407,22,217805,2,0,P|369:16|334:32,1,77.0000023498536,0|2,1:1|1:2,0:0:0:0:
263,114,218137,2,0,P|301:119|338:126,1,77.0000023498536,8|2,2:2|2:2,0:0:0:0:
404,219,218468,6,0,P|371:265|267:264,1,154.000004699707,6|10,1:2|2:2,0:0:0:0:
192,201,218966,2,0,P|154:207|104:217,1,77.0000023498536,2|0,2:2|1:1,0:0:0:0:
53,302,219297,1,2,1:2:0:0:
145,358,219463,1,12,2:2:0:0:
255,334,219629,5,0,1:1:0:0:
255,334,219711,1,8,2:2:0:0:
255,334,219794,2,0,P|239:243|225:166,1,154.000004699707,6|0,1:2|1:1,0:0:0:0:
188,91,220292,1,10,2:2:0:0:
188,91,220374,1,8,2:2:0:0:
188,91,220457,2,0,P|143:56|100:58,1,77.0000023498536,2|8,1:2|2:2,0:0:0:0:
99,48,220706,1,8,2:2:0:0:
99,48,220789,2,0,L|58:60,3,38.5000011749268,0|8|8|8,1:1|2:2|2:2|2:2,0:0:0:0:
30,75,221120,6,0,P|27:110|55:152,1,77.0000023498536,6|0,1:2|0:0,0:0:0:0:
145,189,221451,1,10,2:2:0:0:
75,277,221618,2,0,P|35:271|-21:263,1,77.0000023498536,2|0,1:2|1:1,0:0:0:0:
45,363,221949,2,0,P|85:369|141:377,1,77.0000023498536,2|8,1:2|2:2,0:0:0:0:
200,300,222281,6,0,P|164:235|189:165,2,154.000004699707,6|2|2,1:2|1:2|1:2,0:0:0:0:
275,222,223109,1,0,1:1:0:0:
275,222,223275,1,2,1:2:0:0:
360,286,223440,1,8,2:2:0:0:
445,87,223772,6,0,P|474:63|512:55,2,77.0000023498536,6|0|10,1:2|1:1|2:2,0:0:0:0:
381,159,224269,1,2,1:2:0:0:
381,159,224352,1,8,2:2:0:0:
381,159,224435,1,8,2:2:0:0:
311,65,224601,1,6,1:2:0:0:
107,113,224932,6,0,B|153:151|153:151|110:247,1,154.000004699707,6|0,1:2|1:1,0:0:0:0:
72,336,225429,2,0,P|107:329|167:314,1,77.0000023498536,8|0,2:2|1:1,0:0:0:0:
245,364,225761,1,0,1:1:0:0:
325,290,225927,2,0,P|334:249|319:210,1,77.0000023498536,10|8,2:2|3:3,0:0:0:0:
248,153,226258,5,6,3:3:0:0:
248,153,226341,1,6,3:3:0:0:
248,153,226424,2,0,B|182:110|182:110|160:223|239:287,1,251.999992309571,6|4,1:2|1:2,0:0:0:0:
384,62,227584,5,10,2:2:0:0:
384,62,227667,1,8,2:2:0:0:
384,62,227750,2,0,P|419:93|426:183,1,125.999996154785,6|0,1:2|1:1,0:0:0:0:
370,232,228247,1,2,1:2:0:0:
290,192,228413,2,0,L|251:206,3,31.4999990386963,2|8|8|4,1:2|3:3|3:3|3:3,0:0:0:0:
239,224,228745,2,0,L|200:210,3,31.4999990386963,10|8|6|0,1:2|3:3|3:3|1:1,0:0:0:0:
179,199,229076,6,0,P|193:159|210:115,2,70,6|2|10,1:2|1:2|2:2,0:0:0:0:
116,274,229573,2,0,P|128:306|139:339,1,70,2|0,1:2|1:1,0:0:0:0:
43,363,229905,2,0,P|30:330|19:297,1,70,2|8,1:2|2:2,0:0:0:0:
0,200,230236,6,0,P|16:133|34:72,1,105,2|0,1:2|0:0,0:0:0:0:
34,71,230568,2,0,P|79:89|103:97,1,70,2|8,1:2|2:2,0:0:0:0:
180,151,230899,2,0,P|237:138|327:123,1,140,2|2,1:2|1:2,0:0:0:0:
367,38,231397,2,0,P|399:50|432:62,1,70,12|2,2:2|1:2,0:0:0:0:
491,141,231728,6,0,P|412:223|416:333,1,210,6|0,1:2|1:1,0:0:0:0:
323,361,232391,2,0,P|278:348|249:339,1,70,8|2,2:2|1:2,0:0:0:0:
204,256,232723,2,0,L|223:203,3,35,8|0|6|0,3:3|0:0|3:3|0:0,0:0:0:0:
229,194,233054,6,0,B|167:126|76:114|9:162|-6:247|-6:247|85:282|124:208,1,440.999986541748,6|2,1:2|2:2,0:0:0:0:
190,259,234380,6,0,P|246:245|325:228,1,119.000002269745,6|2,1:2|3:3,0:0:0:0:
339,307,234877,2,0,P|351:248|366:191,1,119.000002269745,2|2,2:2|2:2,0:0:0:0:
339,26,235540,6,0,P|284:10|222:41,1,119.000002269745,6|0,1:2|0:0,0:0:0:0:
190,106,236037,2,0,P|135:122|73:91,1,119.000002269745,2|0,3:3|0:0,0:0:0:0:
9,143,236535,1,2,2:2:0:0:
74,194,236700,2,0,P|67:229|61:262,1,59.5000011348725,2|2,3:3|2:2,0:0:0:0:
14,321,237032,6,0,P|59:290|138:310,1,119.000002269745,4|2,1:2|3:3,0:0:0:0:
183,351,237529,2,0,B|160:307|160:307|189:234,1,119.000002269745,2|8,2:2|3:3,0:0:0:0:
150,166,238026,1,2,3:3:0:0:
225,131,238192,6,0,P|292:146|360:162,1,119.000002269745,6|0,1:2|1:1,0:0:0:0:
398,96,238689,1,8,2:2:0:0:
465,145,238855,2,0,P|454:181|446:211,1,59.5000011348725,6|0,1:2|0:0,0:0:0:0:
474,281,239187,1,0,1:1:0:0:
400,319,239352,2,0,P|356:303|307:288,1,89.2500017023087,8|0,2:2|0:0,0:0:0:0:
291,277,239684,6,0,P|242:288|158:308,1,125.999996154785,6|10,1:2|2:2,0:0:0:0:
80,296,240181,2,0,P|91:246|97:217,1,62.9999980773926,2|0,2:2|1:1,0:0:0:0:
31,171,240513,2,0,P|42:121|48:92,1,62.9999980773926,10|4,3:3|1:3,0:0:0:0:
74,26,240844,5,6,1:2:0:0:
194,154,241176,2,0,P|175:197|165:223,2,62.9999980773926,8|4|4,3:3|3:3|1:3,0:0:0:0:
255,90,241673,2,0,P|242:39|236:13,1,62.9999980773926,0|2,1:1|2:2,0:0:0:0:
341,113,242004,1,2,1:2:0:0:
341,113,242170,1,2,2:2:0:0:
284,181,242336,5,4,1:2:0:0:
408,305,242667,1,2,1:2:0:0:
408,305,242833,2,0,P|419:267|432:228,1,62.9999980773926,2|4,2:2|1:2,0:0:0:0:
480,175,243164,2,0,P|469:137|456:98,1,62.9999980773926,8|10,2:2|2:2,0:0:0:0:
415,39,243496,6,0,P|373:42|322:113,1,125.999996154785,6|0,1:2|1:1,0:0:0:0:
294,187,243993,1,8,2:2:0:0:
212,152,244159,2,0,P|178:144|78:129,1,125.999996154785,6|0,1:2|1:1,0:0:0:0:
20,187,244656,1,8,2:2:0:0:
20,187,244988,5,0,1:1:0:0:
70,258,245153,2,0,P|120:245|203:225,1,125.999996154785,14|2,2:2|1:2,0:0:0:0:
280,220,245651,2,0,P|267:266|259:294,1,62.9999980773926,14|2,2:2|1:2,0:0:0:0:
200,342,245982,1,10,2:2:0:0:
281,376,246148,5,6,1:2:0:0:
192,227,246479,1,6,1:2:0:0:
350,148,246811,1,2,1:2:0:0:
280,93,246977,2,0,P|238:84|196:76,1,62.9999980773926,14|8,2:2|3:3,0:0:0:0:
131,58,247308,2,0,L|92:75,3,31.4999990386963,4|4|0|0,3:3|3:3|1:1|1:1,0:0:0:0:
74,87,247640,1,0,1:1:0:0:
222,255,247971,5,10,1:2:0:0:
272,182,248137,1,10,1:2:0:0:
388,314,248468,1,14,1:2:0:0:
489,83,248800,1,14,1:2:0:0:
256,192,248883,12,0,249794,0:0:0:0:
