osu file format v14

[General]
AudioFilename: audio.mp3
AudioLeadIn: 0
PreviewTime: 146866
Countdown: 0
SampleSet: Soft
StackLeniency: 0.7
Mode: 0
LetterboxInBreaks: 0
WidescreenStoryboard: 1

[Editor]
Bookmarks: 27861,70623,103109,143054,155651,210678,250126
DistanceSpacing: 1.7
BeatDivisor: 4
GridSize: 32
TimelineZoom: 2.2

[Metadata]
Title:Heart no Iro
TitleUnicode:ハートノイロ
Artist:Minase Inori
ArtistUnicode:水瀬 いのり
Creator:Sekai
Version:Affection
Source:
Tags:Sekaii Sekai-nyan SkyFlame Heart's Color Blue Compass kusano AsuKow - ex - -_ex_- japanese jpop j-pop pop
BeatmapID:3297593
BeatmapSetID:1615138

[Difficulty]
HPDrainRate:6.5
CircleSize:4
OverallDifficulty:8
ApproachRate:9.3
SliderMultiplier:1.6
SliderTickRate:1

[Events]
//Background and Video events
0,0,"snowwhitebg.jpg",0,0
//Break Periods
2,176237,178135
2,178889,180787
2,181541,183439
//Storyboard Layer 0 (Background)
//Storyboard Layer 1 (Fail)
//Storyboard Layer 2 (Pass)
//Storyboard Layer 3 (Foreground)
//Storyboard Layer 4 (Overlay)
//Storyboard Sound Samples

[TimingPoints]
12944,331.491712707182,4,2,1,60,1,0
13937,-100,4,2,2,60,0,0
15264,-100,4,2,1,60,0,0
15595,-100,4,2,2,60,0,0
15926,-100,4,2,1,60,0,0
16756,-100,4,2,2,60,0,0
17750,-100,4,2,1,60,0,0
18247,-100,4,2,2,60,0,0
19739,-100,4,2,1,60,0,0
20899,-100,4,2,2,60,0,0
21728,-100,4,2,1,60,0,0
22060,-100,4,2,2,60,0,0
24214,-100,4,2,3,60,0,0
24546,-100,4,2,4,60,0,0
24711,-100,4,2,2,60,0,0
25872,-125,4,2,2,60,0,0
26203,-100,4,2,2,60,0,0
30844,-100,4,2,1,60,0,0
31507,-100,4,2,2,60,0,0
47087,-100,4,2,1,60,0,0
47419,-100,4,2,2,60,0,0
57695,-100,4,2,1,60,0,0
58026,-100,4,2,2,60,0,0
62667,-100,4,2,1,60,0,0
63330,-100,4,2,2,60,0,0
68634,-166.666666666667,4,2,2,60,0,0
71286,-90.9090909090909,4,2,3,70,0,1
72446,-90.9090909090909,4,2,2,70,0,1
81313,-90.9090909090909,4,2,1,70,0,1
81894,-90.9090909090909,4,2,3,70,0,1
83054,-90.9090909090909,4,2,2,70,0,1
89850,-125,4,2,1,60,0,0
93662,-100,4,2,2,60,0,0
94656,-100,4,2,1,60,0,0
95153,-100,4,2,2,60,0,0
98303,-100,4,2,1,60,0,0
98966,-100,4,2,2,60,0,0
99960,-100,4,2,1,60,0,0
100457,-100,4,2,2,60,0,0
101452,-100,4,2,1,60,0,0
101783,-111.111111111111,4,2,2,60,0,0
102943,-111.111111111111,4,2,1,60,0,0
103274,-111.111111111111,4,2,2,60,0,0
104932,-111.111111111111,4,2,1,60,0,0
105098,-111.111111111111,4,2,2,60,0,0
105263,-111.111111111111,4,2,1,60,0,0
106092,-111.111111111111,4,2,2,60,0,0
107584,-111.111111111111,4,2,1,60,0,0
108745,-100,4,2,2,60,0,0
109076,-100,4,2,1,60,0,0
109739,-100,4,2,2,60,0,0
110236,-100,4,2,1,60,0,0
111562,-100,4,2,3,60,0,0
111894,-100,4,2,1,60,0,0
112060,-100,4,2,2,60,0,0
120678,-100,4,2,1,60,0,0
121010,-100,4,2,2,60,0,0
122667,-100,4,2,1,60,0,0
122999,-125,4,2,2,60,0,0
127805,-125,4,2,1,60,0,0
128303,-111.111111111111,4,2,2,60,0,0
133108,-111.111111111111,4,2,1,60,0,0
133606,-100,4,2,2,60,0,0
138413,-100,4,2,1,60,0,0
138910,-100,4,2,2,60,0,0
144214,-166.666666666667,4,2,2,60,0,0
146120,-100,4,2,2,60,0,0
146203,-100,4,2,1,60,0,0
147198,-90.9090909090909,4,2,3,70,0,1
148026,-90.9090909090909,4,2,2,70,0,1
156976,-90.9090909090909,4,2,1,70,0,1
157474,-90.9090909090909,4,2,2,70,0,1
159463,-90.9090909090909,4,2,1,70,0,1
160126,-90.9090909090909,4,2,2,70,0,1
160788,-90.9090909090909,4,2,1,70,0,1
161286,-90.9090909090909,4,2,2,70,0,1
162115,-90.9090909090909,4,2,1,70,0,1
162778,-90.9090909090909,4,2,2,70,0,1
165180,-90.9090909090909,4,2,1,70,0,1
165430,-100,4,2,3,60,0,0
166093,-100,4,2,1,60,0,0
166590,-100,4,2,2,60,0,0
167253,-100,4,2,1,60,0,0
168082,-100,4,2,2,60,0,0
168578,-100,4,2,1,60,0,0
169242,-100,4,2,2,60,0,0
170568,-100,4,2,3,60,0,0
170734,-100,4,2,2,60,0,0
174048,-100,4,2,1,60,0,0
174546,-100,4,2,2,60,0,0
175540,-100,4,2,1,60,0,0
175706,-100,4,2,2,60,0,0
176037,-125,4,2,1,60,0,0
178689,-125,4,2,2,60,0,0
184988,-125,4,2,5,60,0,0
185319,-125,4,2,2,60,0,0
185816,-125,4,2,1,60,0,0
186645,-111.111111111111,4,2,2,60,0,0
187474,-111.111111111111,4,2,1,60,0,0
187639,-111.111111111111,4,2,2,60,0,0
187805,-111.111111111111,4,2,1,60,0,0
187970,-111.111111111111,4,2,2,60,0,0
188800,-111.111111111111,4,2,1,60,0,0
189297,-111.111111111111,4,2,2,60,0,0
190789,-111.111111111111,4,2,1,60,0,0
191949,-111.111111111111,4,2,2,60,0,0
192777,-111.111111111111,4,2,1,60,0,0
192943,-111.111111111111,4,2,2,60,0,0
193108,-111.111111111111,4,2,1,60,0,0
193275,-111.111111111111,4,2,2,60,0,0
193772,-111.111111111111,4,2,1,60,0,0
194269,-111.111111111111,4,2,2,60,0,0
195264,-111.111111111111,4,2,1,60,0,0
195512,-111.111111111111,4,2,2,60,0,0
197253,-100,4,2,2,60,0,0
200734,-100,4,2,1,60,0,0
201065,-100,4,2,2,60,0,0
209684,-100,4,2,1,60,0,0
213164,-90.9090909090909,4,2,1,70,0,1
214325,-90.9090909090909,4,2,2,70,0,1
221120,-90.9090909090909,4,2,1,70,0,1
222281,-90.9090909090909,4,2,2,70,0,1
226092,-90.9090909090909,4,2,1,70,0,1
226424,-90.9090909090909,4,2,2,70,0,1
228329,-90.9090909090909,4,2,1,70,0,1
229076,-100,4,2,1,60,0,0
231397,-100,4,2,2,60,0,0
232723,-100,4,2,1,60,0,0
233054,-100,4,2,2,60,0,0
234380,-100,4,2,1,60,0,0
235374,-100,4,2,2,60,0,0
236700,-100,4,2,1,60,0,0
237032,-100,4,2,2,60,0,0
237363,-100,4,2,1,60,0,0
238192,-100,4,2,2,60,0,0
240513,-100,4,2,1,60,0,0
240844,-100,4,2,2,60,0,0
241176,-100,4,2,1,60,0,0
242336,-100,4,2,2,60,0,0
247142,-100,4,2,1,60,0,0
248468,-100,4,2,2,60,0,0
248800,-100,4,2,1,60,0,0
249131,-100,4,2,1,40,0,0
249297,-100,4,2,1,30,0,0
249629,-100,4,2,1,20,0,0
249960,-100,4,2,1,10,0,0
250126,-100,4,2,1,5,0,0

[Colours]
Combo1 : 255,157,157
Combo2 : 224,27,56
SliderBorder : 255,255,255
SliderTrackOverride : 255,157,157

[HitObjects]
55,93,12943,6,0,P|137:108|173:180,1,160,6|2,1:2|3:3,0:0:0:0:
335,134,13441,2,0,P|292:132|254:115,1,80,2|0,2:2|0:0,0:0:0:0:
147,263,13772,2,0,P|190:261|228:244,1,80,2|2,2:2|3:3,0:0:0:0:
420,298,14104,6,0,P|343:298|293:357,1,160,6|0,1:2|0:0,0:0:0:0:
461,371,14601,2,0,P|451:282|437:209,1,160,2|0,3:3|0:0,0:0:0:0:
424,93,15098,1,2,2:2:0:0:
512,167,15264,1,2,3:3:0:0:
345,176,15430,1,2,2:2:0:0:
345,176,15513,1,0,0:0:0:0:
345,176,15595,6,0,B|253:152|274:212|183:193,1,160,4|2,1:2|3:3,0:0:0:0:
424,93,16093,2,0,P|465:155|425:232,1,160,2|0,2:2|0:0,0:0:0:0:
329,301,16590,1,2,3:3:0:0:
437,306,16756,6,0,P|388:232|338:167,1,160,6|0,1:2|0:0,0:0:0:0:
274,70,17253,1,0,0:0:0:0:
202,170,17419,2,0,P|194:204|210:245,1,80,6|0,1:2|0:0,0:0:0:0:
312,360,17750,1,8,3:3:0:0:
200,360,17916,1,4,3:3:0:0:
316,254,18082,1,0,1:1:0:0:
200,360,18247,6,0,P|127:358|73:291,1,160,6|2,1:2|1:2,0:0:0:0:
139,131,18745,2,0,P|146:178|138:227,1,80,2|8,1:2|2:2,0:0:0:0:
200,360,19076,2,0,P|207:313|230:269,1,80,2|0,2:2|1:1,0:0:0:0:
378,211,19408,6,0,P|321:211|269:177,1,120,6|0,1:2|0:0,0:0:0:0:
345,133,19739,1,8,3:3:0:0:
399,291,19905,1,4,3:3:0:0:
497,188,20071,1,4,3:3:0:0:
345,133,20236,2,0,P|388:134|430:125,1,80,8|2,2:2|1:2,0:0:0:0:
399,291,20568,2,0,P|356:290|314:299,1,80,2|2,2:2|2:2,0:0:0:0:
150,208,20899,6,0,B|227:183|236:238|306:214,1,160,4|2,1:2|2:2,0:0:0:0:
95,274,21397,2,0,P|76:237|62:198,1,80,2|8,1:2|2:2,0:0:0:0:
69,53,21728,1,8,3:3:0:0:
62,200,21894,1,6,3:3:0:0:
257,110,22060,6,0,P|213:110|169:120,1,80,6|0,1:2|0:0,0:0:0:0:
255,274,22391,2,0,P|299:274|343:264,1,80,0|8,1:1|2:2,0:0:0:0:
472,143,22723,2,0,P|397:158|306:179,1,160,6|0,1:2|1:1,0:0:0:0:
171,317,23220,2,0,P|217:303|292:300,1,120,8|0,2:2|0:0,0:0:0:0:
328,308,23551,5,0,1:1:0:0:
418,210,23717,2,0,P|426:249|431:288,1,80,14|0,2:2|0:0,0:0:0:0:
304,217,24048,1,2,1:2:0:0:
389,112,24214,2,0,P|433:109|488:109,1,80,14|2,3:3|1:2,0:0:0:0:
304,217,24546,1,14,3:3:0:0:
501,31,24711,6,0,P|417:32|334:40,2,160,6|6|6,1:2|1:2|1:2,0:0:0:0:
487,174,25540,2,0,P|451:162|405:155,1,80,2|0,2:2|1:1,0:0:0:0:
339,274,25872,2,0,P|377:261|418:258,1,64,8|0,2:2|0:0,0:0:0:0:
323,365,26203,5,6,1:2:0:0:
256,182,26369,1,0,1:1:0:0:
256,182,27032,1,2,2:2:0:0:
219,351,27198,1,10,2:2:0:0:
361,278,27363,6,0,P|275:270|194:270,1,160,6|0,1:2|1:1,0:0:0:0:
78,109,27861,2,0,P|157:108|237:100,1,160,6|2,1:2|2:2,0:0:0:0:
378,50,28358,1,0,1:1:0:0:
368,207,28524,2,0,P|351:168|324:128,1,80,10|0,2:2|1:1,0:0:0:0:
450,308,28855,5,6,1:2:0:0:
252,251,29021,2,0,B|160:236|191:284|84:266,1,160,0|2,1:1|2:2,0:0:0:0:
242,335,29518,2,0,P|274:330|323:338,1,80,8|2,2:2|2:2,0:0:0:0:
196,178,29850,1,0,1:1:0:0:
84,346,30015,6,0,P|85:306|95:267,1,80,6|0,1:2|0:0,0:0:0:0:
109,87,30347,1,0,1:1:0:0:
196,178,30513,2,0,P|151:183|108:181,1,80,4|0,1:2|0:0,0:0:0:0:
210,61,30844,1,10,3:3:0:0:
312,154,31010,1,0,1:1:0:0:
312,154,31093,1,0,1:1:0:0:
312,154,31176,2,0,P|302:196|304:283,1,120,10|0,2:2|0:0,0:0:0:0:
306,298,31507,6,0,P|349:285|394:283,1,80,6|0,1:2|0:0,0:0:0:0:
170,284,31839,2,0,P|182:327|185:372,1,80,10|2,2:2|2:2,0:0:0:0:
197,135,32170,2,0,P|153:147|109:150,1,80,0|2,1:1|1:2,0:0:0:0:
305,142,32502,1,8,2:2:0:0:
185,29,32667,1,2,2:2:0:0:
396,27,32833,6,0,P|323:39|299:48,1,80,0|0,1:1|0:0,0:0:0:0:
183,195,33164,2,0,P|256:207|280:216,1,80,8|0,2:2|0:0,0:0:0:0:
414,341,33496,1,2,1:2:0:0:
397,152,33662,1,0,1:1:0:0:
280,296,33827,2,0,P|322:273|358:254,1,80,10|0,2:2|0:0,0:0:0:0:
286,99,34159,6,0,P|218:142|136:187,1,160,2|10,1:2|2:2,0:0:0:0:
156,25,34656,1,2,2:2:0:0:
285,99,34822,2,0,P|309:138|317:172,1,80,0|2,1:1|1:2,0:0:0:0:
179,251,35153,2,0,P|157:217|147:179,1,80,8|0,2:2|0:0,0:0:0:0:
382,291,35485,6,0,P|326:282|253:278,1,120,2|0,1:2|0:0,0:0:0:0:
262,278,35816,1,8,2:2:0:0:
331,384,35982,1,2,1:2:0:0:
459,197,36148,2,0,P|457:246|450:279,1,80,2|0,2:2|1:1,0:0:0:0:
321,209,36479,2,0,P|313:169|312:129,1,80,8|8,2:2|2:2,0:0:0:0:
333,58,36728,1,8,2:2:0:0:
333,58,36811,6,0,B|247:38|266:97|174:82,1,160,6|8,1:2|2:2,0:0:0:0:
88,21,37308,1,0,0:0:0:0:
71,180,37474,2,0,P|89:145|102:106,1,80,0|2,1:1|1:2,0:0:0:0:
173,229,37805,1,10,2:2:0:0:
74,318,37971,2,0,P|47:287|12:260,1,80,2|0,1:2|1:1,0:0:0:0:
181,340,38303,5,0,0:0:0:0:
200,153,38468,2,0,P|181:200|172:230,1,80,10|0,2:2|0:0,0:0:0:0:
320,236,38800,1,2,1:2:0:0:
290,96,38966,1,0,1:1:0:0:
290,96,39048,1,0,1:2:0:0:
290,96,39131,2,0,P|249:66|219:51,1,80,10|0,2:2|0:0,0:0:0:0:
320,236,39463,6,0,P|381:170|445:116,1,160,2|10,1:2|2:2,0:0:0:0:
423,349,39960,2,0,P|419:301|423:267,1,80,2|0,1:2|0:0,0:0:0:0:
434,124,40292,2,0,P|460:154|491:178,1,80,2|8,1:2|2:2,0:0:0:0:
410,27,40623,6,0,P|323:29|267:83,1,160,2|0,2:2|1:1,0:0:0:0:
230,233,41120,1,8,2:2:0:0:
342,154,41286,1,0,0:0:0:0:
157,145,41452,2,0,P|224:142|252:146,1,80,2|0,1:2|1:1,0:0:0:0:
150,297,41783,2,0,P|83:300|55:296,1,80,10|0,2:2|0:0,0:0:0:0:
230,233,42115,6,0,P|309:240|388:255,1,160,2|10,1:2|2:2,0:0:0:0:
394,85,42612,2,0,P|383:127|366:160,1,80,2|0,2:2|1:1,0:0:0:0:
458,327,42943,2,0,P|468:284|486:252,1,80,2|8,1:2|2:2,0:0:0:0:
475,125,43275,1,2,2:2:0:0:
236,112,43441,6,0,P|307:101|407:81,1,160,2|8,1:2|2:2,0:0:0:0:
225,23,43938,1,2,2:2:0:0:
290,194,44104,2,0,P|328:184|376:173,1,80,2|0,1:2|1:1,0:0:0:0:
337,317,44435,2,0,P|299:327|251:338,1,80,8|2,2:2|2:2,0:0:0:0:
81,229,44767,5,6,1:2:0:0:
145,367,44932,1,0,0:0:0:0:
204,189,45098,2,0,P|196:239|178:276,1,80,8|0,2:2|1:1,0:0:0:0:
84,133,45430,1,0,1:1:0:0:
192,83,45595,2,0,P|236:88|288:97,1,80,0|8,0:0|2:2,0:0:0:0:
435,249,45927,6,0,P|435:206|424:163,1,80,2|0,1:2|0:0,0:0:0:0:
437,21,46258,2,0,P|408:56|376:82,1,80,2|8,1:2|2:2,0:0:0:0:
435,249,46590,1,0,1:1:0:0:
252,152,46756,1,0,1:1:0:0:
256,324,46921,1,8,2:2:0:0:
356,180,47087,1,10,3:3:0:0:
333,162,47169,1,0,0:0:0:0:
308,152,47252,1,4,3:3:0:0:
280,148,47335,1,0,0:0:0:0:
252,152,47419,6,0,P|183:149|125:77,1,160,6|8,1:2|2:2,0:0:0:0:
19,222,47916,2,0,P|58:225|97:235,1,80,2|0,2:2|1:1,0:0:0:0:
182,85,48247,1,0,1:1:0:0:
330,165,48413,2,0,P|290:161|251:151,1,80,10|0,2:2|0:0,0:0:0:0:
359,278,48745,5,0,1:1:0:0:
396,106,48910,1,0,1:1:0:0:
206,253,49076,2,0,P|245:249|284:239,1,80,8|0,2:2|1:1,0:0:0:0:
126,154,49408,1,2,2:2:0:0:
91,270,49573,1,0,1:1:0:0:
91,270,49656,1,2,2:2:0:0:
91,270,49739,2,0,P|94:311|110:348,1,80,8|2,2:2|1:2,0:0:0:0:
126,154,50071,6,0,B|211:129|187:193|285:170,1,160,2|8,1:2|2:2,0:0:0:0:
409,110,50568,1,0,0:0:0:0:
398,257,50734,2,0,P|375:222|362:182,1,80,2|0,1:2|1:1,0:0:0:0:
289,30,51065,2,0,P|275:67|253:100,1,80,10|2,2:2|2:2,0:0:0:0:
86,138,51397,5,0,1:1:0:0:
183,260,51562,1,0,1:1:0:0:
253,100,51728,1,8,2:2:0:0:
97,255,51894,1,0,1:1:0:0:
90,48,52060,1,2,0:0:0:0:
90,48,52142,1,2,0:0:0:0:
90,48,52225,1,2,1:2:0:0:
90,48,52308,1,2,0:0:0:0:
90,48,52391,6,0,P|135:63|183:120,1,120,10|0,2:2|1:1,0:0:0:0:
184,149,52723,2,0,P|226:134|278:125,1,80,2|0,1:2|0:0,0:0:0:0:
413,89,53054,1,10,2:2:0:0:
372,272,53220,2,0,P|364:232|353:194,1,80,2|0,1:2|0:0,0:0:0:0:
220,284,53551,2,0,P|227:323|238:361,1,80,2|8,1:2|2:2,0:0:0:0:
156,190,53883,1,2,1:2:0:0:
156,190,53966,1,0,1:1:0:0:
156,190,54048,6,0,P|82:197|30:262,1,160,0|10,1:1|2:2,0:0:0:0:
100,67,54546,1,0,0:0:0:0:
233,146,54711,2,0,P|245:200|237:233,1,80,2|0,1:2|1:1,0:0:0:0:
119,341,55043,2,0,P|114:301|126:263,1,80,10|0,2:2|0:0,0:0:0:0:
233,146,55374,6,0,B|316:126|297:183|389:165,1,160,2|8,1:2|2:2,0:0:0:0:
264,228,55872,1,0,1:1:0:0:
335,20,56037,2,0,P|340:48|360:100,1,80,0|0,0:0|1:1,0:0:0:0:
460,182,56369,2,0,P|439:215|412:245,1,80,8|0,2:2|0:0,0:0:0:0:
290,356,56700,5,0,1:1:0:0:
174,250,56866,1,0,1:1:0:0:
318,188,57032,1,8,2:2:0:0:
225,307,57198,5,0,0:0:0:0:
131,185,57363,1,0,1:1:0:0:
70,340,57529,1,8,2:2:0:0:
216,188,57695,1,10,3:3:0:0:
290,356,57861,1,4,3:3:0:0:
290,356,57943,1,0,0:0:0:0:
290,356,58026,6,0,P|363:364|436:321,1,160,6|8,1:2|2:2,0:0:0:0:
343,190,58524,1,2,2:2:0:0:
343,190,58606,1,2,0:0:0:0:
343,190,58689,2,0,P|335:224|335:279,1,80,0|0,0:0|1:1,0:0:0:0:
446,107,59021,2,0,P|403:102|345:83,1,80,10|0,2:2|0:0,0:0:0:0:
193,39,59352,5,0,1:1:0:0:
132,179,59518,1,0,1:1:0:0:
249,94,59684,2,0,P|222:62|181:32,1,80,8|0,2:2|1:1,0:0:0:0:
231,195,60015,1,2,2:2:0:0:
95,249,60181,1,0,1:1:0:0:
95,249,60264,1,0,0:0:0:0:
95,249,60347,2,0,P|117:201|144:163,1,80,8|2,2:2|2:2,0:0:0:0:
267,332,60678,6,0,P|232:299|200:279,1,80,2|0,1:2|1:1,0:0:0:0:
318,240,61010,1,8,2:2:0:0:
192,364,61176,1,2,2:2:0:0:
372,371,61341,1,2,1:2:0:0:
231,195,61507,1,8,2:2:0:0:
400,157,61673,1,10,2:2:0:0:
267,332,61839,6,0,P|293:254|318:179,1,160,6|0,1:2|1:1,0:0:0:0:
366,300,62336,1,8,2:2:0:0:
231,195,62502,1,0,0:0:0:0:
400,157,62667,1,8,3:3:0:0:
400,157,62750,1,4,3:3:0:0:
400,157,62833,1,0,1:1:0:0:
400,157,62916,1,8,2:2:0:0:
400,157,62999,2,0,P|414:108|399:58,1,80,10|8,2:2|3:3,0:0:0:0:
231,195,63330,5,6,1:2:0:0:
409,80,63496,1,0,0:0:0:0:
384,267,63662,5,8,2:2:0:0:
205,107,63828,1,2,2:2:0:0:
172,307,63993,5,8,2:2:0:0:
321,147,64159,1,0,1:1:0:0:
112,190,64325,5,10,2:2:0:0:
295,307,64490,1,0,1:1:0:0:
110,93,64656,5,8,2:2:0:0:
172,307,64822,1,0,1:1:0:0:
335,193,64988,5,8,2:2:0:0:
95,275,65153,1,0,1:1:0:0:
213,93,65319,5,10,2:2:0:0:
295,307,65485,1,0,1:1:0:0:
448,192,65651,5,10,2:2:0:0:
215,259,65816,1,2,1:2:0:0:
333,100,65982,5,12,2:2:0:0:
379,328,66148,1,0,0:0:0:0:
177,149,66314,5,8,2:2:0:0:
381,242,66479,1,0,0:0:0:0:
212,286,66645,5,8,2:2:0:0:
333,100,66811,1,0,1:1:0:0:
394,329,66977,5,8,2:2:0:0:
177,149,67142,1,0,1:1:0:0:
177,149,67225,1,0,1:2:0:0:
177,149,67308,5,8,2:2:0:0:
153,59,67474,1,0,1:1:0:0:
200,233,67640,1,8,2:2:0:0:
333,100,67805,1,8,2:2:0:0:
153,59,67971,1,8,2:2:0:0:
292,211,68137,1,8,2:2:0:0:
355,25,68303,1,8,2:2:0:0:
177,149,68468,1,8,2:2:0:0:
488,162,68634,6,0,B|505:228|434:269|379:268|360:323|360:323|349:274|318:259|206:257|277:177|272:149|317:157|352:167|352:167|393:155|421:183,1,551.999983154297,6|0,1:2|0:0,0:0:0:0:
488,162,70623,5,14,2:2:0:0:
99,369,71286,6,0,P|90:323|114:242,1,132.00000402832,6|0,1:2|0:0,0:0:0:0:
128,218,71618,1,10,2:2:0:0:
299,297,71783,2,0,P|243:297|203:308,1,88.000002685547,2|0,2:2|1:1,0:0:0:0:
68,136,72115,2,0,P|124:136|164:125,1,88.000002685547,2|8,1:2|2:2,0:0:0:0:
355,93,72446,6,0,P|294:153|229:228,1,176.000005371094,6|2,1:2|1:2,0:0:0:0:
399,202,72943,1,8,2:2:0:0:
229,107,73109,1,2,2:2:0:0:
399,202,73275,2,0,P|448:204|488:181,1,88.000002685547,0|2,1:1|1:2,0:0:0:0:
381,23,73606,2,0,P|330:25|292:44,1,88.000002685547,8|0,2:2|0:0,0:0:0:0:
133,153,73938,6,0,P|196:144|268:173,1,132.00000402832,6|0,1:2|0:0,0:0:0:0:
282,195,74269,1,8,2:2:0:0:
168,287,74435,1,2,2:2:0:0:
133,153,74601,1,2,1:2:0:0:
255,272,74767,1,0,1:1:0:0:
85,222,74932,1,8,2:2:0:0:
203,90,75098,6,0,B|294:67|272:131|373:113,1,176.000005371094,4|0,1:2|1:1,0:0:0:0:
229,171,75595,1,8,2:2:0:0:
344,40,75761,2,0,P|390:39|436:69,1,88.000002685547,0|0,0:0|1:1,0:0:0:0:
229,171,76093,2,0,P|183:172|137:142,1,88.000002685547,2|8,1:2|2:2,0:0:0:0:
159,322,76424,1,10,2:2:0:0:
159,322,76507,1,8,2:2:0:0:
159,322,76590,6,0,P|234:305|335:345,1,176.000005371094,6|10,1:2|2:2,0:0:0:0:
449,251,77087,2,0,P|440:300|446:351,1,88.000002685547,2|0,1:2|1:1,0:0:0:0:
321,228,77419,2,0,P|314:182|291:138,1,88.000002685547,2|8,1:2|2:2,0:0:0:0:
83,181,77750,6,0,P|158:183|214:209,1,132.00000402832,2|0,1:2|0:0,0:0:0:0:
242,232,78082,1,0,1:1:0:0:
41,323,78247,1,10,2:2:0:0:
74,104,78413,1,2,0:0:0:0:
133,258,78579,1,0,1:1:0:0:
74,104,78745,2,0,P|31:130|4:178,1,88.000002685547,2|8,1:2|2:2,0:0:0:0:
133,258,79076,1,2,2:2:0:0:
219,57,79242,6,0,B|111:81|137:12|51:28,1,176.000005371094,2|10,1:2|2:2,0:0:0:0:
9,201,79739,2,0,P|38:151|62:119,1,88.000002685547,2|0,2:2|1:1,0:0:0:0:
147,198,80071,1,2,1:2:0:0:
80,312,80236,2,0,P|34:322|-20:324,1,88.000002685547,8|0,2:2|0:0,0:0:0:0:
147,198,80568,6,0,P|236:189|309:237,1,176.000005371094,2|8,1:2|2:2,0:0:0:0:
387,367,81065,1,2,2:2:0:0:
449,253,81231,1,2,1:2:0:0:
453,222,81313,1,8,3:3:0:0:
450,192,81396,1,4,3:3:0:0:
359,73,81562,5,0,1:1:0:0:
327,57,81644,1,8,3:3:0:0:
293,51,81727,1,4,3:3:0:0:
258,55,81810,1,0,1:1:0:0:
226,69,81894,6,0,P|163:103|78:98,1,132.00000402832,6|0,1:2|0:0,0:0:0:0:
67,91,82225,1,10,2:2:0:0:
176,264,82391,2,0,P|187:212|186:174,1,88.000002685547,2|0,2:2|1:1,0:0:0:0:
61,222,82723,1,2,1:2:0:0:
205,343,82888,1,8,2:2:0:0:
61,222,83054,6,0,P|54:268|67:310,1,88.000002685547,6|0,1:2|0:0,0:0:0:0:
143,106,83385,2,0,P|89:92|40:91,1,88.000002685547,2|8,1:2|2:2,0:0:0:0:
176,264,83717,2,0,P|223:253|270:250,1,88.000002685547,2|0,2:2|1:1,0:0:0:0:
406,353,84048,1,2,1:2:0:0:
416,218,84214,2,0,P|363:253|317:307,1,132.00000402832,8|0,2:2|0:0,0:0:0:0:
299,314,84546,6,0,B|212:298|230:362|119:338,1,176.000005371094,6|10,1:2|2:2,0:0:0:0:
159,178,85043,2,0,P|152:237|158:266,1,88.000002685547,2|0,1:2|0:0,0:0:0:0:
257,179,85374,1,2,1:2:0:0:
73,147,85540,1,8,2:2:0:0:
257,179,85706,5,6,1:2:0:0:
285,157,85788,1,0,0:0:0:0:
317,143,85871,1,2,0:0:0:0:
351,135,85954,1,0,0:0:0:0:
386,136,86037,1,2,1:2:0:0:
420,143,86120,1,0,0:0:0:0:
452,158,86203,1,10,2:2:0:0:
480,179,86286,1,0,0:0:0:0:
499,209,86369,6,0,L|475:247,1,44.0000013427735,2|0,0:0|0:0,0:0:0:0:
376,332,86535,2,0,P|364:317|352:294,1,44.0000013427735,2|0,1:2|0:0,0:0:0:0:
255,263,86700,1,10,2:2:0:0:
216,245,86782,1,0,0:0:0:0:
176,261,86865,1,2,0:0:0:0:
162,302,86948,1,0,0:0:0:0:
183,339,87031,1,10,2:2:0:0:
224,350,87114,1,0,0:0:0:0:
259,341,87198,6,0,P|271:320|267:295,1,44.0000013427735,6|0,1:2|0:0,0:0:0:0:
162,191,87363,2,0,B|191:143|191:143|184:92|184:92|226:18,1,176.000005371094,2|0,0:0|0:0,0:0:0:0:
359,75,87861,6,0,P|381:75|403:79,1,44.0000013427735,4|0,1:2|0:0,0:0:0:0:
486,196,88026,2,0,B|377:161|377:161|318:180,1,176.000005371094,2|2,2:2|1:2,0:0:0:0:
255,244,88441,1,0,1:1:0:0:
255,244,88524,5,6,1:2:0:0:
156,97,88689,1,8,2:2:0:0:
156,97,88772,1,8,2:2:0:0:
156,97,88855,1,0,1:1:0:0:
69,242,89021,1,2,1:2:0:0:
69,242,89104,1,0,1:1:0:0:
69,242,89187,1,10,2:2:0:0:
258,103,89352,1,0,1:1:0:0:
258,103,89435,1,0,1:1:0:0:
258,103,89518,1,10,2:2:0:0:
161,289,89684,1,2,1:2:0:0:
161,289,89767,1,8,2:2:0:0:
161,289,89850,6,0,B|263:261|235:341|344:317,1,192,6|2,1:2|2:2,0:0:0:0:
405,142,90678,2,0,P|364:188|313:236,1,128,2|2,2:2|2:2,0:0:0:0:
67,91,91673,1,2,0:0:0:0:
67,91,91756,1,2,0:0:0:0:
67,91,91839,2,0,P|100:86|142:80,1,64
264,119,92170,2,0,P|211:136|162:168,1,96,2|0,2:2|0:0,0:0:0:0:
146,176,92502,6,0,B|131:221|165:287|165:287|162:323|107:336,1,192,2|2,2:2|2:2,0:0:0:0:
256,219,93330,1,2,2:2:0:0:
365,331,93496,1,8,2:2:0:0:
447,142,93662,6,0,P|406:158|364:166,1,80,6|0,1:2|0:0,0:0:0:0:
456,265,93993,1,0,1:1:0:0:
304,88,94159,1,8,2:2:0:0:
256,219,94325,2,0,P|295:227|332:242,1,80,6|2,1:2|2:2,0:0:0:0:
224,332,94656,1,8,3:3:0:0:
213,139,94822,1,4,3:3:0:0:
213,139,95153,6,0,B|128:121|149:182|49:167,1,160,6|2,1:2|1:2,0:0:0:0:
191,226,95651,1,10,2:2:0:0:
70,89,95816,1,0,1:1:0:0:
70,89,95899,1,8,2:2:0:0:
70,89,95982,1,2,1:2:0:0:
30,248,96148,1,0,1:1:0:0:
221,60,96314,1,2,1:2:0:0:
221,60,96397,1,8,2:2:0:0:
221,60,96479,5,0,1:1:0:0:
191,226,96645,1,8,2:2:0:0:
70,89,96811,1,0,1:1:0:0:
70,89,96894,1,0,0:0:0:0:
70,89,96977,1,8,2:2:0:0:
70,89,97060,1,8,2:2:0:0:
70,89,97142,1,0,1:1:0:0:
255,151,97308,5,10,2:2:0:0:
282,147,97390,1,8,2:2:0:0:
310,145,97474,2,0,P|327:183|328:199,1,40,2|0,1:2|0:0,0:0:0:0:
250,297,97640,2,0,P|233:259|232:243,1,40,10|8,2:2|2:2,0:0:0:0:
327,249,97805,5,4,1:2:0:0:
145,184,97971,1,8,2:2:0:0:
117,179,98053,1,8,2:2:0:0:
89,180,98136,1,0,1:1:0:0:
215,73,98303,1,10,3:3:0:0:
215,73,98385,1,8,3:3:0:0:
215,73,98468,1,2,1:2:0:0:
215,73,98551,1,0,0:0:0:0:
215,73,98634,1,0,1:1:0:0:
215,73,98717,1,0,1:1:0:0:
215,73,98800,2,0,P|253:68|280:77,1,40,2|0,1:2|1:1,0:0:0:0:
365,105,98966,6,0,B|313:154|313:154|273:155|273:155|224:197,1,160,6|0,1:2|1:1,0:0:0:0:
321,247,99463,1,8,2:2:0:0:
324,40,99629,2,0,P|385:34|445:115,1,160,6|8,1:2|3:3,0:0:0:0:
321,247,100126,2,0,P|384:239|411:245,1,80,4|8,3:3|2:2,0:0:0:0:
256,342,100457,5,6,2:2:0:0:
191,247,100623,1,2,0:0:0:0:
120,343,100789,1,2,0:0:0:0:
191,247,100955,2,0,P|150:248|108:238,1,80,2|0,0:0|0:0,0:0:0:0:
158,91,101286,1,0,1:1:0:0:
158,91,101369,1,2,1:2:0:0:
158,91,101452,2,0,P|176:136|185:169,1,80,8|0,1:3|0:0,0:0:0:0:
255,132,101700,1,0,0:0:0:0:
255,132,101783,6,0,B|331:114|310:168|408:149,1,143.999995605469,6|0,1:2|1:1,0:0:0:0:
283,214,102281,1,0,0:0:0:0:
367,72,102446,2,0,P|408:73|460:63,1,71.9999978027344,0|2,1:1|2:2,0:0:0:0:
283,214,102778,2,0,P|242:213|190:223,1,71.9999978027344,2|2,1:2|3:3,0:0:0:0:
82,296,103109,6,0,P|91:257|89:209,1,71.9999978027344,0|2,1:1|3:3,0:0:0:0:
194,125,103441,2,0,P|158:122|122:115,1,71.9999978027344,2|2,1:2|3:3,0:0:0:0:
250,22,103772,1,2,1:2:0:0:
301,133,103938,1,2,3:3:0:0:
404,38,104104,2,0,P|360:42|330:54,1,71.9999978027344,2|2,1:2|3:3,0:0:0:0:
385,114,104352,1,2,3:3:0:0:
385,114,104435,6,0,P|383:166|384:195,1,71.9999978027344,2|2,1:2|3:3,0:0:0:0:
261,274,104767,2,0,P|263:222|262:193,1,71.9999978027344,2|2,1:2|3:3,0:0:0:0:
427,292,105098,2,0,P|381:278|345:275,1,71.9999978027344,0|2,1:1|3:3,0:0:0:0:
231,116,105430,2,0,P|277:130|313:133,1,71.9999978027344,0|2,1:1|3:3,0:0:0:0:
153,29,105761,6,0,P|152:98|138:178,1,143.999995605469,0|0,1:1|1:1,0:0:0:0:
95,315,106258,1,2,3:3:0:0:
239,273,106424,2,0,P|186:251|148:247,1,71.9999978027344,2|2,1:2|3:3,0:0:0:0:
246,189,106673,1,2,0:0:0:0:
246,189,106756,1,2,1:2:0:0:
240,357,106921,1,2,3:3:0:0:
240,357,107004,1,2,3:3:0:0:
240,357,107087,6,0,P|283:373|335:362,1,71.9999978027344,2|0,1:2|0:0,0:0:0:0:
421,288,107419,2,0,P|420:323|427:359,1,71.9999978027344,2|2,1:2|3:3,0:0:0:0:
512,228,107750,2,0,P|512:192|505:156,1,71.9999978027344,0|2,1:1|2:2,0:0:0:0:
347,176,108082,2,0,P|388:188|419:191,1,71.9999978027344,0|2,1:1|2:2,0:0:0:0:
301,75,108413,5,8,2:2:0:0:
254,254,108579,1,0,1:1:0:0:
301,75,108745,2,0,P|258:66|210:77,1,80,12|0,2:2|0:0,0:0:0:0:
94,165,109076,1,10,3:3:0:0:
125,159,109158,1,4,3:3:0:0:
157,162,109241,1,0,1:1:0:0:
187,173,109324,1,0,1:1:0:0:
213,191,109408,2,0,P|204:229|184:251,1,40,10|0,2:2|0:0,0:0:0:0:
65,300,109573,2,0,P|76:265|94:240,1,40,8|8,2:2|2:2,0:0:0:0:
160,335,109739,6,0,P|240:326|291:342,1,120,6|0,1:2|0:0,0:0:0:0:
307,355,110071,1,2,1:2:0:0:
339,191,110236,1,10,3:3:0:0:
452,298,110402,1,0,1:1:0:0:
254,265,110568,1,2,3:3:0:0:
382,112,110734,1,0,1:1:0:0:
342,282,110899,1,8,2:2:0:0:
228,108,111065,5,10,1:2:0:0:
422,194,111231,1,8,2:2:0:0:
256,341,111397,1,8,1:2:0:0:
331,140,111562,1,10,3:3:0:0:
366,318,111728,1,10,1:2:0:0:
159,194,111894,1,8,3:3:0:0:
307,63,112060,1,12,3:3:0:0:
338,58,112142,1,8,2:2:0:0:
369,64,112225,1,0,1:1:0:0:
433,241,112391,6,0,P|353:221|271:270,1,160,6|8,1:2|2:2,0:0:0:0:
383,344,112888,1,0,0:0:0:0:
212,223,113054,2,0,P|210:271|220:302,1,80,0|2,1:1|1:2,0:0:0:0:
324,191,113385,1,10,2:2:0:0:
256,99,113551,6,0,P|201:89|105:142,1,160,2|0,2:2|1:1,0:0:0:0:
324,191,114048,2,0,P|373:191|412:185,1,80,10|0,2:2|1:1,0:0:0:0:
440,283,114380,1,2,2:2:0:0:
381,109,114546,1,0,1:1:0:0:
505,191,114711,1,10,2:2:0:0:
362,261,114877,1,0,1:1:0:0:
362,261,114960,1,8,2:2:0:0:
362,261,115043,6,0,P|357:296|366:340,1,80,2|0,1:2|0:0,0:0:0:0:
505,191,115374,2,0,P|510:156|501:112,1,80,10|2,2:2|2:2,0:0:0:0:
463,281,115706,1,0,1:1:0:0:
366,141,115872,1,2,1:2:0:0:
273,274,116037,1,8,2:2:0:0:
429,189,116203,1,2,2:2:0:0:
286,76,116369,6,0,P|326:73|371:64,1,80,0|0,1:1|1:1,0:0:0:0:
259,180,116700,2,0,P|219:183|174:192,1,80,8|0,2:2|1:1,0:0:0:0:
90,302,117032,1,2,2:2:0:0:
217,299,117198,1,0,1:1:0:0:
79,200,117363,2,0,P|79:158|109:84,1,120,10|0,2:2|1:1,0:0:0:0:
136,77,117695,6,0,P|214:83|311:84,1,160,2|10,1:2|2:2,0:0:0:0:
447,89,118192,2,0,P|439:51|421:10,1,80,2|0,1:2|0:0,0:0:0:0:
331,158,118524,1,2,1:2:0:0:
429,205,118689,2,0,P|474:207|512:197,1,80,8|2,2:2|1:2,0:0:0:0:
348,306,119021,6,0,B|259:287|286:356|188:326,1,160,2|8,1:2|2:2,0:0:0:0:
315,379,119518,1,2,1:2:0:0:
140,274,119684,2,0,P|123:308|125:355,1,80,2|0,2:2|1:1,0:0:0:0:
223,195,120015,2,0,P|168:192|107:158,1,120,12|0,2:2|0:0,0:0:0:0:
95,142,120347,5,6,1:2:0:0:
253,63,120513,1,8,2:2:0:0:
223,291,120678,1,8,3:3:0:0:
167,89,120844,1,4,3:3:0:0:
370,193,121010,1,12,1:3:0:0:
140,274,121176,6,0,B|160:219|160:219|183:204|183:204|195:165,1,120,0|0,1:1|0:0,0:0:0:0:
167,89,121507,2,0,P|130:67|153:113,1,120,8|0,2:2|0:0,0:0:0:0:
238,59,121839,5,12,2:2:0:0:
330,191,122004,1,0,0:0:0:0:
424,66,122170,1,0,1:1:0:0:
253,142,122336,1,8,2:2:0:0:
429,241,122502,1,0,1:1:0:0:
322,70,122667,1,10,3:3:0:0:
250,255,122833,1,0,0:0:0:0:
454,170,122999,6,0,P|389:171|317:198,1,128,6|0,1:2|0:0,0:0:0:0:
250,255,123496,2,0,P|284:263|322:284,2,64,2|0|0,2:2|0:0|0:0,0:0:0:0:
172,335,123993,2,0,P|170:257|165:205,1,128,2|0,2:2|0:0,0:0:0:0:
217,112,124490,2,0,P|176:112|148:106,1,64
274,51,124822,1,0,0:0:0:0:
301,165,124988,2,0,P|334:122|377:97,2,96,2|2|2,2:2|2:2|2:2,0:0:0:0:
407,224,125651,6,0,B|338:216|362:265|272:250,1,128,6|0,2:2|0:0,0:0:0:0:
168,247,126148,1,0,0:0:0:0:
203,357,126314,2,0,P|217:321|227:293,2,64,2|0|2,2:2|0:0|2:2,0:0:0:0:
168,247,126811,1,2,2:2:0:0:
324,272,126977,5,2,2:2:0:0:
324,176,127142,1,0,0:0:0:0:
407,224,127308,1,0,0:0:0:0:
309,259,127474,1,2,0:0:0:0:
342,169,127639,1,2,0:0:0:0:
403,242,127805,1,10,3:3:0:0:
403,242,127888,1,2,0:0:0:0:
403,242,127971,2,0,P|429:291|439:335,1,96,6|0,3:3|0:0,0:0:0:0:
366,342,128303,6,0,B|290:320|316:387|219:354,1,143.999995605469,6|2,1:2|1:2,0:0:0:0:
149,275,128800,2,0,P|140:310|129:351,1,71.9999978027344,2|8,2:2|2:2,0:0:0:0:
34,228,129131,2,0,P|42:192|54:152,1,71.9999978027344,2|0,2:2|0:0,0:0:0:0:
282,141,129463,2,0,P|218:169|144:195,1,143.999995605469,2|8,1:2|2:2,0:0:0:0:
360,250,129960,2,0,P|369:205|369:170,1,71.9999978027344,2|0,1:2|0:0,0:0:0:0:
462,85,130292,2,0,P|423:91|383:88,1,71.9999978027344,10|0,2:2|0:0,0:0:0:0:
216,112,130623,2,0,P|263:129|299:153,1,71.9999978027344,2|0,2:2|1:1,0:0:0:0:
173,295,130955,6,0,P|198:239|213:187,1,107.999996704102,6|0,1:2|0:0,0:0:0:0:
216,112,131286,2,0,P|173:119|133:112,1,71.9999978027344,0|0,1:1|0:0,0:0:0:0:
259,31,131618,1,8,2:2:0:0:
328,115,131783,2,0,P|330:151|324:195,1,71.9999978027344,0|0,0:0|1:1,0:0:0:0:
259,31,132115,1,8,2:2:0:0:
174,202,132281,5,0,1:1:0:0:
290,310,132446,2,0,P|254:312|219:318,1,71.9999978027344,8|0,2:2|1:1,0:0:0:0:
340,232,132778,1,0,1:1:0:0:
174,202,132943,2,0,P|208:204|254:210,1,71.9999978027344,8|8,2:2|3:3,0:0:0:0:
290,310,133275,1,6,3:3:0:0:
174,202,133441,1,0,1:1:0:0:
330,40,133606,6,0,B|310:94|310:94|327:137|327:137|312:191,1,160,6|8,1:2|2:2,0:0:0:0:
402,93,134104,1,2,1:2:0:0:
244,145,134269,2,0,P|205:133|154:129,1,80,0|0,0:0|1:1,0:0:0:0:
47,226,134601,1,10,2:2:0:0:
174,238,134767,1,0,0:0:0:0:
151,41,134932,6,0,P|111:65|84:90,1,80,0|0,1:1|1:1,0:0:0:0:
244,145,135264,2,0,P|284:121|311:96,1,80,8|0,2:2|1:1,0:0:0:0:
460,223,135595,2,0,P|406:207|332:210,1,120,2|2,2:2|2:2,0:0:0:0:
309,223,135927,1,8,2:2:0:0:
197,341,136093,1,2,1:2:0:0:
197,341,136176,1,0,1:1:0:0:
197,341,136258,6,0,P|279:329|363:349,1,160,2|8,1:2|2:2,0:0:0:0:
309,223,136756,1,2,1:2:0:0:
188,261,136921,2,0,P|182:221|192:183,1,80,2|0,2:2|1:1,0:0:0:0:
192,53,137253,1,10,2:2:0:0:
350,142,137419,2,0,P|300:141|266:136,1,80,2|0,2:2|1:1,0:0:0:0:
428,62,137750,5,0,1:1:0:0:
331,230,137916,1,8,2:2:0:0:
491,191,138082,1,0,1:1:0:0:
335,76,138247,1,0,0:0:0:0:
423,254,138413,1,8,3:3:0:0:
423,254,138496,1,2,0:0:0:0:
423,254,138579,2,0,P|422:286|408:316,1,40,10|0,2:2|0:0,0:0:0:0:
267,339,138745,2,0,P|268:307|282:277,1,40,0|0,1:1|0:0,0:0:0:0:
352,341,138910,5,6,1:2:0:0:
192,194,139076,1,0,0:0:0:0:
376,115,139242,5,8,2:2:0:0:
211,279,139408,1,2,2:2:0:0:
167,63,139573,5,8,2:2:0:0:
331,230,139739,1,0,1:1:0:0:
256,46,139905,5,10,2:2:0:0:
120,235,140071,1,0,1:1:0:0:
376,115,140236,5,8,2:2:0:0:
196,297,140402,1,0,0:0:0:0:
137,105,140568,5,8,2:2:0:0:
329,261,140734,1,0,1:1:0:0:
101,326,140899,5,10,2:2:0:0:
255,118,141065,1,0,1:1:0:0:
320,342,141231,5,10,2:2:0:0:
104,191,141397,1,2,1:2:0:0:
376,115,141562,5,12,2:2:0:0:
177,248,141728,1,0,0:0:0:0:
438,316,141894,1,8,2:2:0:0:
256,206,142060,5,0,0:0:0:0:
437,63,142225,1,8,2:2:0:0:
438,316,142391,1,0,1:1:0:0:
256,90,142557,5,8,2:2:0:0:
350,288,142723,1,0,1:1:0:0:
122,256,142888,5,8,2:2:0:0:
352,105,143054,1,0,1:1:0:0:
212,302,143220,1,8,2:2:0:0:
120,81,143385,5,0,1:1:0:0:
351,194,143551,1,8,2:2:0:0:
136,325,143717,1,0,1:1:0:0:
120,81,143883,5,8,2:2:0:0:
315,294,144048,1,0,1:1:0:0:
264,169,144214,6,0,B|281:235|210:276|155:275|136:330|136:330|125:281|94:266|-18:264|53:184|48:156|93:164|128:174|128:174|169:162|197:190,1,551.999983154297,6|0,1:2|0:0,0:0:0:0:
246,97,146203,2,0,P|281:95|297:101,1,40,10|4,3:3|3:3,0:0:0:0:
388,216,146369,2,0,P|353:218|337:212,1,40,8|8,2:2|2:2,0:0:0:0:
399,77,146535,2,0,P|387:111|384:127,1,40,8|0,2:2|1:1,0:0:0:0:
465,189,146700,1,0,1:1:0:0:
321,40,146866,5,2,1:2:0:0:
321,40,146949,1,0,1:1:0:0:
321,40,147032,1,0,1:1:0:0:
321,40,147115,1,0,1:1:0:0:
321,40,147198,2,0,P|269:55|195:37,1,132.00000402832,14|0,2:2|0:0,0:0:0:0:
161,17,147529,1,0,1:1:0:0:
200,130,147695,2,0,P|205:175|195:216,1,88.000002685547,2|8,1:2|2:2,0:0:0:0:
303,288,148026,6,0,B|363:279|363:279|387:246|387:246|461:234,1,176.000005371094,6|2,1:2|1:2,0:0:0:0:
428,335,148524,1,8,2:2:0:0:
312,214,148689,1,2,2:2:0:0:
468,148,148855,2,0,P|472:191|460:235,1,88.000002685547,0|2,1:1|1:2,0:0:0:0:
317,136,149187,2,0,P|313:93|325:49,1,88.000002685547,8|0,2:2|0:0,0:0:0:0:
312,214,149518,6,0,P|232:194|149:235,1,176.000005371094,6|8,1:2|2:2,0:0:0:0:
251,315,150015,1,2,2:2:0:0:
150,233,150181,2,0,P|139:186|149:136,1,88.000002685547,2|0,1:2|1:1,0:0:0:0:
215,5,150513,1,8,2:2:0:0:
111,69,150678,6,0,P|170:67|235:122,1,132.00000402832,4|0,1:2|0:0,0:0:0:0:
242,148,151010,1,0,1:1:0:0:
313,256,151176,1,8,2:2:0:0:
387,146,151341,1,0,1:1:0:0:
387,146,151424,1,8,2:2:0:0:
387,146,151507,1,0,1:1:0:0:
242,224,151673,1,2,1:2:0:0:
389,296,151839,1,8,2:2:0:0:
303,147,152004,1,2,1:2:0:0:
473,160,152170,6,0,B|452:220|452:220|405:235|405:235|384:313,1,176.000005371094,6|10,1:2|2:2,0:0:0:0:
303,147,152667,2,0,P|258:156|216:155,1,88.000002685547,2|0,2:2|1:1,0:0:0:0:
85,241,152999,2,0,P|90:193|100:152,1,88.000002685547,2|8,1:2|2:2,0:0:0:0:
127,4,153330,2,0,P|151:50|164:88,1,88.000002685547,2|0,1:2|0:0,0:0:0:0:
279,240,153662,5,0,1:1:0:0:
338,67,153827,1,10,2:2:0:0:
428,182,153993,2,0,P|368:156|302:146,1,132.00000402832,2|0,0:0|0:0,0:0:0:0:
338,67,154325,1,2,1:2:0:0:
378,246,154490,1,8,2:2:0:0:
488,113,154656,1,2,2:2:0:0:
279,240,154822,6,0,B|191:215|197:277|100:262,1,176.000005371094,6|10,1:2|2:2,0:0:0:0:
254,318,155319,2,0,P|296:321|340:292,1,88.000002685547,2|0,2:2|1:1,0:0:0:0:
131,183,155651,2,0,P|89:180|45:209,1,88.000002685547,2|8,1:2|2:2,0:0:0:0:
159,307,155982,1,0,1:1:0:0:
117,98,156148,5,2,1:2:0:0:
146,89,156230,1,0,0:0:0:0:
177,91,156313,1,8,2:2:0:0:
324,57,156479,2,0,P|295:92|266:148,1,88.000002685547,0|2,1:1|1:2,0:0:0:0:
472,152,156811,5,10,2:2:0:0:
442,145,156893,1,0,0:0:0:0:
411,148,156976,1,8,3:3:0:0:
383,161,157059,1,0,0:0:0:0:
362,183,157142,2,0,P|351:224|355:249,1,44.0000013427735,4|0,3:3|0:0,0:0:0:0:
249,344,157308,2,0,P|246:322|237:301,1,44.0000013427735,0|0,1:1|1:1,0:0:0:0:
153,195,157474,6,0,B|133:247|133:247|141:297|141:297|93:368,1,176.000005371094,6|2,1:2|2:2,0:0:0:0:
68,193,157971,2,0,P|66:141|60:100,1,88.000002685547,2|8,1:2|2:2,0:0:0:0:
242,256,158303,2,0,P|243:307|250:349,1,88.000002685547,2|0,2:2|0:0,0:0:0:0:
366,158,158634,6,0,P|314:165|230:144,1,132.00000402832,6|0,1:2|0:0,0:0:0:0:
207,134,158966,1,10,2:2:0:0:
324,18,159131,1,0,0:0:0:0:
366,159,159297,1,2,1:2:0:0:
210,50,159463,1,8,3:3:0:0:
399,1,159629,1,6,3:3:0:0:
207,134,159794,1,0,1:1:0:0:
418,230,159960,1,0,1:1:0:0:
207,134,160126,6,0,B|111:115|134:177|25:157,1,176.000005371094,6|2,1:2|2:2,0:0:0:0:
165,214,160623,2,0,P|209:212|255:228,1,88.000002685547,2|8,1:2|3:3,0:0:0:0:
401,316,160955,2,0,P|407:267|425:212,1,88.000002685547,2|4,2:2|3:3,0:0:0:0:
478,99,161286,6,0,P|419:105|343:82,1,132.00000402832,6|0,1:2|0:0,0:0:0:0:
320,70,161618,1,8,2:2:0:0:
401,316,161783,2,0,P|408:262|401:218,1,88.000002685547,0|0,0:0|1:1,0:0:0:0:
251,291,162115,2,0,P|246:334|253:378,1,88.000002685547,8|2,3:3|1:2,0:0:0:0:
320,156,162446,1,8,3:3:0:0:
157,255,162612,1,2,1:2:0:0:
157,255,162695,1,8,2:2:0:0:
157,255,162778,5,6,1:2:0:0:
258,76,162943,1,2,0:0:0:0:
332,244,163109,1,8,2:2:0:0:
168,153,163275,2,0,P|163:106|156:60,1,88.000002685547,2|0,1:2|0:0,0:0:0:0:
320,156,163606,2,0,P|325:203|332:249,1,88.000002685547,2|8,1:2|2:2,0:0:0:0:
258,76,163938,1,2,2:2:0:0:
421,192,164104,5,2,1:2:0:0:
255,313,164269,1,0,1:1:0:0:
255,313,164352,1,2,0:0:0:0:
255,313,164435,1,12,2:2:0:0:
419,355,164601,1,2,1:2:0:0:
255,210,164767,1,10,2:2:0:0:
423,120,164932,1,8,2:2:0:0:
423,120,165015,1,8,2:2:0:0:
423,120,165098,2,0,P|425:86|418:61,1,44.0000013427735,10|8,2:2|3:3,0:0:0:0:
255,166,165264,2,0,P|253:200|260:225,1,44.0000013427735,10|8,2:2|2:2,0:0:0:0:
311,67,165430,5,4,1:2:0:0:
282,52,165512,1,0,0:0:0:0:
250,47,165595,1,2,0:0:0:0:
219,50,165678,1,0,0:0:0:0:
189,63,165761,1,2,0:0:0:0:
165,83,165844,1,0,0:0:0:0:
145,103,165927,6,0,P|124:93|108:80,1,40,2|0,0:0|0:0,0:0:0:0:
13,194,166093,2,0,P|33:184|50:171,1,40,8|8,3:3|3:3,0:0:0:0:
174,242,166258,2,0,P|153:232|137:219,1,40,0|4,0:0|3:3,0:0:0:0:
18,327,166424,2,0,P|38:317|55:304,1,40,4|0,3:3|1:1,0:0:0:0:
212,323,166590,6,0,B|256:282|256:282|257:243|257:243|305:188,1,160,6|0,1:2|1:1,0:0:0:0:
402,102,167087,1,8,2:2:0:0:
447,244,167253,1,10,3:3:0:0:
447,244,167336,1,10,3:3:0:0:
447,244,167419,1,6,3:3:0:0:
271,136,167584,1,0,1:1:0:0:
271,136,167667,1,0,1:1:0:0:
271,136,167750,1,8,2:2:0:0:
438,36,167916,1,0,1:1:0:0:
333,190,168082,5,14,1:2:0:0:
229,61,168247,1,10,1:2:0:0:
438,36,168413,2,0,P|398:29|352:43,1,80,0|8,0:0|3:3,0:0:0:0:
333,190,168745,1,8,3:3:0:0:
229,61,168910,1,2,1:2:0:0:
229,61,168993,1,8,2:2:0:0:
229,61,169076,1,10,2:2:0:0:
158,259,169242,6,0,B|204:228|204:228|207:186|207:186|269:137,1,160,6|0,1:2|1:1,0:0:0:0:
443,196,169739,2,0,P|385:190|324:219,1,120,8|0,2:2|0:0,0:0:0:0:
401,270,170071,1,8,2:2:0:0:
461,104,170236,1,10,2:2:0:0:
277,131,170402,1,10,2:2:0:0:
408,297,170568,1,10,3:3:0:0:
461,104,170734,5,6,1:2:0:0:
436,117,170816,1,0,0:0:0:0:
408,121,170899,1,0,0:0:0:0:
381,117,170982,1,0,0:0:0:0:
356,105,171065,2,0,P|355:75|361:47,1,40,8|0,2:2|0:0,0:0:0:0:
231,102,171231,1,0,0:0:0:0:
257,113,171313,1,0,0:0:0:0:
277,131,171396,1,2,1:2:0:0:
291,155,171479,1,0,0:0:0:0:
296,183,171562,2,0,P|273:202|254:212,1,40,0|0,1:1|0:0,0:0:0:0:
120,148,171728,5,8,2:2:0:0:
119,314,171894,1,0,1:1:0:0:
356,105,172060,5,2,2:2:0:0:
257,299,172225,1,0,1:1:0:0:
120,148,172391,1,8,2:2:0:0:
342,193,172557,1,0,1:1:0:0:
119,314,172723,1,2,2:2:0:0:
257,79,172888,1,0,1:1:0:0:
352,302,173054,1,8,2:2:0:0:
120,148,173220,1,0,1:1:0:0:
380,123,173385,6,0,P|359:163|335:202,1,80,2|0,1:2|1:1,0:0:0:0:
277,242,173634,1,0,0:0:0:0:
277,242,173717,1,8,2:2:0:0:
472,89,173883,1,0,1:1:0:0:
449,66,173965,1,0,0:0:0:0:
421,51,174048,1,10,3:3:0:0:
390,44,174131,1,0,0:0:0:0:
358,47,174214,1,0,1:1:0:0:
329,59,174297,1,0,1:1:0:0:
306,77,174380,2,0,P|274:73|257:65,1,40,8|0,2:2|0:0,0:0:0:0:
152,166,174546,6,0,B|214:157|214:157|238:173|238:173|314:163,1,160,6|0,1:2|1:1,0:0:0:0:
465,210,175043,1,8,2:2:0:0:
375,318,175209,2,0,P|377:241|384:152,1,160,6|8,1:2|1:3,0:0:0:0:
470,302,175706,1,12,3:3:0:0:
296,309,175872,1,0,1:1:0:0:
383,158,176037,5,6,1:2:0:0:
383,158,178689,5,6,1:2:0:0:
383,158,181341,5,6,1:2:0:0:
383,158,183993,5,6,1:2:0:0:
383,158,184988,5,6,3:3:0:0:
383,158,185319,2,0,P|342:157|258:123,1,128,14|0,2:2|0:0,0:0:0:0:
108,212,185816,2,0,P|149:213|233:247,1,128,10|0,3:3|0:0,0:0:0:0:
134,360,186314,2,0,P|138:318|138:289,1,64,6|0,3:3|1:1,0:0:0:0:
91,126,186645,6,0,B|170:106|150:166|239:145,1,143.999995605469,6|2,1:2|1:2,0:0:0:0:
349,119,187142,1,2,2:2:0:0:
235,70,187308,1,8,2:2:0:0:
349,119,187474,2,0,P|352:72|346:43,1,71.9999978027344,2|0,3:3|1:1,0:0:0:0:
218,161,187805,2,0,P|212:196|216:232,1,71.9999978027344,2|0,3:3|1:1,0:0:0:0:
265,367,188137,5,10,2:2:0:0:
306,257,188303,2,0,P|233:261|166:306,1,143.999995605469,2|8,1:2|2:2,0:0:0:0:
370,337,188800,1,8,3:3:0:0:
306,257,188966,1,6,3:3:0:0:
415,233,189131,1,0,1:1:0:0:
370,337,189297,6,0,P|360:259|351:193,1,143.999995605469,6|2,1:2|1:2,0:0:0:0:
299,76,189794,2,0,P|334:83|369:81,1,71.9999978027344,2|8,2:2|2:2,0:0:0:0:
250,187,190126,2,0,P|214:179|179:181,1,71.9999978027344,2|0,2:2|1:1,0:0:0:0:
75,249,190457,1,14,2:2:0:0:
201,293,190623,5,0,1:2:0:0:
111,136,190789,1,10,3:3:0:0:
313,131,190955,1,6,3:3:0:0:
149,228,191120,1,0,1:1:0:0:
257,46,191286,1,8,3:3:0:0:
345,228,191452,1,4,3:3:0:0:
177,147,191618,1,10,2:2:0:0:
367,49,191783,1,0,0:0:0:0:
226,236,191949,6,0,B|271:200|271:200|277:162|277:162|319:125,1,143.999995605469,6|2,1:2|1:2,0:0:0:0:
345,228,192446,1,2,2:2:0:0:
177,147,192612,2,0,P|172:117|181:74,1,71.9999978027344,8|2,2:2|3:3,0:0:0:0:
62,159,192943,2,0,P|67:189|58:232,1,71.9999978027344,0|2,1:1|3:3,0:0:0:0:
75,368,193275,5,0,1:1:0:0:
141,288,193441,2,0,P|64:271|5:296,1,143.999995605469,8|8,2:2|3:3,0:0:0:0:
218,335,193938,2,0,P|227:295|239:261,1,71.9999978027344,10|2,2:2|3:3,0:0:0:0:
333,159,194269,2,0,P|344:193|352:228,1,71.9999978027344,2|2,1:2|3:3,0:0:0:0:
366,306,194518,1,2,3:3:0:0:
366,306,194601,6,0,B|444:283|421:338|511:318,1,143.999995605469,6|2,1:2|1:2,0:0:0:0:
393,379,195098,1,2,2:2:0:0:
459,231,195264,2,0,P|464:188|459:174,1,35.9999989013672,8|0,1:3|0:0,0:0:0:0:
443,70,195430,2,0,P|425:73|409:81,1,35.9999989013672,2|2,3:3|3:3,0:0:0:0:
316,181,195595,2,0,P|351:184|378:181,1,35.9999989013672,0|0,1:1|0:0,0:0:0:0:
249,93,195761,6,0,B|178:76|195:134|99:118,1,143.999995605469,6|0,1:2|1:1,0:0:0:0:
232,183,196258,1,8,2:2:0:0:
39,88,196424,2,0,P|31:121|42:161,1,71.9999978027344,4|0,1:2|1:1,0:0:0:0:
28,299,196756,1,0,1:1:0:0:
28,299,196921,1,8,2:2:0:0:
165,225,197087,1,8,2:2:0:0:
165,225,197170,1,8,2:2:0:0:
165,225,197253,6,0,P|204:205|236:177,1,80,4|0,1:2|0:0,0:0:0:0:
313,48,197584,1,10,2:2:0:0:
354,205,197750,1,0,0:0:0:0:
228,96,197916,1,14,2:2:0:0:
394,13,198082,1,2,1:2:0:0:
394,13,198164,1,8,2:2:0:0:
394,13,198247,1,8,2:2:0:0:
354,205,198413,6,0,B|305:195|263:235|263:235|219:239|201:215,1,160,6|2,1:2|1:2,0:0:0:0:
333,295,198910,1,8,2:2:0:0:
348,120,199076,2,0,P|391:126|441:131,1,80,2|0,1:2|0:0,0:0:0:0:
432,240,199408,1,2,1:2:0:0:
277,152,199573,1,8,2:2:0:0:
419,59,199739,1,0,0:0:0:0:
432,240,199905,6,0,B|399:283|399:283|357:294|357:294|316:353,1,160,6|10,1:2|2:2,0:0:0:0:
476,316,200402,1,2,1:2:0:0:
347,221,200568,1,8,2:2:0:0:
482,140,200734,1,10,3:3:0:0:
476,316,200899,1,4,3:3:0:0:
388,136,201065,6,0,P|310:137|251:195,1,160,6|0,1:2|1:1,0:0:0:0:
116,254,201562,2,0,P|120:208|118:167,1,80,8|0,2:2|0:0,0:0:0:0:
335,214,201894,2,0,P|333:253|337:293,1,80,0|0,1:1|1:1,0:0:0:0:
134,253,202225,2,0,P|138:207|136:166,1,80,8|0,2:2|1:1,0:0:0:0:
66,358,202557,6,0,P|114:348|192:367,1,120,4|0,1:2|0:0,0:0:0:0:
214,382,202888,1,10,2:2:0:0:
261,218,203054,1,0,1:1:0:0:
261,218,203137,1,8,2:2:0:0:
261,218,203220,1,2,1:2:0:0:
355,324,203385,1,2,1:2:0:0:
167,260,203551,2,0,P|163:219|165:172,1,80,8|2,2:2|1:2,0:0:0:0:
342,65,203883,6,0,P|346:106|344:153,1,80,0|0,1:1|1:1,0:0:0:0:
297,269,204214,1,10,2:2:0:0:
420,222,204380,1,0,0:0:0:0:
250,156,204546,1,2,1:2:0:0:
319,350,204711,1,0,1:1:0:0:
500,149,204877,2,0,P|444:148|385:108,1,120,10|0,2:2|0:0,0:0:0:0:
342,65,205209,5,14,2:2:0:0:
354,239,205374,1,0,1:1:0:0:
500,149,205540,1,0,1:1:0:0:
342,65,205706,2,0,P|312:62|254:76,1,80,14|0,2:2|1:1,0:0:0:0:
117,161,206037,1,0,1:1:0:0:
263,71,206202,5,14,2:2:0:0:
275,245,206368,1,0,1:1:0:0:
159,92,206535,1,0,1:1:0:0:
74,256,206700,2,0,P|120:248|153:248,1,80,14|0,2:2|1:1,0:0:0:0:
257,349,207032,1,0,1:1:0:0:
212,177,207198,5,14,2:2:0:0:
134,338,207363,1,0,1:1:0:0:
347,255,207529,1,14,2:2:0:0:
139,165,207695,1,0,1:1:0:0:
346,176,207861,6,0,P|352:215|346:254,1,80,14|0,2:2|1:1,0:0:0:0:
212,177,208192,1,0,1:1:0:0:
300,81,208358,2,0,P|349:76|395:85,1,80,14|0,2:2|1:1,0:0:0:0:
272,219,208689,1,0,1:1:0:0:
144,116,208855,1,14,2:2:0:0:
300,81,209021,5,2,2:2:0:0:
164,212,209187,1,2,2:2:0:0:
254,23,209352,1,10,1:2:0:0:
359,212,209518,1,2,2:2:0:0:
144,116,209684,1,10,3:3:0:0:
366,35,209850,1,2,2:2:0:0:
254,236,210015,1,6,3:3:0:0:
160,28,210181,1,2,1:2:0:0:
372,121,210347,1,2,1:2:0:0:
164,212,210513,5,10,1:2:0:0:
164,212,210678,1,8,1:2:0:0:
472,71,211673,6,0,B|385:57|402:116|315:98,1,160,10|10,1:2|1:2,0:0:0:0:
254,23,212170,1,8,1:2:0:0:
112,293,212999,5,2,0:0:0:0:
112,293,213082,1,2,0:0:0:0:
112,293,213164,2,0,B|203:273|181:341|279:320,1,176.000005371094,6|8,1:2|2:2,0:0:0:0:
454,223,213662,1,2,2:2:0:0:
397,350,213827,1,2,1:2:0:0:
311,242,213993,1,0,1:1:0:0:
466,307,214159,1,8,2:2:0:0:
311,242,214325,6,0,P|305:188|340:112,1,132.00000402832,4|0,1:2|0:0,0:0:0:0:
308,36,214656,2,0,P|356:34|410:60,1,88.000002685547,0|8,1:1|2:2,0:0:0:0:
228,126,214988,2,0,P|183:128|126:102,1,88.000002685547,2|0,1:2|1:1,0:0:0:0:
310,16,215319,2,0,P|358:14|412:40,1,88.000002685547,2|8,1:2|2:2,0:0:0:0:
487,140,215651,1,10,2:2:0:0:
480,9,215816,6,0,P|417:55|345:126,1,176.000005371094,6|10,1:2|2:2,0:0:0:0:
239,230,216314,2,0,P|286:222|340:239,1,88.000002685547,2|0,2:2|1:1,0:0:0:0:
182,339,216645,1,2,1:2:0:0:
134,189,216811,1,8,2:2:0:0:
0,313,216977,6,0,P|63:288|138:299,1,132.00000402832,2|0,1:2|0:0,0:0:0:0:
182,339,217308,1,0,1:1:0:0:
134,189,217474,1,10,2:2:0:0:
324,214,217640,2,0,P|274:216|229:235,1,88.000002685547,2|0,0:0|1:1,0:0:0:0:
298,288,217888,1,0,1:2:0:0:
298,288,217971,1,2,1:2:0:0:
425,226,218137,2,0,P|418:188|385:137,1,88.000002685547,8|2,2:2|2:2,0:0:0:0:
452,36,218468,6,0,B|361:17|376:89|271:65,1,176.000005371094,6|10,1:2|2:2,0:0:0:0:
147,148,218966,2,0,P|136:104|138:51,1,88.000002685547,2|0,2:2|1:1,0:0:0:0:
255,174,219297,1,2,1:2:0:0:
183,258,219463,2,0,P|136:251|84:258,1,88.000002685547,12|0,2:2|1:1,0:0:0:0:
134,331,219711,1,8,2:2:0:0:
134,331,219794,5,6,1:2:0:0:
311,319,219960,1,8,2:2:0:0:
255,174,220126,1,0,1:1:0:0:
229,156,220208,1,8,2:2:0:0:
200,146,220291,1,10,2:2:0:0:
170,143,220374,1,8,2:2:0:0:
139,147,220457,1,2,1:2:0:0:
111,159,220540,1,8,2:2:0:0:
83,173,220623,2,0,P|68:129|68:105,1,44.0000013427735,8|8,2:2|2:2,0:0:0:0:
176,13,220789,2,0,P|185:32|190:54,1,44.0000013427735,0|8,1:1|2:2,0:0:0:0:
267,88,220955,1,8,2:2:0:0:
267,88,221037,1,8,2:2:0:0:
267,88,221120,6,0,B|318:77|318:77|355:87|355:87|398:70,1,132.00000402832,6|0,1:2|0:0,0:0:0:0:
427,53,221452,1,10,2:2:0:0:
498,201,221618,2,0,P|506:154|495:101,1,88.000002685547,2|0,1:2|1:1,0:0:0:0:
361,193,221949,2,0,P|354:236|362:279,1,88.000002685547,2|8,1:2|2:2,0:0:0:0:
210,255,222281,2,0,P|169:254|88:199,1,132.00000402832,6|0,1:2|0:0,0:0:0:0:
26,155,222612,2,0,P|15:196|19:240,1,88.000002685547,2|8,1:2|2:2,0:0:0:0:
121,111,222943,2,0,P|89:78|36:53,1,88.000002685547,2|0,1:2|1:1,0:0:0:0:
169,193,223275,1,2,1:2:0:0:
228,91,223441,2,0,P|290:86|364:48,1,132.00000402832,8|0,2:2|0:0,0:0:0:0:
382,27,223772,5,6,1:2:0:0:
482,115,223938,1,0,1:1:0:0:
482,115,224021,1,0,1:2:0:0:
482,115,224104,1,10,2:2:0:0:
346,191,224269,1,2,1:2:0:0:
346,191,224352,1,8,2:2:0:0:
346,191,224435,1,8,2:2:0:0:
466,290,224601,2,0,P|463:234|445:193,1,88.000002685547,6|0,1:2|0:0,0:0:0:0:
350,292,224932,5,6,1:2:0:0:
350,292,225015,1,0,0:0:0:0:
350,292,225098,1,2,0:0:0:0:
350,292,225181,1,0,0:0:0:0:
350,292,225264,1,2,1:2:0:0:
350,292,225347,1,0,0:0:0:0:
350,292,225430,6,0,P|308:303|288:301,1,44.0000013427735,10|0,2:2|0:0,0:0:0:0:
179,222,225595,2,0,P|221:211|241:213,1,44.0000013427735,2|0,1:2|1:1,0:0:0:0:
83,324,225761,1,2,1:2:0:0:
65,298,225843,1,0,0:0:0:0:
55,269,225926,1,10,2:2:0:0:
51,239,226009,1,0,0:0:0:0:
55,208,226092,1,8,3:3:0:0:
66,180,226175,1,0,0:0:0:0:
89,157,226258,2,0,P|105:133|113:112,1,44.0000013427735,6|0,3:3|0:0,0:0:0:0:
257,182,226424,5,6,1:2:0:0:
257,182,226590,2,0,B|347:155|332:220|435:198,1,176.000005371094
253,341,227087,2,0,B|163:368|178:303|75:325,1,176.000005371094,4|0,1:2|0:0,0:0:0:0:
257,108,227584,1,10,2:2:0:0:
257,108,227667,1,8,2:2:0:0:
257,108,227750,5,6,1:2:0:0:
179,254,227916,1,8,2:2:0:0:
179,254,227999,1,8,2:2:0:0:
179,254,228082,1,0,1:1:0:0:
389,190,228247,6,0,P|394:154|383:120,1,44.0000013427735,2|8,1:2|3:3,0:0:0:0:
254,235,228413,2,0,P|249:271|260:305,1,44.0000013427735,2|8,1:2|3:3,0:0:0:0:
382,342,228579,1,8,3:3:0:0:
382,342,228662,1,4,3:3:0:0:
382,342,228745,1,10,1:2:0:0:
382,342,228827,1,8,3:3:0:0:
382,342,228910,2,0,P|387:306|376:272,1,44.0000013427735,6|0,3:3|1:1,0:0:0:0:
256,145,229076,6,0,P|215:140|167:155,1,80,6|2,1:2|1:2,0:0:0:0:
93,280,229408,1,10,2:2:0:0:
245,290,229573,2,0,P|215:264|167:231,1,80,2|0,1:2|1:1,0:0:0:0:
261,66,229905,2,0,P|253:115|256:147,1,80,2|8,1:2|2:2,0:0:0:0:
462,153,230236,6,0,P|424:144|378:142,1,80,2|0,1:2|1:1,0:0:0:0:
245,290,230568,2,0,P|282:298|329:301,1,80,2|8,1:2|2:2,0:0:0:0:
151,348,230899,2,0,P|165:291|157:224,1,120,2|0,1:2|0:0,0:0:0:0:
137,201,231231,1,2,1:2:0:0:
35,131,231397,1,12,2:2:0:0:
140,49,231562,1,2,1:2:0:0:
303,102,231728,6,0,B|220:85|233:143|147:126,1,160,6|0,1:2|0:0,0:0:0:0:
266,184,232225,1,0,1:1:0:0:
329,33,232391,1,8,2:2:0:0:
329,33,232474,1,0,0:0:0:0:
329,33,232557,1,2,1:2:0:0:
329,33,232640,1,0,0:0:0:0:
329,33,232723,2,0,P|366:41|385:57,1,40,8|0,3:3|0:0,0:0:0:0:
304,192,232888,2,0,P|267:184|248:168,1,40,6|0,3:3|0:0,0:0:0:0:
160,244,233054,6,0,P|221:248|303:300,1,160,6|0,1:2|0:0,0:0:0:0:
184,358,233551,1,2,2:2:0:0:
160,244,233717,2,0,P|157:194|170:159,1,80,2|0,2:2|0:0,0:0:0:0:
321,223,234048,2,0,P|319:262|302:298,1,80,2|2,2:2|2:2,0:0:0:0:
255,116,234380,6,0,B|318:124|356:86|356:86|393:81|418:98,1,160,6|2,1:2|3:3,0:0:0:0:
246,34,234877,2,0,P|205:33|158:27,1,80,2|0,2:2|0:0,0:0:0:0:
23,151,235209,2,0,P|63:150|111:144,1,80,2|2,2:2|3:3,0:0:0:0:
226,273,235540,6,0,P|239:191|255:114,1,160,6|0,1:2|0:0,0:0:0:0:
473,80,236037,2,0,P|459:161|444:239,1,160,2|0,3:3|0:0,0:0:0:0:
416,359,236535,1,2,2:2:0:0:
330,251,236700,2,0,P|334:209|341:164,1,80,2|2,3:3|2:2,0:0:0:0:
174,319,237032,6,0,P|265:318|330:357,1,160,4|2,1:2|3:3,0:0:0:0:
174,319,237529,2,0,P|171:279|186:228,1,80,2|0,2:2|0:0,0:0:0:0:
258,104,237861,1,8,3:3:0:0:
328,236,238026,1,2,3:3:0:0:
189,157,238192,6,0,B|177:107|177:107|188:62|188:62|166:-2,1,160,6|0,1:2|1:1,0:0:0:0:
113,178,238689,1,8,2:2:0:0:
258,104,238855,2,0,P|299:105|336:118,1,80,6|0,1:2|0:0,0:0:0:0:
398,279,239187,1,0,1:1:0:0:
411,178,239352,2,0,P|376:181|332:202,1,80,8|0,2:2|1:1,0:0:0:0:
178,287,239684,6,0,B|256:267|239:327|336:311,1,160,6|10,1:2|2:2,0:0:0:0:
208,362,240181,1,2,2:2:0:0:
146,205,240347,1,0,1:1:0:0:
81,335,240513,1,10,3:3:0:0:
257,228,240678,1,4,1:3:0:0:
66,135,240844,6,0,P|112:123|175:72,1,120,6|0,1:2|0:0,0:0:0:0:
187,42,241176,2,0,P|220:58|261:72,1,80,8|4,3:3|3:3,0:0:0:0:
406,54,241507,1,4,1:3:0:0:
429,149,241673,2,0,P|437:189|433:232,1,80,0|2,1:1|2:2,0:0:0:0:
313,284,242004,2,0,P|305:244|309:201,1,80,2|2,1:2|2:2,0:0:0:0:
255,158,242253,1,0,0:0:0:0:
255,158,242336,6,0,P|211:160|164:156,1,80,4|0,1:2|0:0,0:0:0:0:
53,116,242667,1,2,1:2:0:0:
161,36,242833,1,2,2:2:0:0:
126,237,242999,1,4,1:2:0:0:
257,76,243164,1,8,2:2:0:0:
257,76,243247,1,8,2:2:0:0:
257,76,243330,2,0,P|296:70|319:76,1,40,10|0,2:2|0:0,0:0:0:0:
410,71,243496,6,0,B|381:137|381:137|346:148|346:148|320:204,1,160,6|0,1:2|0:0,0:0:0:0:
429,227,243993,1,8,2:2:0:0:
251,247,244159,2,0,P|310:241|378:281,1,120,6|0,1:2|0:0,0:0:0:0:
429,227,244490,1,0,1:1:0:0:
257,338,244656,1,8,2:2:0:0:
231,326,244738,1,0,0:0:0:0:
205,315,244821,1,0,1:1:0:0:
179,304,244904,1,0,1:1:0:0:
154,293,244987,5,0,1:1:0:0:
101,142,245153,2,0,B|84:182|89:238|89:238|56:264|24:242,1,160,14|2,2:2|1:2,0:0:0:0:
186,172,245651,1,14,2:2:0:0:
34,98,245816,1,2,1:2:0:0:
152,12,245982,1,10,2:2:0:0:
186,172,246148,6,0,P|230:176|269:160,1,80,6|0,1:2|0:0,0:0:0:0:
229,3,246479,2,0,P|185:-1|146:15,1,80,6|8,1:2|2:2,0:0:0:0:
309,66,246811,1,2,1:2:0:0:
135,108,246977,1,14,2:2:0:0:
257,248,247142,5,8,3:3:0:0:
257,248,247225,1,8,3:3:0:0:
257,248,247308,2,0,P|287:244|308:246,1,40,4|4,3:3|3:3,0:0:0:0:
255,136,247474,2,0,P|225:140|204:138,1,40,0|0,1:1|1:1,0:0:0:0:
27,175,247640,1,0,1:1:0:0:
27,175,247971,5,10,1:2:0:0:
138,102,248137,1,10,1:2:0:0:
256,355,248468,5,14,1:2:0:0:
479,283,248800,2,0,B|440:283|440:283|503:241|501:141|436:122|382:154|382:154|286:125|232:266|375:316|375:316|348:256|402:220,1,640,14|0,1:2|0:0,0:0:0:0:
