osu file format v14

[General]
AudioFilename: Inori Minase - Heart no Iro.mp3
AudioLeadIn: 0
PreviewTime: 70980
Countdown: 0
SampleSet: Soft
StackLeniency: 0.7
Mode: 3
LetterboxInBreaks: 0
SpecialStyle: 0
WidescreenStoryboard: 0

[Editor]
DistanceSpacing: 1
BeatDivisor: 16
GridSize: 4
TimelineZoom: 1.200001

[Metadata]
Title:Heart no Iro
TitleUnicode:ハートノイロ
Artist:Minase Inori
ArtistUnicode:水瀬いのり
Creator:Amiichii
Version:Normal
Source:
Tags:2nd album BLUE COMPASS ln Haggy Rock Yusuke Shirato 白戸佑輔 Color J-Pop Jpop Japanese Pop KICS-93710 KICS-3710 violin piano
BeatmapID:2430952
BeatmapSetID:935429

[Difficulty]
HPDrainRate:7.5
CircleSize:4
OverallDifficulty:7.5
ApproachRate:5
SliderMultiplier:1.4
SliderTickRate:1

[Events]
//Background and Video events
0,0,"bg.jpg",0,0
//Break Periods
//Storyboard Layer 0 (Background)
//Storyboard Layer 1 (Fail)
//Storyboard Layer 2 (Pass)
//Storyboard Layer 3 (Foreground)
//Storyboard Layer 4 (Overlay)
//Storyboard Sound Samples
Sample,41477,0,"D#5S_Eb5S_s.ogg",70
Sample,42140,0,"C#5S_Db5S_s.ogg",70
Sample,48107,0,"D#7S_Eb7S_s.ogg",70
Sample,48272,0,"C#7S_Db7S_s.ogg",70
Sample,48770,0,"D#7S_Eb7S_s.ogg",70
Sample,49267,0,"G#7S_Ab7S_s.ogg",70
Sample,49598,0,"C#7S_Db7S_s.ogg",70
Sample,50096,0,"D#7S_Eb7S_s.ogg",70
Sample,50759,0,"D#7S_Eb7S_s.ogg",70
Sample,50924,0,"C#7S_Db7S_s.ogg",70
Sample,51422,0,"D#7S_Eb7S_s.ogg",70
Sample,51587,0,"C#7S_Db7S_s.ogg",70
Sample,51919,0,"C#7S_Db7S_s.ogg",70
Sample,52250,0,"F7S_s.ogg",70
Sample,101311,0,"F#7S_Gb7S_s.ogg",70
Sample,101477,0,"Tom3.wav",40
Sample,120703,0,"Tom1.wav",40
Sample,120869,0,"Tom1.wav",40
Sample,121035,0,"G#6S_Ab6S_s.ogg",70
Sample,121035,0,"Tom2.wav",40
Sample,121201,0,"Tom2.wav",40
Sample,122195,0,"F6S_s.ogg",70
Sample,138604,0,"Tom2.wav",40
Sample,146560,0,"Tom2.wav",40
Sample,167444,0,"Tom3.wav",40
Sample,171422,0,"G#6S_Ab6S_s.ogg",70
Sample,171587,0,"G#6S_Ab6S_s.ogg",70
Sample,171919,0,"F#6S_Gb6S_s.ogg",70
Sample,171919,0,"C#6S_Db6S_s.ogg",70
Sample,172250,0,"D#7S_Eb7S_s.ogg",70
Sample,172582,0,"F#7S_Gb7S_s.ogg",70
Sample,172913,0,"A#7S_Bb7S_s.ogg",70
Sample,173411,0,"D#7S_Eb7S_s.ogg",70
Sample,173576,0,"G#6S_Ab6S_s.ogg",70
Sample,173908,0,"D#6S_Eb6S_s.ogg",70
Sample,174074,0,"Tom2.wav",40
Sample,174239,0,"C#6S_Db6S_s.ogg",70
Sample,174902,0,"D#6S_Eb6S_s.ogg",70
Sample,175565,0,"Tom1.wav",40
Sample,175731,0,"Tom2.wav",40
Sample,190814,0,"Tom1.wav",40
Sample,228770,0,"Tom3.wav",40
Sample,241532,0,"Tom3.wav",40
Sample,241698,0,"Tom2.wav",40

[TimingPoints]
395,500,4,2,1,15,1,0
395,-66.6666666666667,4,2,1,15,0,0
6645,631.578947368421,4,2,1,15,1,0
6645,-52.6315789473684,4,2,1,15,0,0
6960,491.803278688525,4,2,1,15,1,0
6960,-67.5675675675676,4,2,1,15,0,0
7205,750,4,2,1,15,1,0
7205,-44.2477876106195,4,2,1,15,0,0
7580,645.161290322581,4,2,1,15,1,0
7580,-51.2820512820513,4,2,1,15,0,0
8226,599.999999999999,4,2,1,15,1,0
8226,-55.2486187845304,4,2,1,15,0,0
8506,441.176470588235,4,2,1,15,1,0
8506,-75.187969924812,4,2,1,15,0,0
9386,422.535211267606,4,2,1,15,1,0
9386,-78.7401574803149,4,2,1,15,0,0
9597,530.973451327434,4,2,1,15,1,0
9597,-62.5,4,2,1,15,0,0
9862,600,4,2,1,15,1,0
9877,-55.2486187845304,4,2,1,15,0,0
10012,500,4,2,1,15,1,0
10012,-66.6666666666667,4,2,1,15,0,0
10387,352.941176470588,4,2,1,15,1,0
10387,-94.3396226415094,4,2,1,15,0,0
10475,314.96062992126,4,2,1,15,1,0
10475,-105.263157894737,4,2,1,15,0,0
12980,331.491712707182,4,2,1,40,1,0
18273,331.491712707182,4,2,1,40,1,0
71311,-100,4,2,1,40,0,1
89875,-100,4,2,1,40,0,0
147140,-100,4,2,1,40,0,1
165455,-100,4,2,1,40,0,0
213190,-100,4,2,1,40,0,1
226449,-100,4,2,1,40,0,0

[HitObjects]
64,192,395,5,0,0:0:0:70:G#6S_Ab6S_s.ogg
192,192,895,1,0,0:0:0:70:C#7S_Db7S_s.ogg
448,192,1145,1,0,0:0:0:70:C7S_s.ogg
192,192,1645,1,0,0:0:0:70:C#7S_Db7S_s.ogg
64,192,2145,1,0,0:0:0:70:A6S_s.ogg
320,192,2395,1,0,0:0:0:40:F5S_s.ogg
192,192,2645,1,0,0:0:0:70:C#7S_Db7S_s.ogg
448,192,3145,1,0,0:0:0:70:C7S_s.ogg
192,192,3645,1,0,0:0:0:70:C#7S_Db7S_s.ogg
192,192,4145,1,0,0:0:0:70:C#7S_Db7S_s.ogg
448,192,4395,1,0,0:0:0:70:D#7S_Eb7S_s.ogg
320,192,4895,1,0,0:0:0:70:C#7S_Db7S_s.ogg
320,192,5145,1,0,0:0:0:70:C#7S_Db7S_s.ogg
448,192,5645,1,0,0:0:0:70:F7S_s.ogg
192,192,6145,1,0,0:0:0:70:C#7S_Db7S_s.ogg
64,192,6395,1,0,0:0:0:40:G#5S_Ab5S_s.ogg
320,192,6645,1,0,0:0:0:40:D#6S_Eb6S_s.ogg
192,192,6960,1,0,0:0:0:40:G#6S_Ab6S_s.ogg
448,192,7205,1,0,0:0:0:70:C#7S_Db7S_s.ogg
64,192,7580,1,0,0:0:0:70:D#7S_Eb7S_s.ogg
320,192,8226,1,0,0:0:0:70:C#7S_Db7S_s.ogg
64,192,8338,1,0,0:0:0:70:G#7S_Ab7S_s.ogg
192,192,8413,1,0,0:0:0:70:D#8S_Eb8S_s.ogg
448,192,8506,128,0,9386:0:0:0:70:G#8S_Ab8S_s.ogg
64,192,9386,1,0,0:0:0:40:G#7S_Ab7S_s.ogg
320,192,9597,1,0,0:0:0:40:D#7S_Eb7S_s.ogg
192,192,9862,1,0,0:0:0:40:D#6S_Eb6S_s.ogg
64,192,10137,1,0,0:0:0:40:D#5S_Eb5S_s.ogg
448,192,10475,128,0,12980:0:0:0:40:G#3S_Ab3S_s.ogg
64,192,12980,1,4,0:0:0:0:
192,192,12980,1,2,0:0:0:0:
320,192,13311,1,0,0:0:0:0:
320,192,13974,1,0,0:0:0:0:
64,192,14140,1,4,0:0:0:0:
448,192,14140,1,2,0:0:0:0:
192,192,14637,1,0,0:0:0:0:
192,192,15300,1,0,0:0:0:0:
320,192,15631,1,2,0:0:0:0:
448,192,15631,1,4,0:0:0:0:
64,192,15963,1,0,0:0:0:0:
64,192,16626,1,0,0:0:0:0:
192,192,16792,1,4,0:0:0:0:
448,192,16792,1,2,0:0:0:0:
320,192,17289,1,0,0:0:0:0:
64,192,17455,1,4,0:0:0:0:
192,192,17455,1,2,0:0:0:0:
448,192,17786,1,0,0:0:0:40:Tom1.wav
320,192,17952,1,0,0:0:0:40:Tom2.wav
192,192,18118,1,0,0:0:0:40:Tom3.wav
64,192,18273,1,4,0:0:0:0:
448,192,18273,1,2,0:0:0:0:
320,192,18604,1,2,0:0:0:0:
192,192,18770,1,2,0:0:0:0:
320,192,18935,1,8,0:0:0:0:
448,192,18935,1,4,0:0:0:0:
192,192,19101,1,0,0:0:0:0:
64,192,19433,1,2,0:0:0:0:
448,192,19433,1,4,0:0:0:0:
192,192,19764,1,0,0:0:0:40:Tom2.wav
320,192,20096,1,2,0:0:0:0:
64,192,20261,1,8,0:0:0:0:
192,192,20261,1,0,0:0:0:40:Tom3.wav
448,192,20427,1,2,0:0:0:0:
320,192,20593,1,0,0:0:0:0:
64,192,20759,1,0,0:0:0:0:
192,192,20924,1,4,0:0:0:0:
320,192,20924,1,2,0:0:0:0:
448,192,21256,1,0,0:0:0:0:
64,192,21422,1,2,0:0:0:0:
192,192,21587,1,8,0:0:0:0:
448,192,21587,1,0,0:0:0:0:
320,192,21753,1,0,0:0:0:40:Tom2.wav
192,192,21919,1,0,0:0:0:40:Tom3.wav
64,192,22085,1,4,0:0:0:0:
448,192,22085,1,2,0:0:0:0:
320,192,22416,1,2,0:0:0:0:
64,192,22582,1,8,0:0:0:0:
192,192,22582,1,0,0:0:0:0:
320,192,22748,1,4,0:0:0:0:
448,192,22748,1,2,0:0:0:0:
192,192,23079,1,2,0:0:0:0:
64,192,23245,1,8,0:0:0:0:
448,192,23245,1,0,0:0:0:0:
192,192,23576,1,2,0:0:0:0:
320,192,23742,1,4,0:0:0:0:
448,192,23742,1,8,0:0:0:0:
64,192,24074,1,2,0:0:0:0:
192,192,24239,1,8,0:0:0:0:
320,192,24239,1,4,0:0:0:0:
448,192,24405,1,2,0:0:0:0:
192,192,24571,1,0,0:0:0:40:Tom1.wav
64,192,24737,1,4,0:0:0:0:
320,192,24737,1,2,0:0:0:0:
192,192,25068,1,4,0:0:0:0:
448,192,25068,1,2,0:0:0:0:
64,192,25400,1,2,0:0:0:0:
192,192,25400,1,4,0:0:0:0:
448,192,25565,1,0,0:0:0:0:
320,192,25731,1,2,0:0:0:0:
64,192,25897,1,8,0:0:0:0:
192,192,25897,1,0,0:0:0:0:
320,192,26228,1,4,0:0:0:0:
448,192,26228,1,2,0:0:0:0:
320,192,26394,1,4,0:0:0:0:
448,192,26394,1,2,0:0:0:0:
64,192,27223,1,8,0:0:0:0:
448,192,27223,1,0,0:0:0:0:
192,192,27389,1,4,0:0:0:0:
320,192,27389,1,2,0:0:0:0:
64,192,27720,1,2,0:0:0:0:
320,192,27720,1,4,0:0:0:0:
64,192,27886,1,4,0:0:0:0:
320,192,27886,1,2,0:0:0:0:
192,192,28383,1,2,0:0:0:0:
320,192,28549,1,8,0:0:0:0:
448,192,28549,1,0,0:0:0:0:
64,192,28880,1,2,0:0:0:0:
192,192,28880,1,4,0:0:0:0:
64,192,29046,1,4,0:0:0:0:
192,192,29046,1,2,0:0:0:0:
320,192,29377,1,0,0:0:0:0:
64,192,29543,1,8,0:0:0:0:
448,192,29543,1,0,0:0:0:0:
192,192,29875,1,0,0:0:0:40:Tom3.wav
320,192,30040,1,2,0:0:0:0:
448,192,30040,1,4,0:0:0:0:
64,192,30372,1,2,0:0:0:0:
320,192,30372,1,4,0:0:0:0:
64,192,30538,1,4,0:0:0:0:
320,192,30538,1,2,0:0:0:0:
192,192,30869,1,0,0:0:0:40:Tom1.wav
320,192,31035,1,0,0:0:0:50:Tom3.wav
64,192,31201,1,8,0:0:0:0:
448,192,31201,128,0,31532:0:0:0:0:
64,192,31532,1,2,0:0:0:0:
192,192,31532,1,4,0:0:0:0:
320,192,31864,1,8,0:0:0:0:
448,192,31864,1,0,0:0:0:0:
192,192,32195,1,2,0:0:0:0:
320,192,32361,1,2,0:0:0:0:
64,192,32527,1,8,0:0:0:0:
448,192,32527,1,0,0:0:0:0:
320,192,32858,1,2,0:0:0:0:
192,192,33190,1,8,0:0:0:0:
448,192,33190,1,0,0:0:0:0:
64,192,33521,1,2,0:0:0:0:
320,192,33687,1,2,0:0:0:0:
64,192,33853,1,8,0:0:0:0:
192,192,33853,1,0,0:0:0:0:
448,192,34184,1,2,0:0:0:0:
192,192,34516,1,8,0:0:0:0:
320,192,34516,1,0,0:0:0:0:
64,192,34847,1,2,0:0:0:0:
320,192,35013,1,2,0:0:0:0:
192,192,35179,1,8,0:0:0:0:
448,192,35179,1,0,0:0:0:0:
320,192,35510,1,2,0:0:0:0:
192,192,35676,1,2,0:0:0:0:
64,192,35842,1,8,0:0:0:0:
448,192,35842,1,0,0:0:0:0:
320,192,36007,1,2,0:0:0:0:
192,192,36339,1,2,0:0:0:0:
320,192,36505,1,8,0:0:0:0:
448,192,36505,1,0,0:0:0:0:
192,192,36670,1,8,0:0:0:0:
64,192,36836,1,2,0:0:0:0:
448,192,36836,1,4,0:0:0:0:
192,192,37168,1,8,0:0:0:0:
320,192,37168,1,0,0:0:0:0:
448,192,37499,1,2,0:0:0:0:
320,192,37665,1,2,0:0:0:0:
64,192,37831,1,8,0:0:0:0:
192,192,37831,1,0,0:0:0:0:
320,192,38162,1,2,0:0:0:0:
192,192,38493,1,8,0:0:0:0:
448,192,38493,1,0,0:0:0:0:
64,192,38825,1,2,0:0:0:0:
192,192,38991,1,2,0:0:0:0:
320,192,39156,1,8,0:0:0:0:
448,192,39156,1,0,0:0:0:0:
192,192,39488,1,2,0:0:0:0:
64,192,39819,1,8,0:0:0:0:
320,192,39819,1,0,0:0:0:0:
448,192,39985,1,2,0:0:0:0:
192,192,40317,1,2,0:0:0:0:
320,192,40482,1,8,0:0:0:0:
448,192,40482,1,0,0:0:0:0:
64,192,40814,1,2,0:0:0:0:
320,192,40980,1,2,0:0:0:0:
64,192,41145,1,8,0:0:0:0:
192,192,41145,1,0,0:0:0:70:C#5S_Db5S_s.ogg
448,192,41477,1,2,0:0:0:0:
192,192,41643,1,2,0:0:0:0:
320,192,41808,1,8,0:0:0:0:
448,192,41808,1,0,0:0:0:70:F5S_s.ogg
64,192,42140,1,2,0:0:0:0:
192,192,42471,1,8,0:0:0:0:
320,192,42471,1,0,0:0:0:0:
448,192,42803,1,2,0:0:0:0:
192,192,42969,1,2,0:0:0:0:
64,192,43134,1,8,0:0:0:0:
320,192,43134,1,0,0:0:0:0:
448,192,43466,1,2,0:0:0:0:
192,192,43797,1,8,0:0:0:0:
320,192,43797,1,0,0:0:0:0:
64,192,44129,1,2,0:0:0:0:
320,192,44295,1,2,0:0:0:0:
64,192,44460,1,8,0:0:0:0:
192,192,44460,1,0,0:0:0:0:
64,192,44792,1,2,0:0:0:0:
448,192,44792,1,4,0:0:0:0:
192,192,44958,1,0,0:0:0:0:
320,192,45123,1,8,0:0:0:0:
448,192,45123,1,0,0:0:0:0:
64,192,45289,1,2,0:0:0:0:
192,192,45455,1,2,0:0:0:0:
320,192,45621,1,0,0:0:0:0:
64,192,45786,1,8,0:0:0:0:
192,192,45786,1,0,0:0:0:0:
448,192,45952,1,2,0:0:0:0:
448,192,46284,1,2,0:0:0:0:
64,192,46449,1,8,0:0:0:0:
192,192,46449,1,0,0:0:0:0:
448,192,46615,1,2,0:0:0:0:
192,192,46781,1,2,0:0:0:0:
64,192,46947,1,8,0:0:0:0:
320,192,46947,1,0,0:0:0:0:
448,192,47112,1,0,0:0:0:50:Tom1.wav
192,192,47278,1,0,0:0:0:50:Tom2.wav
64,192,47444,1,6,0:0:0:0:
448,192,47444,1,0,0:0:0:70:D#7S_Eb7S_s.ogg
320,192,47610,1,0,0:0:0:70:C#7S_Db7S_s.ogg
64,192,47775,1,8,0:0:0:0:
192,192,47775,1,0,0:0:0:70:G#6S_Ab6S_s.ogg
448,192,47941,1,0,0:0:0:70:G#7S_Ab7S_s.ogg
320,192,48107,1,2,0:0:0:0:
192,192,48272,1,2,0:0:0:0:
64,192,48438,1,8,0:0:0:0:
320,192,48438,1,0,0:0:0:70:G#6S_Ab6S_s.ogg
448,192,48604,1,0,0:0:0:70:G#7S_Ab7S_s.ogg
320,192,48770,1,2,0:0:0:0:
64,192,49101,1,8,0:0:0:0:
448,192,49101,1,0,0:0:0:70:G#6S_Ab6S_s.ogg
320,192,49267,1,2,0:0:0:0:
192,192,49433,1,0,0:0:0:70:D#7S_Eb7S_s.ogg
64,192,49598,1,2,0:0:0:0:
192,192,49764,1,8,0:0:0:0:
320,192,49764,1,0,0:0:0:70:G#6S_Ab6S_s.ogg
448,192,49930,1,0,0:0:0:70:G#7S_Ab7S_s.ogg
320,192,50096,1,2,0:0:0:0:
192,192,50261,1,0,0:0:0:70:C#7S_Db7S_s.ogg
64,192,50427,1,8,0:0:0:0:
448,192,50427,1,0,0:0:0:70:G#6S_Ab6S_s.ogg
320,192,50593,1,0,0:0:0:70:G#7S_Ab7S_s.ogg
192,192,50759,1,2,0:0:0:0:
64,192,50924,1,2,0:0:0:0:
192,192,51090,1,8,0:0:0:0:
320,192,51090,1,0,0:0:0:70:G#6S_Ab6S_s.ogg
448,192,51256,1,0,0:0:0:70:G#7S_Ab7S_s.ogg
320,192,51422,1,2,0:0:0:0:
192,192,51587,1,2,0:0:0:0:
64,192,51753,1,8,0:0:0:0:
448,192,51753,1,0,0:0:0:70:G#6S_Ab6S_s.ogg
320,192,51919,1,2,0:0:0:0:
64,192,52085,1,0,0:0:0:70:D#7S_Eb7S_s.ogg
192,192,52250,1,2,0:0:0:0:
320,192,52416,1,8,0:0:0:0:
448,192,52416,1,0,0:0:0:70:G#6S_Ab6S_s.ogg
192,192,52582,1,0,0:0:0:70:F6S_s.ogg
64,192,52748,1,2,0:0:0:0:
448,192,52748,1,0,0:0:0:0:
320,192,53079,1,8,0:0:0:0:
448,192,53079,1,0,0:0:0:0:
192,192,53245,1,2,0:0:0:0:
192,192,53576,1,2,0:0:0:0:
64,192,53742,1,8,0:0:0:0:
448,192,53742,1,0,0:0:0:0:
320,192,54074,1,2,0:0:0:0:
64,192,54405,1,8,0:0:0:0:
192,192,54405,1,0,0:0:0:0:
320,192,54737,1,2,0:0:0:0:
192,192,54902,1,2,0:0:0:0:
64,192,55068,1,8,0:0:0:0:
448,192,55068,1,0,0:0:0:0:
320,192,55400,1,2,0:0:0:0:
192,192,55731,1,8,0:0:0:0:
448,192,55731,1,0,0:0:0:0:
64,192,55897,1,2,0:0:0:0:
192,192,56228,1,2,0:0:0:0:
64,192,56394,1,8,0:0:0:0:
320,192,56394,1,0,0:0:0:0:
448,192,56726,1,2,0:0:0:0:
192,192,56891,1,2,0:0:0:0:
320,192,57057,1,8,0:0:0:0:
448,192,57057,1,0,0:0:0:0:
192,192,57389,1,2,0:0:0:0:
64,192,57554,1,8,0:0:0:0:
320,192,57554,1,0,0:0:0:0:
448,192,57720,1,0,0:0:0:40:Tom1.wav
192,192,57886,1,0,0:0:0:40:Tom2.wav
320,192,58052,1,4,0:0:0:0:
448,192,58052,1,2,0:0:0:0:
64,192,58383,1,8,0:0:0:0:
192,192,58383,1,0,0:0:0:0:
448,192,58549,1,0,0:0:0:0:
320,192,58880,1,2,0:0:0:0:
192,192,59046,1,8,0:0:0:0:
448,192,59046,1,0,0:0:0:0:
64,192,59377,1,2,0:0:0:0:
320,192,59543,1,2,0:0:0:0:
64,192,59709,1,8,0:0:0:0:
192,192,59709,1,0,0:0:0:0:
448,192,59875,1,2,0:0:0:0:
192,192,60206,1,2,0:0:0:0:
320,192,60372,1,8,0:0:0:0:
448,192,60372,1,0,0:0:0:0:
192,192,60703,1,2,0:0:0:0:
320,192,60869,1,2,0:0:0:0:
64,192,61035,1,8,0:0:0:0:
448,192,61035,1,0,0:0:0:0:
192,192,61366,1,2,0:0:0:0:
320,192,61532,1,8,0:0:0:0:
448,192,61532,1,0,0:0:0:0:
320,192,61698,1,8,0:0:0:0:
448,192,61698,1,0,0:0:0:0:
64,192,61864,1,4,0:0:0:0:
192,192,61864,1,2,0:0:0:0:
320,192,62195,1,2,0:0:0:0:
64,192,62361,1,8,0:0:0:0:
448,192,62361,1,0,0:0:0:0:
192,192,62692,1,0,0:0:0:40:Tom1.wav
320,192,62858,1,2,0:0:0:0:
64,192,63024,1,8,0:0:0:0:
448,192,63024,128,0,63355:0:0:0:0:
64,192,63355,1,2,0:0:0:0:
192,192,63355,1,4,0:0:0:0:
64,192,63687,1,8,0:0:0:0:
192,192,63687,1,0,0:0:0:0:
64,192,64018,1,8,0:0:0:0:
192,192,64018,1,0,0:0:0:0:
448,192,64184,1,2,0:0:0:0:
64,192,64350,1,8,0:0:0:0:
192,192,64350,1,0,0:0:0:0:
320,192,64516,1,2,0:0:0:0:
192,192,64681,1,8,0:0:0:0:
448,192,64681,1,0,0:0:0:0:
320,192,64847,1,2,0:0:0:0:
192,192,65013,1,8,0:0:0:0:
448,192,65013,1,0,0:0:0:0:
64,192,65179,1,2,0:0:0:0:
192,192,65344,1,8,0:0:0:0:
448,192,65344,1,0,0:0:0:0:
320,192,65510,1,2,0:0:0:0:
192,192,65676,1,8,0:0:0:0:
448,192,65676,1,0,0:0:0:0:
64,192,65842,1,2,0:0:0:0:
192,192,66007,1,8,0:0:0:0:
320,192,66007,1,4,0:0:0:0:
192,192,66339,1,8,0:0:0:0:
320,192,66339,1,0,0:0:0:0:
192,192,66670,1,8,0:0:0:0:
320,192,66670,1,0,0:0:0:0:
64,192,66836,1,2,0:0:0:0:
192,192,67002,1,8,0:0:0:0:
320,192,67002,1,0,0:0:0:0:
448,192,67168,1,2,0:0:0:0:
64,192,67333,1,8,0:0:0:0:
192,192,67333,1,0,0:0:0:0:
320,192,67499,1,2,0:0:0:0:
192,192,67665,1,2,0:0:0:0:
448,192,67831,1,2,0:0:0:0:
64,192,67996,1,2,0:0:0:0:
320,192,68162,1,8,0:0:0:0:
448,192,68162,1,2,0:0:0:0:
64,192,68328,1,8,0:0:0:0:
192,192,68328,1,2,0:0:0:0:
320,192,68493,1,2,0:0:0:0:
448,192,68493,1,8,0:0:0:0:
64,192,68659,1,2,0:0:0:0:
192,192,68659,1,0,0:0:0:0:
64,192,70648,128,8,70980:0:0:0:0:
448,192,70648,1,4,0:0:0:0:
192,192,71311,1,4,0:0:0:0:
448,192,71311,1,2,0:0:0:0:
64,192,71643,1,8,0:0:0:0:
320,192,71643,1,0,0:0:0:0:
192,192,71974,1,2,0:0:0:0:
320,192,72140,1,2,0:0:0:0:
64,192,72306,1,8,0:0:0:0:
448,192,72306,1,0,0:0:0:0:
192,192,72471,1,2,0:0:0:0:
320,192,72471,1,4,0:0:0:0:
448,192,72803,1,2,0:0:0:0:
64,192,72969,1,8,0:0:0:0:
192,192,72969,1,0,0:0:0:0:
320,192,73300,1,2,0:0:0:0:
192,192,73466,1,2,0:0:0:0:
320,192,73632,1,8,0:0:0:0:
448,192,73632,1,0,0:0:0:0:
64,192,73963,1,2,0:0:0:0:
192,192,73963,1,4,0:0:0:0:
64,192,74295,1,8,0:0:0:0:
448,192,74295,1,0,0:0:0:0:
320,192,74626,1,2,0:0:0:0:
192,192,74792,1,2,0:0:0:0:
64,192,74958,1,8,0:0:0:0:
320,192,74958,1,0,0:0:0:0:
192,192,75123,1,2,0:0:0:0:
448,192,75123,1,4,0:0:0:0:
64,192,75455,1,2,0:0:0:0:
320,192,75621,1,8,0:0:0:0:
448,192,75621,1,0,0:0:0:0:
192,192,75952,1,2,0:0:0:0:
320,192,76118,1,2,0:0:0:0:
64,192,76284,1,8,0:0:0:0:
448,192,76284,1,0,0:0:0:0:
192,192,76449,1,8,0:0:0:0:
320,192,76615,1,2,0:0:0:0:
448,192,76615,1,4,0:0:0:0:
64,192,76947,1,8,0:0:0:0:
320,192,76947,1,0,0:0:0:0:
448,192,77278,1,2,0:0:0:0:
192,192,77444,1,2,0:0:0:0:
320,192,77610,1,8,0:0:0:0:
448,192,77610,1,0,0:0:0:0:
64,192,77775,1,2,0:0:0:0:
192,192,78107,1,2,0:0:0:0:
64,192,78272,1,8,0:0:0:0:
448,192,78272,1,0,0:0:0:0:
320,192,78604,1,2,0:0:0:0:
192,192,78770,1,2,0:0:0:0:
320,192,78935,1,8,0:0:0:0:
448,192,78935,1,0,0:0:0:0:
64,192,79267,1,2,0:0:0:0:
192,192,79598,1,8,0:0:0:0:
320,192,79598,1,0,0:0:0:0:
448,192,79930,1,2,0:0:0:0:
320,192,80096,1,2,0:0:0:0:
64,192,80261,1,8,0:0:0:0:
192,192,80261,1,0,0:0:0:0:
320,192,80593,1,2,0:0:0:0:
192,192,80759,1,2,0:0:0:0:
64,192,80924,1,8,0:0:0:0:
448,192,80924,1,0,0:0:0:0:
320,192,81256,1,0,0:0:0:40:Tom1.wav
64,192,81422,1,2,0:0:0:0:
448,192,81587,1,2,0:0:0:0:
320,192,81753,1,0,0:0:0:40:Tom2.wav
64,192,81919,1,4,0:0:0:0:
192,192,81919,1,2,0:0:0:0:
64,192,82250,1,8,0:0:0:0:
448,192,82250,1,0,0:0:0:0:
320,192,82582,1,2,0:0:0:0:
192,192,82748,1,2,0:0:0:0:
64,192,82913,1,8,0:0:0:0:
448,192,82913,1,0,0:0:0:0:
192,192,83079,1,2,0:0:0:0:
320,192,83079,1,4,0:0:0:0:
64,192,83411,1,2,0:0:0:0:
320,192,83576,1,8,0:0:0:0:
448,192,83576,1,0,0:0:0:0:
192,192,83908,1,2,0:0:0:0:
320,192,84074,1,2,0:0:0:0:
64,192,84239,1,8,0:0:0:0:
192,192,84239,1,0,0:0:0:0:
64,192,84571,1,2,0:0:0:0:
448,192,84571,1,4,0:0:0:0:
192,192,84902,1,8,0:0:0:0:
448,192,84902,1,0,0:0:0:0:
320,192,85068,128,2,85234:0:0:0:0:
64,192,85400,128,2,85565:0:0:0:0:
320,192,85565,1,8,0:0:0:0:
448,192,85565,1,0,0:0:0:0:
64,192,85731,1,2,0:0:0:0:
192,192,85731,1,4,0:0:0:0:
320,192,86063,1,2,0:0:0:0:
192,192,86228,1,8,0:0:0:0:
448,192,86228,1,0,0:0:0:0:
64,192,86560,1,2,0:0:0:0:
320,192,86726,1,8,0:0:0:0:
448,192,86726,1,0,0:0:0:0:
192,192,86891,1,0,0:0:0:40:Tom1.wav
320,192,87057,1,0,0:0:0:40:Tom2.wav
64,192,87223,1,2,0:0:0:0:
192,192,87223,1,4,0:0:0:0:
448,192,87389,128,0,87886:0:0:0:0:
192,192,87886,1,2,0:0:0:0:
320,192,87886,1,4,0:0:0:0:
64,192,88052,128,0,88549:0:0:0:0:
320,192,88549,1,4,0:0:0:0:
448,192,88549,1,2,0:0:0:0:
192,192,88714,128,0,89212:0:0:0:0:
64,192,89212,1,8,0:0:0:0:
448,192,89212,1,0,0:0:0:0:
320,192,89377,128,2,89543:0:0:0:0:
64,192,89543,1,8,0:0:0:0:
192,192,89543,1,0,0:0:0:0:
448,192,89709,128,8,89875:0:0:0:0:
64,192,89875,128,4,90206:0:0:0:0:
320,192,89875,1,2,0:0:0:0:
192,192,90206,128,0,90372:0:0:0:0:
448,192,90372,128,0,90538:0:0:0:0:
192,192,90703,128,0,90869:0:0:0:0:
64,192,91035,128,0,92527:0:0:0:0:
448,192,91035,128,0,91864:0:0:0:0:
320,192,91864,128,0,92527:0:0:0:0:
192,192,92527,1,0,0:0:0:0:
448,192,92527,128,0,92858:0:0:0:0:
64,192,92858,128,0,93024:0:0:0:0:
320,192,93024,128,0,93355:0:0:0:0:
192,192,93355,128,0,93521:0:0:0:0:
64,192,93521,1,8,0:0:0:0:
448,192,93521,1,0,0:0:0:0:
192,192,93687,1,2,0:0:0:0:
320,192,93687,1,4,0:0:0:0:
64,192,94018,1,2,0:0:0:0:
320,192,94184,1,8,0:0:0:0:
448,192,94184,1,0,0:0:0:0:
64,192,94350,1,2,0:0:0:0:
192,192,94350,1,4,0:0:0:0:
448,192,94681,1,0,0:0:0:50:Tom1.wav
320,192,94847,1,0,0:0:0:50:Tom2.wav
64,192,95013,1,0,0:0:0:50:Tom3.wav
192,192,95179,1,4,0:0:0:0:
448,192,95179,1,2,0:0:0:0:
320,192,95510,1,2,0:0:0:0:
64,192,95676,1,8,0:0:0:0:
192,192,95676,1,0,0:0:0:0:
448,192,95842,1,2,0:0:0:0:
64,192,96007,1,0,0:0:0:0:
192,192,96173,1,8,0:0:0:0:
320,192,96173,1,0,0:0:0:0:
448,192,96339,1,0,0:0:0:0:
320,192,96505,1,2,0:0:0:0:
64,192,96670,1,0,0:0:0:0:
320,192,96836,1,2,0:0:0:0:
192,192,97002,1,8,0:0:0:0:
64,192,97168,1,8,0:0:0:0:
448,192,97168,1,0,0:0:0:0:
320,192,97333,128,8,97499:0:0:0:0:
64,192,97499,1,8,0:0:0:0:
192,192,97499,128,0,97665:0:0:0:0:
448,192,97665,128,8,97831:0:0:0:0:
64,192,97831,1,2,0:0:0:0:
320,192,97831,1,4,0:0:0:0:
192,192,97996,1,8,0:0:0:0:
320,192,98162,1,8,0:0:0:0:
448,192,98162,1,0,0:0:0:0:
64,192,98328,128,0,98493:0:0:0:40:Tom1.wav
192,192,98493,1,2,0:0:0:0:
448,192,98493,1,0,0:0:0:0:
320,192,98659,1,0,0:0:0:40:Tom1.wav
192,192,98825,1,0,0:0:0:40:Tom3.wav
64,192,98991,1,4,0:0:0:0:
448,192,98991,128,2,99488:0:0:0:0:
320,192,99322,1,2,0:0:0:0:
64,192,99488,1,8,0:0:0:0:
192,192,99488,1,0,0:0:0:0:
320,192,99654,128,2,100151:0:0:0:0:
448,192,99654,1,4,0:0:0:0:
192,192,99985,1,2,0:0:0:0:
64,192,100151,1,2,0:0:0:0:
320,192,100317,1,8,0:0:0:0:
448,192,100317,1,4,0:0:0:0:
64,192,100482,1,0,0:0:0:70:G#6S_Ab6S_s.ogg
320,192,100648,1,0,0:0:0:70:D#7S_Eb7S_s.ogg
192,192,100814,1,0,0:0:0:70:C#7S_Db7S_s.ogg
448,192,100980,128,0,101311:0:0:0:70:F#7S_Gb7S_s.ogg
64,192,101311,1,2,0:0:0:0:
320,192,101477,1,8,0:0:0:0:
448,192,101477,1,0,0:0:0:70:C#7S_Db7S_s.ogg
192,192,101643,1,0,0:0:0:70:F#6S_Gb6S_s.ogg
64,192,101808,1,6,0:0:0:0:
448,192,101808,1,0,0:0:0:70:C#6S_Db6S_s.ogg
192,192,102140,1,2,0:0:0:0:
320,192,102471,1,2,0:0:0:0:
192,192,102803,1,2,0:0:0:0:
64,192,102969,1,0,0:0:0:70:D#6S_Eb6S_s.ogg
320,192,102969,1,0,0:0:0:0:
448,192,103134,1,2,0:0:0:0:
64,192,103300,1,0,0:0:0:70:C#5S_Db5S_s.ogg
192,192,103300,1,0,0:0:0:0:
320,192,103466,1,2,0:0:0:0:
192,192,103797,1,2,0:0:0:0:
448,192,104129,1,2,0:0:0:0:
64,192,104460,1,2,0:0:0:0:
320,192,104792,1,2,0:0:0:0:
192,192,105123,1,2,0:0:0:0:
320,192,105289,1,0,0:0:0:70:D#6S_Eb6S_s.ogg
448,192,105289,1,0,0:0:0:0:
64,192,105455,1,2,0:0:0:0:
192,192,105621,1,0,0:0:0:70:C#6S_Db6S_s.ogg
448,192,105621,1,0,0:0:0:0:
320,192,105786,1,2,0:0:0:0:
64,192,106118,1,2,0:0:0:0:
320,192,106449,1,2,0:0:0:0:
192,192,106781,1,2,0:0:0:0:
448,192,107112,1,2,0:0:0:0:
64,192,107444,1,2,0:0:0:0:
320,192,107775,1,2,0:0:0:0:
448,192,108107,1,2,0:0:0:0:
64,192,108438,1,8,0:0:0:0:
192,192,108438,1,0,0:0:0:0:
320,192,108604,1,2,0:0:0:0:
64,192,108770,1,4,0:0:0:0:
448,192,108770,1,8,0:0:0:0:
192,192,109101,128,0,109433:0:0:0:50:Tom1.wav
320,192,109433,1,8,0:0:0:0:
448,192,109433,128,0,109764:0:0:0:0:
64,192,109764,1,2,0:0:0:0:
192,192,109764,1,4,0:0:0:0:
320,192,110096,1,2,0:0:0:0:
320,192,110261,1,2,0:0:0:0:
192,192,110427,1,2,0:0:0:0:
192,192,110593,1,2,0:0:0:0:
448,192,110759,1,10,0:0:0:0:
448,192,110924,1,10,0:0:0:0:
64,192,111090,1,8,0:0:0:0:
192,192,111090,1,2,0:0:0:0:
64,192,111256,1,10,0:0:0:0:
320,192,111422,1,2,0:0:0:0:
448,192,111422,1,8,0:0:0:0:
192,192,111587,1,2,0:0:0:0:
64,192,111753,1,2,0:0:0:0:
448,192,111753,1,8,0:0:0:0:
320,192,111919,1,2,0:0:0:0:
64,192,112085,1,8,0:0:0:0:
192,192,112085,128,0,112416:0:0:0:0:
320,192,112416,1,2,0:0:0:0:
448,192,112416,1,4,0:0:0:0:
64,192,112748,1,8,0:0:0:0:
192,192,112748,1,0,0:0:0:0:
320,192,112913,1,0,0:0:0:0:
192,192,113245,1,2,0:0:0:0:
320,192,113411,1,8,0:0:0:0:
448,192,113411,1,0,0:0:0:0:
64,192,113742,1,2,0:0:0:0:
320,192,113908,1,2,0:0:0:0:
64,192,114074,1,8,0:0:0:0:
192,192,114074,1,0,0:0:0:0:
448,192,114239,1,2,0:0:0:0:
192,192,114571,1,2,0:0:0:0:
64,192,114737,1,8,0:0:0:0:
320,192,114737,1,0,0:0:0:0:
448,192,115068,1,2,0:0:0:0:
192,192,115400,1,8,0:0:0:0:
320,192,115400,1,0,0:0:0:0:
64,192,115565,1,2,0:0:0:0:
320,192,115897,1,2,0:0:0:0:
64,192,116063,1,8,0:0:0:0:
448,192,116063,1,0,0:0:0:0:
192,192,116394,1,2,0:0:0:0:
320,192,116560,1,2,0:0:0:0:
192,192,116726,1,8,0:0:0:0:
448,192,116726,1,0,0:0:0:0:
64,192,116891,1,2,0:0:0:0:
320,192,117223,1,2,0:0:0:0:
64,192,117389,1,8,0:0:0:0:
192,192,117389,1,0,0:0:0:0:
64,192,117720,1,2,0:0:0:0:
448,192,117720,1,0,0:0:0:0:
192,192,118052,1,8,0:0:0:0:
320,192,118052,1,0,0:0:0:0:
64,192,118217,1,2,0:0:0:0:
192,192,118549,1,2,0:0:0:0:
320,192,118714,1,8,0:0:0:0:
448,192,118714,1,0,0:0:0:0:
192,192,119046,1,2,0:0:0:0:
320,192,119212,1,2,0:0:0:0:
64,192,119377,1,8,0:0:0:0:
448,192,119377,1,0,0:0:0:0:
192,192,119543,1,2,0:0:0:0:
320,192,119875,1,2,0:0:0:0:
64,192,120040,1,8,0:0:0:0:
192,192,120040,1,0,0:0:0:0:
320,192,120372,1,2,0:0:0:0:
448,192,120372,1,4,0:0:0:0:
64,192,120538,1,8,0:0:0:0:
192,192,120538,1,0,0:0:0:70:C#6S_Db6S_s.ogg
448,192,120703,1,0,0:0:0:70:F6S_s.ogg
320,192,120869,1,0,0:0:0:70:F#6S_Gb6S_s.ogg
192,192,121035,1,8,0:0:0:0:
64,192,121201,1,0,0:0:0:70:C#6S_Db6S_s.ogg
192,192,121532,1,0,0:0:0:70:F#6S_Gb6S_s.ogg
448,192,121532,128,0,121864:0:0:0:40:Tom3.wav
64,192,121864,1,12,0:0:0:0:
320,192,121864,1,0,0:0:0:70:F6S_s.ogg
192,192,122029,1,0,0:0:0:70:D#6S_Eb6S_s.ogg
448,192,122195,1,2,0:0:0:0:
64,192,122361,1,8,0:0:0:0:
192,192,122361,1,4,0:0:0:0:
320,192,122527,1,2,0:0:0:0:
192,192,122692,128,0,123024:0:0:0:40:Tom1.wav
64,192,123024,1,6,0:0:0:0:
448,192,123024,1,0,0:0:0:70:C#7S_Db7S_s.ogg
192,192,123190,1,0,0:0:0:70:G#6S_Ab6S_s.ogg
320,192,123355,1,0,0:0:0:70:C7S_s.ogg
448,192,123521,1,0,0:0:0:70:C#7S_Db7S_s.ogg
192,192,123687,1,0,0:0:0:70:G#6S_Ab6S_s.ogg
320,192,123853,1,0,0:0:0:70:C7S_s.ogg
448,192,124018,1,0,0:0:0:70:C#7S_Db7S_s.ogg
320,192,124184,1,0,0:0:0:70:C7S_s.ogg
448,192,124350,1,0,0:0:0:70:C#7S_Db7S_s.ogg
320,192,124516,1,0,0:0:0:70:C7S_s.ogg
64,192,124681,1,0,0:0:0:70:G#6S_Ab6S_s.ogg
320,192,124847,1,0,0:0:0:70:C7S_s.ogg
448,192,125013,1,0,0:0:0:70:C#7S_Db7S_s.ogg
64,192,125179,1,0,0:0:0:70:G#6S_Ab6S_s.ogg
320,192,125344,1,0,0:0:0:70:C7S_s.ogg
448,192,125510,1,0,0:0:0:70:C#7S_Db7S_s.ogg
64,192,125676,1,0,0:0:0:70:G#6S_Ab6S_s.ogg
192,192,125676,1,0,0:0:0:0:
320,192,125842,1,0,0:0:0:70:C7S_s.ogg
448,192,126007,1,0,0:0:0:70:C#7S_Db7S_s.ogg
64,192,126173,1,0,0:0:0:70:G#6S_Ab6S_s.ogg
320,192,126339,1,0,0:0:0:70:C7S_s.ogg
448,192,126505,1,0,0:0:0:70:C#7S_Db7S_s.ogg
64,192,126670,1,0,0:0:0:70:G#6S_Ab6S_s.ogg
320,192,126836,1,0,0:0:0:70:C7S_s.ogg
448,192,127002,1,0,0:0:0:70:C#7S_Db7S_s.ogg
64,192,127168,1,0,0:0:0:70:C7S_s.ogg
320,192,127333,1,0,0:0:0:70:C#7S_Db7S_s.ogg
448,192,127499,1,0,0:0:0:70:G#7S_Ab7S_s.ogg
320,192,127665,1,0,0:0:0:70:F#7S_Gb7S_s.ogg
192,192,127831,1,0,0:0:0:70:F7S_s.ogg
64,192,127996,1,0,0:0:0:70:C#7S_Db7S_s.ogg
320,192,128162,1,0,0:0:0:70:G#6S_Ab6S_s.ogg
192,192,128328,1,2,0:0:0:0:
448,192,128328,1,4,0:0:0:0:
64,192,128659,1,2,0:0:0:0:
320,192,128991,1,8,0:0:0:0:
448,192,128991,1,0,0:0:0:0:
192,192,129322,1,0,0:0:0:0:
448,192,129654,1,2,0:0:0:0:
64,192,129819,1,8,0:0:0:0:
192,192,129819,1,0,0:0:0:0:
320,192,129985,1,2,0:0:0:0:
192,192,130317,1,8,0:0:0:0:
448,192,130317,1,0,0:0:0:0:
64,192,130648,1,0,0:0:0:0:
448,192,130814,1,2,0:0:0:0:
192,192,130980,1,2,0:0:0:0:
320,192,131311,1,0,0:0:0:0:
64,192,131643,1,8,0:0:0:0:
192,192,131643,1,0,0:0:0:0:
448,192,131808,1,0,0:0:0:0:
192,192,131974,1,0,0:0:0:0:
320,192,132140,1,0,0:0:0:0:
64,192,132306,1,2,0:0:0:0:
320,192,132471,1,8,0:0:0:0:
448,192,132471,1,0,0:0:0:0:
192,192,132637,1,0,0:0:0:0:
320,192,132803,1,2,0:0:0:0:
64,192,132969,1,8,0:0:0:0:
192,192,132969,1,0,0:0:0:0:
448,192,133134,1,0,0:0:0:40:Tom1.wav
320,192,133300,1,0,0:0:0:40:Tom2.wav
192,192,133466,1,0,0:0:0:40:Tom3.wav
64,192,133632,1,2,0:0:0:0:
448,192,133632,1,4,0:0:0:0:
192,192,133963,1,8,0:0:0:0:
320,192,133963,1,0,0:0:0:0:
448,192,134129,1,2,0:0:0:0:
64,192,134460,1,2,0:0:0:0:
192,192,134626,1,8,0:0:0:0:
448,192,134626,1,0,0:0:0:0:
320,192,134958,1,2,0:0:0:0:
192,192,135123,1,2,0:0:0:0:
64,192,135289,1,8,0:0:0:0:
448,192,135289,1,0,0:0:0:0:
320,192,135455,1,2,0:0:0:0:
192,192,135786,1,2,0:0:0:0:
320,192,135952,1,8,0:0:0:0:
448,192,135952,1,0,0:0:0:0:
64,192,136284,1,2,0:0:0:0:
192,192,136615,1,8,0:0:0:0:
448,192,136615,1,0,0:0:0:0:
320,192,136781,1,2,0:0:0:0:
64,192,137112,1,2,0:0:0:0:
192,192,137278,1,8,0:0:0:0:
320,192,137278,1,0,0:0:0:0:
448,192,137610,1,2,0:0:0:0:
192,192,137775,1,2,0:0:0:0:
64,192,137941,1,8,0:0:0:0:
320,192,137941,1,0,0:0:0:0:
448,192,138107,1,2,0:0:0:0:
192,192,138438,1,0,0:0:0:40:Tom1.wav
320,192,138604,1,8,0:0:0:0:
64,192,138770,1,0,0:0:0:40:Tom3.wav
192,192,138935,1,4,0:0:0:0:
448,192,138935,1,2,0:0:0:0:
64,192,139267,1,8,0:0:0:0:
320,192,139267,1,0,0:0:0:0:
320,192,139598,1,8,0:0:0:0:
448,192,139598,1,0,0:0:0:0:
192,192,139764,1,2,0:0:0:0:
64,192,139930,1,8,0:0:0:0:
448,192,139930,1,0,0:0:0:0:
320,192,140096,1,2,0:0:0:0:
192,192,140261,1,8,0:0:0:0:
448,192,140261,1,0,0:0:0:0:
64,192,140593,1,8,0:0:0:0:
320,192,140593,1,0,0:0:0:0:
192,192,140759,1,2,0:0:0:0:
320,192,140924,1,8,0:0:0:0:
448,192,140924,1,0,0:0:0:0:
64,192,141090,1,2,0:0:0:0:
192,192,141256,1,8,0:0:0:0:
448,192,141256,1,0,0:0:0:0:
320,192,141422,1,2,0:0:0:0:
64,192,141587,1,4,0:0:0:0:
192,192,141587,1,8,0:0:0:0:
64,192,141753,1,0,0:0:0:0:
192,192,141919,1,8,0:0:0:0:
448,192,141919,1,0,0:0:0:0:
320,192,142085,1,0,0:0:0:0:
64,192,142250,1,8,0:0:0:0:
320,192,142250,1,0,0:0:0:0:
192,192,142416,1,2,0:0:0:0:
320,192,142582,1,8,0:0:0:0:
448,192,142582,1,0,0:0:0:0:
64,192,142748,1,2,0:0:0:0:
192,192,142913,1,8,0:0:0:0:
448,192,142913,1,0,0:0:0:0:
448,192,143079,1,2,0:0:0:0:
64,192,143245,1,8,0:0:0:0:
320,192,143245,1,0,0:0:0:0:
192,192,143411,1,2,0:0:0:0:
192,192,143576,1,8,0:0:0:0:
448,192,143576,1,0,0:0:0:0:
320,192,143742,1,2,0:0:0:0:
64,192,143908,1,8,0:0:0:0:
448,192,143908,1,0,0:0:0:0:
192,192,144074,1,0,0:0:0:0:
320,192,144239,1,2,0:0:0:0:
448,192,144239,128,4,144902:0:0:0:0:
192,192,144902,128,0,145565:0:0:0:0:
320,192,145565,128,0,146228:0:0:0:0:
64,192,146228,1,0,0:0:0:40:Tom1.wav
192,192,146394,1,0,0:0:0:0:
448,192,146560,1,8,0:0:0:0:
320,192,146726,1,0,0:0:0:0:
64,192,146891,128,0,147140:0:0:0:0:
192,192,146891,1,0,0:0:0:0:
320,192,147140,1,2,0:0:0:0:
192,192,147223,1,4,0:0:0:0:
448,192,147223,1,8,0:0:0:0:
64,192,147554,1,2,0:0:0:0:
320,192,147720,1,2,0:0:0:0:
192,192,147886,1,8,0:0:0:0:
448,192,147886,1,0,0:0:0:0:
64,192,148052,1,2,0:0:0:0:
448,192,148052,1,4,0:0:0:0:
320,192,148383,1,2,0:0:0:0:
64,192,148549,1,8,0:0:0:0:
192,192,148549,1,0,0:0:0:0:
320,192,148880,1,2,0:0:0:0:
192,192,149046,1,2,0:0:0:0:
320,192,149212,1,8,0:0:0:0:
448,192,149212,1,0,0:0:0:0:
64,192,149543,1,4,0:0:0:0:
192,192,149543,1,2,0:0:0:0:
320,192,149709,1,2,0:0:0:0:
192,192,149875,1,8,0:0:0:0:
448,192,149875,1,0,0:0:0:0:
320,192,150206,1,2,0:0:0:0:
192,192,150372,1,2,0:0:0:0:
64,192,150538,1,8,0:0:0:0:
448,192,150538,1,0,0:0:0:0:
192,192,150703,1,2,0:0:0:0:
448,192,150703,1,4,0:0:0:0:
320,192,151035,1,2,0:0:0:0:
64,192,151201,1,8,0:0:0:0:
192,192,151201,1,0,0:0:0:0:
64,192,151449,1,8,0:0:0:0:
448,192,151532,1,2,0:0:0:0:
192,192,151698,1,2,0:0:0:0:
320,192,151864,1,8,0:0:0:0:
448,192,151864,1,0,0:0:0:0:
64,192,152029,1,0,0:0:0:0:
192,192,152195,1,2,0:0:0:0:
448,192,152195,1,4,0:0:0:0:
64,192,152527,1,8,0:0:0:0:
192,192,152527,1,0,0:0:0:0:
320,192,152858,1,2,0:0:0:0:
192,192,153024,1,2,0:0:0:0:
64,192,153190,1,8,0:0:0:0:
448,192,153190,1,0,0:0:0:0:
320,192,153355,1,2,0:0:0:0:
192,192,153687,1,2,0:0:0:0:
320,192,153853,1,8,0:0:0:0:
448,192,153853,1,0,0:0:0:0:
64,192,154184,1,2,0:0:0:0:
320,192,154350,1,2,0:0:0:0:
192,192,154516,1,8,0:0:0:0:
448,192,154516,1,0,0:0:0:0:
64,192,154847,1,2,0:0:0:0:
192,192,154847,1,4,0:0:0:0:
320,192,155013,1,2,0:0:0:0:
64,192,155179,1,8,0:0:0:0:
448,192,155179,1,0,0:0:0:0:
192,192,155510,1,2,0:0:0:0:
448,192,155676,1,2,0:0:0:0:
64,192,155842,1,8,0:0:0:0:
320,192,155842,1,0,0:0:0:0:
192,192,156007,1,2,0:0:0:0:
448,192,156173,1,2,0:0:0:0:
64,192,156339,1,8,0:0:0:0:
192,192,156339,1,0,0:0:0:0:
320,192,156505,1,2,0:0:0:0:
192,192,156670,1,2,0:0:0:0:
64,192,156836,1,8,0:0:0:0:
448,192,156836,1,0,0:0:0:0:
320,192,157002,1,0,0:0:0:40:Tom1.wav
192,192,157168,1,0,0:0:0:40:Tom2.wav
64,192,157333,1,0,0:0:0:40:Tom3.wav
320,192,157499,1,4,0:0:0:0:
448,192,157499,128,2,157831:0:0:0:0:
192,192,157831,128,0,157996:0:0:0:0:
448,192,157996,128,2,158162:0:0:0:0:
192,192,158162,1,8,0:0:0:0:
320,192,158162,1,0,0:0:0:0:
64,192,158328,128,0,158493:0:0:0:0:
192,192,158493,1,0,0:0:0:0:
320,192,158659,1,2,0:0:0:0:
448,192,158659,128,4,158991:0:0:0:0:
64,192,158991,1,8,0:0:0:0:
192,192,158991,128,0,159322:0:0:0:0:
320,192,159322,128,2,159654:0:0:0:0:
64,192,159488,1,0,0:0:0:40:Tom1.wav
448,192,159654,128,0,159985:0:0:0:40:Tom2.wav
192,192,159819,1,0,0:0:0:40:Tom3.wav
64,192,159985,1,0,0:0:0:40:Tom2.wav
192,192,160151,128,2,160482:0:0:0:0:
320,192,160151,1,4,0:0:0:0:
448,192,160317,1,8,0:0:0:0:
64,192,160482,128,0,160648:0:0:0:0:
448,192,160648,128,0,160814:0:0:0:40:Tom1.wav
64,192,160814,1,8,0:0:0:0:
192,192,160814,1,0,0:0:0:40:Tom2.wav
320,192,160980,128,0,161145:0:0:0:40:Tom3.wav
192,192,161145,1,0,0:0:0:40:Tom2.wav
64,192,161311,128,2,161643:0:0:0:0:
448,192,161311,1,4,0:0:0:0:
192,192,161643,1,8,0:0:0:0:
320,192,161643,1,0,0:0:0:0:
448,192,161974,1,2,0:0:0:0:
192,192,162140,1,8,0:0:0:0:
320,192,162140,1,0,0:0:0:40:Tom1.wav
64,192,162306,1,2,0:0:0:0:
192,192,162471,1,8,0:0:0:0:
448,192,162471,1,0,0:0:0:40:Tom2.wav
320,192,162637,1,2,0:0:0:0:
192,192,162803,1,2,0:0:0:0:
64,192,162803,1,4,0:0:0:0:
320,192,162969,1,0,0:0:0:0:
64,192,163134,1,8,0:0:0:0:
448,192,163134,1,0,0:0:0:0:
192,192,163300,1,2,0:0:0:0:
320,192,163466,1,0,0:0:0:0:
448,192,163632,1,2,0:0:0:0:
192,192,163797,1,8,0:0:0:0:
64,192,163797,1,0,0:0:0:0:
320,192,163963,1,0,0:0:0:0:
448,192,164129,1,2,0:0:0:0:
192,192,164295,1,2,0:0:0:0:
64,192,164460,1,8,0:0:0:0:
320,192,164460,1,4,0:0:0:0:
448,192,164626,1,2,0:0:0:0:
192,192,164792,1,2,0:0:0:0:
320,192,164958,1,2,0:0:0:0:
448,192,165123,1,8,0:0:0:0:
64,192,165123,1,0,0:0:0:0:
192,192,165289,1,2,0:0:0:0:
320,192,165455,1,2,0:0:0:0:
448,192,165455,128,4,166118:0:0:0:0:
64,192,166118,1,0,0:0:0:40:Tom1.wav
320,192,166201,1,0,0:0:0:40:Tom2.wav
192,192,166366,1,0,0:0:0:40:Tom1.wav
448,192,166449,128,0,166615:0:0:0:40:Tom2.wav
64,192,166615,128,2,167278:0:0:0:0:
192,192,166615,1,4,0:0:0:0:
320,192,166947,1,2,0:0:0:0:
192,192,167112,1,8,0:0:0:0:
448,192,167278,1,0,0:0:0:40:Tom1.wav
320,192,167361,1,0,0:0:0:40:Tom2.wav
192,192,167444,128,2,168107:0:0:0:0:
448,192,167610,1,2,0:0:0:0:
320,192,167775,1,8,0:0:0:0:
64,192,167941,1,2,0:0:0:0:
320,192,168107,1,2,0:0:0:0:
448,192,168107,1,4,0:0:0:0:
320,192,168272,1,4,0:0:0:0:
448,192,168272,1,2,0:0:0:0:
64,192,168604,1,0,0:0:0:40:Tom1.wav
448,192,168770,1,0,0:0:0:40:Tom1.wav
320,192,168935,1,2,0:0:0:0:
192,192,169018,1,8,0:0:0:0:
64,192,169101,1,8,0:0:0:0:
448,192,169101,1,0,0:0:0:0:
320,192,169267,1,2,0:0:0:0:
448,192,169267,1,4,0:0:0:0:
192,192,169598,1,2,0:0:0:0:
64,192,169764,1,8,0:0:0:0:
448,192,169764,1,0,0:0:0:0:
320,192,169930,1,0,0:0:0:0:
64,192,170096,1,8,0:0:0:0:
192,192,170096,1,0,0:0:0:0:
64,192,170261,1,8,0:0:0:0:
320,192,170427,1,8,0:0:0:0:
448,192,170427,1,0,0:0:0:0:
448,192,170593,1,8,0:0:0:0:
64,192,170759,1,6,0:0:0:0:
320,192,170759,1,0,0:0:0:70:F6S_s.ogg
192,192,170924,1,0,0:0:0:70:G#6S_Ab6S_s.ogg
320,192,171090,1,8,0:0:0:0:
448,192,171090,1,0,0:0:0:70:G#6S_Ab6S_s.ogg
64,192,171256,1,0,0:0:0:70:F6S_s.ogg
320,192,171422,1,2,0:0:0:0:
192,192,171587,1,2,0:0:0:0:
64,192,171753,1,8,0:0:0:0:
448,192,171753,1,0,0:0:0:70:F6S_s.ogg
320,192,171919,1,2,0:0:0:0:
192,192,172250,1,2,0:0:0:0:
320,192,172416,1,8,0:0:0:0:
448,192,172416,1,0,0:0:0:70:E7S_s.ogg
64,192,172582,1,2,0:0:0:0:
448,192,172748,1,0,0:0:0:70:G#7S_Ab7S_s.ogg
320,192,172913,1,2,0:0:0:0:
64,192,173079,1,8,0:0:0:0:
192,192,173079,1,0,0:0:0:70:G#7S_Ab7S_s.ogg
320,192,173245,1,0,0:0:0:70:F#7S_Gb7S_s.ogg
64,192,173411,1,6,0:0:0:0:
448,192,173411,1,0,0:0:0:70:G#7S_Ab7S_s.ogg
192,192,173576,1,2,0:0:0:0:
320,192,173742,1,8,0:0:0:0:
448,192,173742,1,0,0:0:0:70:C#7S_Db7S_s.ogg
192,192,173908,1,2,0:0:0:0:
64,192,174074,1,8,0:0:0:0:
448,192,174074,1,0,0:0:0:70:G#5S_Ab5S_s.ogg
320,192,174239,1,8,0:0:0:0:
64,192,174405,1,8,0:0:0:0:
192,192,174405,1,0,0:0:0:70:D#6S_Eb6S_s.ogg
320,192,174571,1,6,0:0:0:0:
448,192,174571,128,0,175068:0:0:0:70:C#6S_Db6S_s.ogg
192,192,174902,1,2,0:0:0:0:
64,192,175068,1,8,0:0:0:0:
320,192,175068,1,0,0:0:0:70:E6S_s.ogg
64,192,175234,128,6,176063:0:0:0:0:
448,192,175234,1,0,0:0:0:70:F#6S_Gb6S_s.ogg
320,192,175565,1,0,0:0:0:70:E6S_s.ogg
192,192,175731,1,0,0:0:0:70:F#6S_Gb6S_s.ogg
448,192,175897,1,0,0:0:0:40:Tom3.wav
192,192,176063,1,4,0:0:0:0:
320,192,176063,1,2,0:0:0:0:
448,192,176394,1,0,0:0:0:0:
448,192,176726,1,0,0:0:0:0:
192,192,176891,1,0,0:0:0:0:
192,192,177223,1,0,0:0:0:0:
448,192,177389,1,0,0:0:0:0:
448,192,177720,1,0,0:0:0:0:
192,192,177886,1,0,0:0:0:0:
192,192,178217,1,0,0:0:0:0:
320,192,178383,1,0,0:0:0:0:
64,192,178714,1,2,0:0:0:0:
448,192,178714,1,0,0:0:0:0:
448,192,179046,1,0,0:0:0:0:
448,192,179377,1,0,0:0:0:0:
192,192,179543,1,0,0:0:0:0:
192,192,179875,1,0,0:0:0:0:
448,192,180040,1,0,0:0:0:0:
320,192,180372,1,0,0:0:0:0:
192,192,180538,1,0,0:0:0:0:
320,192,180869,1,0,0:0:0:0:
64,192,181035,1,0,0:0:0:0:
320,192,181366,1,2,0:0:0:0:
448,192,181366,1,0,0:0:0:0:
320,192,181698,1,0,0:0:0:0:
320,192,182029,1,0,0:0:0:0:
64,192,182195,1,0,0:0:0:0:
64,192,182527,1,0,0:0:0:0:
320,192,182692,1,0,0:0:0:0:
320,192,183024,1,0,0:0:0:0:
192,192,183190,1,0,0:0:0:0:
320,192,183521,1,0,0:0:0:0:
64,192,183687,1,0,0:0:0:0:
192,192,184018,1,2,0:0:0:0:
448,192,184018,1,0,0:0:0:0:
448,192,184350,1,0,0:0:0:0:
448,192,184681,1,0,0:0:0:0:
192,192,184847,1,0,0:0:0:0:
64,192,185013,128,0,185344:0:0:0:0:
320,192,185344,1,2,0:0:0:0:
448,192,185344,128,4,185842:0:0:0:0:
64,192,185842,1,0,0:0:0:40:Tom1.wav
192,192,185842,128,0,186339:0:0:0:0:
64,192,186339,1,0,0:0:0:40:Tom2.wav
448,192,186339,128,0,186670:0:0:0:0:
64,192,186670,1,4,0:0:0:0:
320,192,186670,1,2,0:0:0:0:
192,192,187002,1,2,0:0:0:0:
320,192,187333,1,8,0:0:0:0:
448,192,187333,1,0,0:0:0:0:
64,192,187665,1,2,0:0:0:0:
320,192,187996,1,2,0:0:0:0:
64,192,188162,1,8,0:0:0:0:
192,192,188162,1,0,0:0:0:0:
448,192,188328,1,2,0:0:0:0:
64,192,188659,1,8,0:0:0:0:
320,192,188659,1,0,0:0:0:0:
192,192,188825,1,0,0:0:0:40:Tom1.wav
448,192,188991,128,0,189322:0:0:0:40:Tom2.wav
192,192,189322,1,4,0:0:0:0:
320,192,189322,1,2,0:0:0:0:
64,192,189654,1,2,0:0:0:0:
320,192,189819,1,0,0:0:0:0:
192,192,189985,1,8,0:0:0:0:
448,192,189985,1,0,0:0:0:0:
320,192,190317,1,2,0:0:0:0:
64,192,190482,1,8,0:0:0:0:
448,192,190482,1,4,0:0:0:0:
192,192,190648,1,2,0:0:0:0:
320,192,190814,1,8,0:0:0:0:
192,192,190980,1,2,0:0:0:0:
448,192,191145,1,0,0:0:0:40:Tom2.wav
320,192,191311,1,2,0:0:0:0:
64,192,191477,1,0,0:0:0:40:Tom3.wav
192,192,191643,1,8,0:0:0:0:
448,192,191643,128,0,191974:0:0:0:0:
64,192,191974,128,2,192306:0:0:0:0:
192,192,191974,1,4,0:0:0:0:
320,192,192306,1,2,0:0:0:0:
192,192,192637,1,8,0:0:0:0:
448,192,192637,1,0,0:0:0:0:
64,192,192969,1,2,0:0:0:0:
320,192,193300,1,2,0:0:0:0:
64,192,193466,1,8,0:0:0:0:
192,192,193466,1,0,0:0:0:0:
448,192,193632,1,2,0:0:0:0:
64,192,193963,1,8,0:0:0:0:
320,192,193963,1,0,0:0:0:0:
192,192,194295,1,2,0:0:0:0:
448,192,194543,1,8,0:0:0:0:
64,192,194626,1,2,0:0:0:0:
192,192,194626,1,4,0:0:0:0:
320,192,194958,1,2,0:0:0:0:
192,192,195289,1,0,0:0:0:40:Tom1.wav
320,192,195455,1,8,0:0:0:0:
64,192,195621,1,8,0:0:0:0:
448,192,195621,1,0,0:0:0:0:
192,192,195786,1,2,0:0:0:0:
320,192,195786,1,4,0:0:0:0:
64,192,196118,1,2,0:0:0:0:
320,192,196284,1,8,0:0:0:0:
448,192,196284,1,0,0:0:0:0:
64,192,196449,1,2,0:0:0:0:
192,192,196449,1,4,0:0:0:0:
320,192,196781,1,2,0:0:0:0:
64,192,196947,1,8,0:0:0:0:
448,192,196947,1,0,0:0:0:0:
192,192,197112,1,0,0:0:0:0:
320,192,197278,128,2,197610:0:0:0:0:
448,192,197278,1,4,0:0:0:0:
64,192,197610,1,8,0:0:0:0:
192,192,197610,1,0,0:0:0:0:
64,192,197941,1,8,0:0:0:0:
448,192,197941,1,0,0:0:0:0:
320,192,198107,1,8,0:0:0:0:
192,192,198272,1,2,0:0:0:0:
64,192,198438,1,2,0:0:0:0:
448,192,198438,1,4,0:0:0:0:
320,192,198770,1,2,0:0:0:0:
64,192,198935,1,8,0:0:0:0:
192,192,198935,1,0,0:0:0:0:
448,192,199101,1,2,0:0:0:0:
64,192,199433,1,2,0:0:0:0:
192,192,199598,1,8,0:0:0:0:
448,192,199598,1,0,0:0:0:0:
320,192,199764,1,0,0:0:0:0:
64,192,199930,1,4,0:0:0:0:
192,192,199930,1,2,0:0:0:0:
448,192,200096,1,2,0:0:0:0:
64,192,200261,1,8,0:0:0:0:
320,192,200261,1,0,0:0:0:0:
192,192,200427,1,2,0:0:0:0:
320,192,200593,1,8,0:0:0:0:
448,192,200593,1,0,0:0:0:0:
64,192,200759,1,0,0:0:0:40:Tom1.wav
448,192,200924,1,0,0:0:0:40:Tom2.wav
64,192,201090,128,4,202250:0:0:0:0:
192,192,201090,1,2,0:0:0:0:
320,192,201422,1,2,0:0:0:0:
448,192,201587,1,8,0:0:0:0:
192,192,201919,1,2,0:0:0:0:
320,192,202085,1,2,0:0:0:0:
192,192,202250,1,8,0:0:0:0:
448,192,202250,1,0,0:0:0:0:
64,192,202582,1,2,0:0:0:0:
448,192,202582,1,4,0:0:0:0:
320,192,202748,1,2,0:0:0:0:
64,192,202913,1,8,0:0:0:0:
192,192,202913,1,0,0:0:0:0:
320,192,203245,1,2,0:0:0:0:
192,192,203411,1,2,0:0:0:0:
320,192,203576,1,8,0:0:0:0:
448,192,203576,1,0,0:0:0:0:
64,192,203908,1,2,0:0:0:0:
448,192,204074,1,2,0:0:0:0:
64,192,204239,1,8,0:0:0:0:
320,192,204239,1,0,0:0:0:0:
192,192,204571,1,2,0:0:0:0:
320,192,204737,1,2,0:0:0:0:
64,192,204902,1,8,0:0:0:0:
448,192,204902,1,0,0:0:0:0:
192,192,205068,1,0,0:0:0:0:
320,192,205234,1,8,0:0:0:0:
448,192,205234,1,0,0:0:0:0:
64,192,205565,1,2,0:0:0:0:
192,192,205731,1,4,0:0:0:0:
448,192,205731,1,8,0:0:0:0:
320,192,206063,1,2,0:0:0:0:
64,192,206228,1,8,0:0:0:0:
192,192,206228,1,0,0:0:0:0:
448,192,206560,1,2,0:0:0:0:
64,192,206726,1,8,0:0:0:0:
320,192,206726,1,0,0:0:0:0:
192,192,207057,1,2,0:0:0:0:
320,192,207223,1,8,0:0:0:0:
448,192,207223,1,4,0:0:0:0:
64,192,207389,1,2,0:0:0:0:
192,192,207554,1,4,0:0:0:0:
320,192,207554,1,8,0:0:0:0:
448,192,207720,1,2,0:0:0:0:
64,192,207886,1,8,0:0:0:0:
192,192,207886,1,4,0:0:0:0:
320,192,208217,1,2,0:0:0:0:
64,192,208383,1,8,0:0:0:0:
448,192,208383,1,4,0:0:0:0:
192,192,208714,1,2,0:0:0:0:
320,192,208880,1,8,0:0:0:0:
448,192,208880,1,4,0:0:0:0:
192,192,209212,1,0,0:0:0:0:
64,192,209377,1,8,0:0:0:0:
448,192,209377,1,0,0:0:0:0:
320,192,209709,1,0,0:0:0:40:Tom1.wav
64,192,209875,1,0,0:0:0:0:
448,192,210040,1,0,0:0:0:40:Tom2.wav
320,192,210206,1,0,0:0:0:40:Tom3.wav
192,192,210372,1,0,0:0:0:40:Tom3.wav
64,192,210538,1,2,0:0:0:0:
448,192,210538,1,4,0:0:0:0:
64,192,210703,1,4,0:0:0:0:
448,192,210703,1,2,0:0:0:0:
64,192,211698,1,4,0:0:0:0:
448,192,211698,1,2,0:0:0:0:
192,192,212029,1,2,0:0:0:0:
448,192,212029,1,4,0:0:0:0:
192,192,212195,1,4,0:0:0:0:
448,192,212195,1,2,0:0:0:0:
192,192,213190,1,4,0:0:0:0:
320,192,213190,1,2,0:0:0:0:
64,192,213521,1,8,0:0:0:0:
448,192,213521,1,0,0:0:0:0:
192,192,213853,1,2,0:0:0:0:
320,192,214018,1,2,0:0:0:0:
192,192,214184,1,8,0:0:0:0:
448,192,214184,1,0,0:0:0:0:
64,192,214350,1,0,0:0:0:0:
448,192,214681,1,2,0:0:0:0:
64,192,214847,1,8,0:0:0:0:
192,192,214847,1,0,0:0:0:0:
320,192,215179,1,2,0:0:0:0:
192,192,215344,1,2,0:0:0:0:
64,192,215510,1,8,0:0:0:0:
448,192,215510,1,0,0:0:0:0:
320,192,215676,1,0,0:0:0:0:
64,192,215842,1,4,0:0:0:0:
192,192,215842,1,2,0:0:0:0:
192,192,216173,1,8,0:0:0:0:
448,192,216173,1,0,0:0:0:0:
64,192,216505,1,2,0:0:0:0:
320,192,216670,1,2,0:0:0:0:
64,192,216836,1,8,0:0:0:0:
192,192,216836,1,0,0:0:0:0:
448,192,217002,1,2,0:0:0:0:
320,192,217333,1,2,0:0:0:0:
64,192,217499,1,8,0:0:0:0:
448,192,217499,1,0,0:0:0:0:
192,192,217831,1,2,0:0:0:0:
320,192,217996,1,2,0:0:0:0:
64,192,218162,1,8,0:0:0:0:
192,192,218162,1,0,0:0:0:0:
320,192,218493,1,2,0:0:0:0:
448,192,218493,1,4,0:0:0:0:
192,192,218825,1,8,0:0:0:0:
320,192,218825,1,0,0:0:0:0:
64,192,219156,1,2,0:0:0:0:
192,192,219322,1,2,0:0:0:0:
320,192,219488,1,8,0:0:0:0:
448,192,219488,1,0,0:0:0:0:
192,192,219819,1,2,0:0:0:0:
320,192,219985,1,2,0:0:0:0:
448,192,220151,1,10,0:0:0:0:
64,192,220317,1,2,0:0:0:0:
448,192,220482,1,2,0:0:0:0:
320,192,220648,1,2,0:0:0:0:
192,192,220814,1,10,0:0:0:0:
64,192,220980,1,2,0:0:0:0:
320,192,221145,1,2,0:0:0:0:
448,192,221145,1,4,0:0:0:0:
64,192,221477,1,8,0:0:0:0:
192,192,221477,1,0,0:0:0:0:
320,192,221808,1,2,0:0:0:0:
192,192,221974,1,2,0:0:0:0:
64,192,222140,1,8,0:0:0:0:
448,192,222140,1,0,0:0:0:0:
192,192,222306,1,4,0:0:0:0:
320,192,222306,1,2,0:0:0:0:
448,192,222637,1,2,0:0:0:0:
64,192,222803,1,8,0:0:0:0:
192,192,222803,1,0,0:0:0:0:
320,192,223134,1,2,0:0:0:0:
192,192,223300,1,2,0:0:0:0:
320,192,223466,1,8,0:0:0:0:
448,192,223466,1,0,0:0:0:0:
64,192,223797,1,2,0:0:0:0:
448,192,223797,1,4,0:0:0:0:
192,192,223963,1,2,0:0:0:0:
320,192,224129,1,8,0:0:0:0:
448,192,224129,1,0,0:0:0:0:
64,192,224295,128,0,224460:0:0:0:0:
192,192,224460,1,8,0:0:0:0:
320,192,224460,1,0,0:0:0:0:
64,192,224626,1,4,0:0:0:0:
448,192,224626,128,2,224792:0:0:0:0:
64,192,224958,1,4,0:0:0:0:
192,192,224958,1,0,0:0:0:0:
320,192,225289,1,0,0:0:0:0:
64,192,225455,1,8,0:0:0:0:
448,192,225455,1,0,0:0:0:0:
320,192,225786,1,2,0:0:0:0:
64,192,225952,1,0,0:0:0:0:
192,192,225952,1,0,0:0:0:0:
448,192,226118,1,0,0:0:0:40:Tom1.wav
192,192,226284,1,0,0:0:0:0:
320,192,226449,1,4,0:0:0:0:
448,192,226449,1,2,0:0:0:0:
64,192,226615,128,0,227112:0:0:0:0:
192,192,227112,1,2,0:0:0:0:
320,192,227112,1,4,0:0:0:0:
448,192,227278,128,0,227775:0:0:0:0:
320,192,227610,1,8,0:0:0:0:
64,192,227775,1,2,0:0:0:0:
192,192,227775,1,4,0:0:0:0:
320,192,227941,128,0,228438:0:0:0:0:
192,192,228107,1,8,0:0:0:0:
64,192,228438,1,2,0:0:0:0:
448,192,228438,1,0,0:0:0:40:Tom2.wav
192,192,228604,1,0,0:0:0:40:Tom2.wav
320,192,228770,1,2,0:0:0:0:
192,192,228935,1,0,0:0:0:40:Tom3.wav
64,192,229101,1,2,0:0:0:0:
448,192,229101,1,4,0:0:0:0:
320,192,229267,1,2,0:0:0:0:
192,192,229433,1,8,0:0:0:0:
448,192,229433,1,0,0:0:0:0:
64,192,229764,1,2,0:0:0:0:
192,192,229930,1,2,0:0:0:0:
320,192,230096,1,8,0:0:0:0:
448,192,230096,1,0,0:0:0:0:
192,192,230427,1,2,0:0:0:0:
320,192,230593,1,2,0:0:0:0:
64,192,230759,1,8,0:0:0:0:
448,192,230759,1,0,0:0:0:0:
192,192,230924,1,2,0:0:0:0:
320,192,231256,1,2,0:0:0:0:
192,192,231422,1,8,0:0:0:0:
448,192,231422,1,4,0:0:0:0:
64,192,231587,1,2,0:0:0:0:
320,192,231753,1,2,0:0:0:0:
448,192,231753,128,4,232250:0:0:0:0:
64,192,232250,1,2,0:0:0:0:
320,192,232416,1,8,0:0:0:0:
448,192,232416,1,0,0:0:0:0:
192,192,232582,1,0,0:0:0:40:Tom1.wav
448,192,232748,1,0,0:0:0:40:Tom2.wav
320,192,232913,1,0,0:0:0:40:Tom3.wav
64,192,233079,128,2,234405:0:0:0:0:
192,192,233079,1,4,0:0:0:0:
448,192,233742,128,0,234405:0:0:0:0:
192,192,234405,1,2,0:0:0:0:
320,192,234405,1,4,0:0:0:0:
448,192,234737,1,0,0:0:0:0:
192,192,235400,1,0,0:0:0:0:
64,192,235565,1,2,0:0:0:0:
448,192,235565,1,4,0:0:0:0:
320,192,236063,1,0,0:0:0:0:
320,192,236726,128,0,237057:0:0:0:0:
64,192,237057,1,4,0:0:0:0:
192,192,237057,1,2,0:0:0:0:
448,192,237389,1,0,0:0:0:0:
64,192,237886,1,0,0:0:0:40:Tom1.wav
448,192,238052,1,0,0:0:0:40:Tom2.wav
64,192,238217,1,2,0:0:0:0:
320,192,238217,1,4,0:0:0:0:
448,192,238549,1,0,0:0:0:40:Tom2.wav
64,192,238714,1,8,0:0:0:0:
192,192,238714,1,0,0:0:0:0:
320,192,238880,1,2,0:0:0:0:
448,192,238880,1,4,0:0:0:0:
64,192,239212,1,2,0:0:0:0:
192,192,239377,1,8,0:0:0:0:
448,192,239377,1,0,0:0:0:0:
320,192,239543,1,2,0:0:0:0:
64,192,239709,1,2,0:0:0:0:
448,192,239709,1,4,0:0:0:0:
192,192,240040,1,8,0:0:0:0:
320,192,240040,1,0,0:0:0:0:
64,192,240372,1,2,0:0:0:0:
320,192,240538,1,0,0:0:0:40:Tom1.wav
192,192,240703,1,0,0:0:0:40:Tom2.wav
64,192,240869,1,4,0:0:0:0:
448,192,240869,1,2,0:0:0:0:
320,192,241035,1,2,0:0:0:0:
192,192,241201,1,0,0:0:0:40:Tom1.wav
448,192,241366,1,0,0:0:0:40:Tom2.wav
64,192,241532,1,0,0:0:0:70:D#7S_Eb7S_s.ogg
64,192,241698,1,0,0:0:0:70:D#7S_Eb7S_s.ogg
320,192,241864,1,0,0:0:0:40:Tom3.wav
192,192,242029,1,0,0:0:0:40:Tom2.wav
448,192,242195,1,0,0:0:0:40:Tom3.wav
192,192,242361,1,2,0:0:0:0:
320,192,242361,1,4,0:0:0:0:
64,192,242692,1,0,0:0:0:40:Tom3.wav
320,192,242858,1,0,0:0:0:0:
320,192,243024,1,4,0:0:0:0:
448,192,243024,1,2,0:0:0:0:
64,192,243190,1,8,0:0:0:0:
320,192,243355,1,8,0:0:0:0:
64,192,243521,1,2,0:0:0:0:
448,192,243521,1,4,0:0:0:0:
192,192,243853,1,2,0:0:0:0:
320,192,244018,1,8,0:0:0:0:
448,192,244018,1,0,0:0:0:0:
64,192,244184,1,2,0:0:0:0:
192,192,244184,1,4,0:0:0:0:
320,192,244516,1,2,0:0:0:0:
64,192,244681,1,8,0:0:0:0:
448,192,244681,1,0,0:0:0:0:
192,192,245013,1,2,0:0:0:0:
64,192,245179,1,8,0:0:0:0:
320,192,245179,1,4,0:0:0:0:
448,192,245510,1,2,0:0:0:0:
192,192,245676,1,4,0:0:0:0:
320,192,245676,1,8,0:0:0:0:
64,192,245842,1,2,0:0:0:0:
320,192,246007,1,8,0:0:0:0:
448,192,246007,1,0,0:0:0:0:
192,192,246173,1,2,0:0:0:0:
64,192,246505,1,4,0:0:0:0:
320,192,246505,1,2,0:0:0:0:
448,192,246836,1,2,0:0:0:0:
64,192,247002,128,8,247665:0:0:0:0:
192,192,247002,1,4,0:0:0:0:
320,192,247168,1,0,0:0:0:40:Tom1.wav
448,192,247333,1,0,0:0:0:40:Tom2.wav
192,192,247499,1,0,0:0:0:40:Tom3.wav
320,192,247665,128,2,247996:0:0:0:0:
64,192,247996,1,8,0:0:0:0:
448,192,247996,1,0,0:0:0:0:
64,192,248162,1,8,0:0:0:0:
448,192,248162,1,0,0:0:0:0:
64,192,248493,1,8,0:0:0:0:
320,192,248493,1,0,0:0:0:0:
64,192,248825,128,6,249819:0:0:0:0:
448,192,248825,128,8,249819:0:0:0:0:
