osu file format v14

[General]
AudioFilename: audio.mp3
AudioLeadIn: 0
PreviewTime: 58139
Countdown: 0
SampleSet: Soft
StackLeniency: 0.6
Mode: 0
LetterboxInBreaks: 0
WidescreenStoryboard: 0

[Editor]
Bookmarks: 735,85735,170846,194838,216505,248179,263172
DistanceSpacing: 0.3
BeatDivisor: 6
GridSize: 32
TimelineZoom: 3.499999

[Metadata]
Title:Crystallize
TitleUnicode:クリスタライズ
Artist:Minase Inori
ArtistUnicode:水瀬いのり
Creator:Shurelia
Version:Rosmontis
Source:明日方舟
Tags:Monster Siren Records Rosmontis アークナイツ Studio Montagne Risen Angelina lcfc lowcomboFC ducky- -_heatwave_- heatwave hokichi Arknights Yostar Hypergyph video game gacha japanese electronic pop jpop j-pop collab
BeatmapID:2769033
BeatmapSetID:1336636

[Difficulty]
HPDrainRate:6
CircleSize:4.2
OverallDifficulty:9.1
ApproachRate:9.4
SliderMultiplier:2.5
SliderTickRate:1

[Events]
//Background and Video events
0,0,"rosmontisbgbutitswaifu2x.jpg",0,0
//Break Periods
//Storyboard Layer 0 (Background)
//Storyboard Layer 1 (Fail)
//Storyboard Layer 2 (Pass)
//Storyboard Layer 3 (Foreground)
//Storyboard Layer 4 (Overlay)
//Storyboard Sound Samples

[TimingPoints]
535,416.666666666667,4,2,99,40,1,0
535,-400,4,2,99,40,0,0
743,-400,4,2,1,60,0,0
6368,-66.6666666666667,4,2,98,60,0,0
6785,-400,4,2,98,60,0,0
7201,-200,4,2,2,60,0,0
8868,-133.333333333333,4,2,2,60,0,0
10535,-100,4,2,2,60,0,0
10951,-80,4,2,2,60,0,0
11368,-66.6666666666667,4,2,2,60,0,0
11785,-57.1428571428571,4,2,2,60,0,0
12201,-50,4,2,2,60,0,0
13868,-50,4,2,1,60,0,0
13972,-50,4,2,2,60,0,0
15535,-66.6666666666667,4,2,1,60,0,0
16055,-66.6666666666667,4,2,98,60,0,0
16160,-133.333333333333,4,2,98,60,0,0
16368,-133.333333333333,4,2,97,60,0,0
16576,-57.1428571428571,4,2,1,60,0,0
17201,-57.1428571428571,4,2,98,60,0,0
17410,-57.1428571428571,4,2,1,60,0,0
18868,-66.6666666666667,4,2,1,60,0,0
19701,-200,4,2,97,60,0,0
19910,-57.1428571428571,4,2,1,60,0,0
22201,-133.333333333333,4,2,1,60,0,0
22618,-66.6666666666667,4,2,97,60,0,0
22826,-100,4,2,3,60,0,0
25535,-66.6666666666667,4,2,1,60,0,0
26368,-66.6666666666667,4,2,97,60,0,0
26576,-57.1428571428571,4,2,1,60,0,0
27826,-100,4,2,1,60,0,0
28243,-80,4,2,1,60,0,0
28451,-66.6666666666667,4,2,1,60,0,0
28660,-57.1428571428571,4,2,1,60,0,0
28868,-100,4,2,1,60,0,0
29701,-66.6666666666667,4,2,1,60,0,0
31160,-100,4,2,98,60,0,0
31368,-80,4,2,98,60,0,0
31785,-66.6666666666667,4,2,1,60,0,0
32201,-100,4,2,1,60,0,0
33035,-66.6666666666667,4,2,1,60,0,0
34701,-100,4,2,98,50,0,0
35535,-100,4,2,1,60,0,0
35951,-100,4,2,2,50,0,0
36368,-66.6666666666667,4,2,1,60,0,0
38035,-80,4,2,1,60,0,0
38451,-66.6666666666667,4,2,1,60,0,0
38764,-100,4,2,1,60,0,0
39701,-66.6666666666667,4,2,1,60,0,0
40326,-100,4,2,1,60,0,0
42201,-200,4,2,99,60,0,0
42305,-200,4,2,4,60,0,0
48451,-133.333333333333,4,2,1,60,0,0
48660,-100,4,2,1,60,0,0
49076,-100,4,2,98,60,0,0
49180,-100,4,2,1,60,0,0
49493,-100,4,2,98,60,0,0
49597,-100,4,2,1,60,0,0
49910,-100,4,2,98,60,0,0
50014,-100,4,2,1,60,0,0
50326,-100,4,2,98,60,0,0
50430,-100,4,2,1,60,0,0
50535,-66.6666666666667,4,2,1,60,0,0
50604,-66.6666666666667,4,2,98,60,0,0
50951,-57.1428571428571,4,2,1,60,0,0
51021,-57.1428571428571,4,2,98,60,0,0
51368,-50,4,2,1,60,0,0
51437,-50,4,2,98,60,0,0
51785,-50,4,2,1,60,0,0
51854,-50,4,2,98,60,0,0
52201,-133.333333333333,4,2,1,60,0,0
52305,-133.333333333333,4,2,2,60,0,0
53764,-133.333333333333,4,2,98,60,0,0
53868,-133.333333333333,4,2,2,60,0,0
54701,-66.6666666666667,4,2,1,60,0,0
55535,-100,4,2,1,60,0,0
57201,-66.6666666666667,4,2,98,60,0,0
57410,-57.1428571428571,4,2,98,60,0,0
57618,-50,4,2,98,60,0,0
57826,-44.4444444444445,4,2,98,60,0,0
58451,-50,4,2,97,60,0,0
58868,-66.6666666666667,4,2,1,80,0,1
58972,-66.6666666666667,4,2,2,80,0,1
59910,-57.1428571428571,4,2,2,80,0,1
60743,-50,4,2,2,80,0,1
61993,-66.6666666666667,4,2,2,80,0,1
62826,-57.1428571428571,4,2,2,80,0,1
63660,-66.6666666666667,4,2,2,80,0,1
64493,-80,4,2,2,80,0,1
64910,-100,4,2,97,80,0,1
65535,-100,4,2,1,80,0,1
65639,-100,4,2,2,80,0,1
69285,-50,4,2,2,80,0,1
69493,-57.1428571428571,4,2,2,80,0,1
69701,-66.6666666666667,4,2,2,80,0,1
69910,-80,4,2,2,80,0,1
70326,-66.6666666666667,4,2,1,80,0,1
70743,-57.1428571428571,4,2,1,80,0,1
70951,-50,4,2,1,80,0,1
71368,-200,4,2,2,80,0,1
71576,-50,4,2,97,80,0,0
71993,-66.6666666666667,4,2,1,80,0,1
72097,-66.6666666666667,4,2,2,80,0,1
73243,-57.1428571428571,4,2,2,80,0,1
74076,-50,4,2,2,80,0,1
75326,-44.4444444444445,4,2,2,80,0,1
76160,-50,4,2,2,80,0,1
76993,-57.1428571428571,4,2,2,80,0,1
77826,-66.6666666666667,4,2,2,80,0,1
78243,-100,4,2,97,80,0,1
78660,-100,4,2,2,80,0,1
78868,-100,4,2,1,80,0,1
78972,-100,4,2,2,80,0,1
79285,-50,4,2,2,80,0,1
79493,-100,4,2,2,80,0,1
79701,-80,4,2,2,80,0,1
79910,-66.6666666666667,4,2,2,80,0,1
80118,-57.1428571428571,4,2,2,80,0,1
80326,-50,4,2,2,80,0,1
80951,-57.1428571428571,4,2,2,80,0,1
81368,-66.6666666666667,4,2,2,80,0,1
81576,-100,4,2,2,80,0,1
82201,-100,4,2,1,60,0,0
83139,-100,4,2,2,70,0,0
83451,-100,4,2,1,70,0,0
83555,-100,4,2,2,70,0,0
84285,-80,4,2,1,60,0,0
84493,-66.6666666666667,4,2,1,60,0,0
85118,-400,4,2,1,60,0,0
85535,-66.6666666666667,4,2,1,60,0,0
86160,-66.6666666666667,4,2,98,60,0,0
86368,-66.6666666666667,4,2,97,60,0,0
86576,-57.1428571428571,4,2,1,60,0,0
88868,-66.6666666666667,4,2,1,60,0,0
92201,-66.6666666666667,4,2,2,40,0,0
92826,-200,4,2,2,40,0,0
93243,-200,4,2,2,40,0,0
93451,-133.333333333333,4,2,2,40,0,0
93660,-100,4,2,1,40,0,0
93868,-100,4,2,1,40,0,0
94701,-66.6666666666667,4,2,1,60,0,0
96368,-66.6666666666667,4,2,98,60,0,0
96993,-100,4,2,1,60,0,0
98035,-66.6666666666667,4,2,1,60,0,0
98347,-200,4,2,1,60,0,0
98660,-66.6666666666667,4,2,1,60,0,0
99701,-66.6666666666667,4,2,98,50,0,0
100535,-66.6666666666667,4,2,1,60,0,0
100951,-66.6666666666667,4,2,2,60,0,0
101160,-66.6666666666667,4,2,98,60,0,0
101368,-66.6666666666667,4,2,2,60,0,0
101507,-66.6666666666667,4,2,1,60,0,0
101680,-100,4,2,1,60,0,0
101889,-66.6666666666667,4,2,1,60,0,0
101993,-200,4,2,1,60,0,0
102201,-66.6666666666667,4,2,1,60,0,0
107201,-200,4,2,99,60,0,0
107305,-200,4,2,4,60,0,0
113035,-200,4,2,98,60,0,0
113555,-200,4,2,4,60,0,0
113868,-100,4,2,1,60,0,0
115604,-100,4,2,98,60,0,0
115951,-66.6666666666667,4,2,1,60,0,0
116021,-66.6666666666667,4,2,98,60,0,0
116368,-100,4,2,1,60,0,0
118660,-66.6666666666667,4,2,1,60,0,0
118868,-66.6666666666667,4,2,98,60,0,0
119076,-57.1428571428571,4,2,98,60,0,0
119285,-50,4,2,98,60,0,0
119493,-44.4444444444445,4,2,98,60,0,0
120118,-50,4,2,97,60,0,0
120535,-66.6666666666667,4,2,1,80,0,1
120639,-66.6666666666667,4,2,2,80,0,1
121576,-57.1428571428571,4,2,2,80,0,1
122410,-50,4,2,2,80,0,1
123660,-66.6666666666667,4,2,2,80,0,1
124910,-100,4,2,2,80,0,1
125743,-133.333333333333,4,2,2,80,0,1
126160,-80,4,2,2,80,0,1
126576,-100,4,2,97,80,0,1
126993,-100,4,2,2,80,0,1
127201,-100,4,2,1,80,0,1
127305,-100,4,2,2,80,0,1
128243,-80,4,2,2,80,0,1
129076,-66.6666666666667,4,2,2,80,0,1
129910,-100,4,2,2,80,0,1
130326,-100,4,2,2,80,0,1
130951,-50,4,2,2,80,0,1
131160,-57.1428571428571,4,2,2,80,0,1
131368,-66.6666666666667,4,2,2,80,0,1
131576,-80,4,2,2,80,0,1
131993,-100,4,2,1,80,0,1
132410,-66.6666666666667,4,2,1,80,0,1
132618,-50,4,2,1,80,0,1
133035,-200,4,2,1,80,0,1
133243,-66.6666666666667,4,2,1,80,0,0
133660,-66.6666666666667,4,2,1,80,0,1
133764,-66.6666666666667,4,2,2,80,0,1
134910,-57.1428571428571,4,2,2,80,0,1
135743,-50,4,2,2,80,0,1
136993,-44.4444444444445,4,2,2,80,0,1
137826,-50,4,2,2,80,0,1
138451,-57.1428571428571,4,2,2,80,0,1
138660,-66.6666666666667,4,2,2,80,0,1
139285,-57.1428571428571,4,2,2,80,0,1
139493,-50,4,2,2,80,0,1
139910,-50,4,2,97,80,0,1
140326,-100,4,2,2,80,0,1
140535,-100,4,2,1,80,0,1
140639,-100,4,2,2,80,0,1
140951,-50,4,2,2,80,0,1
141160,-66.6666666666667,4,2,2,80,0,1
141368,-80,4,2,2,80,0,1
141576,-57.1428571428571,4,2,2,80,0,1
141785,-100,4,2,2,80,0,1
141993,-66.6666666666667,4,2,2,80,0,1
142201,-50,4,2,2,80,0,1
142618,-57.1428571428571,4,2,2,80,0,1
143035,-66.6666666666667,4,2,2,80,0,1
143451,-80,4,2,2,80,0,1
143868,-100,4,2,1,60,0,0
144910,-100,4,2,1,60,0,0
145118,-133.333333333333,4,2,1,60,0,0
146229,347.222222222222,3,2,1,60,1,0
146923,348.837209302326,4,2,50,40,1,0
146923,-200,4,2,50,40,0,0
147969,-200,4,2,98,40,0,0
148056,-200,4,2,50,40,0,0
148318,-200,4,2,21,40,0,0
148405,-200,4,2,1,40,0,0
149016,-200,4,2,50,40,0,0
149713,-200,4,2,22,40,0,0
149800,-200,4,2,50,40,0,0
150760,-200,4,2,98,40,0,0
150847,-200,4,2,50,40,0,0
151109,-200,4,2,21,40,0,0
151196,-200,4,2,50,40,0,0
152504,-200,4,2,23,40,0,0
152591,-200,4,2,50,40,0,0
153550,-200,4,2,98,40,0,0
153638,-200,4,2,50,40,0,0
153899,-200,4,2,21,40,0,0
153986,-200,4,2,50,40,0,0
155295,-200,4,2,22,40,0,0
155382,-200,4,2,50,40,0,0
156341,-200,4,2,98,40,0,0
156428,-200,4,2,50,40,0,0
156690,-200,4,2,21,40,0,0
156777,-200,4,2,50,40,0,0
158085,-100,4,2,1,60,0,0
161574,-100,4,2,97,60,0,0
161661,-100,4,2,1,60,0,0
162969,-100,4,2,97,60,0,0
163056,-100,4,2,1,60,0,0
163667,-100,4,2,1,70,0,0
166457,-66.6666666666667,4,2,1,70,0,0
166806,-57.1428571428571,4,2,1,70,0,0
167853,-57.1428571428571,4,2,98,70,0,0
169074,-57.1428571428571,4,2,1,70,0,0
169248,-125,4,2,1,40,0,0
169946,-83.3333333333333,4,2,1,60,0,0
170295,-222.222222222222,4,2,1,60,0,0
170643,-66.6666666666667,4,2,1,60,0,0
171341,-100,4,2,1,60,0,0
172388,-66.6666666666667,4,2,1,60,0,0
172736,-133.333333333333,4,2,1,60,0,0
172911,-66.6666666666667,4,2,1,60,0,0
173957,-133.333333333333,4,2,1,60,0,0
174132,-100,4,2,1,60,0,0
175178,-66.6666666666667,4,2,1,60,0,0
176225,-133.333333333333,4,2,1,60,0,0
176748,-100,4,2,1,60,0,0
176923,-66.6666666666667,4,2,1,60,0,0
177446,-100,4,2,1,60,0,0
177620,-66.6666666666667,4,2,1,60,0,0
178318,-133.333333333333,4,2,3,60,0,0
178492,-66.6666666666667,4,2,1,60,0,0
179539,-133.333333333333,4,2,1,60,0,0
179888,-66.6666666666667,4,2,1,60,0,0
180411,-100,4,2,1,60,0,0
180585,-66.6666666666667,4,2,1,60,0,0
181806,-66.6666666666667,4,2,1,70,0,1
182155,-133.333333333333,4,2,2,70,0,1
182242,-133.333333333333,4,2,1,70,0,1
182504,-66.6666666666667,4,2,1,70,0,1
183376,-133.333333333333,4,2,1,70,0,1
183550,-66.6666666666667,4,2,1,70,0,1
184946,-66.6666666666667,4,2,2,70,0,1
185033,-66.6666666666667,4,2,1,70,0,1
187039,-133.333333333333,4,2,1,70,0,1
187388,-66.6666666666667,4,2,1,70,0,1
187736,-66.6666666666667,4,2,2,70,0,1
187824,-66.6666666666667,4,2,1,70,0,1
189481,-133.333333333333,4,2,1,70,0,1
190178,-66.6666666666667,4,2,1,70,0,1
192969,428.571428571429,4,2,90,70,1,0
193397,416.666666666667,4,2,90,70,1,0
193813,405.405405405405,4,2,90,70,1,0
194218,428.571428571429,4,2,90,70,1,0
194646,416.666666666667,4,2,1,60,1,0
194854,-200,4,2,30,40,0,0
195062,-200,4,2,31,40,0,0
195271,-200,4,2,32,40,0,0
195896,-200,4,2,31,40,0,0
196521,-200,4,2,30,40,0,0
196729,-200,4,2,31,40,0,0
196937,-200,4,2,32,40,0,0
197354,-200,4,2,31,40,0,0
198187,-200,4,2,34,40,0,0
198396,-200,4,2,31,40,0,0
198604,-200,4,2,32,40,0,0
199021,-200,4,2,34,40,0,0
199229,-200,4,2,31,40,0,0
199854,-200,4,2,31,40,0,0
199958,-200,4,2,32,40,0,0
200062,-200,4,2,31,40,0,0
200271,-200,4,2,32,40,0,0
200687,-200,4,2,31,40,0,0
201104,-200,4,2,1,50,0,0
201729,-200,4,2,31,50,0,0
206729,-166.666666666667,4,2,31,60,0,0
207146,-142.857142857143,4,2,31,60,0,0
207771,-142.857142857143,4,2,1,60,0,0
207979,-125,4,2,1,60,0,0
210687,-125,4,2,31,60,0,0
211312,-100,4,2,1,60,0,0
212041,-100,4,2,98,60,0,0
213812,-100,4,2,1,60,0,0
214437,-50,4,2,1,60,0,0
215687,-50,4,2,1,80,0,1
215791,-50,4,2,1,80,0,0
216104,-50,4,2,1,80,0,1
216312,-50,4,2,2,80,0,1
216521,-50,4,2,2,80,0,1
217771,-66.6666666666667,4,2,2,80,0,1
218604,-57.1428571428571,4,2,2,80,0,1
219437,-66.6666666666667,4,2,2,80,0,1
220271,-80,4,2,2,80,0,1
220687,-100,4,2,97,80,0,1
221312,-100,4,2,1,80,0,1
221416,-100,4,2,2,80,0,1
225062,-50,4,2,2,80,0,1
225271,-57.1428571428571,4,2,2,80,0,1
225479,-66.6666666666667,4,2,2,80,0,1
225687,-80,4,2,2,80,0,1
226104,-66.6666666666667,4,2,1,80,0,1
226521,-57.1428571428571,4,2,1,80,0,1
227146,-50,4,2,2,80,0,0
227354,-50,4,2,97,80,0,0
227771,-66.6666666666667,4,2,1,80,0,1
227875,-66.6666666666667,4,2,2,80,0,1
229021,-57.1428571428571,4,2,2,80,0,1
229854,-50,4,2,2,80,0,1
231104,-44.4444444444445,4,2,2,80,0,1
231937,-50,4,2,2,80,0,1
232771,-57.1428571428571,4,2,2,80,0,1
233604,-66.6666666666667,4,2,2,80,0,1
234021,-100,4,2,97,80,0,1
234229,-100,4,2,2,80,0,1
234437,-100,4,2,2,80,0,1
234646,-100,4,2,1,80,0,1
234750,-100,4,2,2,80,0,1
235062,-50,4,2,2,80,0,1
235271,-100,4,2,2,80,0,1
235478,-80,4,2,2,80,0,1
235687,-66.6666666666667,4,2,2,80,0,1
235895,-57.1428571428571,4,2,2,80,0,1
236103,-50,4,2,2,80,0,1
236729,-57.1428571428571,4,2,2,80,0,1
237146,-66.6666666666667,4,2,2,80,0,1
237354,-100,4,2,2,80,0,1
237979,-100,4,2,1,60,0,0
241312,-100,4,2,1,80,0,1
241729,-66.6666666666667,4,2,1,80,0,1
241937,-100,4,2,2,80,0,1
242145,-80,4,2,2,80,0,1
242354,-66.6666666666667,4,2,2,80,0,1
242562,-57.1428571428571,4,2,2,80,0,1
242770,-50,4,2,2,80,0,1
243396,-57.1428571428571,4,2,2,80,0,1
243812,-66.6666666666667,4,2,2,80,0,1
244021,-100,4,2,2,80,0,1
244646,-100,4,2,1,60,0,0
246729,-80,4,2,1,60,0,0
246937,-66.6666666666667,4,2,1,60,0,0
247562,-400,4,2,1,60,0,0
247979,-100,4,2,1,60,0,0
248083,-100,4,2,2,60,0,0
254229,-200,4,2,2,60,0,0
254646,-83.3333333333333,4,2,1,60,0,0
254750,-83.3333333333333,4,2,2,60,0,0
257979,-100,4,2,2,60,0,0
258396,-80,4,2,2,60,0,0
258812,-66.6666666666667,4,2,2,60,0,0
259229,-57.1428571428571,4,2,2,60,0,0
261312,-200,4,2,1,60,0,0
261416,-200,4,2,2,60,0,0

[Colours]
Combo1 : 174,224,251
Combo2 : 130,173,189
Combo3 : 119,143,242
Combo4 : 92,226,206

[HitObjects]
459,125,535,5,4,3:2:0:0:
412,304,743,1,2,0:0:0:0:
414,310,951,1,2,0:0:0:0:
416,316,1160,1,2,0:0:0:0:
360,73,1368,1,10,0:0:0:0:
292,185,1576,2,0,L|285:222,1,31.25,0|0,3:2|0:0,0:0:0:0:
119,366,1993,6,0,L|110:300,1,62.5,2|2,3:2|0:0,0:0:0:0:
100,225,2618,1,2,0:0:0:0:
100,225,2826,1,0,3:2:0:0:
166,187,3035,5,8,0:0:0:0:
60,161,3243,1,0,3:2:0:0:
36,269,3451,1,0,0:0:0:0:
140,291,3660,1,0,3:2:0:0:
398,108,4076,5,2,0:0:0:0:
400,102,4284,1,2,0:0:0:0:
402,96,4493,1,2,0:0:0:0:
272,253,4701,1,10,0:0:0:0:
315,172,4910,2,0,L|310:137,1,31.25,0|0,3:2|0:0,0:0:0:0:
106,28,5326,6,0,L|95:89,1,62.5,2|2,3:2|3:2,0:0:0:0:
83,168,5951,1,2,0:0:0:0:
88,184,6055,1,0,3:2:0:0:
251,82,6264,1,0,0:0:0:0:
257,68,6368,6,0,B|263:12|263:12|230:1|230:1|243:52,2,125.000004768372,2|2|2,3:2|0:0|0:0,0:0:0:0:
177,108,6785,6,0,L|184:144,1,31.25,2|0,0:0|0:0,0:0:0:0:
358,243,7201,5,4,0:0:0:0:
449,159,7410,2,0,L|397:153,1,31.25,8|8,0:0|0:0,0:0:0:0:
358,243,7618,5,8,0:0:0:0:
396,343,7826,2,0,L|364:346,1,31.25,8|8,0:0|0:0,0:0:0:0:
358,243,8035,5,8,0:0:0:0:
341,125,8243,2,0,L|289:119,1,31.25,8|8,0:0|0:0,0:0:0:0:
358,243,8451,5,8,0:0:0:0:
288,374,8660,2,0,L|256:377,1,31.25,8|8,0:0|0:0,0:0:0:0:
101,242,8868,5,8,0:0:0:0:
36,143,9076,2,0,L|82:137,1,46.8750017881394,8|8,0:0|0:0,0:0:0:0:
101,242,9285,5,8,0:0:0:0:
80,349,9493,2,0,L|126:354,1,46.8750017881394,8|8,0:0|0:0,0:0:0:0:
101,242,9701,5,8,0:0:0:0:
159,106,9910,2,0,L|205:100,1,46.8750017881394,8|8,0:0|0:0,0:0:0:0:
101,242,10118,5,8,0:0:0:0:
207,377,10326,2,0,L|253:382,1,46.8750017881394,8|8,0:0|0:0,0:0:0:0:
381,305,10535,6,0,L|370:243,1,62.5,8|0,3:2|0:0,0:0:0:0:
337,124,10743,2,0,L|326:186,1,62.5,8|0,3:2|0:0,0:0:0:0:
308,330,10951,6,0,L|292:235,1,78.125,8|0,3:2|0:0,0:0:0:0:
263,102,11160,2,0,L|247:197,1,78.125,8|0,3:2|0:0,0:0:0:0:
235,357,11368,6,0,L|220:264,1,93.7500035762788,8|0,3:2|0:0,0:0:0:0:
189,77,11576,2,0,L|174:169,1,93.7500035762788,8|0,3:2|0:0,0:0:0:0:
163,380,11785,6,0,L|146:271,1,109.375001043081,8|0,3:2|0:0,0:0:0:0:
118,50,11993,2,0,L|101:158,1,109.375001043081,8|0,3:2|0:0,0:0:0:0:
85,362,12201,5,8,3:2:0:0:
85,362,12305,1,8,3:2:0:0:
37,366,12410,2,0,P|13:314|63:287,1,125,8|8,3:2|3:2,0:0:0:0:
273,209,12618,5,8,3:2:0:0:
273,209,12722,1,8,3:2:0:0:
300,248,12827,2,0,P|267:294|219:264,1,125,8|8,3:2|3:2,0:0:0:0:
121,105,13035,5,8,3:2:0:0:
150,64,13139,1,8,3:2:0:0:
197,48,13243,1,8,3:2:0:0:
246,57,13347,1,8,3:2:0:0:
280,92,13451,1,8,3:2:0:0:
314,127,13555,1,8,3:2:0:0:
363,136,13659,1,8,3:2:0:0:
410,120,13763,1,8,3:2:0:0:
439,79,13867,1,4,0:0:0:0:
256,192,13972,12,2,15118,0:0:0:0:
150,106,15535,6,0,P|124:144|131:189,1,93.7500035762788,4|0,3:2|0:0,0:0:0:0:
261,292,15743,2,0,P|240:250|198:233,1,93.7500035762788,4|0,3:2|0:0,0:0:0:0:
44,295,15951,2,0,P|89:298|125:269,1,93.7500035762788,4|0,3:2|0:0,0:0:0:0:
209,60,16160,5,2,0:0:0:0:
209,60,16212,1,2,0:0:0:0:
209,60,16264,1,2,0:0:0:0:
209,60,16316,1,2,0:0:0:0:
209,60,16368,1,10,0:0:0:0:
209,60,16576,6,0,P|263:56|310:83,1,109.375001043081,4|0,3:2|0:0,0:0:0:0:
403,179,16785,2,0,P|349:175|302:202,1,109.375001043081,4|0,3:2|0:0,0:0:0:0:
210,351,16993,6,0,P|192:223|300:296,1,328.125003129244,4|2,3:2|0:0,0:0:0:0:
422,311,17410,1,2,3:2:0:0:
430,323,17479,1,2,0:0:0:0:
435,336,17548,1,2,0:0:0:0:
433,350,17618,6,0,P|385:326|331:328,1,109.375001043081,2|0,3:2|0:0,0:0:0:0:
4,356,17826,6,0,P|210:181|477:149,1,546.875005215406,4|0,3:2|3:2,0:0:0:0:
497,238,18451,1,2,0:0:0:0:
497,238,18503,1,2,0:0:0:0:
497,238,18555,1,2,0:0:0:0:
497,238,18607,1,2,0:0:0:0:
497,237,18660,2,0,P|457:275|404:282,1,109.375001043081,2|2,0:0|0:0,0:0:0:0:
228,128,18868,6,0,P|245:85|231:42,1,93.7500035762788,4|0,3:2|0:0,0:0:0:0:
340,65,19076,2,0,P|367:101|412:111,1,93.7500035762788,4|0,3:2|0:0,0:0:0:0:
337,193,19285,2,0,P|292:199|261:233,1,93.7500035762788,4|0,3:2|0:0,0:0:0:0:
240,310,19493,5,0,0:0:0:0:
244,324,19597,1,0,0:0:0:0:
261,233,19701,2,0,L|253:187,1,31.25,8|0,0:0|0:0,0:0:0:0:
359,226,19910,6,0,P|356:279|321:320,1,109.375001043081,4|0,3:2|0:0,0:0:0:0:
88,174,20118,2,0,P|90:120|126:80,1,109.375001043081,4|0,3:2|0:0,0:0:0:0:
223,67,20326,6,0,B|265:145|235:244|171:201|139:298|171:370,1,328.125003129244,4|0,3:2|0:0,0:0:0:0:
247,300,20743,2,0,B|263:326|263:326|252:347,2,54.6875005215406,0|0|0,3:2|3:2|3:2,0:0:0:0:
354,301,20951,2,0,B|338:327|338:327|348:348,2,54.6875005215406,0|0|0,3:2|3:2|3:2,0:0:0:0:
313,225,21160,1,0,3:2:0:0:
313,225,21212,1,0,3:2:0:0:
313,225,21264,1,0,3:2:0:0:
313,225,21316,1,0,3:2:0:0:
313,225,21368,5,2,3:2:0:0:
214,181,21576,1,2,0:0:0:0:
258,82,21785,1,2,0:0:0:0:
357,126,21993,1,2,0:0:0:0:
286,154,22201,6,0,B|241:148|239:168|193:162,1,93.7500035762788,10|2,0:0|0:0,0:0:0:0:
183,157,22618,6,0,B|228:151|230:171|275:165,1,93.7500035762788,14|0,0:0|0:0,0:0:0:0:
507,103,22826,5,2,0:0:0:0:
438,62,22930,2,0,L|429:123,1,62.5,2|0,0:0|3:2,0:0:0:0:
297,270,23139,1,2,0:0:0:0:
354,337,23243,2,0,P|370:278|363:216,1,125,2|8,0:0|0:0,0:0:0:0:
275,164,23555,1,0,0:0:0:0:
250,171,23660,1,2,0:0:0:0:
226,178,23764,1,2,0:0:0:0:
196,248,23868,5,2,3:2:0:0:
159,282,23972,1,0,0:0:0:0:
109,280,24076,1,2,0:0:0:0:
76,242,24180,1,0,0:0:0:0:
74,169,24285,6,0,P|44:163|26:186,1,62.5,10|0,0:0|0:0,0:0:0:0:
169,357,24493,1,2,0:0:0:0:
183,361,24597,1,2,0:0:0:0:
256,376,24701,6,0,B|293:377|309:342|293:337|313:301|346:303,1,125,0|2,3:2|3:2,0:0:0:0:
408,346,25014,1,0,0:0:0:0:
486,341,25118,1,12,0:0:0:0:
486,341,25326,2,0,P|475:309|476:269,1,62.5,2|0,0:0|0:0,0:0:0:0:
452,174,25535,6,0,P|429:215|387:234,1,93.7500035762788,4|0,3:2|0:0,0:0:0:0:
274,303,25743,2,0,P|250:263|254:217,1,93.7500035762788,4|0,3:2|0:0,0:0:0:0:
252,84,25951,2,0,P|298:83|335:109,1,93.7500035762788,4|0,3:2|0:0,0:0:0:0:
345,303,26160,5,0,0:0:0:0:
342,321,26264,1,0,0:0:0:0:
339,339,26368,1,8,0:0:0:0:
343,346,26576,6,0,P|396:355|459:304,1,109.375001043081,4|0,3:2|0:0,0:0:0:0:
512,137,26785,2,0,P|459:128|396:179,1,109.375001043081,4|0,3:2|0:0,0:0:0:0:
245,376,26993,6,0,P|187:130|431:71,1,546.875005215406,4|0,3:2|3:2,0:0:0:0:
411,153,27618,1,2,3:2:0:0:
411,153,27670,1,2,0:0:0:0:
411,153,27722,1,2,0:0:0:0:
411,153,27774,1,2,0:0:0:0:
411,153,27826,6,0,L|349:140,1,62.5,8|0,3:2|3:2,0:0:0:0:
148,58,28035,1,8,3:2:0:0:
145,46,28139,1,0,3:2:0:0:
103,19,28243,6,0,P|74:45|70:83,1,78.125,2|0,3:2|0:0,0:0:0:0:
29,146,28451,6,0,P|37:183|90:215,1,93.7500035762788,2|0,3:2|0:0,0:0:0:0:
93,288,28660,6,0,P|129:299|193:247,1,109.375001043081,2|0,3:2|0:0,0:0:0:0:
274,81,28868,5,12,3:2:0:0:
274,81,29285,6,0,L|266:39,2,31.25
287,157,29493,2,0,L|294:198,2,31.25
215,131,29701,6,0,B|302:143|302:143|309:150|309:150|413:163,1,187.500007152558,2|0,3:2|0:0,0:0:0:0:
495,127,30014,2,0,B|440:197|440:197|431:199|431:199|367:282,1,187.500007152558,2|0,3:2|0:0,0:0:0:0:
359,371,30326,2,0,B|325:288|325:288|328:279|328:279|287:182,1,187.500007152558,2|0,3:2|0:0,0:0:0:0:
296,11,30743,5,2,0:0:0:0:
296,11,30951,1,2,0:0:0:0:
379,77,31160,2,0,L|369:123,2,31.25,2|2|2,0:0|0:0|0:0,0:0:0:0:
450,121,31368,6,0,P|375:97|298:86,1,156.25,2|0,0:0|0:0,0:0:0:0:
298,86,31680,1,0,0:0:0:0:
384,0,31785,6,0,P|290:4|199:26,1,187.500007152558,2|2,0:0|0:0,0:0:0:0:
41,122,32201,1,2,0:0:0:0:
41,122,32618,6,0,L|32:162,2,31.25
60,49,32826,1,0,3:2:0:0:
207,159,33035,6,0,B|237:116|237:116|166:78|117:137,1,187.500007152558,2|0,3:2|0:0,0:0:0:0:
191,289,33347,2,0,B|212:336|212:336|280:294|253:222,1,187.500007152558,2|0,3:2|0:0,0:0:0:0:
86,210,33660,2,0,B|33:204|33:204|36:284|112:297,1,187.500007152558,2|0,3:2|0:0,0:0:0:0:
164,221,34076,5,2,0:0:0:0:
164,221,34285,1,2,0:0:0:0:
116,137,34493,1,0,3:2:0:0:
230,49,34701,6,0,L|236:7,6,31.25,2|2|2|2|2|2|2,3:2|0:0|0:0|0:0|0:0|0:0|0:0,0:0:0:0:
227,129,35118,1,2,0:0:0:0:
227,129,35170,1,2,0:0:0:0:
227,129,35222,2,0,L|221:163,4,31.25,2|2|2|2|2,0:0|0:0|0:0|0:0|0:0,0:0:0:0:
298,176,35535,1,0,3:2:0:0:
298,176,35951,6,0,L|292:217,2,31.25,2|2|2,0:0|0:0|0:0,0:0:0:0:
371,203,36160,2,0,L|412:208,2,31.25,2|2|2,0:0|0:0|0:0,0:0:0:0:
489,195,36368,6,0,B|442:192|411:220|422:261|385:287|336:284,1,187.500007152558,2|0,3:2|0:0,0:0:0:0:
340,358,36680,2,0,B|293:361|262:333|273:292|236:266|187:268,1,187.500007152558,2|0,3:2|0:0,0:0:0:0:
191,196,36993,2,0,B|144:193|113:221|124:262|87:288|38:285,1,187.500007152558,2|0,3:2|0:0,0:0:0:0:
49,212,37410,5,2,0:0:0:0:
49,212,37618,1,2,0:0:0:0:
25,138,37826,1,0,3:2:0:0:
269,148,38035,6,0,L|244:329,1,156.25,2|0,3:2|0:0,0:0:0:0:
247,302,38347,1,0,0:0:0:0:
147,319,38451,6,0,L|333:348,1,187.5,2|0,3:2|0:0,0:0:0:0:
332,347,38764,1,0,0:0:0:0:
402,315,38868,1,2,3:2:0:0:
402,315,39285,6,0,L|454:305,2,31.25
336,352,39493,2,0,L|295:359,2,31.25
427,384,39701,6,0,B|401:275|446:295|421:198,1,187.500007152558,2|0,3:2|0:0,0:0:0:0:
390,135,40014,2,0,B|395:111|410:95|410:95|436:108|443:128,1,93.7500035762788,2|0,3:2|0:0,0:0:0:0:
443,128,40326,6,0,P|389:176|274:174,1,187.5,6|0,3:2|0:0,0:0:0:0:
265,161,40743,1,0,3:2:0:0:
309,33,40951,2,0,L|298:115,1,62.5,0|0,3:2|0:0,0:0:0:0:
274,258,41160,1,0,0:0:0:0:
130,128,41368,5,0,3:2:0:0:
100,118,41472,1,8,3:2:0:0:
79,141,41576,1,0,3:2:0:0:
126,341,41785,1,0,3:2:0:0:
156,351,41889,1,0,3:2:0:0:
177,328,41993,1,0,3:2:0:0:
135,266,42097,1,0,3:2:0:0:
135,266,42201,1,4,0:0:0:0:
135,266,42618,6,0,L|122:204,1,62.5,10|0,0:0|0:0,0:0:0:0:
130,128,43035,2,0,L|189:147,1,62.5,10|0,0:0|0:0,0:0:0:0:
252,192,43451,2,0,L|205:233,1,62.5,10|0,0:0|0:0,0:0:0:0:
56,282,43868,6,0,P|42:221|51:159,1,125,10|8,0:0|0:0,0:0:0:0:
51,159,44493,1,2,0:0:0:0:
183,23,44701,2,0,P|197:84|188:146,1,125,10|8,0:0|0:0,0:0:0:0:
119,217,45326,1,2,3:2:0:0:
119,217,45535,5,10,3:2:0:0:
208,245,45743,1,2,0:0:0:0:
297,273,45951,1,10,0:0:0:0:
386,302,46160,1,2,0:0:0:0:
475,331,46368,1,10,0:0:0:0:
475,331,46785,1,8,0:0:0:0:
386,302,46993,1,2,0:0:0:0:
386,302,47201,5,10,0:0:0:0:
363,210,47410,1,2,0:0:0:0:
343,118,47618,1,10,0:0:0:0:
323,26,47826,1,2,0:0:0:0:
256,92,48035,6,0,L|248:131,2,20.8333333333333,10|2|2,0:0|0:0|0:0,0:0:0:0:
240,68,48243,2,0,L|246:37,1,31.25
179,110,48451,2,0,P|157:120|134:118,1,46.8750017881394,2|0,0:0|0:0,0:0:0:0:
127,126,48660,2,0,P|155:141|186:142,1,62.5,2|0,0:0|0:0,0:0:0:0:
398,57,48868,5,4,0:0:0:0:
398,57,49285,2,0,L|413:181,1,125,0|2,3:2|0:0,0:0:0:0:
176,332,49701,2,0,B|150:277|150:277|175:218,1,125,4|2,0:0|0:0,0:0:0:0:
363,243,50118,2,0,B|389:298|389:298|363:356,1,125,0|2,3:2|3:2,0:0:0:0:
57,241,50535,6,0,P|76:133|133:226,1,281.250010728836,4|0,0:0|0:0,0:0:0:0:
172,154,50951,6,0,P|254:57|258:184,1,328.125003129244,4|0,0:0|0:0,0:0:0:0:
337,158,51368,6,0,P|474:109|404:237,1,375,4|0,0:0|0:0,0:0:0:0:
418,161,51785,5,4,0:0:0:0:
418,161,51993,1,2,0:0:0:0:
232,121,52201,6,0,L|219:18,1,93.7500035762788,4|0,0:0|0:0,0:0:0:0:
220,27,52618,1,0,0:0:0:0:
318,67,52826,5,0,3:2:0:0:
138,83,53035,1,8,0:0:0:0:
333,88,53243,5,0,0:0:0:0:
122,62,53451,2,0,P|205:39|232:120,1,187.500007152558,0|0,3:2|0:0,0:0:0:0:
210,192,54076,1,0,3:2:0:0:
210,192,54285,1,8,3:2:0:0:
210,192,54701,6,0,B|204:248|204:248|237:259|237:259|224:208,2,125.000004768372,0|0|0,3:2|3:2|3:2,0:0:0:0:
346,185,55118,6,0,L|56:257,1,281.250010728836,0|0,3:2|0:0,0:0:0:0:
36,320,55535,6,0,P|78:365|139:368,1,125,4|0,0:0|0:0,0:0:0:0:
130,159,55951,2,0,P|171:114|232:111,1,125,0|0,3:2|0:0,0:0:0:0:
266,182,56264,1,0,0:0:0:0:
259,200,56368,1,0,3:2:0:0:
328,339,56576,2,0,P|351:361|381:363,1,62.5
476,275,56785,1,0,3:2:0:0:
476,275,56993,2,0,P|453:296|423:298,1,62.5
259,200,57201,6,0,P|264:169|262:138,2,62.5000023841859,2|0|0,0:0|0:0|0:0,0:0:0:0:
202,260,57410,6,0,P|196:290|202:337,2,72.9166673620542,2|0|0,3:2|0:0|0:0,0:0:0:0:
151,173,57618,6,0,P|157:131|149:91,2,83.3333333333333,2|0|0,3:2|0:0|0:0,0:0:0:0:
81,280,57826,6,0,P|71:326|78:372,2,93.7500035762788,2|0|0,3:2|0:0|0:0,0:0:0:0:
30,180,58035,5,2,3:2:0:0:
30,180,58087,1,2,3:2:0:0:
30,180,58139,2,0,L|42:95,4,70.3125026822091,2|2|2|2|2,3:2|3:2|3:2|3:2|3:2,3:2:0:0:
43,91,58451,6,0,P|140:19|340:157,1,375,8|0,0:0|0:0,0:0:0:0:
340,217,58868,5,4,3:2:0:0:
340,217,59076,2,0,P|320:175|335:132,1,93.7500035762788,2|0,0:0|0:0,0:0:0:0:
449,31,59285,2,0,P|468:72|453:115,1,93.7500035762788,10|0,3:2|0:0,0:0:0:0:
329,124,59493,2,0,L|522:165,1,187.500007152558,2|0,0:0|3:2,0:0:0:0:
354,50,59910,6,0,P|300:51|259:86,1,109.375001043081,2|0,0:0|0:0,0:0:0:0:
318,301,60118,2,0,P|371:299|413:265,1,109.375001043081,10|0,3:2|0:0,0:0:0:0:
258,68,60326,2,0,P|247:171|339:217,1,218.750002086163,2|0,0:0|3:2,0:0:0:0:
271,366,60743,6,0,P|200:375|151:333,1,125,2|0,0:0|0:0,0:0:0:0:
59,173,60951,2,0,P|130:164|179:206,1,125,10|0,3:2|0:0,0:0:0:0:
154,352,61160,2,0,P|119:117|344:74,1,500,2|0,0:0|0:0,0:0:0:0:
330,66,61785,1,8,3:2:0:0:
508,147,61993,6,0,L|322:171,1,187.500007152558,2|0,0:0|3:2,0:0:0:0:
266,230,62305,1,0,0:0:0:0:
258,219,62410,2,0,B|236:175|236:175|254:134,1,93.7500035762788,2|0,0:0|0:0,0:0:0:0:
424,233,62618,2,0,B|445:276|445:276|428:318,1,93.7500035762788,10|0,3:2|0:0,0:0:0:0:
299,373,62826,6,0,P|177:306|63:307,1,218.750002086163,2|0,0:0|3:2,0:0:0:0:
27,271,63139,1,0,0:0:0:0:
21,281,63243,2,0,P|59:319|57:372,1,109.375001043081,2|0,0:0|0:0,0:0:0:0:
192,158,63451,2,0,P|154:120|156:67,1,109.375001043081,10|0,3:2|0:0,0:0:0:0:
98,204,63660,6,0,L|283:177,1,187.500007152558,2|0,0:0|3:2,0:0:0:0:
390,161,63972,1,0,0:0:0:0:
401,160,64076,2,0,P|382:120|338:126,1,93.7500035762788,2|0,0:0|0:0,0:0:0:0:
208,264,64285,2,0,P|227:303|271:297,1,93.7500035762788,10|0,3:2|0:0,0:0:0:0:
474,267,64493,6,0,B|461:189|490:196|475:111,1,156.25,2|0,0:0|3:2,0:0:0:0:
459,12,64805,1,0,0:0:0:0:
462,23,64910,6,0,L|450:105,1,62.5,12|0,0:0|0:0,0:0:0:0:
395,241,65118,2,0,L|383:323,1,62.5,8|0,3:2|0:0,0:0:0:0:
358,174,65326,5,0,3:2:0:0:
354,143,65430,1,0,3:2:0:0:
350,111,65535,1,4,3:2:0:0:
346,107,65743,2,0,L|334:189,1,62.5,2|0,0:0|0:0,0:0:0:0:
241,302,65951,2,0,L|229:384,1,62.5,10|0,3:2|0:0,0:0:0:0:
201,238,66160,5,2,0:0:0:0:
197,207,66264,1,0,0:0:0:0:
193,175,66369,1,0,3:2:0:0:
189,171,66576,2,0,L|177:253,1,62.5,2|0,0:0|0:0,0:0:0:0:
13,283,66785,2,0,L|1:365,1,62.5,10|0,3:2|0:0,0:0:0:0:
78,237,66993,5,2,0:0:0:0:
84,206,67097,1,0,0:0:0:0:
55,217,67201,1,0,3:2:0:0:
234,180,67410,5,2,0:0:0:0:
218,135,67514,1,0,0:0:0:0:
189,171,67618,1,10,3:2:0:0:
363,48,67826,5,2,0:0:0:0:
308,1,67930,1,0,0:0:0:0:
297,70,68034,1,0,3:2:0:0:
294,76,68243,6,0,L|306:158,1,62.5,2|0,0:0|0:0,0:0:0:0:
318,213,68451,2,0,L|330:295,1,62.5,10|0,3:2|0:0,0:0:0:0:
341,349,68660,6,0,P|233:289|110:276,1,250,2|0,0:0|0:0,0:0:0:0:
31,239,69180,1,0,0:0:0:0:
31,239,69285,6,0,P|39:316|107:259,1,187.5,10|0,3:2|0:0,0:0:0:0:
106,271,69493,6,0,P|110:219|159:199,1,109.375001043081,2|0,0:0|0:0,0:0:0:0:
231,149,69701,2,0,P|235:201|284:221,1,93.7500035762788,2|0,3:2|0:0,0:0:0:0:
340,284,69910,2,0,P|336:246|361:216,1,78.125,2|0,0:0|0:0,0:0:0:0:
429,186,70118,1,8,3:2:0:0:
429,186,70326,6,0,P|347:178|380:25,1,281.250010728836,4|0,3:2|0:0,0:0:0:0:
490,78,70743,6,0,P|447:110|394:108,1,109.375001043081,4|0,0:0|0:0,0:0:0:0:
146,92,70951,1,4,0:0:0:0:
151,81,71055,1,0,3:2:0:0:
182,55,71160,6,0,P|232:20|292:29,1,125,0|0,3:2|3:2,0:0:0:0:
429,186,71368,6,0,L|423:225,1,31.25,0|0,3:2|0:0,0:0:0:0:
382,293,71576,6,0,P|377:230|356:172,1,125,12|0,0:0|0:0,0:0:0:0:
136,228,71785,2,0,P|141:290|162:348,1,125,4|0,3:2|0:0,0:0:0:0:
282,337,71993,6,0,P|189:281|3:309,1,281.250010728836,4|0,3:2|0:0,0:0:0:0:
21,380,72410,6,0,P|40:338|22:296,1,93.7500035762788,2|0,0:0|0:0,0:0:0:0:
8,202,72618,2,0,P|53:197|80:160,1,93.7500035762788,10|0,3:2|0:0,0:0:0:0:
155,100,72826,2,0,P|222:161|311:147,1,187.500007152558,2|0,0:0|3:2,0:0:0:0:
440,52,73243,6,0,P|387:41|342:70,1,109.375001043081,2|0,0:0|0:0,0:0:0:0:
189,258,73451,2,0,P|241:268|286:239,1,109.375001043081,10|0,3:2|0:0,0:0:0:0:
334,65,73660,2,0,L|372:302,1,218.750002086163,2|0,0:0|3:2,0:0:0:0:
164,333,74076,6,0,P|117:293|114:232,1,125,2|0,0:0|0:0,0:0:0:0:
185,22,74285,2,0,P|231:61|234:122,1,125,10|0,3:2|0:0,0:0:0:0:
105,233,74493,2,0,P|335:173|488:355,1,500,2|0,0:0|0:0,0:0:0:0:
487,353,75118,1,8,3:2:0:0:
411,99,75326,6,0,P|343:184|323:389,1,281.250010728836,2|0,0:0|3:2,0:0:0:0:
393,372,75639,1,0,0:0:0:0:
382,377,75743,2,0,L|243:354,1,140.625005364418,2|0,0:0|0:0,0:0:0:0:
171,340,75951,2,0,L|32:317,1,140.625005364418,10|0,3:2|0:0,0:0:0:0:
22,241,76160,6,0,P|73:138|182:174,1,250,2|0,0:0|3:2,0:0:0:0:
142,243,76472,1,0,0:0:0:0:
135,232,76576,2,0,P|194:223|238:264,1,125,2|0,0:0|0:0,0:0:0:0:
314,351,76785,2,0,P|373:359|417:318,1,125,10|0,3:2|0:0,0:0:0:0:
385,71,76993,6,0,L|347:313,1,218.750002086163,2|0,0:0|3:2,0:0:0:0:
488,344,77305,1,0,0:0:0:0:
498,349,77410,2,0,P|517:294|481:285,1,109.375001043081,2|0,0:0|0:0,0:0:0:0:
470,182,77618,2,0,P|431:138|406:164,1,109.375001043081,10|0,3:2|0:0,0:0:0:0:
293,374,77826,6,0,P|263:286|271:194,1,187.500007152558,2|0,0:0|3:2,0:0:0:0:
328,133,78139,1,0,0:0:0:0:
334,143,78243,6,0,L|347:52,1,62.5,12|0,0:0|0:0,0:0:0:0:
200,6,78451,2,0,L|191:67,1,62.5,2|0,3:2|0:0,0:0:0:0:
220,135,78660,6,0,P|126:212|4:206,1,250,0|2,3:2|0:0,0:0:0:0:
156,292,79180,1,0,0:0:0:0:
156,292,79285,6,0,B|178:255|144:197|126:225|90:164|110:123,1,187.5,10|0,3:2|0:0,0:0:0:0:
105,115,79493,6,0,P|128:93|158:93,1,62.5,2|0,0:0|0:0,0:0:0:0:
220,135,79701,2,0,P|256:143|286:119,1,78.125,0|0,3:2|0:0,0:0:0:0:
321,54,79910,2,0,P|355:24|400:30,1,93.7500035762788,2|0,0:0|0:0,0:0:0:0:
313,198,80118,2,0,P|270:229|219:216,1,109.375001043081,10|0,3:2|0:0,0:0:0:0:
158,93,80326,2,0,P|99:78|51:116,1,125,2|0,0:0|0:0,0:0:0:0:
128,357,80535,6,0,P|179:249|115:148,1,250,0|2,3:2|0:0,0:0:0:0:
115,148,80847,1,0,0:0:0:0:
127,350,80951,6,0,P|100:247|7:195,1,218.750002086163,10|2,3:2|0:0,0:0:0:0:
7,195,81264,1,0,0:0:0:0:
125,343,81368,6,0,P|95:308|49:304,1,93.7500035762788,0|0,3:2|0:0,0:0:0:0:
10,200,81576,6,0,L|4:137,1,62.5,2|0,0:0|0:0,0:0:0:0:
189,83,81785,2,0,L|200:207,1,125,10|2,3:2|0:0,0:0:0:0:
200,207,82201,6,0,P|317:166|441:170,1,250,4|0,3:2|0:0,0:0:0:0:
441,170,82826,2,0,L|433:238,1,62.5,0|0,3:2|0:0,0:0:0:0:
416,374,83035,1,8,3:2:0:0:
416,374,83243,2,0,L|370:368,2,41.6666666666667
511,322,83451,6,0,L|263:354,1,250,6|0,3:2|0:0,0:0:0:0:
188,369,83972,1,0,3:2:0:0:
172,361,84076,6,0,L|187:272,1,62.5,0|0,3:2|3:2,0:0:0:0:
360,259,84285,6,0,L|343:157,1,78.125,2|0,3:2|0:0,0:0:0:0:
128,192,84493,6,0,L|147:81,1,93.7500035762788,2|0,3:2|0:0,0:0:0:0:
376,69,84701,5,2,3:2:0:0:
376,69,85118,2,0,L|368:10,1,46.875,14|0,0:0|0:0,0:0:0:0:
369,22,85535,6,0,P|390:62|386:108,1,93.7500035762788,4|0,3:2|0:0,0:0:0:0:
408,240,85743,2,0,P|361:238|324:211,1,93.7500035762788,4|0,3:2|0:0,0:0:0:0:
200,170,85951,2,0,P|224:130|266:111,1,93.7500035762788,4|0,3:2|0:0,0:0:0:0:
500,51,86160,5,2,0:0:0:0:
500,51,86212,1,2,0:0:0:0:
500,51,86264,1,2,0:0:0:0:
500,51,86316,1,2,0:0:0:0:
500,51,86368,1,8,0:0:0:0:
500,51,86576,6,0,L|470:157,1,109.375001043081,4|0,3:2|0:0,0:0:0:0:
439,357,86785,2,0,L|386:260,1,109.375001043081,4|0,3:2|0:0,0:0:0:0:
287,105,86993,2,0,P|157:79|217:197,1,328.125003129244,4|2,3:2|0:0,0:0:0:0:
124,208,87410,1,2,3:2:0:0:
115,204,87479,1,2,0:0:0:0:
104,200,87548,1,2,0:0:0:0:
96,195,87618,6,0,P|42:193|0:226,1,109.375001043081,2|0,3:2|0:0,0:0:0:0:
88,281,87826,6,0,B|335:307|434:90|434:90|398:149|348:172,1,546.875005215406,4|0,3:2|3:2,0:0:0:0:
259,169,88451,5,2,0:0:0:0:
259,169,88503,1,2,0:0:0:0:
259,169,88555,1,2,0:0:0:0:
259,169,88607,1,2,0:0:0:0:
259,169,88660,2,0,L|149:165,1,109.375001043081,2|0,0:0|0:0,0:0:0:0:
414,304,88868,6,0,L|507:297,1,93.7500035762788,4|0,3:2|0:0,0:0:0:0:
348,171,89076,2,0,L|310:85,1,93.7500035762788,4|0,3:2|0:0,0:0:0:0:
269,298,89285,2,0,L|231:384,1,93.7500035762788,4|0,3:2|0:0,0:0:0:0:
149,166,89493,5,2,3:2:0:0:
61,364,89597,1,2,3:2:0:0:
59,374,89805,1,2,3:2:0:0:
57,384,90014,1,2,3:2:0:0:
88,268,90118,2,0,L|180:255,1,93.7500035762788,2|0,3:2|0:0,0:0:0:0:
333,214,90326,6,0,P|223:268|195:149,1,281.250010728836,4|0,0:0|3:2,0:0:0:0:
269,34,90743,6,0,P|276:81|281:128,1,93.7500035762788,0|0,3:2|3:2,0:0:0:0:
403,291,90951,2,0,P|407:244|414:197,1,93.7500035762788,0|0,3:2|0:0,0:0:0:0:
506,29,91160,2,0,B|511:52|511:52|500:72,2,46.8750017881394,0|0|0,3:2|0:0|3:2,0:0:0:0:
460,336,91472,6,0,B|484:339|484:339|506:348,1,46.8750017881394
463,319,91576,2,0,B|487:316|487:316|510:319,1,46.8750017881394
454,295,91680,6,0,L|251:290,1,187.500007152558,0|0,3:2|0:0,0:0:0:0:
161,300,91993,6,0,B|146:318|146:318|141:341,1,46.8750017881394,0|0,3:2|0:0,0:0:0:0:
147,290,92097,2,0,B|127:304|127:304|117:325,1,46.8750017881394
134,273,92201,5,0,3:2:0:0:
184,194,92410,1,0,0:0:0:0:
99,154,92618,1,8,3:2:0:0:
52,235,92826,2,0,L|39:264,1,31.25
99,154,93035,1,0,3:2:0:0:
140,70,93243,6,0,L|152:42,1,31.25
238,90,93451,6,0,L|233:44,1,46.8750017881394,8|0,3:2|0:0,0:0:0:0:
340,57,93660,6,0,L|306:5,1,62.5
484,215,93868,5,4,0:0:0:0:
484,215,94285,2,0,B|475:235|475:235|482:256,2,31.25
508,107,94493,2,0,B|514:88|514:88|505:68,2,31.25
436,151,94701,6,0,B|365:135|365:135|319:145|319:145|255:120,1,187.500007152558,2|0,3:2|0:0,0:0:0:0:
367,35,95014,2,0,B|296:51|296:51|250:41|250:41|186:65,1,187.500007152558,2|0,3:2|0:0,0:0:0:0:
114,0,95326,2,0,B|98:71|98:71|108:117|108:117|83:180,1,187.500007152558,2|0,3:2|0:0,0:0:0:0:
65,319,95743,5,2,0:0:0:0:
159,266,95951,1,2,0:0:0:0:
242,312,96160,1,0,3:2:0:0:
258,341,96264,1,0,0:0:0:0:
287,368,96368,6,0,P|332:357|378:350,1,93.7500035762788,2|0,0:0|0:0,0:0:0:0:
454,343,96576,1,0,0:0:0:0:
454,343,96680,1,0,0:0:0:0:
454,343,96785,1,2,0:0:0:0:
331,19,96993,2,0,P|322:51|315:79,1,62.5,2|0,0:0|0:0,0:0:0:0:
276,333,97201,5,2,3:2:0:0:
276,333,97618,2,0,B|293:328|293:328|305:332,2,31.25
179,340,97826,2,0,B|163:346|163:346|149:340,2,31.25,0|0|0,3:2|0:0|0:0,0:0:0:0:
221,269,98035,6,0,B|226:214|275:200|275:200|228:187|211:137,1,187.500007152558,2|0,3:2|0:0,0:0:0:0:
148,58,98347,2,0,B|138:47|135:30|135:30|130:48|120:58,1,62.5,2|0,3:2|0:0,0:0:0:0:
58,144,98660,2,0,B|40:193|-6:206|-6:206|42:220|48:275,1,187.500007152558,2|0,3:2|0:0,0:0:0:0:
59,290,98972,5,0,0:0:0:0:
82,305,99076,1,2,0:0:0:0:
118,297,99180,1,0,0:0:0:0:
138,254,99285,1,2,0:0:0:0:
90,223,99389,1,0,0:0:0:0:
118,297,99493,5,0,3:2:0:0:
166,284,99562,5,0,0:0:0:0:
211,305,99632,5,0,0:0:0:0:
247,280,99701,6,0,B|268:265|268:265|287:272,2,46.8750017881394,2|0|0,3:2|0:0|0:0,0:0:0:0:
319,350,99910,2,0,B|339:361|339:361|360:349,2,46.8750017881394,2|0|0,0:0|0:0|0:0,0:0:0:0:
378,270,100118,2,0,B|398:258|398:258|420:264,2,46.8750017881394,2|0|0,0:0|0:0|0:0,0:0:0:0:
478,317,100326,2,0,L|480:223,1,93.7500035762788,2|0,0:0|0:0,0:0:0:0:
492,22,100535,5,0,3:2:0:0:
492,22,100743,5,2,0:0:0:0:
438,73,100847,1,0,3:2:0:0:
383,29,100951,1,0,3:2:0:0:
383,29,101160,6,0,B|349:65|349:65|307:49,1,93.7500035762788,2|0,0:0|0:0,0:0:0:0:
199,23,101368,6,0,P|270:59|210:112,1,187.500007152558,2|0,3:2|0:0,0:0:0:0:
105,111,101680,2,0,P|64:152|98:198,1,125,0|0,3:2|0:0,0:0:0:0:
208,203,101993,2,0,P|225:228|209:253,1,62.5,0|0,3:2|0:0,0:0:0:0:
58,384,102410,5,2,0:0:0:0:
58,384,102618,1,2,0:0:0:0:
281,188,102826,1,0,3:2:0:0:
489,257,103035,5,2,3:2:0:0:
479,211,103139,1,0,0:0:0:0:
466,165,103243,1,0,0:0:0:0:
446,73,103451,1,2,3:2:0:0:
362,30,103660,1,0,0:0:0:0:
249,200,103868,6,0,B|229:252|229:252|298:263|298:263|359:119,2,281.250010728836,2|0|0,3:2|0:0|0:0,0:0:0:0:
156,63,104701,6,0,B|138:114|138:114|177:173|177:173|154:231,1,187.500007152558,2|0,3:2|0:0,0:0:0:0:
149,309,105014,2,0,B|237:325|237:325|242:331|242:331|247:327|247:327|330:343,1,187.500007152558,2|0,3:2|0:0,0:0:0:0:
61,372,105326,1,6,3:2:0:0:
61,372,105743,5,0,3:2:0:0:
14,112,105951,1,0,3:2:0:0:
83,210,106160,1,0,0:0:0:0:
129,213,106264,1,0,0:0:0:0:
168,188,106368,1,0,3:2:0:0:
239,14,106576,1,0,3:2:0:0:
283,0,106680,1,0,3:2:0:0:
326,19,106785,1,0,3:2:0:0:
328,65,106889,1,0,3:2:0:0:
297,100,106993,1,0,3:2:0:0:
297,100,107097,1,0,3:2:0:0:
297,100,107201,5,14,0:0:0:0:
296,99,107618,2,0,P|300:131|301:162,1,62.5,10|0,0:0|0:0,0:0:0:0:
355,237,108035,2,0,P|369:209|382:180,1,62.5,10|0,0:0|0:0,0:0:0:0:
250,239,108451,2,0,P|235:211|223:183,1,62.5,10|0,0:0|0:0,0:0:0:0:
31,359,108868,6,0,B|65:339|68:310|68:310|79:337|113:349,1,125,10|8,0:0|0:0,0:0:0:0:
112,349,109493,1,2,0:0:0:0:
109,218,109701,2,0,P|93:157|75:97,1,125,10|8,0:0|0:0,0:0:0:0:
75,97,110326,1,2,3:2:0:0:
133,23,110535,5,10,3:2:0:0:
226,32,110743,1,2,0:0:0:0:
319,40,110951,1,10,0:0:0:0:
412,48,111159,1,2,0:0:0:0:
505,55,111368,1,10,0:0:0:0:
505,55,111785,1,8,0:0:0:0:
448,130,111993,1,2,0:0:0:0:
448,130,112201,5,10,0:0:0:0:
354,126,112409,1,2,0:0:0:0:
261,115,112617,1,10,0:0:0:0:
167,105,112826,1,2,0:0:0:0:
74,87,113035,2,0,L|45:81,3,20.8333333333333,10|2|2|0,0:0|0:0|0:0|0:0,0:0:0:0:
96,180,113451,6,0,L|85:178,6,10.4166666666667,2|0|0|0|0|0|2,0:0|0:0|0:0|0:0|0:0|0:0|0:0,0:0:0:0:
194,193,113764,1,0,0:0:0:0:
182,366,113868,5,4,0:0:0:0:
182,366,114285,6,0,B|238:334|273:328|273:328|293:343,1,125,0|2,3:2|0:0,0:0:0:0:
469,314,114701,2,0,B|413:282|378:276|378:276|357:291,1,125,4|2,0:0|0:0,0:0:0:0:
192,254,115118,2,0,B|248:222|283:216|283:216|303:231,1,125,0|2,3:2|3:2,0:0:0:0:
427,189,115535,6,0,B|439:197|439:197|433:214,6,31.25,4|0|0|0|2|0|0,0:0|0:0|0:0|0:0|0:0|0:0|0:0,0:0:0:0:
402,169,115951,6,0,P|390:52|293:118,1,281.250010728836,4|0,0:0|0:0,0:0:0:0:
299,136,116368,6,0,L|172:113,1,83.3333333333333,4|0,0:0|3:2,0:0:0:0:
102,131,116646,5,0,3:2:0:0:
204,193,116785,5,0,3:2:0:0:
115,229,116923,5,0,3:2:0:0:
165,253,117062,5,0,3:2:0:0:
133,293,117201,5,4,3:2:0:0:
132,293,117410,2,0,P|163:286|191:298,1,62.5
297,376,117618,1,2,3:2:0:0:
296,375,117826,2,0,P|327:374|353:357,1,62.5,0|2,0:0|3:2,0:0:0:0:
438,253,118035,1,2,3:2:0:0:
437,253,118243,2,0,P|439:222|425:194,1,62.5,2|0,3:2|0:0,0:0:0:0:
347,177,118451,2,0,P|344:146|358:118,1,62.5,2|0,3:2|0:0,0:0:0:0:
484,0,118660,6,0,P|428:113|317:52,1,281.250010728836,4|0,3:2|0:0,0:0:0:0:
204,69,119076,6,0,B|181:60|170:65|170:65|155:57|133:60,2,72.9166673620542,2|2|2,3:2|0:0|0:0,0:0:0:0:
227,175,119285,6,0,B|252:172|267:177|267:177|281:173|309:183,2,83.3333333333333,2|2|2,3:2|0:0|0:0,0:0:0:0:
170,265,119493,6,0,B|142:255|126:263|126:263|102:251|78:257,2,93.7500035762788,2|2|2,3:2|0:0|0:0,0:0:0:0:
284,330,119701,5,2,3:2:0:0:
302,329,119753,1,2,3:2:0:0:
317,327,119805,2,0,P|315:293|308:250,4,70.3125026822091,2|2|2|2|2,3:2|3:2|3:2|3:2|3:2,3:2:0:0:
343,328,120118,6,0,B|361:201|377:129|377:129|363:190|393:299,1,375,12|0,0:0|0:0,0:0:0:0:
466,368,120535,5,4,3:2:0:0:
465,368,120743,2,0,P|484:325|480:279,1,93.7500035762788,2|0,0:0|0:0,0:0:0:0:
315,233,120951,2,0,P|295:275|299:321,1,93.7500035762788,10|0,3:2|0:0,0:0:0:0:
434,356,121160,2,0,B|436:268|436:268|442:254|442:254|441:170,1,187.500007152558,2|0,0:0|3:2,0:0:0:0:
206,44,121576,6,0,P|212:97|246:139,1,109.375001043081,2|0,0:0|0:0,0:0:0:0:
230,307,121785,2,0,P|223:253|189:211,1,109.375001043081,10|0,3:2|0:0,0:0:0:0:
101,151,121993,2,0,L|317:185,1,218.750002086163,2|0,0:0|3:2,0:0:0:0:
123,347,122410,6,0,L|0:327,1,125,2|0,0:0|0:0,0:0:0:0:
250,208,122618,2,0,L|373:227,1,125,10|0,3:2|0:0,0:0:0:0:
202,384,122826,2,0,B|227:304|139:249|181:141,1,250,2|0,0:0|3:2,0:0:0:0:
434,5,123139,1,0,0:0:0:0:
468,4,123243,6,0,L|476:135,1,125
486,384,123451,1,8,3:2:0:0:
486,384,123660,6,0,P|393:370|300:357,1,187.500007152558,2|0,0:0|3:2,0:0:0:0:
305,168,123972,1,0,0:0:0:0:
306,145,124076,6,0,P|311:192|328:235,1,93.7500035762788,2|0,0:0|0:0,0:0:0:0:
163,321,124285,2,0,P|157:274|140:231,1,93.7500035762788,10|0,3:2|0:0,0:0:0:0:
203,108,124493,2,0,B|223:194|223:194|222:201|222:201|225:206|225:206|245:289,1,187.500007152558,2|0,0:0|3:2,0:0:0:0:
115,120,124805,1,0,0:0:0:0:
98,109,124910,6,0,P|67:103|37:108,1,62.5,2|0,0:0|0:0,0:0:0:0:
25,294,125118,2,0,P|55:300|86:297,1,62.5,10|0,3:2|0:0,0:0:0:0:
150,195,125326,2,0,B|123:213|68:181|27:205,1,125,2|0,0:0|3:2,0:0:0:0:
178,74,125639,1,0,0:0:0:0:
200,56,125743,6,0,L|188:10,1,46.8750017881394,2|0,0:0|0:0,0:0:0:0:
264,142,125951,2,0,L|252:187,1,46.8750017881394,10|0,3:2|0:0,0:0:0:0:
322,50,126160,6,0,B|478:48,1,156.25,2|0,0:0|3:2,0:0:0:0:
512,135,126472,1,0,0:0:0:0:
501,151,126577,6,0,L|439:141,1,62.5,12|0,0:0|0:0,0:0:0:0:
451,264,126785,2,0,L|512:254,1,62.5,8|0,3:2|0:0,0:0:0:0:
367,233,126993,5,0,3:2:0:0:
361,186,127097,1,0,3:2:0:0:
356,142,127202,1,4,3:2:0:0:
356,142,127410,2,0,L|294:151,1,62.5,2|0,0:0|0:0,0:0:0:0:
239,225,127618,2,0,L|157:237,1,62.5,10|0,3:2|0:0,0:0:0:0:
228,120,127826,5,2,0:0:0:0:
222,73,127930,1,0,0:0:0:0:
217,29,128035,1,0,3:2:0:0:
217,29,128243,2,0,L|139:40,1,78.125,2|0,0:0|0:0,0:0:0:0:
77,116,128451,2,0,L|0:129,1,78.125,10|0,3:2|0:0,0:0:0:0:
51,233,128660,5,2,0:0:0:0:
96,248,128764,1,0,0:0:0:0:
88,196,128868,1,0,3:2:0:0:
229,180,129077,5,2,0:0:0:0:
287,206,129181,1,0,0:0:0:0:
277,143,129285,1,10,3:2:0:0:
402,174,129493,5,2,0:0:0:0:
484,208,129597,1,0,0:0:0:0:
470,120,129701,1,0,3:2:0:0:
470,120,129910,6,0,P|439:127|408:127,1,62.5,2|0,0:0|0:0,0:0:0:0:
311,119,130118,2,0,P|281:130|254:146,1,62.5,10|0,3:2|0:0,0:0:0:0:
178,202,130326,2,0,B|134:205|122:273|82:283|22:275|11:207|55:162,1,250,2|0,0:0|0:0,0:0:0:0:
148,62,130847,1,0,0:0:0:0:
148,62,130951,6,0,P|62:76|56:163,1,187.5,10|0,3:2|0:0,0:0:0:0:
70,171,131160,6,0,P|123:160|175:177,1,109.375001043081,2|0,0:0|0:0,0:0:0:0:
222,266,131368,2,0,P|264:286|307:270,1,93.7500035762788,2|0,3:2|0:0,0:0:0:0:
337,171,131576,2,0,P|360:141|398:144,1,78.125,2|0,0:0|0:0,0:0:0:0:
492,246,131785,1,8,3:2:0:0:
492,246,131993,6,0,B|404:262|404:262|394:258|394:258|307:270,1,187.5,4|0,3:2|0:0,0:0:0:0:
398,144,132410,6,0,L|451:67,1,93.7500035762788,4|0,0:0|0:0,0:0:0:0:
271,158,132618,2,0,L|148:134,1,125,4|0,0:0|3:2,0:0:0:0:
68,249,132826,1,0,3:2:0:0:
69,275,132930,1,0,3:2:0:0:
76,300,133035,2,0,L|103:315,1,31.25,0|0,3:2|0:0,0:0:0:0:
254,357,133243,6,0,P|286:323|329:304,1,93.7500035762788,12|0,0:0|0:0,0:0:0:0:
389,198,133451,2,0,P|432:179|463:145,1,93.7500035762788,4|0,3:2|0:0,0:0:0:0:
396,334,133660,2,0,B|334:156,1,187.500007152558,4|0,3:2|0:0,0:0:0:0:
13,34,134076,6,0,B|41:-3|41:-3|84:16,1,93.7500035762788,2|0,0:0|0:0,0:0:0:0:
216,114,134285,2,0,B|194:156|194:156|149:146,1,93.7500035762788,10|0,3:2|0:0,0:0:0:0:
20,133,134493,2,0,L|184:42,1,187.500007152558,2|0,0:0|3:2,0:0:0:0:
108,232,134910,6,0,L|150:332,1,109.375001043081,2|0,0:0|0:0,0:0:0:0:
246,104,135118,2,0,L|288:4,1,109.375001043081,10|0,3:2|0:0,0:0:0:0:
352,220,135327,2,0,B|460:252|460:252|491:150,1,218.750002086163,2|0,0:0|3:2,0:0:0:0:
280,383,135743,6,0,L|222:272,1,125,2|0,0:0|0:0,0:0:0:0:
294,109,135951,2,0,L|352:220,1,125,10|0,3:2|0:0,0:0:0:0:
438,344,136160,2,0,P|462:236|351:219,1,250,2|0,0:0|3:2,0:0:0:0:
164,363,136576,5,0,0:0:0:0:
89,367,136680,1,0,0:0:0:0:
16,369,136785,1,8,3:2:0:0:
16,369,136993,6,0,P|51:233|135:122,1,281.250010728836,2|0,0:0|3:2,0:0:0:0:
435,384,137410,2,0,P|369:359|299:349,1,140.625005364418,2|0,0:0|0:0,0:0:0:0:
131,262,137618,2,0,P|196:237|266:227,1,140.625005364418,10|0,3:2|0:0,0:0:0:0:
407,84,137826,6,0,P|365:201|378:324,1,250,2|0,0:0|3:2,0:0:0:0:
378,324,138139,1,0,0:0:0:0:
378,324,138243,2,0,P|397:265|400:202,1,125,2|0,0:0|0:0,0:0:0:0:
311,22,138451,2,0,L|318:131,1,109.375001043081,10|0,3:2|0:0,0:0:0:0:
245,216,138660,6,0,B|198:252|124:176|65:214,1,187.500007152558,2|0,0:0|3:2,0:0:0:0:
198,126,138972,1,0,0:0:0:0:
216,117,139076,6,0,P|182:85|168:40,1,93.7500035762788,2|0,0:0|0:0,0:0:0:0:
98,293,139285,2,0,P|135:331|145:384,1,109.375001043081,10|0,3:2|0:0,0:0:0:0:
93,116,139493,2,0,L|234:323,1,250,2|0,0:0|3:2,0:0:0:0:
454,207,139910,1,12,0:0:0:0:
242,338,140118,2,0,L|380:321,1,125,2|0,3:2|0:0,0:0:0:0:
496,305,140326,6,0,P|379:297|350:184,1,250,0|2,3:2|0:0,0:0:0:0:
446,84,140847,1,0,0:0:0:0:
446,84,140951,6,0,P|435:171|349:183,1,187.5,10|0,3:2|0:0,0:0:0:0:
328,168,141160,6,0,P|281:174|238:193,1,93.7500035762788,2|0,0:0|0:0,0:0:0:0:
172,242,141368,6,0,P|133:237|94:235,1,78.125,0|0,3:2|0:0,0:0:0:0:
21,257,141576,6,0,P|4:307|30:354,1,109.375001043081,2|0,0:0|0:0,0:0:0:0:
105,364,141785,6,0,P|129:344|151:320,1,62.5,10|0,3:2|0:0,0:0:0:0:
171,241,141993,6,0,P|161:196|138:155,1,93.7500035762788,2|0,0:0|0:0,0:0:0:0:
12,26,142201,6,0,P|129:59|243:12,1,250,0|2,3:2|0:0,0:0:0:0:
243,12,142514,1,0,0:0:0:0:
64,115,142618,6,0,P|169:91|242:12,1,218.750002086163,10|2,3:2|0:0,0:0:0:0:
242,12,142930,1,0,0:0:0:0:
141,160,143035,6,0,P|218:88|242:-16,1,187.500007152558,0|2,3:2|0:0,0:0:0:0:
242,12,143347,1,0,0:0:0:0:
236,221,143451,6,0,P|254:186|265:149,1,78.125,10|0,3:2|0:0,0:0:0:0:
323,11,143660,2,0,P|358:30|395:41,1,78.125,2|0,0:0|0:0,0:0:0:0:
441,111,143868,6,0,P|366:208|359:331,1,250,4|0,3:2|0:0,0:0:0:0:
359,331,144493,2,0,L|296:325,1,62.5,0|0,3:2|0:0,0:0:0:0:
65,322,144701,1,8,3:2:0:0:
65,322,144910,6,0,L|74:362,2,41.6666666666667
56,203,145118,6,0,P|169:108|159:256,1,375.000014305115,6|2,3:2|3:2,0:0:0:0:
159,255,146229,5,0,3:2:0:0:
220,199,146344,5,0,3:2:0:0:
284,237,146460,5,0,3:2:0:0:
332,191,146576,5,0,3:2:0:0:
378,226,146691,5,0,3:2:0:0:
408,183,146807,5,0,3:2:0:0:
419,203,146923,6,0,B|424:134|448:76|448:76|431:98|400:105,1,187.5,4|0,3:0|0:0,0:0:0:0:
365,16,147620,1,8,0:0:0:0:
208,81,147969,1,8,0:0:0:0:
19,8,148318,6,0,B|41:51|92:60|92:60|54:98|66:146,1,187.5,2|0,0:0|0:0,0:0:0:0:
164,158,149016,1,8,0:1:0:0:
164,157,149713,6,0,B|155:235|174:298|174:298|162:278|139:272,1,187.5,2|0,0:0|0:0,0:0:0:0:
108,340,150410,1,8,0:0:0:0:
239,248,150759,1,8,0:0:0:0:
366,305,151108,2,0,B|490:287|490:287|430:270,1,187.5,2|0,0:0|0:0,0:0:0:0:
336,221,151806,1,8,0:1:0:0:
336,221,152504,6,0,P|249:254|204:334,1,187.5,2|0,0:0|0:0,0:0:0:0:
312,320,153202,1,8,0:0:0:0:
94,357,153550,1,8,0:0:0:0:
31,288,153899,6,0,B|66:240|22:161|67:107,1,187.5,2|0,0:0|0:0,0:0:0:0:
142,175,154597,1,8,0:1:0:0:
142,175,155295,6,0,P|190:96|278:68,1,187.5,2|0,0:0|0:0,0:0:0:0:
355,114,155992,1,8,0:0:0:0:
488,23,156341,1,8,0:0:0:0:
474,130,156690,6,0,P|448:220|438:314,1,187.5,2|0,0:0|0:0,0:0:0:0:
347,282,157388,1,8,0:1:0:0:
347,282,157911,1,0,3:2:0:0:
255,334,158085,6,0,P|192:327|130:322,1,125,4|0,0:0|0:0,0:0:0:0:
44,252,158434,1,8,0:0:0:0:
44,252,158783,1,8,0:0:0:0:
44,252,158957,5,8,0:0:0:0:
53,202,159045,1,8,0:0:0:0:
66,153,159132,1,8,0:0:0:0:
89,56,159306,1,0,3:2:0:0:
146,138,159481,5,0,3:2:0:0:
146,138,159829,1,8,0:0:0:0:
146,138,160178,1,8,0:0:0:0:
146,138,160353,5,8,0:0:0:0:
194,127,160440,1,8,0:0:0:0:
242,116,160527,1,8,0:0:0:0:
341,102,160702,1,8,0:0:0:0:
303,210,160876,5,8,3:2:0:0:
303,210,161225,1,8,0:0:0:0:
303,210,161574,1,8,0:0:0:0:
303,210,161748,5,8,0:0:0:0:
341,241,161835,1,8,0:0:0:0:
379,273,161923,1,8,0:0:0:0:
478,282,162097,1,8,0:0:0:0:
390,371,162271,5,8,0:0:0:0:
390,371,162620,1,8,0:0:0:0:
390,371,162969,1,8,0:0:0:0:
390,371,163143,5,8,0:0:0:0:
339,369,163231,1,8,0:0:0:0:
289,362,163318,2,0,L|227:353,1,62.5,8|0,0:0|0:0,0:0:0:0:
131,294,163492,2,0,L|128:262,2,31.25,0|0|0,3:2|0:0|0:0,0:0:0:0:
219,254,163667,5,6,3:2:0:0:
306,286,163841,1,0,0:0:0:0:
197,167,164016,5,2,3:2:0:0:
107,189,164190,1,0,0:0:0:0:
225,77,164364,5,2,3:2:0:0:
327,114,164538,1,8,0:0:0:0:
327,114,164626,1,8,0:0:0:0:
327,114,164713,1,2,3:2:0:0:
395,29,164888,1,0,0:0:0:0:
404,198,165062,5,2,3:2:0:0:
504,162,165236,1,0,0:0:0:0:
353,282,165411,5,2,3:2:0:0:
248,231,165585,1,0,0:0:0:0:
112,363,165760,5,2,3:2:0:0:
157,270,165934,1,8,0:0:0:0:
157,270,166021,1,8,0:0:0:0:
157,270,166109,1,2,3:2:0:0:
35,236,166283,1,0,0:0:0:0:
137,93,166457,6,0,L|143:186,1,93.7500035762788,2|0,3:2|0:0,0:0:0:0:
158,361,166632,2,0,L|151:267,1,93.7500035762788,10|0,3:2|0:0,0:0:0:0:
210,51,166806,6,0,L|219:161,1,109.375001043081,10|0,3:2|0:0,0:0:0:0:
239,374,166981,2,0,L|230:264,1,109.375001043081,10|0,3:2|0:0,0:0:0:0:
284,19,167155,5,10,3:2:0:0:
294,19,167242,1,10,3:2:0:0:
304,18,167329,1,10,3:2:0:0:
315,18,167417,1,10,3:2:0:0:
325,18,167504,1,10,3:2:0:0:
335,17,167591,1,10,3:2:0:0:
345,18,167678,1,10,3:2:0:0:
355,19,167766,1,10,3:2:0:0:
363,57,167853,5,10,3:2:0:0:
320,64,167940,1,2,3:2:0:0:
284,88,168027,1,2,3:2:0:0:
257,122,168114,1,2,3:2:0:0:
251,165,168201,1,2,3:2:0:0:
232,205,168289,1,2,3:2:0:0:
196,230,168376,1,2,3:2:0:0:
152,232,168463,1,2,3:2:0:0:
114,275,168550,5,2,3:2:0:0:
62,236,168637,1,2,3:2:0:0:
41,175,168724,1,2,3:2:0:0:
58,112,168811,1,2,3:2:0:0:
108,71,168898,1,2,3:2:0:0:
172,65,168986,1,2,3:2:0:0:
229,97,169073,1,2,0:0:0:0:
251,159,169161,1,0,0:0:0:0:
242,222,169248,6,0,P|235:271|223:320,1,100,2|2,0:0|0:0,0:0:0:0:
372,239,169597,2,0,P|389:285|414:329,1,100,2|2,0:0|0:0,0:0:0:0:
385,103,169946,6,0,L|312:84,1,74.9999977111817,2|0,0:0|0:0,0:0:0:0:
202,50,170120,2,0,L|128:63,1,74.9999977111817,2|0,0:0|0:0,0:0:0:0:
3,111,170295,2,0,P|-6:151|5:191,1,84.3749974250794,2|0,0:0|0:0,0:0:0:0:
21,208,170643,6,0,P|67:211|106:186,1,93.7500035762788,4|0,3:2|0:0,0:0:0:0:
202,50,170818,2,0,P|176:88|177:134,1,93.7500035762788,4|0,3:2|0:0,0:0:0:0:
317,274,170992,2,0,B|372:192|372:192|191:219,1,281.250010728836,4|0,3:2|0:0,0:0:0:0:
122,277,171341,5,8,3:2:0:0:
122,277,171428,2,0,L|107:373,1,62.5,0|8,0:0|3:2,0:0:0:0:
135,290,171603,2,0,L|125:351,1,62.5,8|8,3:2|3:2,0:0:0:0:
305,323,171777,1,0,3:2:0:0:
326,316,171864,1,0,3:2:0:0:
347,309,171952,1,0,3:2:0:0:
421,348,172213,5,2,0:0:0:0:
421,348,172300,1,2,0:0:0:0:
347,309,172388,2,0,P|270:195|279:57,1,281.250010728836,4|0,3:2|0:0,0:0:0:0:
350,18,172736,2,0,L|359:63,1,46.8750017881394,8|0,0:0|0:0,0:0:0:0:
160,257,172911,2,0,P|150:119|227:4,1,281.250010728836,4|0,3:2|0:0,0:0:0:0:
279,57,173260,1,2,0:0:0:0:
284,76,173347,1,2,0:0:0:0:
226,133,173434,6,0,P|267:157|313:153,1,93.7500035762788,4|0,3:2|0:0,0:0:0:0:
496,37,173609,2,0,P|456:60|435:101,1,93.7500035762788,4|0,3:2|0:0,0:0:0:0:
445,318,173783,2,0,P|444:271|418:233,1,93.7500035762788,4|0,3:2|0:0,0:0:0:0:
311,153,173957,2,0,L|301:206,2,31.2500011920929,0|0|0,3:2|3:2|3:2,0:0:0:0:
359,78,174132,5,0,3:2:0:0:
359,78,174219,2,0,L|349:17,1,62.5
374,62,174393,2,0,L|363:0,1,62.5
134,119,174568,1,0,0:0:0:0:
126,139,174655,1,2,0:0:0:0:
129,160,174742,1,0,0:0:0:0:
209,154,175004,5,2,0:0:0:0:
209,154,175091,1,0,0:0:0:0:
129,160,175178,2,0,P|263:124|402:139,1,281.250010728836,6|0,3:2|0:0,0:0:0:0:
466,187,175527,6,0,B|498:154|498:154|474:112,1,93.7500035762788,6|0,3:2|0:0,0:0:0:0:
223,41,175789,6,0,B|178:29|178:29|154:70,1,93.7500035762788,4|2,3:2|0:0,0:0:0:0:
219,325,176050,6,0,B|231:369|231:369|279:369,1,93.7500035762788,4|0,3:2|0:0,0:0:0:0:
279,369,176225,6,0,B|268:308|289:272|312:290|329:252|317:193,1,187.500007152558
297,73,176748,2,0,L|307:11,2,41.6666666666667,0|0|0,3:2|3:2|3:2,0:0:0:0:
261,138,176923,5,4,3:2:0:0:
250,149,177010,1,0,0:0:0:0:
240,222,177097,2,0,P|117:191|153:70,1,281.250010728836,4|0,3:2|0:0,0:0:0:0:
297,73,177446,2,0,L|359:83,2,41.6666666666667,4|0|0,3:2|0:0|0:0,0:0:0:0:
217,22,177620,6,0,L|229:114,1,93.7500035762788,4|0,3:2|0:0,0:0:0:0:
426,143,177882,6,0,L|413:235,1,93.7500035762788,4|0,3:2|0:0,0:0:0:0:
90,273,178143,6,0,L|102:365,1,93.7500035762788,4|0,3:2|0:0,0:0:0:0:
102,365,178318,6,0,L|169:355,1,46.8750017881394,8|0,3:2|0:0,0:0:0:0:
231,240,178492,2,0,L|538:301,1,281.250010728836,4|0,3:2|0:0,0:0:0:0:
409,370,178841,1,2,0:0:0:0:
402,351,178928,1,2,0:0:0:0:
491,284,179016,6,0,P|500:344|475:374,1,93.7500035762788,4|0,3:2|0:0,0:0:0:0:
215,252,179190,2,0,P|206:192|231:162,1,93.7500035762788,4|0,3:2|0:0,0:0:0:0:
388,60,179364,2,0,L|402:190,1,93.7500035762788,4|0,3:2|0:0,0:0:0:0:
398,153,179539,6,0,L|384:222,1,46.8750017881394,0|0,3:2|3:2,0:0:0:0:
372,284,179713,1,8,3:2:0:0:
372,284,179800,1,0,0:0:0:0:
386,212,179888,6,0,P|349:182|293:184,1,93.7500035762788,4|0,3:2|0:0,0:0:0:0:
107,289,180062,2,0,P|150:272|176:222,1,93.7500035762788,4|0,3:2|0:0,0:0:0:0:
178,8,180236,2,0,P|170:53|200:101,1,93.7500035762788,4|0,3:2|0:0,0:0:0:0:
304,180,180411,6,0,L|319:100,2,41.6666666666667,8|8|8,3:2|3:2|3:2,0:0:0:0:
256,265,180585,2,0,P|209:262|174:233,1,93.7500035762788,12|0,3:2|0:0,0:0:0:0:
9,204,180760,2,0,P|33:165|77:149,1,93.7500035762788,4|0,3:2|0:0,0:0:0:0:
178,8,180934,2,0,P|199:48|191:94,1,93.7500035762788,12|0,3:2|0:0,0:0:0:0:
90,155,181109,6,0,L|0:132,1,93.7500035762788,12|0,3:2|0:0,0:0:0:0:
256,265,181370,6,0,L|233:355,1,93.7500035762788,12|0,3:2|0:0,0:0:0:0:
366,99,181632,6,0,L|456:121,1,93.7500035762788,12|0,3:2|0:0,0:0:0:0:
457,121,181806,6,0,L|272:152,1,187.500007152558,12|0,3:2|0:0,0:0:0:0:
211,198,182068,1,0,0:0:0:0:
211,198,182155,6,0,L|164:190,1,46.8750017881394,8|0,0:0|0:0,0:0:0:0:
90,155,182329,1,0,0:0:0:0:
90,155,182417,1,0,0:0:0:0:
156,203,182504,6,0,P|244:221|312:161,1,187.500007152558,4|0,3:2|0:0,0:0:0:0:
440,16,182766,2,0,P|380:83|398:172,1,187.500007152558,4|0,3:2|0:0,0:0:0:0:
459,356,183027,2,0,P|430:270|344:241,1,187.500007152558,4|0,3:2|3:2,0:0:0:0:
344,241,183376,2,0,L|338:308,1,46.8750017881394
329,359,183550,6,0,B|243:370|196:301|243:293|190:221|100:238,1,281.250010728836,4|0,3:2|0:0,0:0:0:0:
13,216,183899,6,0,P|26:262|28:308,1,93.7500035762788,4|0,3:2|0:0,0:0:0:0:
269,226,184074,2,0,P|256:180|254:134,1,93.7500035762788,0|0,0:0|3:2,0:0:0:0:
137,14,184248,1,0,3:2:0:0:
134,38,184335,1,0,3:2:0:0:
131,62,184423,1,0,3:2:0:0:
128,86,184510,1,0,3:2:0:0:
56,120,184597,6,0,L|246:150,1,187.500007152558,12|0,3:2|3:2,0:0:0:0:
394,244,184859,1,0,3:2:0:0:
394,244,184946,2,0,L|204:274,1,187.500007152558,8|0,0:0|0:0,0:0:0:0:
150,319,185207,1,0,0:0:0:0:
150,319,185295,2,0,B|226:377|226:377|316:349,1,187.500007152558,4|0,3:2|0:0,0:0:0:0:
485,202,185556,2,0,B|409:144|409:144|319:172,1,187.500007152558,4|0,3:2|0:0,0:0:0:0:
283,241,185818,2,0,L|296:333,1,93.7500035762788,4|0,3:2|0:0,0:0:0:0:
392,370,185992,5,0,3:2:0:0:
144,239,186167,2,0,P|98:228|51:232,1,93.7500035762788,0|0,3:2|3:2,0:0:0:0:
368,287,186341,5,0,3:2:0:0:
95,309,186516,2,0,P|50:323|11:349,1,93.7500035762788,0|0,3:2|3:2,0:0:0:0:
344,204,186690,5,0,3:2:0:0:
156,370,186864,1,0,3:2:0:0:
156,370,186952,1,0,3:2:0:0:
226,350,187039,2,0,L|234:303,1,46.8750017881394,0|0,3:2|3:2,0:0:0:0:
248,233,187213,2,0,L|256:186,1,46.8750017881394,0|0,3:2|3:2,0:0:0:0:
171,47,187388,6,0,P|164:92|187:132,1,93.7500035762788,12|0,3:2|0:0,0:0:0:0:
426,232,187562,2,0,P|389:203|343:203,1,93.7500035762788,2|0,3:2|0:0,0:0:0:0:
95,281,187736,2,0,B|41:346|41:346|250:300,1,281.250010728836,8|0,0:0|0:0,0:0:0:0:
309,350,188085,6,0,L|335:164,1,187.500007152558,4|0,3:2|0:0,0:0:0:0:
211,17,188347,2,0,L|237:202,1,187.500007152558,4|0,3:2|0:0,0:0:0:0:
121,373,188609,2,0,L|135:280,1,93.7500035762788,4|0,3:2|0:0,0:0:0:0:
49,151,188783,5,0,3:2:0:0:
49,151,188957,2,0,P|90:174|137:178,1,93.7500035762788
473,179,189132,2,0,P|381:179|216:311,1,281.250010728836,4|0,3:2|0:0,0:0:0:0:
155,302,189481,5,4,3:2:0:0:
155,302,189568,2,0,L|145:237,1,46.8750017881394
283,138,189742,1,0,3:2:0:0:
283,138,189829,2,0,L|293:73,1,46.8750017881394,0|0,3:2|3:2,0:0:0:0:
128,2,190004,1,0,3:2:0:0:
132,18,190091,1,0,3:2:0:0:
146,91,190178,6,0,L|161:183,1,93.7500035762788,4|0,3:2|3:2,0:0:0:0:
236,328,190353,1,0,3:2:0:0:
244,333,190440,1,0,3:2:0:0:
252,338,190527,6,0,L|267:245,1,93.7500035762788,4|0,3:2|3:2,0:0:0:0:
342,30,190702,1,0,3:2:0:0:
350,25,190789,1,0,3:2:0:0:
358,20,190876,6,0,L|373:112,1,93.7500035762788,4|0,3:2|3:2,0:0:0:0:
448,374,191050,1,0,3:2:0:0:
456,379,191137,1,0,3:2:0:0:
464,384,191224,6,0,L|479:291,1,93.7500035762788,4|0,3:2|3:2,0:0:0:0:
495,214,191399,2,0,L|402:199,1,93.7500035762788,2|0,3:2|3:2,0:0:0:0:
325,183,191574,5,6,3:2:0:0:
256,192,191661,12,0,192882,0:0:0:0:
253,169,192969,6,0,L|240:293,1,125,0|0,3:2|0:0,0:0:0:0:
234,368,193290,1,0,0:0:0:0:
163,320,193397,1,0,3:2:0:0:
163,320,193501,2,0,L|169:257,1,62.5
169,257,193709,1,0,0:0:0:0:
131,195,193813,5,0,3:2:0:0:
56,189,193948,5,0,3:2:0:0:
10,231,194083,5,0,3:2:0:0:
7,286,194218,5,0,3:2:0:0:
31,317,194360,5,0,3:2:0:0:
45,348,194503,5,0,3:2:0:0:
41,368,194646,5,0,3:2:0:0:
41,368,194854,5,2,0:0:0:0:
133,354,195062,1,10,0:0:0:0:
225,338,195271,2,0,L|348:318,1,125,2|0,0:0|0:0,0:0:0:0:
441,305,195896,1,8,0:0:0:0:
441,305,196312,5,0,0:0:0:0:
349,289,196520,1,2,0:0:0:0:
257,273,196729,1,10,0:0:0:0:
165,253,196938,2,0,L|41:233,1,125,2|8,0:0|0:0,0:0:0:0:
28,140,197562,2,0,L|41:232,1,93.75,8|0,0:0|0:0,0:0:0:0:
41,232,197979,5,0,0:0:0:0:
133,220,198187,1,2,0:0:0:0:
225,204,198396,1,10,0:0:0:0:
317,184,198605,2,0,L|440:162,1,125,2|2,0:0|0:0,0:0:0:0:
457,254,199229,1,10,0:0:0:0:
440,162,199646,5,0,0:0:0:0:
348,142,199854,2,0,L|354:111,2,31.25,2|2|10,0:0|0:0|0:0,0:0:0:0:
256,121,200271,2,0,L|134:92,1,125,2|8,0:0|0:0,0:0:0:0:
43,66,200896,1,8,0:0:0:0:
43,66,201104,1,0,3:2:0:0:
40,158,201312,6,0,L|55:281,1,125,4|8,3:2|0:0,0:0:0:0:
71,383,201937,1,0,0:0:0:0:
71,383,202354,1,0,0:0:0:0:
149,377,202562,1,8,0:0:0:0:
244,301,202771,2,0,P|304:294|350:334,1,125
279,380,203396,1,8,0:0:0:0:
171,275,203604,2,0,P|110:267|64:307,1,125,0|8,0:0|0:0,0:0:0:0:
243,300,204229,2,0,P|282:277|287:232,1,93.75,8|0,0:0|0:0,0:0:0:0:
286,232,204646,6,0,P|316:286|322:348,1,125,0|8,0:0|0:0,0:0:0:0:
322,348,205271,1,0,0:0:0:0:
426,256,205479,2,0,P|417:194|436:135,1,125,0|8,0:0|0:0,0:0:0:0:
435,134,206104,1,0,0:0:0:0:
310,90,206312,6,0,P|309:59|307:28,1,62.5
238,199,206729,2,0,P|242:236|245:274,1,74.9999977111817,8|0,0:0|0:0,0:0:0:0:
147,122,207146,2,0,P|149:78|154:35,1,87.499997329712,0|8,0:0|0:0,0:0:0:0:
73,229,207562,1,8,0:0:0:0:
73,229,207771,1,0,3:2:0:0:
24,359,207979,6,0,P|72:345|121:338,1,100,4|0,3:2|0:0,0:0:0:0:
190,364,208396,2,0,P|239:371|287:384,1,100,0|0,3:2|0:0,0:0:0:0:
359,369,208812,2,0,P|345:320|338:271,1,100,0|0,3:2|0:0,0:0:0:0:
364,203,209229,2,0,P|371:153|384:105,1,100,0|0,3:2|0:0,0:0:0:0:
160,6,209646,6,0,P|179:53|189:102,1,100,0|0,3:2|0:0,0:0:0:0:
134,160,210062,2,0,P|92:133|49:109,1,100,0|0,3:2|0:0,0:0:0:0:
80,249,210479,1,0,3:2:0:0:
80,249,210687,1,8,0:0:0:0:
140,314,210896,2,0,P|68:336|0:366,1,150,8|0,3:2|0:0,0:0:0:0:
76,373,211312,6,0,P|107:365|138:359,1,62.5,4|0,3:2|0:0,0:0:0:0:
322,365,211521,2,0,P|291:357|261:352,1,62.5,0|0,3:2|0:0,0:0:0:0:
65,347,211729,6,0,P|95:339|126:333,1,62.5,0|0,3:2|0:0,0:0:0:0:
341,342,211937,2,0,P|310:334|279:328,1,62.5,0|0,3:2|0:0,0:0:0:0:
52,301,212146,6,0,P|82:293|113:287,1,62.5,0|0,3:2|0:0,0:0:0:0:
360,299,212354,2,0,P|329:291|298:285,1,62.5,0|0,3:2|0:0,0:0:0:0:
44,228,212562,6,0,P|74:220|105:214,1,62.5,0|0,3:2|0:0,0:0:0:0:
377,225,212771,2,0,P|346:217|315:211,1,62.5,0|0,3:2|0:0,0:0:0:0:
15,180,212979,5,2,3:2:0:0:
76,167,213083,1,2,3:2:0:0:
137,158,213187,1,2,3:2:0:0:
199,155,213291,1,2,3:2:0:0:
261,157,213396,1,2,3:2:0:0:
321,170,213500,1,2,3:2:0:0:
378,193,213604,1,2,3:2:0:0:
429,228,213708,1,2,3:2:0:0:
444,261,213812,6,0,L|475:260,1,31.25,2|0,3:2|0:0,0:0:0:0:
448,220,213916,2,0,L|479:219,1,31.25,2|0,3:2|0:0,0:0:0:0:
458,183,214021,2,0,L|489:182,1,31.25,2|0,3:2|0:0,0:0:0:0:
462,150,214125,2,0,L|493:149,1,31.25,2|0,3:2|0:0,0:0:0:0:
468,120,214229,2,0,L|499:120,1,31.25,2|0,3:2|0:0,0:0:0:0:
475,80,214333,2,0,L|506:79,1,31.25,2|0,3:2|0:0,0:0:0:0:
473,42,214437,6,0,L|348:34,1,125,4|0,3:2|0:0,0:0:0:0:
330,5,215687,2,0,L|455:13,1,125,4|0,3:2|0:0,0:0:0:0:
455,13,216104,6,0,P|438:179|275:145,1,375,6|0,3:2|0:0,0:0:0:0:
243,80,216521,6,0,P|203:125|212:185,1,125,2|0,0:0|0:0,0:0:0:0:
358,308,216729,2,0,P|397:262|388:202,1,125,10|0,3:2|0:0,0:0:0:0:
223,192,216937,2,0,P|20:178|150:22,1,500,2|0,0:0|0:0,0:0:0:0:
150,22,217562,1,8,3:2:0:0:
331,113,217771,6,0,B|245:105|250:171|154:162,1,187.500007152558,2|0,0:0|3:2,0:0:0:0:
57,77,218083,1,0,0:0:0:0:
63,90,218187,2,0,P|58:136|49:182,1,93.7500035762788,2|0,0:0|0:0,0:0:0:0:
105,322,218395,2,0,P|109:275|118:229,1,93.7500035762788,10|0,3:2|0:0,0:0:0:0:
137,141,218604,6,0,B|236:132|231:208|342:198,1,218.750002086163,2|0,0:0|3:2,0:0:0:0:
417,115,218916,1,0,0:0:0:0:
413,129,219021,2,0,P|416:183|430:236,1,109.375001043081,2|0,0:0|0:0,0:0:0:0:
313,384,219230,2,0,P|309:329|295:276,1,109.375001043081,10|0,3:2|0:0,0:0:0:0:
258,83,219437,6,0,B|265:168|200:164|208:259,1,187.500007152558,2|0,0:0|3:2,0:0:0:0:
219,341,219750,1,0,0:0:0:0:
230,332,219854,2,0,P|193:303|148:307,1,93.7500035762788,2|0,0:0|0:0,0:0:0:0:
48,198,220062,2,0,P|84:226|129:222,1,93.7500035762788,10|0,3:2|0:0,0:0:0:0:
344,168,220271,6,0,L|330:12,1,156.25,2|0,0:0|3:2,0:0:0:0:
417,27,220583,1,0,0:0:0:0:
422,37,220687,6,0,P|413:76|411:107,1,62.5,12|0,0:0|0:0,0:0:0:0:
269,168,220896,2,0,P|277:206|280:237,1,62.5,8|0,3:2|0:0,0:0:0:0:
411,336,221104,5,0,3:2:0:0:
441,327,221208,1,0,3:2:0:0:
471,319,221312,1,4,3:2:0:0:
476,315,221521,2,0,L|467:388,1,62.5,2|0,0:0|0:0,0:0:0:0:
426,188,221729,2,0,L|417:261,1,62.5,10|0,3:2|0:0,0:0:0:0:
279,229,221937,5,2,0:0:0:0:
249,220,222041,1,0,0:0:0:0:
219,212,222145,1,0,3:2:0:0:
214,208,222354,2,0,L|223:281,1,62.5,2|0,0:0|0:0,0:0:0:0:
264,81,222562,2,0,L|273:154,1,62.5,10|0,3:2|0:0,0:0:0:0:
180,335,222771,5,2,0:0:0:0:
149,343,222875,1,0,0:0:0:0:
157,312,222979,1,0,3:2:0:0:
354,144,223187,5,2,0:0:0:0:
388,177,223291,1,0,0:0:0:0:
341,191,223395,1,10,3:2:0:0:
107,80,223604,5,2,0:0:0:0:
124,9,223708,1,0,0:0:0:0:
177,60,223812,1,0,3:2:0:0:
182,64,224021,6,0,L|173:125,1,62.5,2|0,3:2|0:0,0:0:0:0:
218,186,224229,2,0,L|209:247,1,62.5,10|0,3:2|0:0,0:0:0:0:
254,307,224437,6,0,P|313:268|492:249,1,250,2|0,0:0|0:0,0:0:0:0:
510,141,224958,1,0,0:0:0:0:
510,141,225062,6,0,P|437:180|486:247,1,187.5,10|0,3:2|0:0,0:0:0:0:
500,244,225271,6,0,P|489:314|448:324,1,109.375001043081,2|0,0:0|0:0,0:0:0:0:
391,351,225479,2,0,P|355:379|311:368,1,93.7500035762788,2|0,3:2|3:2,0:0:0:0:
241,349,225687,2,0,P|204:337|185:304,1,78.125,2|0,0:0|3:2,0:0:0:0:
171,233,225896,1,8,3:2:0:0:
171,233,226104,6,0,P|58:223|114:322,1,281.250010728836,4|0,3:2|0:0,0:0:0:0:
244,256,226521,6,0,P|264:205|261:151,1,109.375001043081,4|0,0:0|0:0,0:0:0:0:
35,120,226729,2,0,P|14:170|17:224,1,109.375001043081,4|0,0:0|3:2,0:0:0:0:
348,235,226937,1,0,3:2:0:0:
354,222,227041,1,0,3:2:0:0:
376,181,227146,6,0,P|373:118|347:62,1,125,2|0,3:2|0:0,0:0:0:0:
143,115,227354,2,0,P|145:177|171:233,1,125,12|0,0:0|0:0,0:0:0:0:
469,270,227562,2,0,P|494:213|497:151,1,125,4|0,3:2|0:0,0:0:0:0:
340,56,227771,6,0,P|251:123|292:284,1,281.250010728836,4|0,3:2|0:0,0:0:0:0:
205,318,228187,6,0,P|234:282|279:274,1,93.7500035762788,2|0,0:0|0:0,0:0:0:0:
353,222,228396,2,0,P|399:228|428:263,1,93.7500035762788,10|0,3:2|0:0,0:0:0:0:
275,350,228604,2,0,L|88:328,1,187.500007152558,2|0,0:0|3:2,0:0:0:0:
12,257,228916,1,0,0:0:0:0:
18,266,229021,6,0,L|125:247,1,109.375001043081,2|0,0:0|0:0,0:0:0:0:
312,154,229229,2,0,L|204:172,1,109.375001043081,10|0,3:2|0:0,0:0:0:0:
134,251,229437,2,0,P|182:156|162:51,1,218.750002086163,2|0,0:0|3:2,0:0:0:0:
336,6,229854,6,0,P|312:61|254:78,1,125,2|0,0:0|0:0,0:0:0:0:
27,74,230062,2,0,P|50:129|108:146,1,125,10|0,3:2|0:0,0:0:0:0:
255,66,230271,2,0,P|332:275|117:331,1,500,2|0,0:0|0:0,0:0:0:0:
117,331,230896,1,8,3:2:0:0:
203,149,231104,6,0,B|333:141|335:225|472:210,1,281.250010728836,2|0,0:0|3:2,0:0:0:0:
482,137,231416,1,0,0:0:0:0:
498,129,231521,2,0,P|486:77|479:128,1,140.625005364418,2|0,0:0|0:0,0:0:0:0:
400,286,231729,2,0,P|388:338|381:287,1,140.625005364418,10|0,3:2|0:0,0:0:0:0:
317,92,231937,6,0,B|199:85|198:160|74:147,1,250,2|0,0:0|3:2,0:0:0:0:
7,107,232250,1,0,0:0:0:0:
2,119,232354,2,0,P|45:161|39:221,1,125,2|0,0:0|0:0,0:0:0:0:
168,328,232562,2,0,P|124:285|130:225,1,125,10|0,3:2|0:0,0:0:0:0:
312,79,232771,6,0,P|309:182|211:210,1,218.750002086163,2|0,0:0|3:2,0:0:0:0:
126,151,233083,1,0,0:0:0:0:
119,142,233187,2,0,L|134:33,1,109.375001043081,2|0,0:0|0:0,0:0:0:0:
295,243,233396,2,0,L|279:351,1,109.375001043081,10|0,3:2|0:0,0:0:0:0:
46,347,233604,6,0,P|96:299|213:305,1,187.500007152558,2|0,0:0|3:2,0:0:0:0:
270,357,233916,1,0,0:0:0:0:
278,351,234021,6,0,L|288:290,1,62.5,12|0,0:0|0:0,0:0:0:0:
453,266,234229,2,0,L|443:327,1,62.5,2|0,3:2|0:0,0:0:0:0:
377,369,234437,6,0,P|415:251|396:129,1,250,0|2,3:2|0:0,0:0:0:0:
158,209,234958,1,0,0:0:0:0:
158,209,235062,6,0,B|202:191|249:211|237:239|286:259|333:242,1,187.5,10|0,3:2|0:0,0:0:0:0:
338,233,235271,6,0,P|333:202|315:176,1,62.5,2|0,0:0|0:0,0:0:0:0:
327,101,235479,2,0,P|302:70|268:53,1,78.125,0|0,3:2|0:0,0:0:0:0:
180,309,235687,2,0,P|216:322|286:308,1,93.7500035762788,2|0,0:0|0:0,0:0:0:0:
332,358,235896,2,0,P|370:351|433:289,1,109.375001043081,10|0,3:2|0:0,0:0:0:0:
195,118,236104,2,0,P|151:161|139:222,1,125,2|0,0:0|0:0,0:0:0:0:
83,279,236312,6,0,P|178:355|300:350,1,250,0|2,3:2|0:0,0:0:0:0:
300,350,236625,1,0,0:0:0:0:
423,308,236729,6,0,P|316:314|229:252,1,218.750002086163,10|2,3:2|0:0,0:0:0:0:
229,252,237041,1,0,0:0:0:0:
100,159,237146,6,0,P|135:190|181:197,1,93.7500035762788,0|0,3:2|0:0,0:0:0:0:
382,134,237354,6,0,L|371:45,1,62.5,2|0,0:0|0:0,0:0:0:0:
216,16,237562,2,0,L|229:140,1,125,10|2,3:2|0:0,0:0:0:0:
229,140,237979,6,0,P|110:118|19:197,1,250,4|0,3:2|0:0,0:0:0:0:
19,197,238604,2,0,L|26:259,1,62.5,0|0,3:2|0:0,0:0:0:0:
223,352,238812,1,8,3:2:0:0:
223,352,239021,2,0,L|264:347,2,41.6666666666667
152,301,239229,6,0,L|401:321,1,250,6|2,3:2|0:0,0:0:0:0:
401,321,239750,1,0,0:0:0:0:
401,321,239854,1,2,0:0:0:0:
256,192,240062,5,2,0:0:0:0:
224,96,240271,1,0,3:2:0:0:
256,108,240375,1,0,3:2:0:0:
288,96,240479,1,0,3:2:0:0:
256,20,240687,1,2,0:0:0:0:
256,280,240896,1,0,3:2:0:0:
216,304,241000,1,0,3:2:0:0:
256,328,241104,1,0,3:2:0:0:
296,304,241208,1,0,3:2:0:0:
256,304,241312,6,0,P|227:249|226:187,1,125,4|0,3:2|0:0,0:0:0:0:
372,75,241625,1,0,0:0:0:0:
372,75,241729,6,0,P|389:152|337:146,1,140.625005364418,4|0,3:2|0:0,0:0:0:0:
344,147,241937,6,0,P|318:130|287:132,1,62.5,2|0,0:0|0:0,0:0:0:0:
226,187,242146,2,0,P|188:194|154:176,1,78.125,10|0,3:2|0:0,0:0:0:0:
113,109,242354,2,0,P|74:84|29:93,1,93.7500035762788,2|0,0:0|0:0,0:0:0:0:
134,255,242562,2,0,P|180:280|232:268,1,109.375001043081,0|0,3:2|0:0,0:0:0:0:
287,132,242771,2,0,P|343:118|406:156,1,125,2|0,0:0|0:0,0:0:0:0:
439,366,242979,6,0,P|332:316|334:197,1,250,2|2,3:2|0:0,0:0:0:0:
334,197,243291,1,0,0:0:0:0:
502,258,243396,6,0,P|400:277|333:197,1,218.750002086163,2|2,3:2|0:0,0:0:0:0:
334,197,243708,1,0,0:0:0:0:
492,136,243812,6,0,P|479:181|441:206,1,93.7500035762788,2|0,3:2|0:0,0:0:0:0:
214,152,244021,6,0,L|222:91,1,62.5,2|0,0:0|0:0,0:0:0:0:
437,13,244229,2,0,L|419:150,1,125,2|2,3:2|0:0,0:0:0:0:
420,136,244646,6,0,P|490:236|467:356,1,250,6|0,3:2|0:0,0:0:0:0:
467,356,245271,6,0,L|406:348,1,62.5,0|0,3:2|0:0,0:0:0:0:
216,320,245479,1,8,3:2:0:0:
216,320,245687,2,0,L|224:262,2,41.6666666666667
274,378,245896,6,0,L|241:130,1,250,6|0,3:2|0:0,0:0:0:0:
285,69,246416,1,0,3:2:0:0:
297,79,246521,6,0,L|359:86,1,62.5,0|0,3:2|3:2,0:0:0:0:
171,176,246729,6,0,L|86:186,1,78.125,2|0,3:2|0:0,0:0:0:0:
339,268,246937,6,0,L|433:279,1,93.7500035762788,2|0,3:2|0:0,0:0:0:0:
144,343,247146,5,2,3:2:0:0:
144,343,247562,2,0,L|97:349,1,46.875,14|0,0:0|0:0,0:0:0:0:
243,267,247979,5,4,0:0:0:0:
70,218,248187,1,8,0:0:0:0:
115,198,248291,1,8,0:0:0:0:
161,177,248396,1,8,3:2:0:0:
52,53,248604,1,8,0:0:0:0:
208,11,248812,2,0,L|327:48,1,125,8|8,3:2|0:0,0:0:0:0:
345,257,249229,2,0,L|388:139,1,125,8|8,3:2|0:0,0:0:0:0:
402,118,249541,1,0,0:0:0:0:
402,118,249646,5,8,3:2:0:0:
424,323,249854,1,8,0:0:0:0:
444,277,249958,1,8,0:0:0:0:
461,230,250062,1,8,3:2:0:0:
246,282,250271,1,8,0:0:0:0:
164,94,250479,2,0,L|152:155,1,62.5,10|0,3:2|0:0,0:0:0:0:
37,264,250687,2,0,L|84:223,1,62.5,10|0,0:0|0:0,0:0:0:0:
246,282,250896,2,0,L|198:241,1,62.5,10|0,3:2|0:0,0:0:0:0:
130,351,251104,1,10,0:0:0:0:
80,354,251208,1,0,0:0:0:0:
27,356,251312,5,8,3:2:0:0:
318,303,251521,1,8,0:0:0:0:
367,297,251625,1,8,0:0:0:0:
416,294,251729,1,8,3:2:0:0:
243,384,251937,1,8,0:0:0:0:
478,220,252146,2,0,P|478:157|474:95,1,125,8|8,3:2|0:0,0:0:0:0:
201,260,252562,2,0,P|255:229|311:201,1,125,8|8,3:2|0:0,0:0:0:0:
345,188,252875,1,8,0:0:0:0:
345,188,252979,5,10,3:2:0:0:
206,29,253187,1,10,0:0:0:0:
208,78,253291,1,8,3:2:0:0:
212,128,253396,1,10,3:2:0:0:
42,27,253604,1,10,0:0:0:0:
39,259,253812,5,0,3:2:0:0:
141,208,253951,5,0,3:2:0:0:
42,150,254090,5,0,3:2:0:0:
42,282,254229,6,0,L|57:374,1,93.75,12|0,3:2|0:0,0:0:0:0:
92,376,254646,5,4,0:0:0:0:
118,204,254854,6,0,L|192:206,1,74.9999977111817,8|8,0:0|0:0,0:0:0:0:
315,253,255062,1,8,0:0:0:0:
512,204,255271,6,0,L|437:206,1,74.9999977111817,8|8,0:0|0:0,0:0:0:0:
315,253,255479,1,8,0:0:0:0:
115,109,255687,6,0,L|189:111,1,74.9999977111817,8|8,0:0|0:0,0:0:0:0:
315,253,255895,1,8,0:0:0:0:
502,110,256104,6,0,L|427:112,1,74.9999977111817,8|8,0:0|0:0,0:0:0:0:
315,253,256312,1,8,0:0:0:0:
242,37,256521,5,8,0:0:0:0:
182,35,256625,1,8,0:0:0:0:
122,32,256729,1,8,0:0:0:0:
122,32,256937,6,0,L|196:34,1,74.9999977111817,8|8,0:0|0:0,0:0:0:0:
315,253,257146,1,8,0:0:0:0:
374,148,257354,1,8,0:0:0:0:
457,237,257562,1,8,0:0:0:0:
467,382,257771,1,8,0:0:0:0:
365,318,257979,6,0,L|356:256,1,62.5,8|0,3:2|0:0,0:0:0:0:
361,108,258187,2,0,L|352:169,1,62.5,8|0,3:2|0:0,0:0:0:0:
279,340,258396,6,0,L|271:262,1,78.125,8|0,3:2|0:0,0:0:0:0:
286,87,258604,2,0,L|271:163,1,78.125,8|0,3:2|0:0,0:0:0:0:
196,361,258812,6,0,L|184:267,1,93.7500035762788,8|0,3:2|0:0,0:0:0:0:
205,63,259020,2,0,L|187:155,1,93.7500035762788,8|0,3:2|0:0,0:0:0:0:
118,384,259229,6,0,L|105:275,1,109.375001043081,8|0,3:2|0:0,0:0:0:0:
122,41,259437,2,0,L|104:148,1,109.375001043081,8|0,3:2|0:0,0:0:0:0:
28,382,259646,5,8,3:2:0:0:
21,327,259750,1,8,3:2:0:0:
21,272,259854,1,8,3:2:0:0:
36,219,259958,1,8,3:2:0:0:
70,260,260062,5,8,3:2:0:0:
60,206,260166,1,8,3:2:0:0:
49,151,260271,1,8,3:2:0:0:
37,97,260375,1,8,3:2:0:0:
82,126,260479,5,8,3:2:0:0:
131,104,260583,1,8,3:2:0:0:
182,84,260687,1,8,3:2:0:0:
235,73,260791,1,8,3:2:0:0:
290,71,260896,6,0,L|285:125,1,54.6875005215406,8|0,3:2|0:0,0:0:0:0:
328,80,261000,2,0,L|309:131,1,54.6875005215406,8|0,3:2|0:0,0:0:0:0:
364,102,261104,2,0,L|332:146,1,54.6875005215406,8|0,3:2|0:0,0:0:0:0:
391,129,261208,2,0,L|349:164,1,54.6875005215406,8|0,3:2|0:0,0:0:0:0:
417,154,261312,6,0,L|364:188,1,62.5,4|2,0:0|0:0,0:0:0:0:
357,267,261729,2,0,L|408:302,1,62.5,2|2,0:0|0:0,0:0:0:0:
504,370,262146,5,2,0:0:0:0:
357,267,262354,1,2,0:0:0:0:
498,139,262562,1,2,0:0:0:0:
