osu file format v14

[General]
AudioFilename: audio.mp3
AudioLeadIn: 0
PreviewTime: 58139
Countdown: 0
SampleSet: Soft
StackLeniency: 0.3
Mode: 0
LetterboxInBreaks: 0
WidescreenStoryboard: 1

[Editor]
Bookmarks: 534,85535,146923,158086,170643,181806,194646,216312,247979,262979,263172
DistanceSpacing: 0.3
BeatDivisor: 6
GridSize: 16
TimelineZoom: 2.699999

[Metadata]
Title:Crystallize
TitleUnicode:クリスタライズ
Artist:Minase Inori
ArtistUnicode:水瀬いのり
Creator:Shurelia
Version:Duckwave's Insane
Source:明日方舟
Tags:Monster Siren Records Rosmontis アークナイツ Studio Montagne Risen Angelina lcfc lowcomboFC ducky- -_heatwave_- heatwave hokichi Arknights Yostar Hypergyph video game gacha japanese electronic pop jpop j-pop collab
BeatmapID:2769034
BeatmapSetID:1336636

[Difficulty]
HPDrainRate:5
CircleSize:4
OverallDifficulty:8.5
ApproachRate:9
SliderMultiplier:2
SliderTickRate:1

[Events]
//Background and Video events
0,0,"rosmontisamiya.jpg",0,0
//Break Periods
//Storyboard Layer 0 (Background)
//Storyboard Layer 1 (Fail)
//Storyboard Layer 2 (Pass)
//Storyboard Layer 3 (Foreground)
//Storyboard Layer 4 (Overlay)
//Storyboard Sound Samples

[TimingPoints]
535,416.666666666667,4,2,99,40,1,0
743,-100,4,2,1,60,0,0
1993,-133.333333333333,4,2,1,60,0,0
3660,-100,4,2,1,60,0,0
6368,-100,4,2,98,60,0,0
6785,-83.3333333333333,4,2,98,60,0,0
7201,-66.6666666666667,4,2,2,60,0,0
8243,-133.333333333333,4,2,2,60,0,0
9701,-76.9230769230769,4,2,2,60,0,0
13868,-76.9230769230769,4,2,1,60,0,0
13972,-76.9230769230769,4,2,2,60,0,0
15535,-66.6666666666667,4,2,1,60,0,0
16055,-66.6666666666667,4,2,98,60,0,0
16368,-66.6666666666667,4,2,97,60,0,0
16576,-66.6666666666667,4,2,1,60,0,0
16993,-133.333333333333,4,2,1,60,0,0
17201,-133.333333333333,4,2,98,60,0,0
17410,-133.333333333333,4,2,1,60,0,0
17826,-181.818181818181,4,2,1,60,0,0
18451,-100,4,2,1,60,0,0
18868,-66.6666666666667,4,2,1,60,0,0
19701,-66.6666666666667,4,2,97,60,0,0
19910,-66.6666666666667,4,2,1,60,0,0
22201,-50,4,2,1,60,0,0
22410,-166.666666666667,4,2,1,60,0,0
22618,-83.3333333333333,4,2,97,60,0,0
22826,-83.3333333333333,4,2,3,60,0,0
23243,-71.4285714285714,4,2,3,60,0,0
25535,-50,4,2,1,60,0,0
26368,-50,4,2,97,60,0,0
26576,-50,4,2,1,60,0,0
29285,-100,4,2,1,60,0,0
29701,-66.6666666666667,4,2,1,60,0,0
31160,-66.6666666666667,4,2,98,60,0,0
31785,-66.6666666666667,4,2,1,60,0,0
32618,-100,4,2,1,60,0,0
33035,-66.6666666666667,4,2,1,60,0,0
34493,-83.3333333333333,4,2,1,60,0,0
34701,-66.6666666666667,4,2,98,50,0,0
35535,-66.6666666666667,4,2,1,60,0,0
35951,-100,4,2,2,50,0,0
36368,-66.6666666666667,4,2,1,60,0,0
37410,-55.5555555555556,4,2,1,60,0,0
39285,-83.3333333333333,4,2,1,60,0,0
39701,-66.6666666666667,4,2,1,60,0,0
40326,-55.5555555555556,4,2,1,60,0,0
40951,-66.6666666666667,4,2,1,60,0,0
41576,-100,4,2,1,60,0,0
42201,-66.6666666666667,4,2,99,60,0,0
42305,-66.6666666666667,4,2,4,60,0,0
43868,-90.9090909090909,4,2,4,60,0,0
48173,-90.9090909090909,4,2,98,60,0,0
48451,-90.9090909090909,4,2,1,60,0,0
49076,-90.9090909090909,4,2,98,60,0,0
49180,-90.9090909090909,4,2,1,60,0,0
49493,-90.9090909090909,4,2,98,60,0,0
49597,-90.9090909090909,4,2,1,60,0,0
49701,-66.6666666666667,4,2,1,60,0,0
49910,-66.6666666666667,4,2,98,60,0,0
50014,-66.6666666666667,4,2,1,60,0,0
50326,-66.6666666666667,4,2,98,60,0,0
50430,-66.6666666666667,4,2,1,60,0,0
50604,-66.6666666666667,4,2,98,60,0,0
50951,-66.6666666666667,4,2,1,60,0,0
51021,-66.6666666666667,4,2,98,60,0,0
51368,-66.6666666666667,4,2,1,60,0,0
51437,-66.6666666666667,4,2,98,60,0,0
51785,-66.6666666666667,4,2,1,60,0,0
51854,-66.6666666666667,4,2,98,60,0,0
52201,-66.6666666666667,4,2,1,60,0,0
52305,-66.6666666666667,4,2,2,60,0,0
53035,-90.9090909090909,4,2,2,60,0,0
53764,-90.9090909090909,4,2,98,60,0,0
53868,-90.9090909090909,4,2,2,60,0,0
54701,-66.6666666666667,4,2,1,60,0,0
55535,-58.8235294117647,4,2,1,60,0,0
57201,-58.8235294117647,4,2,98,60,0,0
58035,-47.6190476190476,4,2,98,60,0,0
58451,-45.4545454545455,4,2,97,60,0,0
58868,-66.6666666666667,4,2,1,80,0,0
58972,-66.6666666666667,4,2,2,80,0,0
64910,-66.6666666666667,4,2,97,80,0,0
65535,-66.6666666666667,4,2,1,80,0,0
65639,-66.6666666666667,4,2,2,80,0,0
70326,-66.6666666666667,4,2,1,80,0,0
71368,-66.6666666666667,4,2,2,80,0,0
71576,-66.6666666666667,4,2,97,80,0,0
71993,-66.6666666666667,4,2,1,80,0,0
72097,-66.6666666666667,4,2,2,80,0,0
78243,-66.6666666666667,4,2,97,80,0,0
78660,-66.6666666666667,4,2,2,80,0,0
78868,-66.6666666666667,4,2,1,80,0,0
78972,-66.6666666666667,4,2,2,80,0,0
82201,-100,4,2,1,60,0,0
83139,-100,4,2,1,70,0,0
83243,-100,4,2,2,70,0,0
83451,-100,4,2,1,70,0,0
83555,-100,4,2,2,70,0,0
84285,-100,4,2,1,60,0,0
85118,-50,4,2,1,60,0,0
85535,-66.6666666666667,4,2,1,60,0,0
86160,-66.6666666666667,4,2,98,60,0,0
86368,-66.6666666666667,4,2,97,60,0,0
86576,-66.6666666666667,4,2,1,60,0,0
86993,-133.333333333333,4,2,1,60,0,0
88451,-100,4,2,1,60,0,0
88868,-66.6666666666667,4,2,1,60,0,0
91160,-50,4,2,1,60,0,0
91368,-100,4,2,1,60,0,0
92201,-100,4,2,2,40,0,0
93451,-66.6666666666667,4,2,2,40,0,0
93660,-66.6666666666667,4,2,1,40,0,0
94285,-100,4,2,1,40,0,0
94701,-66.6666666666667,4,2,1,60,0,0
95743,-200,4,2,1,60,0,0
96368,-66.6666666666667,4,2,98,60,0,0
96993,-66.6666666666667,4,2,1,60,0,0
97618,-100,4,2,1,60,0,0
98035,-66.6666666666667,4,2,1,60,0,0
98868,-200,4,2,1,60,0,0
99701,-66.6666666666667,4,2,98,50,0,0
100535,-66.6666666666667,4,2,1,60,0,0
100951,-100,4,2,2,60,0,0
101160,-100,4,2,98,60,0,0
101368,-57.1428571428571,4,2,2,60,0,0
101507,-57.1428571428571,4,2,1,60,0,0
101680,-100,4,2,1,60,0,0
101993,-66.6666666666667,4,2,1,60,0,0
103868,-100,4,2,1,60,0,0
104701,-57.1428571428571,4,2,1,60,0,0
105118,-66.6666666666667,4,2,1,60,0,0
107201,-66.6666666666667,4,2,99,60,0,0
107305,-66.6666666666667,4,2,4,60,0,0
108868,-100,4,2,4,60,0,0
113035,-100,4,2,98,60,0,0
113555,-100,4,2,4,60,0,0
113868,-100,4,2,1,60,0,0
114701,-66.6666666666667,4,2,1,60,0,0
115604,-66.6666666666667,4,2,98,60,0,0
115951,-66.6666666666667,4,2,1,60,0,0
116021,-66.6666666666667,4,2,98,60,0,0
116368,-66.6666666666667,4,2,1,60,0,0
118660,-58.8235294117647,4,2,1,60,0,0
118868,-58.8235294117647,4,2,98,60,0,0
120118,-45.4545454545455,4,2,97,60,0,0
120535,-66.6666666666667,4,2,1,80,0,0
120639,-66.6666666666667,4,2,2,80,0,0
126576,-66.6666666666667,4,2,97,80,0,0
126993,-66.6666666666667,4,2,2,80,0,0
127201,-66.6666666666667,4,2,1,80,0,0
127305,-66.6666666666667,4,2,2,80,0,0
131993,-66.6666666666667,4,2,1,80,0,0
133764,-66.6666666666667,4,2,2,80,0,0
133972,-66.6666666666667,4,2,1,80,0,0
134076,-66.6666666666667,4,2,2,80,0,0
139910,-66.6666666666667,4,2,97,80,0,0
140326,-66.6666666666667,4,2,2,80,0,0
140535,-66.6666666666667,4,2,1,80,0,0
140639,-66.6666666666667,4,2,2,80,0,0
143868,-66.6666666666667,4,2,1,60,0,0
145118,-200,4,2,1,60,0,0
146229,347.222222222222,3,2,1,60,1,0
146923,348.837209302326,4,2,50,40,1,0
146923,-200,4,2,50,40,0,0
147969,-200,4,2,98,40,0,0
148056,-200,4,2,50,40,0,0
148318,-200,4,2,21,40,0,0
148405,-200,4,2,1,40,0,0
149016,-200,4,2,50,40,0,0
149713,-200,4,2,22,40,0,0
149800,-200,4,2,50,40,0,0
150760,-200,4,2,98,40,0,0
150847,-200,4,2,50,40,0,0
151109,-200,4,2,21,40,0,0
151196,-200,4,2,50,40,0,0
152504,-200,4,2,23,40,0,0
152591,-200,4,2,50,40,0,0
153550,-200,4,2,98,40,0,0
153638,-200,4,2,50,40,0,0
153899,-200,4,2,21,40,0,0
153986,-200,4,2,50,40,0,0
155295,-200,4,2,22,40,0,0
155382,-200,4,2,50,40,0,0
156341,-200,4,2,98,40,0,0
156428,-200,4,2,50,40,0,0
156690,-200,4,2,21,40,0,0
156777,-200,4,2,50,40,0,0
158085,-117.647058823529,4,2,1,60,0,0
161574,-117.647058823529,4,2,97,60,0,0
161661,-117.647058823529,4,2,1,60,0,0
162969,-117.647058823529,4,2,97,60,0,0
163056,-117.647058823529,4,2,1,60,0,0
163667,-117.647058823529,4,2,1,70,0,0
167853,-117.647058823529,4,2,98,70,0,0
169074,-117.647058823529,4,2,1,70,0,0
169248,-117.647058823529,4,2,1,40,0,0
169946,-117.647058823529,4,2,1,60,0,0
170643,-66.6666666666667,4,2,1,60,0,0
171167,-66.6666666666667,4,2,1,60,0,0
171603,-133.333333333333,4,2,1,60,0,0
172388,-66.6666666666667,4,2,1,60,0,0
173173,-76.9230769230769,4,2,1,60,0,0
173957,-100,4,2,1,60,0,0
174132,-66.6666666666667,4,2,1,60,0,0
176225,-90.9090909090909,4,2,1,60,0,0
177097,-100,4,2,1,60,0,0
178318,-100,4,2,3,60,0,0
178492,-76.9230769230769,4,2,1,60,0,0
178754,-100,4,2,1,60,0,0
179016,-76.9230769230769,4,2,1,60,0,0
179539,-66.6666666666667,4,2,1,60,0,0
180760,-66.6666666666667,4,2,1,60,0,0
181806,-66.6666666666667,4,2,1,70,0,0
182155,-66.6666666666667,4,2,2,70,0,0
182242,-66.6666666666667,4,2,1,70,0,0
184946,-66.6666666666667,4,2,2,70,0,0
185033,-66.6666666666667,4,2,1,70,0,0
187736,-66.6666666666667,4,2,2,70,0,0
187824,-66.6666666666667,4,2,1,70,0,0
187910,-66.6666666666667,4,2,2,70,0,0
188085,-66.6666666666667,4,2,1,70,0,0
191574,-300.3003003003,4,2,1,70,0,0
192969,428.571428571429,4,2,90,70,1,0
193397,416.666666666667,4,2,90,70,1,0
193813,405.405405405405,4,2,90,70,1,0
194218,428.571428571429,4,2,90,70,1,0
194646,416.666666666667,4,2,1,60,1,0
194646,-133.333333333333,4,2,1,60,0,0
194854,-133.333333333333,4,2,30,40,0,0
195062,-133.333333333333,4,2,31,40,0,0
195271,-133.333333333333,4,2,32,40,0,0
195896,-133.333333333333,4,2,31,40,0,0
196521,-133.333333333333,4,2,30,40,0,0
196729,-133.333333333333,4,2,31,40,0,0
196937,-133.333333333333,4,2,32,40,0,0
197354,-133.333333333333,4,2,31,40,0,0
198187,-133.333333333333,4,2,34,40,0,0
198396,-133.333333333333,4,2,31,40,0,0
198604,-133.333333333333,4,2,32,40,0,0
199021,-133.333333333333,4,2,34,40,0,0
199229,-133.333333333333,4,2,31,40,0,0
199854,-133.333333333333,4,2,31,40,0,0
199958,-133.333333333333,4,2,32,40,0,0
200062,-133.333333333333,4,2,31,40,0,0
200271,-133.333333333333,4,2,32,40,0,0
200687,-100,4,2,31,40,0,0
201104,-100,4,2,1,50,0,0
201312,-125,4,2,1,50,0,0
201729,-125,4,2,31,50,0,0
206729,-125,4,2,31,60,0,0
207771,-125,4,2,1,60,0,0
207979,-100,4,2,1,60,0,0
210687,-100,4,2,31,60,0,0
211312,-100,4,2,1,60,0,0
212041,-100,4,2,98,60,0,0
212979,-83.3333333333333,4,2,98,60,0,0
213812,-83.3333333333333,4,2,1,60,0,0
215687,-66.6666666666667,4,2,1,80,0,0
216312,-66.6666666666667,4,2,1,80,0,0
216521,-66.6666666666667,4,2,2,80,0,0
220687,-66.6666666666667,4,2,97,80,0,0
221312,-66.6666666666667,4,2,1,80,0,0
221416,-66.6666666666667,4,2,2,80,0,0
225062,-50,4,2,2,80,0,0
225271,-66.6666666666667,4,2,2,80,0,0
226104,-66.6666666666667,4,2,1,80,0,0
227146,-66.6666666666667,4,2,2,80,0,0
227354,-66.6666666666667,4,2,97,80,0,0
227771,-66.6666666666667,4,2,1,80,0,0
227875,-66.6666666666667,4,2,2,80,0,0
234021,-66.6666666666667,4,2,97,80,0,0
234229,-66.6666666666667,4,2,2,80,0,0
234646,-66.6666666666667,4,2,1,80,0,0
234750,-66.6666666666667,4,2,2,80,0,0
235062,-50,4,2,2,80,0,0
235271,-66.6666666666667,4,2,2,80,0,0
237979,-66.6666666666667,4,2,1,60,0,0
239229,-100,4,2,1,60,0,0
240062,-66.6666666666667,4,2,1,60,0,0
241312,-66.6666666666667,4,2,1,80,0,0
241937,-66.6666666666667,4,2,2,80,0,0
244646,-100,4,2,1,60,0,0
247562,-50,4,2,1,60,0,0
247979,-83.3333333333333,4,2,1,60,0,0
248083,-83.3333333333333,4,2,2,60,0,0
254229,-58.8235294117647,4,2,2,60,0,0
254646,-83.3333333333333,4,2,1,60,0,0
254750,-83.3333333333333,4,2,2,60,0,0
259646,-66.6666666666667,4,2,2,60,0,0
261312,-66.6666666666667,4,2,1,60,0,0
261416,-66.6666666666667,4,2,2,60,0,0

[Colours]
Combo1 : 174,224,251
Combo2 : 130,173,189
Combo3 : 119,143,242
Combo4 : 92,226,206

[HitObjects]
178,190,535,5,4,3:2:0:0:
121,127,743,6,0,P|124:97|128:70,1,50,2|0,0:0|0:0,0:0:0:0:
264,175,951,2,0,P|260:199|258:224,1,50,2|0,0:0|0:0,0:0:0:0:
112,119,1160,2,0,P|115:89|119:62,1,50,2|0,0:0|0:0,0:0:0:0:
193,20,1368,5,10,0:0:0:0:
302,84,1576,2,0,L|342:76,3,33.3333333333333,0|0|0|0,3:2|0:0|0:0|0:0,0:0:0:0:
512,15,1993,6,0,P|462:5|428:0,1,75.000002861023,2|2,3:2|0:0,0:0:0:0:
412,77,2410,1,2,0:0:0:0:
461,149,2618,1,2,0:0:0:0:
432,230,2826,1,0,3:2:0:0:
349,256,3035,1,8,0:0:0:0:
272,193,3243,6,0,L|277:154,2,25.0000009536743,0|0|0,3:2|0:0|0:0,0:0:0:0:
293,153,3451,1,0,0:0:0:0:
209,248,3660,6,0,B|157:267|200:295|131:319,1,100,0|0,3:2|0:0,0:0:0:0:
13,361,4076,5,2,0:0:0:0:
32,271,4285,1,2,0:0:0:0:
129,207,4493,5,2,0:0:0:0:
110,117,4702,1,10,0:0:0:0:
12,164,4910,6,0,L|54:178,3,33.3333333333333,0|0|0|0,3:2|0:0|0:0|0:0,0:0:0:0:
164,15,5326,6,0,L|105:28,1,50,2|0,3:2|0:0,0:0:0:0:
40,7,5535,1,2,0:0:0:0:
110,117,5743,1,2,3:2:0:0:
228,93,5951,1,2,0:0:0:0:
234,77,6055,1,0,3:2:0:0:
239,63,6160,1,0,0:0:0:0:
438,119,6368,6,0,B|451:150|451:150|448:117,2,66.6666666666667,2|2|2,3:2|0:0|0:0,0:0:0:0:
421,37,6785,2,0,L|387:251,1,179.999994506836,2|0,0:0|0:0,0:0:0:0:
269,203,7201,6,0,B|345:226|284:269|370:303,1,150.000005722046,4|8,0:0|0:0,0:0:0:0:
126,383,7618,2,0,B|212:348|151:305|227:282,1,150.000005722046,8|8,0:0|0:0,0:0:0:0:
177,155,8035,5,8,0:0:0:0:
180,167,8139,1,8,0:0:0:0:
182,178,8243,2,0,L|169:224,1,37.5000014305115,8|8,0:0|0:0,0:0:0:0:
98,235,8451,1,8,0:0:0:0:
0,89,8660,6,0,L|13:135,1,37.5000014305115,8|8,0:0|0:0,0:0:0:0:
84,147,8868,1,8,0:0:0:0:
107,28,9076,1,8,0:0:0:0:
226,51,9285,1,8,0:0:0:0:
203,170,9493,1,8,0:0:0:0:
107,28,9701,6,0,B|117:117|57:70|82:166,2,129.999994049073,8|8|8,0:0|0:0|0:0,0:0:0:0:
238,66,10326,6,0,P|265:54|312:50,1,64.9999970245363,8|8,0:0|0:0,0:0:0:0:
362,90,10535,1,8,3:2:0:0:
434,189,10743,1,8,3:2:0:0:
364,277,10951,1,8,3:2:0:0:
436,376,11159,1,8,3:2:0:0:
487,282,11368,5,8,3:2:0:0:
317,357,11576,1,8,3:2:0:0:
281,233,11785,1,8,3:2:0:0:
111,308,11993,1,8,3:2:0:0:
206,377,12201,5,8,3:2:0:0:
215,370,12305,1,8,3:2:0:0:
223,365,12410,2,0,L|235:279,1,64.9999970245363,8|8,3:2|3:2,0:0:0:0:
145,203,12618,5,8,3:2:0:0:
136,196,12722,1,8,3:2:0:0:
128,191,12827,2,0,L|116:105,1,64.9999970245363,8|8,3:2|3:2,0:0:0:0:
195,27,13035,5,8,3:2:0:0:
234,21,13139,1,8,3:2:0:0:
272,25,13243,1,8,3:2:0:0:
299,53,13347,1,8,3:2:0:0:
315,84,13451,1,8,3:2:0:0:
318,114,13555,1,8,3:2:0:0:
293,142,13660,1,8,3:2:0:0:
282,172,13764,1,8,3:2:0:0:
210,205,13868,5,4,0:0:0:0:
202,215,13972,2,0,B|237:224|211:238|271:255,2,64.9999970245363,0|8|8,0:0|0:0|0:0,0:0:0:0:
376,295,14285,5,8,0:0:0:0:
376,295,14389,1,8,0:0:0:0:
376,295,14493,2,0,L|418:286,2,43.3333313496908,8|8|8,0:0|0:0|0:0,0:0:0:0:
446,300,14701,5,2,0:0:0:0:
493,137,14910,1,2,0:0:0:0:
465,131,15014,1,0,0:0:0:0:
437,125,15118,1,2,0:0:0:0:
437,125,15535,6,0,P|450:160|433:215,1,75.0000028610231,4|0,3:2|0:0,0:0:0:0:
505,259,15743,2,0,P|481:287|425:300,1,75.0000028610231,4|0,3:2|0:0,0:0:0:0:
422,384,15951,2,0,P|385:377|346:335,1,75.0000028610231,4|0,3:2|0:0,0:0:0:0:
337,218,16160,6,0,B|345:231|345:231|344:238|344:238|354:256,3,37.5000014305115,2|0|0|0,0:0|0:0|0:0|0:0,0:0:0:0:
339,282,16368,6,0,P|350:209|361:156,1,112.500004291535,10|0,0:0|0:0,0:0:0:0:
437,125,16576,6,0,P|442:88|429:53,1,75.0000028610231,4|0,3:2|0:0,0:0:0:0:
345,72,16785,2,0,P|316:48|279:42,1,75.0000028610231,4|0,3:2|0:0,0:0:0:0:
255,126,16993,2,0,P|220:139|196:168,1,75.0000028610231,4|0,3:2|0:0,0:0:0:0:
110,130,17305,5,2,0:0:0:0:
109,129,17410,6,0,L|112:153,2,25.0000009536744,2|2|2,3:2|0:0|0:0,0:0:0:0:
128,103,17618,1,2,3:2:0:0:
43,226,17826,6,0,B|131:239|83:284|162:298,1,137.500004196167,4|0,3:2|3:2,0:0:0:0:
176,310,18451,6,0,L|221:305,1,25,2|0,0:0|0:0,0:0:0:0:
211,316,18555,2,0,L|256:311,1,25
243,323,18660,2,0,L|288:318,1,25,2|0,0:0|0:0,0:0:0:0:
278,329,18764,2,0,L|323:324,1,25,2|0,0:0|0:0,0:0:0:0:
323,336,18868,6,0,P|371:322|427:315,1,75.0000028610231,4|0,3:2|0:0,0:0:0:0:
465,251,19076,2,0,P|417:237|361:230,1,75.0000028610231,4|0,3:2|0:0,0:0:0:0:
316,160,19285,2,0,P|364:146|420:139,1,75.0000028610231,4|0,3:2|0:0,0:0:0:0:
474,88,19493,1,0,0:0:0:0:
474,88,19597,1,0,0:0:0:0:
474,88,19701,2,0,P|487:42|501:8,1,75.0000028610231,8|0,0:0|0:0,0:0:0:0:
364,29,19910,6,0,P|348:8|369:25,1,75.0000028610231,4|0,3:2|0:0,0:0:0:0:
320,164,20118,2,0,P|336:143|316:160,1,75.0000028610231,4|0,3:2|0:0,0:0:0:0:
239,113,20326,6,0,P|323:109|390:104,1,150.000005722046,4|0,3:2|0:0,0:0:0:0:
412,129,20639,1,0,0:0:0:0:
412,129,20743,1,0,3:2:0:0:
311,271,20951,6,0,B|289:271|289:271|279:249,3,37.5000014305115,0|0|0|0,3:2|0:0|0:0|0:0,0:0:0:0:
345,355,21160,6,0,B|366:355|366:355|376:333,3,37.5000014305115,0|0|0|0,3:2|0:0|0:0|0:0,0:0:0:0:
388,260,21368,5,2,3:2:0:0:
135,367,21576,1,2,0:0:0:0:
179,300,21785,5,2,0:0:0:0:
312,318,21993,1,2,0:0:0:0:
224,384,22201,6,0,P|215:261|205:201,1,150,10|0,0:0|0:0,0:0:0:0:
186,202,22410,2,0,P|181:217|170:226,1,29.9999990844727,2|0,0:0|0:0,0:0:0:0:
43,141,22618,6,0,P|71:130|101:125,1,59.9999981689454,14|0,0:0|0:0,0:0:0:0:
291,12,22826,1,2,0:0:0:0:
298,23,22930,2,0,P|270:34|240:39,1,59.9999981689454,2|0,0:0|3:2,0:0:0:0:
136,21,23139,1,2,0:0:0:0:
148,14,23243,2,0,P|175:74|191:168,1,139.999995727539,2|8,0:0|0:0,0:0:0:0:
262,357,23555,5,0,0:0:0:0:
270,358,23660,1,2,0:0:0:0:
277,361,23765,1,2,0:0:0:0:
285,362,23868,2,0,P|285:339|303:270,1,69.9999978637696,2|0,3:2|0:0,0:0:0:0:
442,185,24076,2,0,P|422:196|353:215,1,69.9999978637696,2|0,0:0|0:0,0:0:0:0:
169,184,24285,5,10,0:0:0:0:
168,161,24389,1,0,0:0:0:0:
189,146,24493,2,0,B|274:162|213:215|327:221,1,139.999995727539,2|0,0:0|3:2,0:0:0:0:
495,313,24910,2,0,P|520:304|504:325,1,69.9999978637696,2|0,3:2|0:0,0:0:0:0:
442,384,25118,6,0,P|470:285|451:224,1,139.999995727539,12|2,0:0|0:0,0:0:0:0:
439,14,25535,6,0,P|476:17|492:71,1,100,4|0,3:2|0:0,0:0:0:0:
325,163,25743,6,0,P|309:129|347:88,1,100,4|0,3:2|0:0,0:0:0:0:
512,188,25951,6,0,P|490:218|436:205,1,100,4|0,3:2|0:0,0:0:0:0:
420,129,26160,5,0,0:0:0:0:
421,118,26264,1,0,0:0:0:0:
429,119,26368,1,8,0:0:0:0:
161,377,26576,6,0,P|128:343|69:331,1,100,4|0,3:2|0:0,0:0:0:0:
234,199,26785,6,0,P|221:244|240:301,1,100,4|0,3:2|0:0,0:0:0:0:
0,240,26993,6,0,P|85:217|160:132,1,200,4|0,3:2|0:0,0:0:0:0:
58,25,27305,5,0,3:2:0:0:
48,16,27409,1,0,3:2:0:0:
53,5,27514,1,0,3:2:0:0:
65,15,27618,2,0,B|72:70|72:70|68:75|68:75|78:122,1,100,2|2,3:2|3:2,0:0:0:0:
164,299,27826,5,8,3:2:0:0:
200,305,27930,1,0,3:2:0:0:
237,312,28034,1,8,3:2:0:0:
274,319,28139,1,0,3:2:0:0:
311,326,28243,1,2,3:2:0:0:
348,333,28347,1,0,0:0:0:0:
348,333,28451,6,0,P|312:287|326:238,1,100,2|0,3:2|0:0,0:0:0:0:
234,199,28660,2,0,P|255:144|305:132,1,100,2|0,3:2|0:0,0:0:0:0:
367,173,28868,5,12,3:2:0:0:
210,36,29285,6,0,L|203:0,3,25
165,123,29493,2,0,L|169:147,3,25
72,97,29701,6,0,P|129:86|336:60,2,225.000008583069,2|2|2,3:2|3:2|3:2,0:0:0:0:
72,97,30743,6,0,B|99:128|99:128|71:167,1,75.0000028610231,2|0,0:0|0:0,0:0:0:0:
3,134,30951,1,2,0:0:0:0:
175,334,31160,6,0,L|196:294,3,37.5000014305115,2|2|2|2,0:0|0:0|0:0|0:0,0:0:0:0:
168,359,31368,6,0,P|157:297|125:203,1,150.000005722046,2|0,0:0|0:0,0:0:0:0:
281,91,31680,1,0,0:0:0:0:
266,91,31785,2,0,P|250:138|229:252,1,150.000005722046,2|2,0:0|0:0,0:0:0:0:
485,278,32201,5,2,0:0:0:0:
356,102,32618,6,0,L|363:66,2,25
429,190,32826,2,0,L|424:214,2,25,0|0|0,3:2|0:0|0:0,0:0:0:0:
475,107,33035,6,0,P|428:110|259:194,2,225.000008583069,2|2|2,3:2|3:2|3:2,0:0:0:0:
141,2,34076,5,2,0:0:0:0:
145,16,34285,1,2,0:0:0:0:
9,229,34493,6,0,P|14:209|55:182,1,59.9999981689454,0|0,3:2|0:0,0:0:0:0:
71,79,34701,6,0,L|19:89,6,37.5000014305115,2|2|2|2|2|2|2,3:2|0:0|0:0|0:0|0:0|0:0|0:0,0:0:0:0:
140,131,35118,6,0,L|192:141,6,37.5000014305115,2|2|2|2|2|2|2,0:0|0:0|0:0|0:0|0:0|0:0|0:0,0:0:0:0:
65,182,35535,5,0,3:2:0:0:
167,279,35743,1,2,0:0:0:0:
291,243,35951,2,0,L|283:205,2,25,2|2|2,0:0|0:0|0:0,0:0:0:0:
361,304,36160,2,0,L|355:328,2,25,2|2|2,0:0|0:0|0:0,0:0:0:0:
427,246,36368,6,0,P|319:265|277:281,1,150.000005722046,2|0,3:2|0:0,0:0:0:0:
208,123,36680,2,0,P|316:142|358:158,1,150.000005722046,2|0,3:2|0:0,0:0:0:0:
512,66,36993,5,2,3:2:0:0:
512,66,37410,2,0,B|463:84|491:106|446:127,1,89.9999972534181,2|0,0:0|0:0,0:0:0:0:
373,240,37618,2,0,B|381:188|348:201|353:152,1,89.9999972534181,2|0,0:0|0:0,0:0:0:0:
291,32,37826,2,0,B|332:64|337:29|377:58,1,89.9999972534181,0|0,3:2|0:0,0:0:0:0:
453,0,38035,6,0,P|473:64|486:204,1,179.999994506836,2|0,3:2|0:0,0:0:0:0:
291,202,38347,1,0,0:0:0:0:
304,212,38451,6,0,B|290:191|260:191|260:191|346:190|374:241,1,179.999994506836,2|0,3:2|0:0,0:0:0:0:
459,261,38764,1,0,0:0:0:0:
459,261,38868,1,2,3:2:0:0:
310,290,39076,1,0,0:0:0:0:
108,328,39285,2,0,P|129:322|142:316,2,29.9999990844727
226,279,39493,2,0,P|222:293|216:307,2,29.9999990844727
186,384,39701,6,0,P|172:290|145:241,1,150.000005722046,2|0,3:2|0:0,0:0:0:0:
156,141,40014,2,0,P|231:141|200:191,1,150.000005722046,2|0,3:2|0:0,0:0:0:0:
78,222,40326,6,0,B|227:245|227:245|231:251|231:251|392:278,1,269.999991760254,6|0,3:2|0:0,0:0:0:0:
341,269,40743,1,0,3:2:0:0:
406,203,40951,6,0,L|328:191,1,75.0000028610231,0|0,3:2|0:0,0:0:0:0:
263,226,41160,1,0,0:0:0:0:
293,363,41368,5,0,3:2:0:0:
306,357,41472,1,8,3:2:0:0:
320,353,41576,2,0,L|373:361,1,50,0|0,3:2|3:2,0:0:0:0:
450,353,41785,5,0,3:2:0:0:
463,355,41889,1,0,3:2:0:0:
478,357,41993,1,0,3:2:0:0:
493,358,42097,1,0,3:2:0:0:
509,362,42201,1,4,0:0:0:0:
509,362,42618,5,10,0:0:0:0:
419,249,43035,1,10,0:0:0:0:
481,93,43451,1,10,0:0:0:0:
490,180,43868,6,0,B|354:156|452:82|291:60,1,220.000006713867,10|8,0:0|0:0,0:0:0:0:
247,107,44493,1,2,0:0:0:0:
247,107,44701,1,10,0:0:0:0:
192,335,45118,1,8,0:0:0:0:
49,271,45326,6,0,B|69:265|69:265|78:270|78:270|123:259,1,55.0000016784668,2|0,3:2|0:0,0:0:0:0:
175,239,45535,1,10,3:2:0:0:
258,267,45743,1,2,0:0:0:0:
311,197,45951,1,10,0:0:0:0:
260,125,46160,1,2,0:0:0:0:
176,151,46368,1,10,0:0:0:0:
176,151,46785,1,8,0:0:0:0:
413,43,46993,1,2,0:0:0:0:
413,43,47201,5,10,0:0:0:0:
491,81,47409,1,2,0:0:0:0:
479,168,47617,1,10,0:0:0:0:
392,183,47826,1,2,0:0:0:0:
351,105,48035,2,0,L|401:111,2,36.6666677856446,10|2|2,0:0|0:0|0:0,0:0:0:0:
328,93,48243,6,0,P|292:97|256:126,1,55.0000016784668
208,53,48451,2,0,P|197:14|215:51,1,110.000003356934,2|2,0:0|0:0,0:0:0:0:
62,120,48868,5,4,0:0:0:0:
124,232,49076,1,2,0:0:0:0:
0,234,49285,6,0,P|59:211|173:188,1,165.000005035401,0|0,3:2|0:0,0:0:0:0:
384,243,49701,2,0,B|299:182|243:214|243:214|232:258|187:270,1,225.000008583069,4|0,0:0|0:0,0:0:0:0:
127,330,50118,1,0,3:2:0:0:
130,319,50222,1,0,3:2:0:0:
132,311,50326,1,2,3:2:0:0:
414,157,50535,6,0,L|403:111,6,37.5000014305115,4|0|0|0|2|0|0,0:0|0:0|0:0|0:0|0:0|0:0|0:0,0:0:0:0:
474,226,50951,2,0,L|519:239,6,37.5000014305115,4|0|0|0|2|0|0,0:0|0:0|0:0|0:0|0:0|0:0|0:0,0:0:0:0:
384,243,51368,2,0,L|349:275,6,37.5000014305115,4|0|0|0|2|0|0,0:0|0:0|0:0|0:0|0:0|0:0|0:0,0:0:0:0:
414,157,51785,5,4,0:0:0:0:
460,347,51993,1,2,0:0:0:0:
460,347,52201,6,0,B|427:304|392:343|403:348|363:379|314:344|326:340|272:310|240:343|251:348|214:385|156:365,1,300.000011444092,4|0,0:0|0:0,0:0:0:0:
176,369,52826,1,0,3:2:0:0:
163,282,53035,6,0,P|181:249|171:289,2,110.000003356934,8|0|0,0:0|0:0|3:2,0:0:0:0:
22,297,53660,6,0,L|62:290,2,27.5000008392334,2|2|2,0:0|0:0|0:0,0:0:0:0:
84,314,53868,1,0,0:0:0:0:
27,175,54076,1,0,3:2:0:0:
30,164,54180,1,0,0:0:0:0:
33,155,54285,1,8,3:2:0:0:
33,155,54701,6,0,L|161:124,2,100.000003814697,0|0|0,3:2|3:2|3:2,0:0:0:0:
122,15,55118,6,0,L|79:295,1,225.000008583069,0|0,3:2|0:0,0:0:0:0:
0,323,55535,2,0,P|21:274|131:305,1,170.000003242493,4|0,0:0|0:0,0:0:0:0:
303,384,55951,2,0,P|282:335|172:366,1,170.000003242493,0|0,3:2|0:0,0:0:0:0:
105,363,56264,1,0,0:0:0:0:
105,363,56368,1,0,3:2:0:0:
275,312,56576,6,0,L|330:302,2,42.5000008106232
359,319,56785,1,0,3:2:0:0:
290,177,56993,1,0,0:0:0:0:
240,240,57201,6,0,P|232:247|217:291,2,56.6666677474976,2|0|0,0:0|0:0|0:0,0:0:0:0:
224,121,57410,6,0,P|215:113|172:98,2,56.6666677474976,2|0|0,3:2|0:0|0:0,0:0:0:0:
341,105,57618,6,0,P|348:96|362:53,2,56.6666677474976,2|0|0,3:2|0:0|0:0,0:0:0:0:
357,223,57826,6,0,P|364:230|408:244,2,56.6666677474976,2|0|0,3:2|0:0|0:0,0:0:0:0:
280,171,58035,6,0,P|290:181|281:167,6,52.4999983978272,2|2|2|2|2|2|0,3:2|0:0|0:0|0:0|3:2|0:0|0:0,0:0:0:0:
280,171,58451,6,0,B|382:150|273:77|489:25,1,220.000006713867,8|0,0:0|0:0,0:0:0:0:
441,38,58868,5,4,3:2:0:0:
350,89,59076,2,0,P|314:99|278:107,1,75.0000028610231,2|0,0:0|0:0,0:0:0:0:
438,186,59285,2,0,P|474:176|510:169,1,75.0000028610231,10|0,3:2|0:0,0:0:0:0:
362,72,59493,2,0,P|287:93|212:108,1,150.000005722046,2|0,0:0|3:2,0:0:0:0:
58,18,59805,5,0,0:0:0:0:
60,0,59910,2,0,P|101:14|103:55,1,75.0000028610231,2|0,0:0|0:0,0:0:0:0:
216,107,60118,2,0,P|223:146|189:171,1,75.0000028610231,10|0,3:2|0:0,0:0:0:0:
62,207,60326,6,0,B|6:214|36:165|120:167|144:228|113:221|145:286|230:250,1,225.000008583069,2|0,0:0|0:0,0:0:0:0:
436,336,60743,6,0,P|476:322|533:306,1,75.0000028610231,2|0,0:0|0:0,0:0:0:0:
343,189,60951,2,0,P|307:199|271:212,1,75.0000028610231,10|0,3:2|0:0,0:0:0:0:
437,165,61160,1,2,0:0:0:0:
437,165,61368,6,0,B|460:292|335:223|345:375,1,225.000008583069,0|0,3:2|0:0,0:0:0:0:
344,352,61785,2,0,P|332:310|289:301,1,75.0000028610231,8|0,3:2|0:0,0:0:0:0:
68,384,61993,6,0,P|148:373|187:302,1,150.000005722046,2|0,0:0|3:2,0:0:0:0:
171,167,62305,5,0,0:0:0:0:
161,154,62410,2,0,P|135:190|153:237,1,75.0000028610231,2|0,0:0|0:0,0:0:0:0:
44,249,62618,2,0,P|62:289|111:297,1,75.0000028610231,10|0,3:2|0:0,0:0:0:0:
242,384,62826,6,0,P|218:266|224:212,1,150.000005722046,2|0,0:0|3:2,0:0:0:0:
347,70,63139,1,0,0:0:0:0:
358,66,63243,2,0,P|394:71|439:90,1,75.0000028610231,2|0,0:0|0:0,0:0:0:0:
291,218,63451,2,0,P|255:223|210:242,1,75.0000028610231,10|0,3:2|0:0,0:0:0:0:
387,304,63660,2,0,P|383:196|269:134,1,225.000008583069,2|0,0:0|0:0,0:0:0:0:
233,74,64076,6,0,P|236:30|246:-14,1,75.0000028610231,2|0,0:0|0:0,0:0:0:0:
168,175,64285,2,0,P|154:178|96:204,1,75.0000028610231,10|0,3:2|0:0,0:0:0:0:
31,14,64493,2,0,B|124:36|55:75|183:101,1,150.000005722046,2|0,0:0|3:2,0:0:0:0:
438,184,64910,6,0,L|535:165,1,75.0000028610231,12|0,0:0|0:0,0:0:0:0:
389,279,65118,2,0,L|486:260,1,75.0000028610231,8|0,3:2|0:0,0:0:0:0:
276,240,65326,5,0,3:2:0:0:
279,250,65430,1,0,3:2:0:0:
280,258,65535,2,0,P|256:299|149:312,1,150.000005722046,4|2,3:2|0:0,0:0:0:0:
13,279,65847,1,0,0:0:0:0:
10,262,65951,2,0,P|60:283|51:323,1,75.0000028610231,10|0,3:2|0:0,0:0:0:0:
117,384,66160,2,0,P|141:292|138:154,1,225.000008583069,2|0,0:0|0:0,0:0:0:0:
139,162,66576,5,2,0:0:0:0:
251,47,66785,2,0,P|276:39|276:86,1,75.0000028610231,10|0,3:2|0:0,0:0:0:0:
228,144,66993,2,0,P|201:56|163:3,1,150.000005722046,2|0,0:0|3:2,0:0:0:0:
7,57,67305,5,0,0:0:0:0:
0,67,67410,2,0,P|30:52|90:49,1,75.0000028610231,2|0,0:0|0:0,0:0:0:0:
163,108,67618,2,0,P|194:118|239:158,1,75.0000028610231,10|0,3:2|0:0,0:0:0:0:
249,252,67826,2,0,P|250:191|312:233,1,150.000005722046,2|0,0:0|3:2,0:0:0:0:
477,309,68243,6,0,P|466:345|460:382,1,75.0000028610231,2|0,0:0|0:0,0:0:0:0:
394,225,68451,2,0,P|387:188|377:151,1,75.0000028610231,10|0,3:2|0:0,0:0:0:0:
512,215,68660,6,0,B|333:233|444:338|255:354,1,300.000011444092,2|0,0:0|0:0,0:0:0:0:
127,258,69285,2,0,P|115:239|132:257,1,75.0000028610231,10|0,3:2|0:0,0:0:0:0:
262,353,69493,6,0,P|305:355|337:362,1,75.0000028610231,2|0,0:0|0:0,0:0:0:0:
168,384,69701,2,0,P|185:336|189:297,1,75.0000028610231,2|0,3:2|0:0,0:0:0:0:
279,188,69910,2,0,P|285:224|299:259,1,75.0000028610231,2|0,0:0|0:0,0:0:0:0:
486,317,70118,1,8,3:2:0:0:
486,317,70326,6,0,P|421:306|218:275,1,225.000008583069,4|0,3:2|0:0,0:0:0:0:
202,148,70743,2,0,P|202:112|236:119,1,75.0000028610231,4|0,0:0|0:0,0:0:0:0:
371,56,70951,1,4,0:0:0:0:
377,53,71055,1,0,3:2:0:0:
384,50,71160,2,0,P|384:14|350:21,1,75.0000028610231,0|0,3:2|3:2,0:0:0:0:
280,52,71368,5,0,3:2:0:0:
52,228,71576,2,0,B|12:220|12:220|15:265,1,75.0000028610231,12|0,0:0|0:0,0:0:0:0:
128,307,71785,2,0,B|168:299|168:299|165:333,1,75.0000028610231,4|0,3:2|0:0,0:0:0:0:
82,384,71993,6,0,B|61:270|164:320|122:164,1,225.000008583069,4|0,3:2|0:0,0:0:0:0:
78,91,72410,6,0,P|24:98|-8:103,1,75.0000028610231,2|0,0:0|0:0,0:0:0:0:
173,0,72618,2,0,P|119:7|87:12,1,75.0000028610231,10|0,3:2|0:0,0:0:0:0:
12,119,72826,2,0,P|94:106|176:96,1,150.000005722046,2|0,0:0|3:2,0:0:0:0:
274,12,73139,5,0,0:0:0:0:
281,0,73243,2,0,P|312:27|295:72,1,75.0000028610231,2|0,0:0|0:0,0:0:0:0:
371,118,73451,2,0,P|363:158|315:166,1,75.0000028610231,10|0,3:2|0:0,0:0:0:0:
249,127,73660,6,0,B|238:194|238:194|242:199|242:199|231:273,1,150.000005722046,2|0,0:0|3:2,0:0:0:0:
84,347,73972,1,0,0:0:0:0:
75,355,74076,2,0,P|33:361|-11:375,1,75.0000028610231,2|0,0:0|0:0,0:0:0:0:
72,261,74285,2,0,P|108:271|145:276,1,75.0000028610231,10|0,3:2|0:0,0:0:0:0:
327,220,74493,1,2,0:0:0:0:
327,220,74701,6,0,P|345:108|378:-5,1,225.000008583069,0|0,3:2|0:0,0:0:0:0:
375,0,75118,1,8,3:2:0:0:
507,81,75326,6,0,P|359:100|240:119,1,225.000008583069,2|0,0:0|0:0,0:0:0:0:
178,64,75743,6,0,P|147:49|141:7,1,75.0000028610231,2|0,0:0|0:0,0:0:0:0:
207,158,75951,2,0,P|169:169|106:201,1,75.0000028610231,10|0,3:2|0:0,0:0:0:0:
24,249,76160,2,0,P|45:189|59:89,1,150.000005722046,2|0,0:0|3:2,0:0:0:0:
28,6,76472,5,0,0:0:0:0:
21,0,76576,2,0,P|3:13|28:5,1,75.0000028610231,2|0,0:0|0:0,0:0:0:0:
70,84,76785,2,0,P|119:71|170:66,1,75.0000028610231,10|0,3:2|0:0,0:0:0:0:
240,62,76993,6,0,B|225:29|167:52|180:151|217:164,1,150.000005722046,2|0,0:0|3:2,0:0:0:0:
293,312,77305,1,0,0:0:0:0:
305,316,77410,2,0,P|336:303|392:297,1,75.0000028610231,2|0,0:0|0:0,0:0:0:0:
239,253,77618,2,0,P|208:240|152:234,1,75.0000028610231,10|0,3:2|0:0,0:0:0:0:
55,384,77826,2,0,B|146:374|86:306|192:307,1,150.000005722046,2|0,0:0|3:2,0:0:0:0:
309,152,78139,5,0,0:0:0:0:
319,141,78243,2,0,P|347:145|383:181,1,75.0000028610231,12|0,0:0|0:0,0:0:0:0:
466,191,78451,2,0,P|476:217|463:266,1,75.0000028610231,2|0,3:2|0:0,0:0:0:0:
354,379,78660,1,0,3:2:0:0:
354,379,78868,2,0,P|360:304|424:100,1,225.000008583069,4|0,3:2|0:0,0:0:0:0:
301,10,79285,6,0,B|271:7|271:7|310:33,1,75.0000028610231,10|0,3:2|0:0,0:0:0:0:
450,46,79493,6,0,P|466:55|426:90,1,75.0000028610231,2|0,0:0|0:0,0:0:0:0:
388,150,79701,2,0,P|348:153|301:165,1,75.0000028610231,0|0,3:2|0:0,0:0:0:0:
200,180,79910,6,0,P|184:189|224:224,1,75.0000028610231,2|0,0:0|0:0,0:0:0:0:
260,280,80118,2,0,P|300:283|347:295,1,75.0000028610231,10|0,3:2|0:0,0:0:0:0:
480,375,80326,2,0,P|453:328|468:263,1,75.0000028610231,2|0,0:0|0:0,0:0:0:0:
512,212,80535,6,0,B|515:264|454:336|428:262|316:289|404:374|272:392,2,300.000011444092,0|10|0,3:2|3:2|3:2,0:0:0:0:
411,167,81576,6,0,P|402:172|422:170,1,75.0000028610231,2|0,0:0|0:0,0:0:0:0:
501,60,81785,2,0,P|519:65|496:61,1,150.000005722046,10|2,3:2|0:0,0:0:0:0:
214,111,82201,6,0,P|151:118|11:137,1,200,4|0,3:2|0:0,0:0:0:0:
91,235,82826,1,0,3:2:0:0:
91,235,83035,2,0,L|153:243,1,50,8|0,3:2|0:0,0:0:0:0:
243,323,83243,6,0,L|276:327,2,33.3333333333333
184,379,83451,2,0,P|221:274|216:160,1,200,6|0,3:2|0:0,0:0:0:0:
203,164,83972,1,0,3:2:0:0:
194,125,84076,1,0,3:2:0:0:
205,86,84180,1,0,3:2:0:0:
235,59,84285,2,0,P|267:61|304:63,1,50,2|0,3:2|0:0,0:0:0:0:
351,113,84493,2,0,P|383:115|420:117,1,50,2|0,3:2|0:0,0:0:0:0:
467,167,84701,1,2,3:2:0:0:
467,167,85118,6,0,P|310:192|128:283,1,300,14|0,0:0|0:0,0:0:0:0:
191,366,85535,6,0,P|158:383|121:382,1,75.0000028610231,4|0,3:2|0:0,0:0:0:0:
89,303,85743,2,0,P|57:283|40:250,1,75.0000028610231,4|0,3:2|0:0,0:0:0:0:
89,180,85951,2,0,P|90:142|109:111,1,75.0000028610231,4|0,3:2|0:0,0:0:0:0:
187,227,86160,2,0,B|189:246|189:246|205:254,2,37.5000014305115,2|0|0,0:0|0:0|0:0,0:0:0:0:
253,248,86368,6,0,P|196:251|140:251,1,112.500004291535,8|0,0:0|0:0,0:0:0:0:
76,172,86576,6,0,P|77:134|96:103,1,75.0000028610231,4|0,3:2|0:0,0:0:0:0:
181,115,86784,2,0,P|213:97|250:98,1,75.0000028610231,4|0,3:2|0:0,0:0:0:0:
288,176,86993,2,0,P|319:195|336:228,1,75.0000028610231,4|0,3:2|0:0,0:0:0:0:
397,298,87305,5,2,0:0:0:0:
397,298,87410,2,0,L|390:322,2,25.0000009536744,2|2|2,3:2|0:0|0:0,0:0:0:0:
413,292,87618,1,2,3:2:0:0:
512,180,87826,6,0,B|526:115|480:137|496:68,1,112.500004291535,4|0,3:2|3:2,0:0:0:0:
504,63,88243,1,0,3:2:0:0:
371,133,88451,6,0,L|346:129,1,25,2|0,0:0|0:0,0:0:0:0:
331,121,88555,2,0,L|306:117,1,25
291,109,88660,2,0,L|266:105,1,25,2|0,0:0|0:0,0:0:0:0:
251,97,88764,2,0,L|226:93,1,25
207,83,88868,6,0,P|166:60|151:15,1,75.0000028610231,4|0,3:2|0:0,0:0:0:0:
117,185,89076,2,0,P|84:206|65:259,1,75.0000028610231,4|0,3:2|0:0,0:0:0:0:
40,81,89285,2,0,P|20:46|7:-7,1,75.0000028610231,4|0,3:2|0:0,0:0:0:0:
206,175,89493,5,2,3:2:0:0:
218,179,89597,1,2,3:2:0:0:
239,279,89805,5,2,3:2:0:0:
253,371,90014,5,2,3:2:0:0:
265,375,90118,1,2,3:2:0:0:
0,360,90326,6,0,P|-8:280|116:248,1,225.000008583069,4|0,0:0|3:2,0:0:0:0:
127,54,90743,2,0,P|156:53|129:70,1,75.0000028610231,0|0,3:2|3:2,0:0:0:0:
226,180,90951,2,0,P|197:179|224:196,1,75.0000028610231,0|0,3:2|0:0,0:0:0:0:
75,121,91160,2,0,P|146:100|221:89,1,150,0|0,3:2|0:0,0:0:0:0:
230,95,91368,1,0,3:2:0:0:
236,103,91472,2,0,P|242:113|244:126,4,25,0|0|0|0|0,0:0|0:0|0:0|0:0|3:2,0:0:0:0:
329,192,91889,2,0,P|341:193|352:200,4,25,0|0|0|0|0,0:0|0:0|3:2|0:0|0:0,0:0:0:0:
419,155,92201,5,0,3:2:0:0:
419,155,92305,1,0,0:0:0:0:
419,155,92410,1,0,0:0:0:0:
467,220,92618,1,8,3:2:0:0:
426,284,92826,5,0,0:0:0:0:
426,284,92930,1,0,0:0:0:0:
482,360,93139,1,0,0:0:0:0:
482,360,93243,1,0,0:0:0:0:
482,360,93348,1,0,0:0:0:0:
481,360,93451,2,0,P|447:373|409:376,1,75,8|0,3:2|0:0,0:0:0:0:
309,380,93660,2,0,P|280:355|262:323,1,75.0000028610231
206,244,93868,5,4,0:0:0:0:
258,122,94285,6,0,P|269:127|281:131,2,25
181,159,94493,2,0,P|169:162|157:168,2,25
195,232,94701,6,0,P|214:183|214:0,2,225.000008583069,2|2|2,3:2|3:2|3:2,0:0:0:0:
12,20,95743,5,2,0:0:0:0:
30,23,95951,1,2,0:0:0:0:
18,37,96160,2,0,L|20:49,2,12.5,0|0|0,3:2|3:2|3:2,0:0:0:0:
29,23,96368,6,0,P|104:30|178:40,1,150.000005722046,2|0,0:0|0:0,0:0:0:0:
275,161,96680,1,0,0:0:0:0:
281,150,96785,2,0,P|206:157|132:167,1,150.000005722046,2|2,0:0|0:0,0:0:0:0:
222,326,97201,5,2,3:2:0:0:
340,265,97618,6,0,L|315:269,2,25
399,321,97826,2,0,L|423:316,2,25,0|0|0,3:2|0:0|0:0,0:0:0:0:
345,370,98035,6,0,B|355:220|409:322|418:166,2,225.000008583069,2|2|2,3:2|3:2|3:2,0:0:0:0:
224,260,98868,6,0,L|219:235,1,25
217,225,99076,2,0,L|212:200,1,25,2|0,0:0|0:0,0:0:0:0:
208,170,99285,2,0,L|203:145,1,25,2|0,0:0|0:0,0:0:0:0:
195,99,99493,2,0,L|190:74,1,25,0|0,3:2|0:0,0:0:0:0:
265,37,99701,6,0,B|288:43|288:43|276:49,6,37.5000014305115,2|0|0|0|2|0|0,3:2|0:0|0:0|0:0|0:0|0:0|0:0,0:0:0:0:
129,133,100118,2,0,B|106:127|106:127|117:120,6,37.5000014305115,2|0|0|0|2|0|0,0:0|0:0|0:0|0:0|0:0|0:0|0:0,0:0:0:0:
226,156,100535,5,0,3:2:0:0:
373,182,100743,1,2,0:0:0:0:
378,189,100847,1,0,3:2:0:0:
380,198,100951,6,0,L|390:238,2,25,0|0|0,3:2|0:0|0:0,0:0:0:0:
436,141,101160,2,0,L|429:116,2,25,2|0|0,0:0|0:0|0:0,0:0:0:0:
488,194,101368,6,0,P|401:182|314:172,1,175.00000166893,2|0,3:2|0:0,0:0:0:0:
290,189,101680,2,0,P|287:213|300:234,1,50,0|0,3:2|0:0,0:0:0:0:
141,374,101993,6,0,P|172:287|63:252,1,225.000008583069,0|0,3:2|0:0,0:0:0:0:
66,258,102410,1,2,0:0:0:0:
18,113,102618,2,0,P|20:149|44:176,1,75.0000028610231,2|0,0:0|0:0,0:0:0:0:
201,145,102826,2,0,P|164:136|127:132,1,75.0000028610231,0|0,3:2|0:0,0:0:0:0:
90,19,103035,6,0,P|201:6|271:-5,1,150.000005722046,2|0,3:2|0:0,0:0:0:0:
343,98,103347,1,0,0:0:0:0:
338,88,103451,2,0,P|287:101|278:139,1,75.0000028610231,2|0,3:2|0:0,0:0:0:0:
201,145,103660,2,0,P|202:197|237:214,1,75.0000028610231
279,346,103868,6,0,P|275:290|306:336,1,150,2|0,3:2|0:0,0:0:0:0:
389,235,104285,6,0,L|422:243,2,25
416,313,104493,2,0,L|449:321,2,25
338,286,104701,2,0,L|511:266,1,175.00000166893,2|0,3:2|0:0,0:0:0:0:
503,152,105014,1,2,3:2:0:0:
512,158,105118,2,0,L|437:166,1,75.0000028610231
232,153,105326,6,0,P|317:107|299:195,1,225.000008583069,6|0,3:2|0:0,0:0:0:0:
174,267,105743,2,0,P|192:236|229:233,1,75.0000028610231,0|0,3:2|0:0,0:0:0:0:
129,95,105951,2,0,P|146:126|130:159,1,75.0000028610231,0|0,3:2|0:0,0:0:0:0:
121,166,106160,1,0,0:0:0:0:
13,267,106368,5,0,3:2:0:0:
14,276,106472,1,8,3:2:0:0:
15,287,106576,1,0,3:2:0:0:
16,297,106680,1,0,3:2:0:0:
26,311,106785,5,0,3:2:0:0:
24,321,106889,1,0,3:2:0:0:
23,332,106993,1,0,3:2:0:0:
22,342,107097,1,0,3:2:0:0:
20,353,107201,1,14,0:0:0:0:
10,368,107618,5,10,0:0:0:0:
164,354,108035,1,10,0:0:0:0:
153,203,108451,1,10,0:0:0:0:
298,373,108868,6,0,B|341:344|351:298|329:253|329:253|311:287|275:286,1,200,10|8,0:0|0:0,0:0:0:0:
216,324,109493,1,2,0:0:0:0:
216,324,109701,1,10,0:0:0:0:
244,182,110118,1,8,0:0:0:0:
260,79,110326,2,0,B|266:57|266:57|268:16,1,50,2|0,3:2|0:0,0:0:0:0:
266,20,110535,5,10,3:2:0:0:
347,38,110743,1,2,0:0:0:0:
393,110,110951,1,10,0:0:0:0:
474,92,111159,1,2,0:0:0:0:
492,15,111368,1,10,0:0:0:0:
492,15,111785,1,8,0:0:0:0:
438,191,111993,5,2,0:0:0:0:
435,199,112201,1,10,0:0:0:0:
384,256,112410,1,2,0:0:0:0:
313,230,112618,1,10,0:0:0:0:
305,158,112826,1,2,0:0:0:0:
236,116,113035,2,0,L|203:106,2,33.3333333333333,10|0|0,0:0|0:0|0:0,0:0:0:0:
180,142,113243,2,0,L|191:197,1,50
162,259,113451,2,0,P|129:281|134:242,1,100,2|2,0:0|0:0,0:0:0:0:
291,248,113868,5,4,0:0:0:0:
341,349,114076,1,2,0:0:0:0:
221,375,114285,2,0,P|231:343|283:228,1,150,0|0,3:2|0:0,0:0:0:0:
202,90,114701,6,0,B|316:132|286:23|420:70,1,225.000008583069,4|0,0:0|0:0,0:0:0:0:
481,169,115118,1,0,3:2:0:0:
474,177,115222,1,0,3:2:0:0:
466,182,115326,1,2,3:2:0:0:
286,230,115535,6,0,P|268:224|256:209,6,37.5000014305115,4|0|0|0|2|0|0,0:0|0:0|0:0|0:0|0:0|0:0|0:0,0:0:0:0:
309,155,115951,2,0,P|305:136|311:119,6,37.5000014305115,4|0|0|0|2|0|0,0:0|0:0|0:0|0:0|0:0|0:0|0:0,0:0:0:0:
359,266,116368,2,0,P|408:270|450:297,2,100.000003814697,4|0|0,0:0|0:0|0:0,0:0:0:0:
290,313,116785,5,0,3:2:0:0:
199,304,116923,5,0,3:2:0:0:
154,366,117062,5,0,3:2:0:0:
49,286,117201,6,0,P|50:328|55:384,1,75.0000028610231,4|0,3:2|0:0,0:0:0:0:
25,90,118660,6,0,P|45:53|85:44,1,85.0000016212464,4|0,3:2|0:0,0:0:0:0:
238,4,118868,6,0,L|248:68,2,56.6666677474976,2|2|2,0:0|0:0|0:0,0:0:0:0:
186,116,119076,2,0,L|196:180,2,56.6666677474976,2|2|2,3:2|0:0|0:0,0:0:0:0:
338,54,119285,2,0,L|348:118,2,56.6666677474976,2|2|2,3:2|0:0|0:0,0:0:0:0:
286,166,119493,2,0,L|296:230,2,56.6666677474976,2|2|2,3:2|0:0|0:0,0:0:0:0:
213,291,119701,6,0,B|238:290|238:290|251:303,6,42.5000008106232,2|2|2|2|2|2|2,3:2|3:2|3:2|3:2|3:2|3:2|0:0,0:0:0:0:
236,384,120118,6,0,B|175:277|300:289|240:176,1,220.000006713867,12|0,0:0|0:0,0:0:0:0:
231,171,120535,5,4,3:2:0:0:
56,232,120743,2,0,P|32:182|51:159,1,75.0000028610231,2|0,0:0|0:0,0:0:0:0:
31,66,120951,2,0,P|54:38|91:35,1,75.0000028610231,10|0,3:2|0:0,0:0:0:0:
230,84,121160,2,0,P|143:130|183:203,1,150.000005722046,2|0,0:0|3:2,0:0:0:0:
23,327,121576,6,0,P|58:337|94:349,1,75.0000028610231,2|0,0:0|0:0,0:0:0:0:
170,301,121785,2,0,P|205:311|241:323,1,75.0000028610231,10|0,3:2|0:0,0:0:0:0:
304,378,121993,2,0,B|346:386|346:386|373:287|299:309|326:212,1,225.000008583069,2|0,0:0|0:0,0:0:0:0:
439,136,122410,6,0,P|475:143|512:149,1,75.0000028610231,2|0,0:0|0:0,0:0:0:0:
471,270,122618,2,0,P|433:263|397:256,1,75.0000028610231,10|0,3:2|0:0,0:0:0:0:
327,214,122826,1,2,0:0:0:0:
327,214,123035,2,0,B|340:91|236:140|257:13,1,225.000008583069,0|0,3:2|0:0,0:0:0:0:
263,17,123451,2,0,P|268:53|245:82,1,75.0000028610231,8|0,3:2|0:0,0:0:0:0:
0,187,123660,6,0,P|72:168|147:159,1,150.000005722046,2|0,0:0|3:2,0:0:0:0:
129,38,123972,1,0,0:0:0:0:
123,50,124076,2,0,P|86:60|49:68,1,75.0000028610231,2|0,0:0|0:0,0:0:0:0:
0,171,124285,2,0,P|36:160|74:153,1,75.0000028610231,10|0,3:2|0:0,0:0:0:0:
237,288,124493,6,0,P|169:308|129:250,1,150.000005722046,2|0,0:0|3:2,0:0:0:0:
260,156,124805,1,0,0:0:0:0:
270,154,124910,2,0,P|294:183|271:229,1,75.0000028610231,2|0,0:0|0:0,0:0:0:0:
366,251,125118,2,0,P|352:286|301:289,1,75.0000028610231,10|0,3:2|0:0,0:0:0:0:
267,137,125326,6,0,P|343:152|446:161,1,150.000005722046,2|0,0:0|3:2,0:0:0:0:
484,96,125639,1,0,0:0:0:0:
486,81,125743,2,0,P|462:43|423:38,1,75.0000028610231,2|0,0:0|0:0,0:0:0:0:
366,0,125951,2,0,P|342:38|303:42,1,75.0000028610231,10|0,3:2|0:0,0:0:0:0:
188,34,126160,2,0,P|264:42|195:95,1,150.000005722046,2|0,0:0|3:2,0:0:0:0:
6,222,126576,6,0,P|1:261|0:296,1,75.0000028610231,12|0,0:0|0:0,0:0:0:0:
87,297,126785,2,0,P|82:336|80:371,1,75.0000028610231,8|0,3:2|0:0,0:0:0:0:
221,178,126993,1,0,3:2:0:0:
232,182,127097,1,0,3:2:0:0:
239,191,127201,6,0,P|235:274|142:285,1,150.000005722046,4|2,3:2|0:0,0:0:0:0:
71,220,127514,1,0,0:0:0:0:
76,205,127618,2,0,P|108:188|144:196,1,75.0000028610231,10|0,3:2|0:0,0:0:0:0:
147,37,127826,2,0,P|239:100|346:134,1,225.000008583069,2|0,0:0|0:0,0:0:0:0:
346,134,128243,5,2,0:0:0:0:
405,10,128451,2,0,P|369:15|350:46,1,75.0000028610231,10|0,3:2|0:0,0:0:0:0:
485,245,128660,6,0,P|480:158|510:51,1,150.000005722046,2|0,0:0|3:2,0:0:0:0:
395,207,128972,1,0,0:0:0:0:
391,216,129076,2,0,P|356:230|319:232,1,75.0000028610231,2|0,0:0|0:0,0:0:0:0:
305,321,129285,2,0,P|268:326|231:318,1,75.0000028610231,10|0,3:2|0:0,0:0:0:0:
98,293,129493,2,0,P|176:270|141:371,1,225.000008583069,2|0,0:0|0:0,0:0:0:0:
6,292,129910,6,0,P|43:292|79:301,1,75.0000028610231,2|0,0:0|0:0,0:0:0:0:
155,189,130118,2,0,P|117:189|81:180,1,75.0000028610231,10|0,3:2|0:0,0:0:0:0:
67,63,130326,6,0,B|129:51|173:103|130:137|150:197|275:221|309:136,1,300.000011444092,2|0,0:0|0:0,0:0:0:0:
466,0,130951,6,0,B|457:13|439:25|439:25|460:30|472:41,1,75.0000028610231,10|0,3:2|0:0,0:0:0:0:
306,0,131160,6,0,P|280:26|282:62,1,75.0000028610231,2|0,0:0|0:0,0:0:0:0:
236,129,131368,2,0,P|262:154|298:152,1,75.0000028610231,2|0,3:2|0:0,0:0:0:0:
391,85,131576,2,0,P|382:121|378:158,1,75.0000028610231,2|0,0:0|0:0,0:0:0:0:
386,171,131785,1,8,3:2:0:0:
242,378,131993,6,0,P|246:265|246:153,1,225.000008583069,4|0,3:2|0:0,0:0:0:0:
222,62,132410,2,0,P|186:71|166:102,1,75.0000028610231,4|0,0:0|0:0,0:0:0:0:
267,287,132618,1,4,0:0:0:0:
273,292,132722,1,0,3:2:0:0:
281,294,132826,2,0,P|316:284|336:253,1,75.0000028610231,0|0,3:2|3:2,0:0:0:0:
328,183,133035,1,0,3:2:0:0:
79,273,133243,6,0,P|73:306|107:314,1,75.0000028610231,12|0,0:0|0:0,0:0:0:0:
224,192,133451,2,0,P|197:170|173:195,1,75.0000028610231,4|0,3:2|0:0,0:0:0:0:
1,165,133660,6,0,P|106:203|201:263,1,225.000008583069,4|0,3:2|0:0,0:0:0:0:
296,365,134076,2,0,P|301:328|310:292,1,75.0000028610231,2|0,0:0|0:0,0:0:0:0:
448,294,134285,2,0,P|438:330|433:367,1,75.0000028610231,10|0,3:2|0:0,0:0:0:0:
286,370,134493,2,0,P|299:296|323:223,1,150.000005722046,2|0,0:0|3:2,0:0:0:0:
480,100,134910,6,0,P|469:137|417:145,1,75.0000028610231,2|0,0:0|0:0,0:0:0:0:
369,76,135118,2,0,P|342:47|361:-1,1,75.0000028610231,10|0,3:2|0:0,0:0:0:0:
260,167,135326,2,0,P|219:242|333:308,1,225.000008583069,2|0,0:0|0:0,0:0:0:0:
171,360,135743,6,0,L|81:341,1,75.0000028610231,2|0,0:0|0:0,0:0:0:0:
84,256,135951,2,0,L|10:240,1,75.0000028610231,10|0,3:2|0:0,0:0:0:0:
0,144,136160,1,2,0:0:0:0:
11,147,136368,2,0,B|128:175|75:87|228:122,1,225.000008583069,0|0,3:2|0:0,0:0:0:0:
225,121,136785,2,0,P|188:113|154:97,1,75.0000028610231,8|0,3:2|0:0,0:0:0:0:
398,175,136993,6,0,B|302:256|447:306|336:385,1,225.000008583069,2|0,0:0|0:0,0:0:0:0:
267,305,137410,2,0,P|230:312|196:328,1,75.0000028610231,2|0,0:0|0:0,0:0:0:0:
320,202,137618,2,0,P|356:194|390:178,1,75.0000028610231,10|0,3:2|0:0,0:0:0:0:
286,64,137826,6,0,P|205:61|226:196,1,225.000008583069,2|0,0:0|0:0,0:0:0:0:
166,309,138243,2,0,P|196:287|232:278,1,75.0000028610231,2|0,0:0|0:0,0:0:0:0:
56,266,138451,2,0,P|59:303|49:339,1,75.0000028610231,10|0,3:2|0:0,0:0:0:0:
39,350,138660,6,0,P|15:240|23:128,1,225.000008583069,2|0,0:0|0:0,0:0:0:0:
2,13,139076,2,0,P|41:15|63:56,1,75.0000028610231,2|0,0:0|0:0,0:0:0:0:
149,35,139285,2,0,P|166:69|142:109,1,75.0000028610231,10|0,3:2|0:0,0:0:0:0:
80,237,139493,6,0,B|93:202|171:223|139:247|179:271|225:247,1,150.000005722046,2|0,0:0|3:2,0:0:0:0:
341,265,139805,1,0,0:0:0:0:
340,277,139910,2,0,P|312:301|277:294,1,75.0000028610231,12|0,0:0|0:0,0:0:0:0:
271,98,140118,2,0,P|292:8|298:-3,1,75.0000028610231,2|0,3:2|0:0,0:0:0:0:
364,22,140326,1,0,3:2:0:0:
511,133,140535,6,0,P|431:146|274:193,1,225.000008583069,4|0,3:2|0:0,0:0:0:0:
194,358,140951,6,0,B|207:367|219:385|219:385|224:364|235:352,1,75.0000028610231,10|0,3:2|0:0,0:0:0:0:
73,328,141160,6,0,P|90:295|125:284,1,75.0000028610231,2|0,0:0|0:0,0:0:0:0:
188,220,141368,2,0,P|214:248|246:267,1,75.0000028610231,0|0,3:2|0:0,0:0:0:0:
176,77,141576,6,0,P|193:110|228:121,1,75.0000028610231,2|0,0:0|0:0,0:0:0:0:
291,185,141785,2,0,P|317:157|349:138,1,75.0000028610231,10|0,3:2|0:0,0:0:0:0:
311,34,141993,2,0,P|274:26|242:7,1,75.0000028610231,2|0,0:0|0:0,0:0:0:0:
70,17,142201,6,0,B|15:110|126:91|106:228|7:184|44:299,2,300.000011444092,0|10|0,3:2|3:2|3:2,0:0:0:0:
193,65,143243,2,0,P|191:106|150:111,1,75.0000028610231,2|0,0:0|0:0,0:0:0:0:
134,265,143451,2,0,P|169:218|174:276,1,150.000005722046,10|2,3:2|0:0,0:0:0:0:
456,250,143868,6,0,P|423:323|297:261,1,225.000008583069,4|0,3:2|0:0,0:0:0:0:
311,276,144285,1,0,0:0:0:0:
329,157,144493,2,0,P|358:178|366:214,1,75.0000028610231,0|0,3:2|0:0,0:0:0:0:
485,169,144701,2,0,P|407:163|377:232,1,150.000005722046,8|0,3:2|0:0,0:0:0:0:
188,21,145118,6,0,P|271:40|434:68,1,250,6|0,3:2|0:0,0:0:0:0:
442,81,146229,6,0,P|403:121|405:157,1,66.6666666666667,0|0,3:2|3:2,0:0:0:0:
326,234,146460,2,0,P|300:192|267:185,1,66.6666666666667,0|0,3:2|3:2,0:0:0:0:
218,95,146691,5,0,3:2:0:0:
150,111,146807,5,0,3:2:0:0:
119,128,146923,6,0,P|187:139|269:164,1,150,4|0,3:0|0:0,0:0:0:0:
444,236,147620,5,8,0:0:0:0:
444,236,147969,1,8,0:0:0:0:
285,383,148318,6,0,B|293:295|350:350|348:241,1,150,2|0,0:0|0:0,0:0:0:0:
402,130,149016,5,8,0:1:0:0:
402,130,149713,6,0,P|266:149|240:158,1,150,2|0,0:0|0:0,0:0:0:0:
82,259,150411,5,8,0:0:0:0:
82,259,150760,1,8,0:0:0:0:
141,68,151109,6,0,B|166:109|166:109|140:213,1,150,2|0,0:0|0:0,0:0:0:0:
217,278,151806,5,8,0:1:0:0:
217,278,152504,6,0,P|239:231|226:281,1,150,2|0,0:0|0:0,0:0:0:0:
75,166,153202,5,8,0:0:0:0:
75,166,153550,1,8,0:0:0:0:
352,51,153899,6,0,P|267:52|226:109,1,150,2|0,0:0|0:0,0:0:0:0:
177,173,154597,5,8,0:1:0:0:
177,173,155295,6,0,B|180:237|180:237|186:241|186:241|191:321,1,150,2|0,0:0|0:0,0:0:0:0:
0,384,155992,5,8,0:0:0:0:
0,384,156341,1,8,0:0:0:0:
22,236,156690,6,0,B|100:287|25:300|114:349,1,150,2|0,0:0|0:0,0:0:0:0:
194,323,157388,5,8,0:1:0:0:
194,323,157911,6,0,L|228:316,1,25,0|0,3:2|0:0,0:0:0:0:
357,371,158085,6,0,P|376:333|335:287,1,85.0000016212464,4|0,0:0|0:0,0:0:0:0:
191,205,158434,2,0,P|231:225|275:236,1,85.0000016212464,8|8,0:0|0:0,0:0:0:0:
221,124,158783,2,0,P|261:144|305:155,1,85.0000016212464,8|8,0:0|0:0,0:0:0:0:
366,113,159045,1,8,0:0:0:0:
366,113,159132,1,8,0:0:0:0:
281,26,159306,1,0,3:2:0:0:
116,111,159481,6,0,P|84:153|100:200,1,85.0000016212464,0|0,3:2|0:0,0:0:0:0:
216,108,159829,2,0,P|196:70|187:29,1,85.0000016212464,8|8,0:0|0:0,0:0:0:0:
183,223,160178,5,8,0:0:0:0:
275,242,160353,1,8,0:0:0:0:
275,242,160440,1,8,0:0:0:0:
275,242,160527,1,8,0:0:0:0:
363,257,160702,1,8,0:0:0:0:
281,360,160876,6,0,P|209:381|186:383,1,85.0000016212464,8|0,3:2|0:0,0:0:0:0:
84,283,161225,2,0,P|51:306|52:347,1,85.0000016212464,8|0,0:0|0:0,0:0:0:0:
114,203,161574,2,0,P|110:162|74:143,1,85.0000016212464,8|8,0:0|0:0,0:0:0:0:
9,166,161835,1,8,0:0:0:0:
9,166,161923,1,8,0:0:0:0:
26,51,162097,1,8,0:0:0:0:
203,0,162271,6,0,B|215:47|187:38|199:88,1,85.0000016212464,8|0,0:0|0:0,0:0:0:0:
229,222,162620,2,0,P|221:184|191:214,1,85.0000016212464,8|0,0:0|0:0,0:0:0:0:
332,116,162969,5,8,0:0:0:0:
414,100,163143,1,8,0:0:0:0:
414,100,163231,1,8,0:0:0:0:
414,100,163318,1,8,0:0:0:0:
493,76,163492,1,0,3:2:0:0:
313,15,163667,6,0,B|301:21|301:21|310:122,1,85.0000016212464,6|0,3:2|0:0,0:0:0:0:
434,168,164016,2,0,B|445:174|445:174|437:275,1,85.0000016212464,2|0,3:2|0:0,0:0:0:0:
288,230,164364,2,0,B|276:236|276:236|282:308,1,85.0000016212464,2|8,3:2|0:0,0:0:0:0:
345,363,164626,1,8,0:0:0:0:
345,363,164713,1,2,3:2:0:0:
366,211,164888,1,0,0:0:0:0:
204,320,165062,6,0,B|194:326|194:326|98:315,1,85.0000016212464,2|0,3:2|0:0,0:0:0:0:
1,226,165411,2,0,B|10:232|10:232|107:221,1,85.0000016212464,2|0,3:2|0:0,0:0:0:0:
210,127,165760,2,0,B|200:133|200:133|127:124,1,85.0000016212464,2|8,3:2|0:0,0:0:0:0:
78,74,166021,1,8,0:0:0:0:
78,74,166109,1,2,3:2:0:0:
189,42,166283,1,0,0:0:0:0:
239,229,166457,5,2,3:2:0:0:
239,229,166632,1,10,3:2:0:0:
402,204,166806,5,10,3:2:0:0:
402,204,166981,1,10,3:2:0:0:
307,136,167155,5,10,3:2:0:0:
300,156,167242,1,10,3:2:0:0:
299,177,167329,1,10,3:2:0:0:
305,197,167416,1,10,3:2:0:0:
316,215,167503,1,10,3:2:0:0:
327,233,167591,1,10,3:2:0:0:
331,254,167678,1,10,3:2:0:0:
329,275,167765,1,10,3:2:0:0:
324,296,167853,6,0,P|335:313|363:316,1,42.5000008106232,10|2,3:2|3:2,0:0:0:0:
252,280,168027,2,0,P|242:298|254:323,1,42.5000008106232,2|2,3:2|3:2,0:0:0:0:
184,210,168202,2,0,P|195:193|223:190,1,42.5000008106232,2|2,3:2|3:2,0:0:0:0:
112,226,168376,2,0,P|102:207|114:182,1,42.5000008106232,2|2,3:2|3:2,0:0:0:0:
68,303,168550,2,0,L|87:362,7,42.5000008106232,2|2|2|2|2|2|2|0,3:2|3:2|3:2|3:2|3:2|3:2|0:0|0:0,0:0:0:0:
14,378,169248,5,2,0:0:0:0:
116,218,170643,6,0,B|86:228|86:228|174:244,1,75.0000028610231,4|0,3:2|0:0,0:0:0:0:
248,132,170818,2,0,B|254:101|254:101|196:169,1,75.0000028610231,4|0,3:2|0:0,0:0:0:0:
256,289,170992,2,0,B|279:309|279:309|249:225,1,75.0000028610231,4|0,3:2|0:0,0:0:0:0:
74,121,171167,6,0,L|154:139,1,75.0000028610231
212,188,171341,1,8,3:2:0:0:
212,188,171428,2,0,L|319:170,1,75.0000028610231,0|8,0:0|3:2,0:0:0:0:
361,179,171603,5,8,3:2:0:0:
361,179,171690,2,0,L|324:185,3,37.5000014305115,8|0|0|0,3:2|3:2|3:2|3:2,0:0:0:0:
476,232,172213,5,2,0:0:0:0:
494,228,172300,1,2,0:0:0:0:
512,225,172388,2,0,B|386:189|506:132|339:88,1,225.000008583069,4|0,3:2|0:0,0:0:0:0:
305,9,172736,5,8,0:0:0:0:
305,9,172824,1,0,0:0:0:0:
305,9,172911,2,0,B|243:46|243:46|272:122,1,150.000005722046,4|0,3:2|0:0,0:0:0:0:
311,184,173173,6,0,B|326:192|332:207|332:207|317:212|301:201,2,64.9999970245363,0|2|2,0:0|0:0|0:0,0:0:0:0:
177,174,173434,6,0,B|169:153|186:144|186:144|189:153|179:174,1,64.9999970245363,4|0,3:2|0:0,0:0:0:0:
239,294,173609,2,0,B|225:310|208:300|208:300|215:293|238:291,1,64.9999970245363,4|0,3:2|0:0,0:0:0:0:
311,184,173783,2,0,B|332:188|332:207|332:207|322:205|309:186,1,64.9999970245363,4|0,3:2|0:0,0:0:0:0:
104,262,173957,6,0,L|71:269,2,33.3333333333333,0|0|0,3:2|0:0|0:0,0:0:0:0:
75,297,174132,6,0,B|137:325|137:325|148:355|148:355|200:380,1,150.000005722046,0|0,3:2|0:0,0:0:0:0:
227,378,174393,1,0,0:0:0:0:
227,378,174481,2,0,P|272:365|307:362,1,75.0000028610231
460,329,174655,5,2,0:0:0:0:
330,215,174829,1,2,0:0:0:0:
474,352,175004,2,0,P|480:315|485:272,1,75.0000028610231,2|0,0:0|0:0,0:0:0:0:
446,155,175178,6,0,B|464:166|496:165|496:165|429:183|405:240,1,150.000005722046,6|2,3:2|0:0,0:0:0:0:
299,362,175527,2,0,P|316:299|331:213,1,150.000005722046,6|2,3:2|0:0,0:0:0:0:
209,80,175789,2,0,P|221:153|240:226,1,150.000005722046,4|0,3:2|0:0,0:0:0:0:
187,291,176050,5,4,3:2:0:0:
187,291,176138,1,0,0:0:0:0:
187,291,176225,2,0,B|164:273|159:246|159:246|144:272|96:285,2,110.000003356934
0,221,176748,6,0,L|40:229,2,36.6666677856446,0|0|0,3:2|0:0|0:0,0:0:0:0:
41,208,176923,2,0,L|101:197,1,55.0000016784668,4|0,3:2|0:0,0:0:0:0:
125,180,177097,6,0,B|121:224|121:224|118:230|118:230|115:280,1,100,4|0,3:2|0:0,0:0:0:0:
101,305,177359,1,0,0:0:0:0:
101,305,177446,1,4,3:2:0:0:
292,384,177620,6,0,B|289:334|289:334|286:328|286:328|282:284,1,100,4|0,3:2|0:0,0:0:0:0:
125,180,177882,2,0,B|121:224|121:224|118:230|118:230|115:280,1,100,4|0,3:2|0:0,0:0:0:0:
301,376,178143,2,0,B|298:326|298:326|295:320|295:320|291:276,1,100,4|8,3:2|3:2,0:0:0:0:
366,201,178405,5,0,0:0:0:0:
366,201,178492,2,0,B|351:207|350:227|350:227|314:192|275:192|240:211,1,129.999994049073,4|0,3:2|0:0,0:0:0:0:
201,132,178754,6,0,P|219:121|223:142,2,50,0|2|2,0:0|0:0|0:0,0:0:0:0:
238,44,179016,6,0,P|206:49|175:59,1,64.9999970245363,4|0,3:2|0:0,0:0:0:0:
317,8,179190,2,0,P|345:23|371:42,1,64.9999970245363,4|0,3:2|0:0,0:0:0:0:
467,135,179364,2,0,P|462:103|453:72,1,64.9999970245363,4|0,3:2|0:0,0:0:0:0:
336,114,179539,6,0,B|304:105|304:105|337:136,1,75.0000028610231,0|0,3:2|3:2,0:0:0:0:
485,165,179713,1,8,3:2:0:0:
485,165,179800,2,0,B|507:142|507:142|464:154,1,75.0000028610231,0|4,0:0|3:2,0:0:0:0:
367,268,179975,2,0,B|375:299|375:299|384:257,1,75.0000028610231,0|4,0:0|3:2,0:0:0:0:
396,183,180149,1,0,0:0:0:0:
396,183,180236,5,4,3:2:0:0:
199,199,180411,6,0,L|149:211,2,50.0000019073487,8|8|0,3:2|0:0|0:0,0:0:0:0:
223,222,180585,1,12,3:2:0:0:
147,296,180760,6,0,P|75:282|45:281,1,75.0000028610231,4|0,3:2|0:0,0:0:0:0:
223,222,180934,2,0,P|295:208|325:207,1,75.0000028610231,12|0,3:2|0:0,0:0:0:0:
117,68,181109,6,0,B|110:144|162:123|149:227,1,150.000005722046,12|0,3:2|0:0,0:0:0:0:
245,377,181370,2,0,P|224:328|299:327,1,150.000005722046,12|0,3:2|0:0,0:0:0:0:
103,365,181632,5,12,3:2:0:0:
78,359,181719,1,0,0:0:0:0:
50,355,181806,6,0,B|42:344|42:344|13:199,1,150.000005722046,12|0,3:2|0:0,0:0:0:0:
0,135,182155,1,8,0:0:0:0:
129,201,182329,2,0,P|164:204|184:174,1,75.0000028610231
219,15,182504,5,4,3:2:0:0:
225,21,182591,2,0,L|206:102,1,75.0000028610231
185,175,182766,2,0,B|178:204|178:204|302:168,1,150.000005722046,4|0,3:2|0:0,0:0:0:0:
343,103,183027,2,0,L|308:249,1,150.000005722046,4|0,3:2|3:2,0:0:0:0:
279,332,183376,6,0,P|314:353|311:393,1,75.0000028610231
461,269,183550,2,0,B|464:300|487:323|487:323|447:292|404:293,1,150.000005722046,4|0,3:2|0:0,0:0:0:0:
126,333,183899,6,0,L|214:318,1,75.0000028610231,4|0,3:2|0:0,0:0:0:0:
217,224,184074,2,0,L|143:236,1,75.0000028610231,0|0,0:0|3:2,0:0:0:0:
30,256,184248,1,0,3:2:0:0:
32,246,184335,1,0,3:2:0:0:
34,236,184423,1,0,3:2:0:0:
36,226,184510,1,0,3:2:0:0:
38,216,184597,6,0,B|55:102|55:102|41:70,1,150.000005722046,12|0,3:2|3:2,0:0:0:0:
141,246,184859,1,0,3:2:0:0:
143,236,184946,2,0,B|160:122|160:122|187:100,1,150.000005722046,8|0,0:0|0:0,0:0:0:0:
332,157,185207,1,0,0:0:0:0:
331,167,185295,6,0,P|305:192|271:180,1,75.0000028610231,4|0,3:2|0:0,0:0:0:0:
419,149,185469,1,0,0:0:0:0:
429,147,185556,2,0,P|422:77|353:68,1,150.000005722046,4|0,3:2|0:0,0:0:0:0:
272,30,185818,2,0,P|275:67|270:104,1,75.0000028610231,4|0,3:2|0:0,0:0:0:0:
255,188,185992,6,0,P|255:218|290:347,1,150.000005722046,0|0,3:2|3:2,0:0:0:0:
377,229,186254,1,0,3:2:0:0:
369,225,186341,2,0,P|360:261|357:298,1,75.0000028610231,0|0,3:2|0:0,0:0:0:0:
197,347,186516,2,0,P|178:315|154:287,1,75.0000028610231,0|0,3:2|3:2,0:0:0:0:
39,363,186690,6,0,L|71:184,1,150.000005722046,0|0,3:2|3:2,0:0:0:0:
140,300,186952,1,0,3:2:0:0:
150,296,187039,1,0,3:2:0:0:
283,350,187213,5,0,3:2:0:0:
290,351,187300,1,0,3:2:0:0:
298,352,187388,6,0,B|341:356|341:356|318:336,1,75.0000028610231,12|0,3:2|0:0,0:0:0:0:
175,334,187562,2,0,B|148:369|148:369|178:360,1,75.0000028610231,2|0,3:2|0:0,0:0:0:0:
267,258,187736,2,0,B|231:177|231:177|218:237,1,150.000005722046,8|0,0:0|0:0,0:0:0:0:
300,101,188085,5,4,3:2:0:0:
304,97,188173,2,0,L|377:112,1,75.0000028610231
417,213,188347,2,0,L|343:197,1,75.0000028610231,4|0,3:2|0:0,0:0:0:0:
274,254,188521,1,0,0:0:0:0:
267,258,188609,2,0,B|195:242|195:242|187:243|187:243|120:228,1,150.000005722046,4|0,3:2|3:2,0:0:0:0:
37,223,188957,6,0,L|112:239,1,75.0000028610231
173,75,189132,2,0,P|102:79|83:147,1,150.000005722046,4|0,3:2|0:0,0:0:0:0:
7,370,189481,6,0,P|32:336|71:339,1,75.0000028610231,4|0,3:2|0:0,0:0:0:0:
177,291,189655,2,0,P|157:334|180:372,1,75.0000028610231,0|0,0:0|3:2,0:0:0:0:
250,368,189829,1,0,3:2:0:0:
257,367,189916,1,0,3:2:0:0:
264,366,190003,1,0,3:2:0:0:
272,366,190090,1,0,3:2:0:0:
279,365,190178,6,0,B|317:352|315:301|315:301|276:305|252:272,1,150.000005722046,4|0,3:2|3:2,0:0:0:0:
149,162,190439,5,0,3:2:0:0:
143,169,190527,2,0,B|135:208|180:232|180:232|196:196|236:192,1,150.000005722046,4|0,3:2|3:2,0:0:0:0:
385,158,190788,5,0,3:2:0:0:
380,149,190876,2,0,B|349:122|306:149|306:149|329:181|312:217,1,150.000005722046,4|0,3:2|3:2,0:0:0:0:
390,317,191138,5,0,3:2:0:0:
395,310,191225,2,0,L|480:297,1,75.0000028610231,4|0,3:2|3:2,0:0:0:0:
502,222,191399,1,2,3:2:0:0:
502,222,191574,6,0,B|382:207|382:207|376:208|376:208|265:195,1,233.100005690918,6|0,3:2|0:0,0:0:0:0:
49,175,192969,5,0,3:2:0:0:
57,182,193183,6,0,L|81:175,3,25
141,109,193397,5,0,3:2:0:0:
141,109,193501,1,0,0:0:0:0:
228,35,193709,1,0,0:0:0:0:
228,35,193813,5,0,3:2:0:0:
280,27,193948,5,0,3:2:0:0:
314,58,194083,5,0,3:2:0:0:
338,173,194218,5,0,3:2:0:0:
320,152,194360,5,0,3:2:0:0:
317,133,194503,5,0,3:2:0:0:
382,95,194646,6,0,P|436:104|484:116,2,75.0000028610231,0|2|10,3:2|0:0|0:0,0:0:0:0:
257,193,195271,2,0,P|194:203|86:223,1,150.000005722046,2|0,0:0|0:0,0:0:0:0:
336,359,195896,5,8,0:0:0:0:
336,359,196312,6,0,P|349:300|359:260,2,75.0000028610231,0|2|10,0:0|0:0|0:0,0:0:0:0:
474,291,196937,2,0,P|442:238|443:175,1,112.500004291535,2|0,0:0|0:0,0:0:0:0:
500,132,197354,1,8,0:0:0:0:
500,132,197562,1,8,0:0:0:0:
500,132,197979,6,0,P|464:118|453:86,2,75.0000028610231,0|2|10,0:0|0:0|0:0,0:0:0:0:
395,13,198604,6,0,B|308:34|368:73|258:97,1,150.000005722046,2|2,0:0|0:0,0:0:0:0:
106,60,199229,1,10,0:0:0:0:
106,60,199646,5,0,0:0:0:0:
138,170,199854,1,2,0:0:0:0:
142,183,199958,1,2,0:0:0:0:
145,196,200062,1,10,0:0:0:0:
20,305,200271,2,0,P|70:280|87:328,1,112.500004291535,2|0,0:0|0:0,0:0:0:0:
77,344,200687,5,8,0:0:0:0:
103,263,200896,1,8,0:0:0:0:
186,320,201104,1,0,3:2:0:0:
179,330,201312,6,0,P|180:281|196:246,2,80,4|0|8,3:2|0:0|0:0,0:0:0:0:
253,376,201937,1,0,0:0:0:0:
259,366,202354,5,0,0:0:0:0:
334,327,202562,1,8,0:0:0:0:
371,242,202771,2,0,P|371:177|361:145,1,80
211,93,203187,5,0,0:0:0:0:
287,117,203396,1,8,0:0:0:0:
364,77,203604,1,0,0:0:0:0:
364,64,204021,5,8,0:0:0:0:
119,172,204229,2,0,B|197:197|131:221|233:250,1,120,8|0,0:0|0:0,0:0:0:0:
295,259,204646,6,0,P|198:282|150:327,1,160,0|8,0:0|0:0,0:0:0:0:
154,320,205271,1,0,0:0:0:0:
46,384,205479,6,0,P|64:338|48:221,1,160,0|8,0:0|0:0,0:0:0:0:
127,10,206312,6,0,B|34:28|101:88|-1:103,2,160,0|8|0,0:0|0:0|0:0,0:0:0:0:
196,79,207354,6,0,L|244:88,1,40,8|0,0:0|0:0,0:0:0:0:
394,178,207562,2,0,L|354:170,1,40,8|0,0:0|0:0,0:0:0:0:
240,263,207771,1,0,3:2:0:0:
244,272,207979,6,0,P|266:221|255:151,1,100,4|0,3:2|0:0,0:0:0:0:
393,5,208396,2,0,P|392:54|413:99,1,100,0|0,3:2|0:0,0:0:0:0:
249,277,208812,6,0,P|271:226|260:156,1,100,0|0,3:2|0:0,0:0:0:0:
398,10,209229,2,0,P|397:59|418:104,1,100,0|0,3:2|0:0,0:0:0:0:
512,258,209646,6,0,L|379:238,1,100,0|0,3:2|0:0,0:0:0:0:
198,366,210062,2,0,L|296:351,1,100,0|0,3:2|0:0,0:0:0:0:
356,298,210479,1,0,3:2:0:0:
272,212,210687,6,0,L|279:270,1,50,8|0,0:0|0:0,0:0:0:0:
441,384,210896,2,0,L|434:326,1,50,8|0,3:2|0:0,0:0:0:0:
458,132,211312,5,4,3:2:0:0:
402,70,211521,1,0,3:2:0:0:
309,47,211729,1,0,3:2:0:0:
215,86,211937,1,0,3:2:0:0:
165,165,212146,5,0,3:2:0:0:
186,128,212354,1,0,3:2:0:0:
173,50,212562,1,0,3:2:0:0:
102,2,212771,1,0,3:2:0:0:
1,80,212979,5,2,3:2:0:0:
4,86,213083,1,2,3:2:0:0:
8,92,213187,2,0,L|94:80,1,59.9999981689454,2|2,3:2|3:2,0:0:0:0:
239,185,213396,5,2,3:2:0:0:
236,191,213500,1,2,3:2:0:0:
232,197,213604,2,0,L|146:185,1,59.9999981689454,2|2,3:2|3:2,0:0:0:0:
20,247,213812,5,0,3:2:0:0:
58,233,213916,1,0,3:2:0:0:
109,244,214021,1,0,3:2:0:0:
149,280,214125,1,0,3:2:0:0:
169,326,214229,1,0,3:2:0:0:
213,359,214333,1,0,3:2:0:0:
259,368,214437,1,4,3:2:0:0:
259,368,215687,6,0,P|275:335|310:324,1,75.0000028610231,4|0,3:2|0:0,0:0:0:0:
352,213,215896,2,0,P|350:249|375:276,1,75.0000028610231
473,362,216104,2,0,P|398:350|325:333,1,150.000005722046,6|0,3:2|0:0,0:0:0:0:
40,211,216521,6,0,P|78:202|113:197,1,75.0000028610231,2|0,0:0|0:0,0:0:0:0:
167,260,216729,2,0,P|205:251|240:246,1,75.0000028610231,10|0,3:2|0:0,0:0:0:0:
157,117,216937,1,2,0:0:0:0:
157,117,217146,2,0,P|138:228|123:339,1,225.000008583069,0|0,3:2|0:0,0:0:0:0:
130,345,217562,2,0,P|155:319|202:325,1,75.0000028610231,8|0,3:2|0:0,0:0:0:0:
375,371,217771,6,0,P|362:295|356:177,1,150.000005722046,2|0,0:0|3:2,0:0:0:0:
311,65,218083,1,0,0:0:0:0:
305,62,218187,2,0,B|279:89|279:89|315:80,1,75.0000028610231,2|0,0:0|0:0,0:0:0:0:
447,71,218395,2,0,B|473:44|473:44|436:52,1,75.0000028610231,10|0,3:2|0:0,0:0:0:0:
372,3,218604,6,0,B|354:49|354:49|368:93|368:93|350:144,1,150.000005722046,2|0,0:0|3:2,0:0:0:0:
228,265,218916,1,0,0:0:0:0:
223,252,219021,2,0,P|244:220|291:221,1,75.0000028610231,2|0,0:0|0:0,0:0:0:0:
167,85,219229,2,0,P|177:119|210:134,1,75.0000028610231,10|0,3:2|0:0,0:0:0:0:
82,276,219437,6,0,P|83:163|72:99,1,150.000005722046,2|0,0:0|3:2,0:0:0:0:
35,34,219750,1,0,0:0:0:0:
30,27,219854,2,0,P|66:19|103:13,1,75.0000028610231,2|0,0:0|0:0,0:0:0:0:
175,92,220062,2,0,P|211:84|248:78,1,75.0000028610231,10|0,3:2|0:0,0:0:0:0:
320,153,220271,6,0,B|316:239|255:188|254:291,1,150.000005722046,2|0,0:0|3:2,0:0:0:0:
0,370,220687,6,0,P|34:379|73:384,1,75.0000028610231,12|0,0:0|0:0,0:0:0:0:
134,323,220896,2,0,P|168:332|207:337,1,75.0000028610231,8|0,3:2|0:0,0:0:0:0:
48,149,221104,5,0,3:2:0:0:
40,151,221208,1,0,3:2:0:0:
33,155,221312,2,0,P|6:222|53:276,1,150.000005722046,4|2,3:2|0:0,0:0:0:0:
173,173,221625,1,0,0:0:0:0:
164,175,221729,2,0,P|140:204|132:240,1,75.0000028610231,10|0,3:2|0:0,0:0:0:0:
207,360,221937,6,0,P|247:297|373:220,1,225.000008583069,2|0,0:0|0:0,0:0:0:0:
385,222,222354,1,2,0:0:0:0:
274,125,222562,2,0,P|250:96|257:61,1,75.0000028610231,10|0,3:2|0:0,0:0:0:0:
489,100,222771,2,0,B|420:90|420:90|414:91|414:91|340:80,1,150.000005722046,2|0,0:0|3:2,0:0:0:0:
10,74,223187,6,0,P|35:101|47:136,1,75.0000028610231,2|0,0:0|0:0,0:0:0:0:
211,161,223396,2,0,P|239:136|274:125,1,75.0000028610231,10|0,3:2|0:0,0:0:0:0:
154,56,223604,2,0,P|134:129|126:223,1,150.000005722046,2|0,0:0|3:2,0:0:0:0:
378,201,224021,6,0,P|341:208|305:219,1,75.0000028610231,2|0,3:2|0:0,0:0:0:0:
318,310,224229,2,0,P|282:321|245:328,1,75.0000028610231,10|0,3:2|0:0,0:0:0:0:
163,275,224437,6,0,B|247:235|299:311|267:337|333:407|416:357,1,300.000011444092,2|0,0:0|0:0,0:0:0:0:
501,207,225062,6,0,B|509:197|505:189|490:186|485:162|485:162|470:190|489:209,1,100,10|0,3:2|0:0,0:0:0:0:
361,135,225271,2,0,P|356:171|383:196,1,75.0000028610231,2|0,0:0|0:0,0:0:0:0:
398,23,225479,1,2,3:2:0:0:
391,18,225583,1,0,3:2:0:0:
383,15,225687,2,0,P|346:16|312:30,1,75.0000028610231,2|0,0:0|3:2,0:0:0:0:
277,100,225896,1,8,3:2:0:0:
70,294,226104,6,0,B|21:168|124:211|70:79,1,225.000008583069,4|0,3:2|0:0,0:0:0:0:
75,71,226521,2,0,P|110:82|147:82,1,75.0000028610231,4|0,0:0|0:0,0:0:0:0:
170,210,226729,1,4,0:0:0:0:
174,203,226833,1,0,3:2:0:0:
179,198,226937,2,0,P|216:197|251:209,1,75.0000028610231,0|0,3:2|3:2,0:0:0:0:
323,359,227146,6,0,P|288:346|274:313,1,75.0000028610231,2|0,3:2|0:0,0:0:0:0:
333,167,227354,1,12,0:0:0:0:
351,164,227458,1,0,0:0:0:0:
370,162,227562,1,4,3:2:0:0:
388,159,227666,1,0,0:0:0:0:
407,157,227771,6,0,B|482:252|356:273|431:368,1,225.000008583069,4|0,3:2|0:0,0:0:0:0:
419,373,228187,2,0,P|381:368|345:359,1,75.0000028610231,2|0,0:0|0:0,0:0:0:0:
306,266,228396,2,0,P|269:256|232:252,1,75.0000028610231,10|0,3:2|0:0,0:0:0:0:
187,323,228604,6,0,P|181:248|170:174,1,150.000005722046,2|0,0:0|3:2,0:0:0:0:
40,226,228916,1,0,0:0:0:0:
44,237,229021,2,0,P|70:262|106:264,1,75.0000028610231,2|0,0:0|0:0,0:0:0:0:
164,170,229229,2,0,P|199:160|218:129,1,75.0000028610231,10|0,3:2|0:0,0:0:0:0:
104,8,229437,6,0,B|236:18|154:104|291:114,1,225.000008583069,2|0,0:0|0:0,0:0:0:0:
469,6,229854,2,0,B|435:25|435:25|442:60,1,75.0000028610231,2|0,0:0|0:0,0:0:0:0:
487,232,230062,2,0,B|487:193|487:193|453:182,1,75.0000028610231,10|0,3:2|0:0,0:0:0:0:
282,259,230271,1,2,0:0:0:0:
279,250,230479,2,0,B|318:215|383:239|383:239|385:243|385:243|441:271|489:231,1,225.000008583069,0|0,3:2|0:0,0:0:0:0:
494,243,230896,2,0,P|462:262|449:297,1,75.0000028610231,8|0,3:2|0:0,0:0:0:0:
211,367,231104,6,0,P|242:243|149:241,1,225.000008583069,2|0,0:0|0:0,0:0:0:0:
106,100,231521,2,0,P|132:125|136:162,1,75.0000028610231,2|0,0:0|0:0,0:0:0:0:
181,240,231729,2,0,P|172:275|142:297,1,75.0000028610231,10|0,3:2|0:0,0:0:0:0:
59,162,231937,6,0,P|131:141|204:126,1,150.000005722046,2|0,0:0|3:2,0:0:0:0:
291,50,232250,1,0,0:0:0:0:
292,40,232354,2,0,P|266:13|230:12,1,75.0000028610231,2|0,0:0|0:0,0:0:0:0:
149,165,232562,2,0,P|184:156|203:125,1,75.0000028610231,10|0,3:2|0:0,0:0:0:0:
480,226,232771,6,0,P|405:237|331:246,1,150.000005722046,2|0,0:0|3:2,0:0:0:0:
324,135,233083,1,0,0:0:0:0:
334,138,233187,2,0,P|369:125|403:109,1,75.0000028610231,2|0,0:0|0:0,0:0:0:0:
428,359,233395,2,0,P|392:348|355:343,1,75.0000028610231,10|0,3:2|0:0,0:0:0:0:
202,248,233604,5,2,0:0:0:0:
205,240,233708,1,0,0:0:0:0:
208,231,233812,2,0,P|240:247|244:282,1,75.0000028610231,0|0,3:2|0:0,0:0:0:0:
167,336,234021,2,0,P|134:320|130:285,1,75.0000028610231,12|0,0:0|0:0,0:0:0:0:
26,150,234229,2,0,L|99:167,1,75.0000028610231,2|0,3:2|0:0,0:0:0:0:
167,42,234437,1,0,3:2:0:0:
167,42,234646,6,0,P|155:99|233:135,1,150.000005722046,4|2,3:2|0:0,0:0:0:0:
263,336,235062,6,0,B|275:337|280:330|275:315|293:299|293:299|262:300|255:326,1,100,10|0,3:2|0:0,0:0:0:0:
360,202,235271,6,0,P|357:238|378:268,1,75.0000028610231,2|0,0:0|0:0,0:0:0:0:
353,355,235479,2,0,P|382:376|419:372,1,75.0000028610231,0|0,3:2|0:0,0:0:0:0:
456,246,235687,2,0,P|459:209|438:179,1,75.0000028610231,2|0,0:0|0:0,0:0:0:0:
362,102,235896,2,0,P|359:138|332:164,1,75.0000028610231,10|0,3:2|0:0,0:0:0:0:
235,187,236104,1,2,0:0:0:0:
1,148,236312,6,0,B|46:161|70:127|66:117|89:84|173:127|169:163|158:168|129:206|167:252|214:263,2,300.000011444092,0|10|0,3:2|3:2|3:2,0:0:0:0:
140,42,237354,2,0,L|234:29,1,75.0000028610231,2|0,0:0|0:0,0:0:0:0:
344,197,237562,2,0,B|261:186|306:129|218:118,1,150.000005722046,10|2,3:2|0:0,0:0:0:0:
16,336,237979,6,0,B|10:308|-17:301|-17:301|27:251|112:290|101:354,1,225.000008583069,4|0,3:2|0:0,0:0:0:0:
95,366,238396,1,0,0:0:0:0:
90,192,238604,2,0,P|75:225|89:261,1,75.0000028610231,0|0,3:2|0:0,0:0:0:0:
255,361,238812,2,0,P|267:290|201:302,1,150.000005722046,8|0,3:2|0:0,0:0:0:0:
181,97,239229,6,0,P|225:120|273:133,1,100,6|0,3:2|0:0,0:0:0:0:
362,103,239541,2,0,P|381:60|344:32,1,100
336,38,239854,1,2,0:0:0:0:
388,226,240062,6,0,P|381:262|371:299,1,75.0000028610231,2|0,0:0|0:0,0:0:0:0:
269,125,240271,1,0,3:2:0:0:
271,115,240375,1,0,3:2:0:0:
276,108,240479,2,0,P|269:71|259:34,1,75.0000028610231,0|0,3:2|0:0,0:0:0:0:
188,209,240687,2,0,P|201:243|234:259,1,75.0000028610231,2|0,0:0|0:0,0:0:0:0:
118,100,240896,1,0,3:2:0:0:
99,102,241000,1,0,3:2:0:0:
80,105,241104,1,0,3:2:0:0:
62,108,241208,1,0,3:2:0:0:
43,111,241312,6,0,P|39:208|134:196,1,150.000005722046,4|0,3:2|0:0,0:0:0:0:
239,376,241729,6,0,B|228:336|228:336|247:308,1,75.0000028610231,4|0,3:2|0:0,0:0:0:0:
198,161,241937,6,0,P|205:196|236:217,1,75.0000028610231,2|0,0:0|0:0,0:0:0:0:
253,314,242146,2,0,P|287:325|320:309,1,75.0000028610231,10|0,3:2|0:0,0:0:0:0:
418,312,242354,2,0,P|403:277|395:240,1,75.0000028610231,2|0,0:0|0:0,0:0:0:0:
336,114,242562,2,0,P|342:149|321:179,1,75.0000028610231,0|0,3:2|0:0,0:0:0:0:
247,219,242771,1,2,0:0:0:0:
76,92,242979,6,0,B|119:105|144:73|137:66|164:33|210:47|210:47|250:60|280:32|272:23|302:-4|349:14,2,300.000011444092,2|2|2,3:2|3:2|3:2,0:0:0:0:
184,181,244021,2,0,P|196:215|182:249,1,75.0000028610231,2|0,0:0|0:0,0:0:0:0:
26,285,244229,2,0,B|43:235|100:237|100:237|93:264|110:288,1,150.000005722046,2|2,3:2|0:0,0:0:0:0:
354,366,244646,6,0,B|286:351|286:351|280:352|280:352|207:335,1,150,6|0,3:2|0:0,0:0:0:0:
196,344,245062,1,0,0:0:0:0:
337,232,245271,2,0,P|361:225|386:225,1,50,0|0,3:2|0:0,0:0:0:0:
233,158,245479,2,0,P|243:206|246:256,1,100,8|0,3:2|0:0,0:0:0:0:
509,118,245896,6,0,B|397:143|429:66|316:92,1,200,6|0,3:2|0:0,0:0:0:0:
313,98,246416,1,0,3:2:0:0:
310,105,246521,1,0,3:2:0:0:
134,203,246729,2,0,P|110:194|95:175,1,50,2|0,3:2|0:0,0:0:0:0:
117,103,246937,2,0,P|112:78|122:56,1,50,2|0,3:2|0:0,0:0:0:0:
187,13,247146,1,2,3:2:0:0:
187,13,247562,6,0,P|213:160|226:309,1,300,14|0,0:0|0:0,0:0:0:0:
226,310,247979,5,4,0:0:0:0:
134,247,248187,2,0,P|173:234|205:232,1,59.9999981689454,8|8,0:0|0:0,0:0:0:0:
343,365,248396,2,0,P|313:369|285:380,1,59.9999981689454,8|0,3:2|0:0,0:0:0:0:
128,240,248604,2,0,P|167:227|199:225,1,59.9999981689454,8|0,0:0|0:0,0:0:0:0:
370,272,248812,5,8,3:2:0:0:
296,220,249021,2,0,B|271:153|320:180|292:95,1,119.999996337891,8|8,0:0|3:2,0:0:0:0:
413,46,249437,6,0,L|422:-5,2,29.9999990844727,8|0|0,0:0|0:0|0:0,0:0:0:0:
396,55,249646,2,0,B|319:47|369:116|266:103,1,119.999996337891,8|8,3:2|0:0,0:0:0:0:
172,22,249958,1,8,0:0:0:0:
184,2,250062,2,0,P|209:66|204:135,1,119.999996337891,8|8,3:2|0:0,0:0:0:0:
100,268,250479,5,10,3:2:0:0:
129,187,250687,1,10,0:0:0:0:
19,108,250896,1,10,3:2:0:0:
48,189,251104,1,10,0:0:0:0:
176,254,251312,6,0,P|238:245|319:240,1,119.999996337891,8|8,3:2|0:0,0:0:0:0:
321,263,251625,1,8,0:0:0:0:
321,263,251729,1,8,3:2:0:0:
324,163,251937,1,8,0:0:0:0:
234,323,252146,1,8,3:2:0:0:
338,171,252354,2,0,P|324:99|316:34,1,119.999996337891,8|8,0:0|3:2,0:0:0:0:
493,0,252771,6,0,P|513:14|508:53,1,59.9999981689454,8|8,0:0|0:0,0:0:0:0:
454,87,252979,2,0,L|380:105,1,59.9999981689454,10|0,3:2|0:0,0:0:0:0:
317,52,253187,6,0,L|261:44,2,29.9999990844727,10|0|8,0:0|0:0|3:2,0:0:0:0:
454,87,253396,2,0,P|405:69|415:5,1,119.999996337891,10|10,3:2|0:0,0:0:0:0:
512,169,253812,5,0,3:2:0:0:
457,224,253951,5,0,3:2:0:0:
404,214,254090,5,0,3:2:0:0:
373,240,254229,6,0,B|266:265|338:320|204:340,1,170.000003242493,12|0,3:2|0:0,0:0:0:0:
237,333,254646,5,4,0:0:0:0:
214,187,254854,2,0,L|234:261,1,59.9999981689454,8|8,0:0|0:0,0:0:0:0:
355,384,255062,2,0,L|370:326,1,59.9999981689454,8|0,0:0|0:0,0:0:0:0:
220,181,255271,2,0,L|240:255,1,59.9999981689454,8|8,0:0|0:0,0:0:0:0:
157,381,255479,5,8,0:0:0:0:
55,286,255688,1,8,0:0:0:0:
84,290,255792,1,8,0:0:0:0:
114,294,255896,1,8,0:0:0:0:
18,197,256104,1,8,0:0:0:0:
47,201,256208,1,8,0:0:0:0:
77,205,256312,1,8,0:0:0:0:
187,76,256521,6,0,P|159:85|159:124,1,59.9999981689454,8|8,0:0|0:0,0:0:0:0:
208,161,256729,1,8,0:0:0:0:
252,21,256937,1,8,0:0:0:0:
384,167,257146,6,0,B|308:153|359:116|256:107,2,119.999996337891,8|8|8,0:0|0:0|0:0,0:0:0:0:
510,241,257771,2,0,P|484:249|465:288,1,59.9999981689454,8|8,0:0|0:0,0:0:0:0:
485,347,257979,5,8,3:2:0:0:
375,278,258187,1,8,3:2:0:0:
306,358,258396,1,8,3:2:0:0:
196,289,258604,1,8,3:2:0:0:
217,376,258812,5,8,3:2:0:0:
255,220,259021,1,8,3:2:0:0:
168,161,259229,1,8,3:2:0:0:
206,5,259438,1,8,3:2:0:0:
44,49,259646,5,8,3:2:0:0:
48,56,259750,1,8,3:2:0:0:
51,63,259854,2,0,L|153:43,1,75.0000028610231,8|8,3:2|3:2,0:0:0:0:
257,116,260062,5,8,3:2:0:0:
261,109,260166,1,8,3:2:0:0:
264,102,260270,2,0,L|366:122,1,75.0000028610231,8|8,3:2|3:2,0:0:0:0:
480,181,260479,5,8,3:2:0:0:
445,194,260583,1,8,3:2:0:0:
428,227,260687,1,8,3:2:0:0:
429,264,260791,1,8,3:2:0:0:
423,301,260896,1,8,3:2:0:0:
403,333,261000,1,8,3:2:0:0:
375,357,261104,1,8,3:2:0:0:
337,360,261208,1,8,3:2:0:0:
310,324,261312,6,0,B|301:232|355:275|347:184,2,150.000005722046,4|2|2,0:0|0:0|0:0,0:0:0:0:
307,322,262146,6,0,P|275:303|218:298,1,75.0000028610231,2|0,0:0|0:0,0:0:0:0:
117,238,262354,2,0,P|153:231|185:212,1,75.0000028610231,2|0,0:0|0:0,0:0:0:0:
248,137,262562,1,2,0:0:0:0:
