osu file format v14

[General]
AudioFilename: audio.mp3
AudioLeadIn: 0
PreviewTime: 145216
Countdown: 0
SampleSet: Soft
StackLeniency: 0.7
Mode: 0
LetterboxInBreaks: 0
WidescreenStoryboard: 0

[Editor]
Bookmarks: 7330,34764,62193,94756,120297,164909,170755,213525,213679,213832,213986,233832,268079,325401
DistanceSpacing: 1
BeatDivisor: 4
GridSize: 8
TimelineZoom: 1.9

[Metadata]
Title:Bokura wa Ima
TitleUnicode:僕らは今
Artist:Minase Inori
ArtistUnicode:水瀬いのり
Creator:HeTo
Version:Believe us
Source:
Tags:Japanese pop jpop j-pop kokoro somari ココロソマリ 岩里祐穂 Yuho Iwasato 藤永龍太郎 Ryutaro Fujinaga Elements Garden
BeatmapID:2579405
BeatmapSetID:1240745

[Difficulty]
HPDrainRate:6
CircleSize:4
OverallDifficulty:9.3
ApproachRate:9.4
SliderMultiplier:1.85
SliderTickRate:1

[Events]
//Background and Video events
0,0,"bg.jpg",0,0
//Break Periods
//Storyboard Layer 0 (Background)
//Storyboard Layer 1 (Fail)
//Storyboard Layer 2 (Pass)
//Storyboard Layer 3 (Foreground)
//Storyboard Layer 4 (Overlay)
//Storyboard Sound Samples

[TimingPoints]
479,428.571428571429,4,2,6,30,1,0
479,-185.185185185185,4,2,6,30,0,0
20943,-185.185185185185,4,2,6,5,0,0
21050,-185.185185185185,4,2,6,30,0,0
34764,-169.491525423729,4,2,5,30,0,0
60479,-256.410256410257,4,2,5,30,0,0
62193,-142.857142857143,4,2,6,40,0,0
71193,-142.857142857143,4,2,5,35,0,0
71621,-142.857142857143,4,2,6,40,0,0
78050,-142.857142857143,4,2,5,35,0,0
78479,-142.857142857143,4,2,6,40,0,0
79764,-142.857142857143,4,2,5,35,0,0
80193,-142.857142857143,4,2,6,40,0,0
89621,-285.714285714284,4,2,6,40,0,0
93907,-285.714285714284,4,2,6,15,0,0
94756,307.692307692308,4,2,6,65,1,0
94756,-105.263157894737,4,2,6,65,0,0
95371,298.507462686567,4,2,6,65,1,0
95665,309.278350515464,4,2,6,65,1,0
95820,333.333333333333,4,2,6,65,1,0
95986,307.692307692308,4,2,6,65,1,0
95986,-105.263157894737,4,2,6,65,0,0
115602,-105.263157894737,4,2,6,5,0,0
115679,-125,4,2,6,50,0,0
125525,-111.111111111111,4,2,6,65,0,0
135371,-125,4,2,6,60,0,0
140294,-105.263157894737,4,2,6,65,0,0
143063,-105.263157894737,4,2,6,50,0,0
143371,-105.263157894737,4,2,6,55,0,0
143679,-105.263157894737,4,2,6,60,0,0
143986,-105.263157894737,4,2,6,65,0,0
144140,-105.263157894737,4,2,6,65,0,0
145216,-95.2380952380952,4,2,6,70,0,1
145448,-95.2380952380952,4,2,6,5,0,1
145525,-95.2380952380952,4,2,6,70,0,1
146679,-95.2380952380952,4,2,6,5,0,1
146756,-95.2380952380952,4,2,6,70,0,1
150371,-95.2380952380952,4,2,6,5,0,1
150448,-95.2380952380952,4,2,6,70,0,1
151602,-95.2380952380952,4,2,6,5,0,1
151679,-95.2380952380952,4,2,6,70,0,1
167602,-95.2380952380952,4,2,6,5,0,1
167679,-95.2380952380952,4,2,6,70,0,1
177140,-95.2380952380952,4,2,6,5,0,1
177217,-95.2380952380952,4,2,6,70,0,1
179601,-95.2380952380952,4,2,6,5,0,1
179678,-95.2380952380952,4,2,6,70,0,1
181140,-95.2380952380952,4,2,6,5,0,1
181217,-95.2380952380952,4,2,6,70,0,1
182139,-285.714285714287,4,2,6,65,0,0
183294,-285.714285714287,4,2,6,5,0,0
183371,-117.647058823529,4,2,6,40,0,0
183679,-117.647058823529,4,2,6,50,0,0
183986,-117.647058823529,4,2,6,65,0,0
184602,-105.263157894737,4,2,6,65,0,0
194448,-125,4,2,6,65,0,0
203063,-111.111111111111,4,2,6,65,0,0
204294,-105.263157894737,4,2,6,65,0,0
211986,-105.263157894737,4,2,6,40,0,0
212294,-105.263157894737,4,2,6,45,0,0
212602,-105.263157894737,4,2,6,60,0,0
212909,-105.263157894737,4,2,6,65,0,0
213525,-153.846153846154,4,2,6,50,0,0
213602,-153.846153846154,4,2,6,5,0,0
213679,-133.333333333334,4,2,6,50,0,0
213756,-133.333333333334,4,2,6,5,0,0
213832,-117.64705882353,4,2,6,50,0,0
213909,-117.64705882353,4,2,6,5,0,0
213986,-105.263157894737,4,2,6,50,0,0
214063,-105.263157894737,4,2,6,5,0,0
214139,-95.2380952380952,4,2,6,70,0,1
214371,-95.2380952380952,4,2,6,5,0,1
214448,-95.2380952380952,4,2,6,70,0,1
215602,-95.2380952380952,4,2,6,5,0,1
215679,-95.2380952380952,4,2,6,70,0,1
219294,-95.2380952380952,4,2,6,5,0,1
219371,-95.2380952380952,4,2,6,70,0,1
220525,-95.2380952380952,4,2,6,5,0,1
220602,-95.2380952380952,4,2,6,70,0,1
228832,-95.2380952380952,4,2,6,5,0,1
228909,-95.2380952380952,4,2,6,70,0,1
236525,-95.2380952380952,4,2,6,5,0,1
236602,-95.2380952380952,4,2,6,70,0,1
248602,-100,4,2,6,70,0,1
251062,-285.714285714287,4,2,6,65,0,0
252601,-181.818181818182,4,2,6,65,0,0
253534,363.636363636364,4,2,6,50,1,0
253534,-181.818181818181,4,2,6,50,0,0
253897,-181.818181818181,4,2,5,35,0,0
281170,-153.846153846153,4,2,6,50,0,0
281897,-117.647058823529,4,2,6,50,0,0
282624,-142.857142857143,4,2,6,50,0,0
285897,-142.857142857143,4,2,5,40,0,0
286261,-142.857142857143,4,2,6,50,0,0
288806,-142.857142857143,4,2,5,40,0,0
289170,-142.857142857143,4,2,6,50,0,0
291715,-142.857142857143,4,2,5,40,0,0
292079,-142.857142857143,4,2,6,50,0,0
294624,-142.857142857143,4,2,5,40,0,0
294988,-142.857142857143,4,2,6,50,0,0
296079,-142.857142857143,4,2,5,40,0,0
296443,-142.857142857143,4,2,6,50,0,0
296806,-142.857142857143,4,2,5,35,0,0
297170,-142.857142857143,4,2,6,50,0,0
297534,-142.857142857143,4,2,5,40,0,0
297897,-142.857142857143,4,2,6,50,0,0
298261,-142.857142857143,4,2,5,40,0,0
298624,-142.857142857143,4,2,6,50,0,0
300079,-125,4,2,6,55,0,0
304386,331.491712707182,4,2,6,55,1,0
304386,-181.818181818181,4,2,6,55,0,0
305719,307.692307692308,4,2,6,60,1,0
305719,-105.263157894737,4,2,6,60,0,0
306026,-105.263157894737,4,2,6,35,0,0
306334,-105.263157894737,4,2,6,30,0,0
306642,-105.263157894737,4,2,6,45,0,0
306949,-105.263157894737,4,2,6,50,0,0
307257,-105.263157894737,4,2,6,55,0,0
307565,-105.263157894737,4,2,6,60,0,0
307872,-105.263157894737,4,2,6,65,0,0
308170,307.692307692308,4,2,6,60,1,0
308170,-133.333333333334,4,2,6,60,0,0
308478,-133.333333333334,4,2,6,40,0,0
308632,-133.333333333334,4,2,6,40,0,0
309093,-133.333333333334,4,2,6,45,0,0
309401,-133.333333333334,4,2,6,50,0,0
309709,-133.333333333334,4,2,6,55,0,0
310016,-133.333333333334,4,2,6,60,0,0
310632,-250,4,2,6,60,0,0
312632,-166.666666666667,4,2,6,60,0,0
313093,-95.2380952380951,4,2,6,70,0,1
315785,-95.2380952380951,4,2,6,5,0,1
315862,-95.2380952380951,4,2,6,70,0,1
333016,-95.2380952380951,4,2,6,5,0,1
333093,-95.2380952380951,4,2,6,70,0,1
342555,-95.2380952380951,4,2,6,5,0,1
342632,-95.2380952380951,4,2,6,70,0,1
343632,-95.2380952380951,4,2,6,5,0,1
343709,-95.2380952380951,4,2,6,70,0,1
351555,-117.647058823529,4,2,6,70,0,1
352513,309.278350515464,4,2,6,65,1,0
352513,-222.222222222222,4,2,6,65,0,0
353750,-222.222222222222,4,2,6,15,0,0
354346,307.692307692308,4,2,6,65,1,0
354346,-105.263157894737,4,2,6,65,0,0
354653,303.030303030303,4,2,6,65,1,0
354653,-105.263157894737,4,2,6,65,0,0
354951,307.692307692308,4,2,6,65,1,0
354951,-100,4,2,6,65,0,0
366874,-100,4,2,6,5,0,0
366951,-100,4,2,6,65,0,0
374649,346.820809248555,4,2,6,65,1,0
374649,-181.818181818181,4,2,6,65,0,0
375255,-181.818181818181,4,2,6,5,0,0
375343,288.461538461538,4,2,6,65,1,0
375343,-153.846153846153,4,2,6,65,0,0
375565,-153.846153846153,4,2,6,5,0,0
375631,262.008733624454,4,2,6,65,1,0
375631,-153.846153846153,4,2,6,65,0,0
375827,-153.846153846153,4,2,6,5,0,0
375891,252.100840336134,4,2,6,65,1,0
375891,-153.846153846153,4,2,6,65,0,0
376080,-153.846153846153,4,2,6,5,0,0
376145,338.983050847458,4,2,6,65,1,0
376145,-153.846153846153,4,2,6,65,0,0
376399,-153.846153846153,4,2,6,5,0,0
376483,377.358490566038,4,2,6,65,1,0
376932,394.736842105263,4,2,6,65,1,0
376932,-117.647058823529,4,2,6,55,0,0
377232,392.156862745098,4,2,6,55,1,0
377232,-117.647058823529,4,2,6,55,0,0
377625,441.176470588235,4,2,6,55,1,0
377772,355.029585798817,4,2,6,55,1,0
377948,491.803278688525,4,2,6,55,1,0
377948,-117.647058823529,4,2,6,55,0,0
378111,487.80487804878,4,2,6,55,1,0
378354,625,4,2,6,55,1,0
378354,-117.647058823529,4,2,6,55,0,0
378668,750,4,2,6,55,1,0
379040,540.540540540541,4,2,6,55,1,0
379040,-222.222222222221,4,2,6,55,0,0
379985,-222.222222222221,4,2,6,55,0,0
380125,740.740740740741,4,2,6,65,1,0
380125,-181.818181818181,4,2,6,65,0,0
381606,-181.818181818181,4,2,6,5,0,0

[Colours]
Combo1 : 182,208,252
Combo2 : 129,245,199
Combo3 : 217,217,217
Combo4 : 255,179,217
Combo5 : 238,253,181

[HitObjects]
109,157,479,5,2,0:0:0:0:
183,314,907,1,2,0:0:0:0:
217,225,1336,1,2,0:0:0:0:
131,242,1764,1,2,0:0:0:0:
360,364,2193,5,2,0:0:0:0:
309,185,2621,1,2,0:0:0:0:
298,278,3050,1,2,0:0:0:0:
380,244,3479,1,2,0:0:0:0:
191,78,3907,5,2,0:0:0:0:
212,284,4336,1,2,0:0:0:0:
242,189,4764,1,2,0:0:0:0:
153,211,5193,1,2,0:0:0:0:
445,271,5621,5,2,0:0:0:0:
333,74,6050,1,2,0:0:0:0:
356,179,6479,1,2,0:0:0:0:
437,116,6907,2,0,L|424:51,1,49.9500012194825,2|0,0:0|0:0,0:0:0:0:
356,179,7336,6,0,P|314:172|254:163,1,99.9000024389649,2|2,0:0|0:0,0:0:0:0:
257,163,8193,1,2,0:0:0:0:
146,32,8621,2,0,P|140:65|136:91,1,49.9500012194825,2|0,0:0|0:0,0:0:0:0:
87,170,9050,6,0,P|94:208|106:278,1,99.9000024389649,2|2,0:0|0:0,0:0:0:0:
104,268,9907,1,2,0:0:0:0:
227,353,10336,2,0,P|262:347|299:341,1,49.9500012194825,2|0,0:0|0:0,0:0:0:0:
343,235,10764,6,0,P|308:241|223:254,1,99.9000024389649,2|2,0:0|0:0,0:0:0:0:
244,250,11621,1,2,0:0:0:0:
172,149,12050,2,0,P|178:113|182:84,1,49.9500012194825,2|0,0:0|0:0,0:0:0:0:
300,29,12479,6,0,P|349:36|398:44,2,99.9000024389649,2|2|2,0:0|0:0|0:0,0:0:0:0:
300,29,13764,2,0,P|306:67|310:91,1,49.9500012194825,2|0,0:0|0:0,0:0:0:0:
385,194,14193,6,0,P|438:195|468:144,1,99.9000024389649,2|2,0:0|0:0,0:0:0:0:
465,161,15050,1,2,0:0:0:0:
297,155,15479,2,0,P|297:194|299:220,1,49.9500012194825,2|0,0:0|0:0,0:0:0:0:
392,292,15907,6,0,P|389:253|382:178,1,99.9000024389649,2|2,0:0|0:0,0:0:0:0:
383,192,16764,1,2,0:0:0:0:
299,51,17193,2,0,P|269:58|246:63,1,49.9500012194825,2|0,0:0|0:0,0:0:0:0:
108,141,17621,6,0,P|79:133|-11:113,1,99.9000024389649,2|2,0:0|0:0,0:0:0:0:
10,117,18479,1,2,0:0:0:0:
119,241,18907,2,0,P|167:230|182:226,1,49.9500012194825,2|0,0:0|0:0,0:0:0:0:
327,111,19336,5,2,0:0:0:0:
291,193,19550,1,2,0:0:0:0:
227,129,19764,2,0,P|233:79|243:9,1,99.9000024389649,2|2,0:0|0:0,0:0:0:0:
375,185,20621,2,0,P|381:234|385:268,1,74.9250018292237,2|0,0:0|0:0,0:0:0:0:
393,274,21050,6,0,P|438:264|510:251,1,99.9000024389649,2|2,0:0|0:0,0:0:0:0:
490,254,21907,1,2,0:0:0:0:
422,96,22336,2,0,P|373:106|352:111,1,49.9500012194825,2|0,0:0|0:0,0:0:0:0:
262,182,22764,6,0,P|267:214|278:288,1,99.9000024389649,2|2,0:0|0:0,0:0:0:0:
276,280,23621,1,2,0:0:0:0:
456,127,24050,1,2,0:0:0:0:
396,207,24264,1,0,0:0:0:0:
278,63,24479,6,0,P|322:71|356:122,1,99.9000024389649,2|2,0:0|0:0,0:0:0:0:
354,112,25336,1,2,0:0:0:0:
262,182,25764,2,0,P|226:173|203:168,1,49.9500012194825,2|0,0:0|0:0,0:0:0:0:
104,99,26193,6,0,P|79:105|-10:126,2,99.9000024389649,2|2|2,0:0|0:0|0:0,0:0:0:0:
213,170,27479,2,0,P|206:214|203:234,1,49.9500012194825,2|0,0:0|0:0,0:0:0:0:
101,314,27907,6,0,P|97:289|85:207,1,99.9000024389649,2|2,0:0|0:0,0:0:0:0:
86,215,28764,1,2,0:0:0:0:
231,348,29193,1,2,0:0:0:0:
231,348,29407,1,0,0:0:0:0:
231,348,29621,6,0,P|286:337|336:328,1,99.9000024389649,2|0,0:0|0:0,0:0:0:0:
344,198,30479,2,0,P|295:207|245:216,1,99.9000024389649,2|0,0:0|0:0,0:0:0:0:
467,353,31336,6,0,P|475:312|491:237,1,99.9000024389649,2|2,0:0|0:0,0:0:0:0:
486,255,32193,1,2,0:0:0:0:
445,82,32621,2,0,P|418:86|393:90,1,49.9500012194825,2|0,0:0|0:0,0:0:0:0:
237,174,33050,5,2,0:0:0:0:
281,96,33264,1,2,0:0:0:0:
334,179,33479,2,0,P|327:213|313:289,1,99.9000024389649,2|2,0:0|0:0,0:0:0:0:
223,360,34121,1,0,0:0:0:0:
223,360,34336,2,0,P|185:350|159:341,1,62.4375015243531,2|2,0:0|0:0,0:0:0:0:
27,236,34764,6,0,P|54:231|118:218,1,72.766664112905,10|0,0:0|0:0,0:0:0:0:
122,219,35193,2,0,L|117:165,2,36.3833320564525,8|8|8,0:0|0:0|0:0,0:0:0:0:
260,282,35621,1,10,0:0:0:0:
260,282,36050,1,8,0:0:0:0:
259,260,36192,1,8,0:0:0:0:
257,238,36335,1,8,0:0:0:0:
256,216,36479,6,0,P|287:181|336:181,1,72.766664112905,10|0,0:0|0:0,0:0:0:0:
336,180,36907,2,0,L|344:231,2,36.3833320564525,8|8|8,0:0|0:0|0:0,0:0:0:0:
451,70,37336,1,10,0:0:0:0:
451,70,37764,1,8,0:0:0:0:
453,91,37906,1,8,0:0:0:0:
457,113,38049,1,8,0:0:0:0:
459,135,38193,6,0,P|414:120|371:108,1,72.766664112905,10|0,0:0|0:0,0:0:0:0:
368,101,38621,2,0,L|361:35,2,36.3833320564525,8|8|8,0:0|0:0|0:0,0:0:0:0:
256,214,39050,1,10,0:0:0:0:
256,214,39479,1,8,0:0:0:0:
235,211,39621,1,8,0:0:0:0:
212,210,39764,1,8,0:0:0:0:
190,208,39907,1,10,0:0:0:0:
6,65,40336,6,0,L|9:110,2,36.3833320564525,10|8|8,0:0|0:0|0:0,0:0:0:0:
118,144,40764,2,0,L|115:107,2,36.3833320564525,10|8|8,0:0|0:0|0:0,0:0:0:0:
21,187,41193,1,8,0:0:0:0:
21,208,41335,1,8,0:0:0:0:
22,229,41478,1,8,0:0:0:0:
22,250,41621,6,0,P|75:240|120:232,1,72.766664112905,10|0,0:0|0:0,0:0:0:0:
118,246,42050,2,0,L|115:282,2,36.3833320564525,8|8|8,0:0|0:0|0:0,0:0:0:0:
247,167,42479,1,10,0:0:0:0:
247,167,42907,1,8,0:0:0:0:
245,188,43049,1,8,0:0:0:0:
243,210,43192,1,8,0:0:0:0:
241,232,43336,6,0,L|234:329,1,72.766664112905,10|0,0:0|0:0,0:0:0:0:
228,332,43764,2,0,L|188:324,2,36.3833320564525,8|8|8,0:0|0:0|0:0,0:0:0:0:
353,267,44193,1,10,0:0:0:0:
353,267,44621,6,0,L|349:296,5,18.1916660282262,8|8|8|8|8|8,0:0|0:0|0:0|0:0|0:0|0:0,0:0:0:0:
353,248,45050,6,0,P|405:239|439:232,1,72.766664112905,10|0,0:0|0:0,0:0:0:0:
453,235,45479,2,0,L|446:295,2,36.3833320564525,8|8|8,0:0|0:0|0:0,0:0:0:0:
508,123,45907,1,10,0:0:0:0:
508,123,46336,1,8,0:0:0:0:
489,111,46479,1,8,0:0:0:0:
467,107,46621,1,8,0:0:0:0:
445,112,46764,1,10,0:0:0:0:
273,224,47193,6,0,L|226:214,2,36.3833320564525,8|8|8,0:0|0:0|0:0,0:0:0:0:
220,106,47621,2,0,L|255:98,2,36.3833320564525,10|8|8,0:0|0:0|0:0,0:0:0:0:
130,207,48050,1,8,0:0:0:0:
108,203,48192,1,8,0:0:0:0:
86,199,48335,1,8,0:0:0:0:
65,195,48479,6,0,P|58:137|54:96,1,72.766664112905,10|0,0:0|0:0,0:0:0:0:
47,100,48907,2,0,L|-8:107,2,36.3833320564525,8|8|8,0:0|0:0|0:0,0:0:0:0:
184,30,49336,1,10,0:0:0:0:
184,30,49764,1,8,0:0:0:0:
186,51,49906,1,8,0:0:0:0:
189,73,50049,1,8,0:0:0:0:
192,94,50193,6,0,P|245:85|291:78,1,72.766664112905,10|0,0:0|0:0,0:0:0:0:
291,88,50621,2,0,L|286:137,2,36.3833320564525,8|8|8,0:0|0:0|0:0,0:0:0:0:
403,182,51050,1,10,0:0:0:0:
403,182,51479,1,8,0:0:0:0:
381,178,51621,1,8,0:0:0:0:
360,184,51764,1,8,0:0:0:0:
343,198,51907,6,0,P|352:255|359:296,1,72.766664112905,10|0,0:0|0:0,0:0:0:0:
362,298,52336,2,0,L|413:286,2,36.3833320564525,8|8|8,0:0|0:0|0:0,0:0:0:0:
240,365,52764,1,10,0:0:0:0:
240,365,53193,1,8,0:0:0:0:
222,352,53335,1,8,0:0:0:0:
200,350,53478,1,8,0:0:0:0:
179,356,53621,1,10,0:0:0:0:
21,280,54050,6,0,L|24:228,2,36.3833320564525,8|8|8,0:0|0:0|0:0,0:0:0:0:
92,150,54479,2,0,L|95:202,2,36.3833320564525,10|8|8,0:0|0:0|0:0,0:0:0:0:
172,268,54907,1,8,0:0:0:0:
193,272,55050,1,8,0:0:0:0:
213,264,55193,1,8,0:0:0:0:
226,247,55336,6,0,P|262:223|318:235,1,72.766664112905,10|0,0:0|0:0,0:0:0:0:
313,242,55764,2,0,L|308:294,2,36.3833320564525,8|8|8,0:0|0:0|0:0,0:0:0:0:
471,209,56193,1,10,0:0:0:0:
471,209,56621,1,8,0:0:0:0:
473,187,56763,1,8,0:0:0:0:
476,165,56906,1,8,0:0:0:0:
478,143,57050,6,0,P|446:117|395:117,1,72.766664112905,10|0,0:0|0:0,0:0:0:0:
389,120,57479,2,0,L|397:173,2,36.3833320564525,8|8|8,0:0|0:0|0:0,0:0:0:0:
282,32,57907,1,10,0:0:0:0:
282,32,58336,6,0,L|279:3,5,18.1916660282262,8|8|8|8|8|8,0:0|0:0|0:0|0:0|0:0|0:0,0:0:0:0:
270,49,58764,6,0,P|275:91|281:147,1,72.766664112905,10|0,0:0|0:0,0:0:0:0:
277,146,59193,2,0,L|336:162,2,36.3833320564525,8|8|8,0:0|0:0|0:0,0:0:0:0:
179,206,59621,2,0,L|143:215,2,36.3833320564525,8|8|8,0:0|0:0|0:0,0:0:0:0:
285,290,60050,1,8,0:0:0:0:
282,311,60193,1,8,0:0:0:0:
282,332,60336,1,8,0:0:0:0:
279,353,60479,6,0,B|133:375|211:283|56:309,1,216.450007266083,8|0,0:0|0:0,0:0:0:0:
229,25,62193,5,14,1:2:0:0:
229,25,62621,2,0,P|235:87|240:163,1,129.499996047974,2|2,0:0|0:0,0:0:0:0:
34,246,63479,1,8,0:3:0:0:
56,208,63621,1,8,0:3:0:0:
97,196,63764,1,8,0:3:0:0:
138,213,63907,5,14,1:2:0:0:
138,213,64336,2,0,P|144:242|150:271,2,43.1666653493246,4|8|8,0:3|0:3|0:3,0:0:0:0:
229,311,64764,1,8,0:3:0:0:
268,329,64907,1,8,0:3:0:0:
310,320,65050,1,8,0:3:0:0:
339,288,65193,2,0,P|341:274|347:245,2,43.1666653493246,4|4|4,0:3|0:3|0:3,0:0:0:0:
287,110,65621,5,6,1:2:0:0:
287,110,66050,2,0,P|335:116|394:122,1,86.3333306986492,2|0,0:0|0:0,0:0:0:0:
257,192,66479,2,0,P|209:198|150:204,1,86.3333306986492,8|0,1:2|0:0,0:0:0:0:
81,176,66907,1,8,0:3:0:0:
83,141,67050,1,8,0:3:0:0:
85,106,67193,1,8,0:3:0:0:
89,71,67336,5,6,1:2:0:0:
89,71,67764,2,0,L|36:59,2,43.1666653493246,4|8|8,0:3|0:3|0:3,0:0:0:0:
174,172,68193,1,8,0:3:0:0:
213,188,68336,1,8,0:3:0:0:
252,171,68479,1,8,0:3:0:0:
275,134,68621,2,0,P|271:109|264:78,2,43.1666653493246,4|4|4,0:3|0:3|0:3,0:0:0:0:
410,239,69050,5,6,1:2:0:0:
410,239,69479,2,0,P|423:168|437:93,1,129.499996047974,2|8,0:0|1:2,0:0:0:0:
433,111,70336,1,8,0:3:0:0:
408,86,70479,1,8,0:3:0:0:
374,81,70621,1,8,0:3:0:0:
342,95,70764,5,6,1:2:0:0:
342,95,71193,2,0,L|337:34,2,43.1666653493246,8|8|8,0:0|0:0|0:0,0:0:0:0:
264,163,71621,1,8,0:3:0:0:
266,197,71763,1,8,0:3:0:0:
268,231,71906,1,8,0:3:0:0:
273,265,72050,2,0,P|293:260|321:256,2,43.1666653493246,4|4|4,0:3|0:3|0:3,0:0:0:0:
223,380,72479,6,0,B|139:383|190:330|87:332,1,129.499996047974,6|0,1:2|0:0,0:0:0:0:
0,172,73336,2,0,P|7:120|15:61,1,86.3333306986492,0|0,1:2|0:0,0:0:0:0:
67,17,73764,1,4,0:3:0:0:
98,1,73907,1,4,0:3:0:0:
132,5,74050,1,4,0:3:0:0:
152,32,74193,6,0,P|155:59|159:86,2,43.1666653493246,6|8|8,1:2|0:3|0:3,0:0:0:0:
259,120,74621,2,0,P|261:98|264:77,2,43.1666653493246,4|4|4,0:3|0:3|0:3,0:0:0:0:
159,181,75050,5,8,0:3:0:0:
159,215,75193,1,8,0:3:0:0:
158,249,75336,1,8,0:3:0:0:
170,279,75479,5,4,0:3:0:0:
170,304,75621,1,4,0:3:0:0:
170,329,75764,1,4,0:3:0:0:
169,354,75907,5,6,1:2:0:0:
169,354,76336,2,0,P|255:340|323:327,1,129.499996047974,2|0,0:0|1:2,0:0:0:0:
296,332,77193,1,8,0:3:0:0:
299,297,77336,1,8,0:3:0:0:
304,262,77479,1,8,0:3:0:0:
308,229,77621,5,6,1:2:0:0:
308,229,78050,2,0,P|336:224|382:218,2,43.1666653493246,8|8|8,0:0|0:0|0:0,0:0:0:0:
243,121,78479,2,0,B|156:115|216:167|105:161,1,129.499996047974,0|0,1:2|1:2,0:0:0:0:
361,17,79336,5,6,1:2:0:0:
361,17,79764,2,0,P|364:45|369:71,2,43.1666653493246,8|8|8,0:0|0:0|0:0,0:0:0:0:
245,124,80193,2,0,P|242:152|232:236,1,86.3333306986492,0|0,1:2|0:0,0:0:0:0:
155,285,80621,1,4,0:3:0:0:
122,295,80764,1,4,0:3:0:0:
89,284,80907,1,4,0:3:0:0:
77,251,81050,5,6,1:2:0:0:
77,251,81479,2,0,L|66:193,2,43.1666653493246,4|4|4,0:3|0:3|0:3,0:0:0:0:
131,134,81907,1,8,0:3:0:0:
164,106,82050,1,8,0:3:0:0:
207,107,82193,1,8,0:3:0:0:
239,135,82336,2,0,L|230:177,2,43.1666653493246,4|4|4,0:3|0:3|0:3,0:0:0:0:
369,78,82764,5,6,1:2:0:0:
369,78,83193,2,0,P|379:139|391:214,1,129.499996047974,2|0,0:0|1:2,0:0:0:0:
462,370,84050,2,0,P|472:306|479:261,1,86.3333306986492,2|0,1:2|0:0,0:0:0:0:
512,131,84479,5,6,1:2:0:0:
512,131,84907,2,0,P|489:121|469:118,2,43.1666653493246,4|4|4,0:3|0:3|0:3,0:0:0:0:
414,213,85336,1,8,1:2:0:0:
372,224,85479,1,8,0:3:0:0:
331,210,85621,1,8,0:3:0:0:
310,171,85764,2,0,P|315:143|322:111,2,43.1666653493246,4|4|4,0:3|0:3|0:3,0:0:0:0:
225,315,86193,6,0,B|136:320|192:268|92:273,1,129.499996047974,6|0,1:2|0:0,0:0:0:0:
0,14,87050,2,0,P|6:56|11:99,1,86.3333306986492,0|0,1:2|0:0,0:0:0:0:
73,165,87479,1,8,0:3:0:0:
109,187,87621,1,8,0:3:0:0:
151,176,87764,1,8,0:3:0:0:
175,141,87907,6,0,P|231:132|313:117,1,129.499996047974,6|0,1:2|0:0,0:0:0:0:
436,364,88764,2,0,P|372:351|338:343,1,86.3333306986492,0|8,1:2|0:3,0:0:0:0:
239,311,89193,1,4,0:3:0:0:
239,285,89336,1,4,0:3:0:0:
240,259,89479,1,4,0:3:0:0:
240,233,89621,6,0,B|144:238|80:147|134:30|222:22|287:43|326:100|321:165|321:165|448:143|373:228|520:204,1,647.499980239869,6|0,1:2|0:0,0:0:0:0:
230,144,94756,5,14,0:0:0:0:
480,57,94909,1,0,1:2:0:0:
407,297,95063,2,0,P|397:222|392:174,1,87.8749976534844,14|0,0:0|0:0,0:0:0:0:
318,88,95371,5,8,1:2:0:0:
298,50,95445,1,8,0:0:0:0:
261,28,95520,1,8,0:0:0:0:
217,31,95594,1,8,0:0:0:0:
182,56,95665,1,8,0:0:0:0:
162,94,95742,1,8,0:0:0:0:
123,114,95820,1,8,0:0:0:0:
77,108,95903,1,8,0:0:0:0:
36,81,95986,6,0,P|51:172|52:187,1,87.8749976534844,6|0,1:2|0:0,0:0:0:0:
209,337,96294,2,0,P|216:293|223:250,1,87.8749976534844,10|0,0:0|0:0,0:0:0:0:
318,88,96602,1,2,1:2:0:0:
128,228,96756,1,2,1:2:0:0:
337,306,96909,1,10,0:0:0:0:
162,94,97063,6,0,B|48:89|117:151|-12:148,1,175.749995306969,2|2,1:2|1:2,0:0:0:0:
224,0,97525,1,10,0:0:0:0:
225,190,97679,1,2,0:0:0:0:
100,17,97832,1,2,1:2:0:0:
321,119,97986,1,2,1:2:0:0:
103,257,98140,1,10,0:0:0:0:
236,77,98294,1,2,0:0:0:0:
236,77,98371,1,2,0:0:0:0:
236,77,98448,6,0,P|242:133|247:174,1,87.8749976534844,6|0,1:2|0:0,0:0:0:0:
381,346,98756,2,0,P|386:302|390:258,1,87.8749976534844,10|0,0:0|0:0,0:0:0:0:
426,121,99063,1,2,1:2:0:0:
258,272,99217,2,0,P|215:261|172:251,1,87.8749976534844,2|8,1:2|0:0,0:0:0:0:
326,9,99525,6,0,P|331:66|347:214,1,175.749995306969,2|0,1:2|1:2,0:0:0:0:
171,345,99986,2,0,B|129:361|129:361|82:335,1,87.8749976534844,10|0,0:0|0:0,0:0:0:0:
193,162,100294,1,2,1:2:0:0:
279,358,100448,1,2,1:2:0:0:
105,212,100602,1,8,0:0:0:0:
317,96,100756,1,8,0:0:0:0:
317,96,100832,1,8,0:0:0:0:
317,96,100909,6,0,P|378:109|406:114,1,87.8749976534844,6|0,1:2|0:0,0:0:0:0:
251,260,101217,2,0,P|207:268|164:277,1,87.8749976534844,10|0,2:0|0:0,0:0:0:0:
230,86,101525,1,2,1:2:0:0:
389,258,101679,2,0,P|377:317|370:354,1,87.8749976534844,2|8,1:2|0:0,0:0:0:0:
193,162,101986,6,0,B|68:138|161:221|8:204,1,175.749995306969,2|2,1:2|1:2,0:0:0:0:
202,246,102448,1,10,0:0:0:0:
57,114,102602,1,2,0:0:0:0:
145,317,102756,1,2,1:2:0:0:
269,120,102909,1,2,1:2:0:0:
57,275,103063,1,10,0:0:0:0:
317,355,103217,1,2,0:0:0:0:
317,355,103294,1,2,0:0:0:0:
317,355,103371,6,0,P|326:295|335:238,1,87.8749976534844,6|0,1:2|0:0,0:0:0:0:
393,107,103679,1,10,0:0:0:0:
442,297,103832,1,2,0:0:0:0:
272,151,103986,1,2,1:2:0:0:
493,61,104140,2,0,P|484:121|475:178,1,87.8749976534844,2|8,1:2|0:0,0:0:0:0:
317,355,104448,6,0,B|251:357|251:357|211:317|211:317|128:317,1,175.749995306969,6|0,1:2|1:2,0:0:0:0:
23,121,104909,6,0,P|33:173|43:229,1,87.8749976534844,14|0,0:0|1:2,0:0:0:0:
293,7,105217,6,0,P|283:59|273:115,1,87.8749976534844,14|0,0:0|1:2,0:0:0:0:
395,324,105525,5,8,0:3:0:0:
425,340,105601,1,8,0:3:0:0:
463,332,105678,1,4,0:3:0:0:
485,304,105755,1,4,0:3:0:0:
493,269,105832,6,0,B|371:267|463:204|310:206,1,175.749995306969,6|10,1:2|0:0,0:0:0:0:
159,112,106294,1,2,0:0:0:0:
238,345,106448,1,2,1:2:0:0:
238,345,106602,2,0,P|247:296|254:252,1,87.8749976534844,2|8,1:2|0:0,0:0:0:0:
194,32,106909,6,0,P|132:31|87:141,1,175.749995306969,6|2,1:2|1:2,0:0:0:0:
161,312,107371,1,10,0:0:0:0:
159,112,107525,1,2,0:0:0:0:
41,273,107679,1,2,1:2:0:0:
235,167,107832,1,2,1:2:0:0:
44,54,107986,1,10,0:0:0:0:
161,312,108140,1,2,0:0:0:0:
161,312,108217,1,2,0:0:0:0:
161,312,108294,6,0,P|172:252|180:205,1,87.8749976534844,6|0,1:2|0:0,0:0:0:0:
281,8,108602,2,0,P|288:51|296:94,1,87.8749976534844,10|0,0:0|0:0,0:0:0:0:
332,268,108909,1,2,1:2:0:0:
180,48,109063,2,0,P|173:91|165:134,1,87.8749976534844,2|8,1:2|0:0,0:0:0:0:
292,336,109371,6,0,B|345:279|422:312|422:312|388:320|368:345,1,175.749995306969,6|2,1:2|1:2,0:0:0:0:
176,225,109832,2,0,P|123:213|76:202,1,87.8749976534844,8|0,0:0|0:0,0:0:0:0:
65,204,110063,1,8,1:2:0:0:
65,204,110140,1,2,1:2:0:0:
200,345,110294,1,2,1:2:0:0:
265,123,110448,1,10,0:0:0:0:
31,310,110602,1,8,0:0:0:0:
31,310,110679,1,8,0:0:0:0:
31,310,110756,6,0,P|24:237|12:112,1,175.749995306969,6|10,1:2|0:0,0:0:0:0:
208,19,111217,1,2,0:0:0:0:
176,225,111371,1,2,1:2:0:0:
92,74,111525,1,2,1:2:0:0:
327,157,111679,1,10,0:0:0:0:
138,315,111832,6,0,P|145:242|157:117,1,175.749995306969,2|2,1:2|1:2,0:0:0:0:
319,29,112294,1,10,0:0:0:0:
282,235,112448,1,2,0:0:0:0:
222,73,112602,1,2,1:2:0:0:
424,221,112756,1,0,1:2:0:0:
214,291,112909,1,10,0:0:0:0:
376,94,113063,1,0,1:2:0:0:
376,94,113140,1,0,1:2:0:0:
376,94,113217,5,14,0:0:0:0:
319,380,113371,1,0,1:2:0:0:
154,140,113525,1,0,1:2:0:0:
461,339,113679,5,14,0:0:0:0:
142,233,113832,1,0,1:2:0:0:
474,157,113986,1,0,1:2:0:0:
217,351,114140,1,10,0:0:0:0:
279,50,114294,6,0,P|288:123|304:253,1,175.749995306969,6|0,1:2|1:2,0:0:0:0:
195,74,114756,1,0,1:2:0:0:
373,152,114909,1,0,1:2:0:0:
161,226,115063,1,0,1:2:0:0:
409,26,115217,1,8,0:0:0:0:
409,26,115294,1,8,0:0:0:0:
409,26,115371,2,0,P|405:68|396:164,1,131.812496480227,8|0,0:0|0:0,0:0:0:0:
445,261,115679,6,0,B|339:274|413:212|287:225,2,148,6|0|0,1:2|1:2|1:2,0:0:0:0:
300,345,116448,1,0,0:0:0:0:
300,345,116602,2,0,P|251:332|218:324,1,74,2|2,1:2|0:0,0:0:0:0:
131,206,116909,6,0,P|136:266|148:379,1,148,0|0,1:2|1:2,0:0:0:0:
233,171,117371,1,0,0:0:0:0:
233,171,117525,2,0,P|225:216|218:257,1,74,0|0,1:2|0:0,0:0:0:0:
35,118,117832,2,0,P|43:163|50:204,1,74,2|0,1:2|0:0,0:0:0:0:
196,94,118140,6,0,P|254:79|319:151,1,148,2|0,1:2|1:2,0:0:0:0:
362,301,118602,1,0,0:0:0:0:
362,301,118756,2,0,P|417:291|460:285,1,74,0|0,1:2|0:0,0:0:0:0:
302,217,119063,1,2,1:2:0:0:
284,309,119217,1,2,0:0:0:0:
416,195,119371,6,0,P|409:133|399:28,2,148,0|0|0,1:2|1:2|1:2,0:0:0:0:
315,132,120140,1,0,0:0:0:0:
315,132,120294,2,0,P|260:142|217:148,1,74,2|2,1:2|0:0,0:0:0:0:
290,0,120602,6,0,P|235:10|109:30,1,148,6|2,1:2|0:0,0:0:0:0:
47,146,121063,2,0,P|40:103|33:58,1,74,2|0,0:0|1:2,0:0:0:0:
123,217,121371,1,2,0:0:0:0:
0,293,121525,2,0,P|7:250|14:205,1,74,2|2,1:2|0:0,0:0:0:0:
158,128,121832,6,0,P|164:166|183:297,1,148,0|0,1:2|1:2,0:0:0:0:
270,364,122294,2,0,P|313:372|365:279,1,148
317,180,122756,1,2,1:2:0:0:
291,292,122909,1,2,0:0:0:0:
475,145,123063,6,0,B|369:143|445:199|316:199,1,148,2|2,1:2|1:2,0:0:0:0:
237,48,123525,2,0,P|279:54|318:90,1,74,2|0,0:0|1:2,0:0:0:0:
158,209,123832,2,0,P|142:169|153:117,1,74,2|0,0:0|1:2,0:0:0:0:
258,206,124140,1,0,0:0:0:0:
143,23,124294,5,6,1:2:0:0:
19,301,124756,5,2,0:0:0:0:
19,301,124832,1,2,0:0:0:0:
19,301,124909,1,2,0:0:0:0:
179,231,125063,1,2,0:0:0:0:
75,156,125217,2,0,P|84:215|96:296,1,111,14|0,1:2|0:0,0:0:0:0:
142,360,125525,6,0,B|256:362|182:305|304:311,1,166.499994918823,6|8,1:2|0:0,0:0:0:0:
440,228,125986,1,0,0:0:0:0:
388,371,126140,2,0,P|381:318|377:285,1,83.2499974594117,0|0,1:2|1:2,0:0:0:0:
340,161,126448,1,10,0:0:0:0:
474,328,126602,6,0,P|481:275|497:137,1,166.499994918823,2|0,1:2|1:2,0:0:0:0:
389,17,127063,2,0,P|398:99|402:128,1,83.2499974594117,10|0,0:0|0:0,0:0:0:0:
306,235,127371,1,0,1:2:0:0:
306,235,127525,1,0,1:2:0:0:
197,97,127679,2,0,P|228:68|285:62,1,83.2499974594117,10|0,0:0|0:0,0:0:0:0:
174,221,127986,6,0,P|117:208|0:183,2,166.499994918823,2|8|0,1:2|0:0|1:2,0:0:0:0:
49,281,128756,1,0,1:2:0:0:
118,116,128909,1,8,0:0:0:0:
218,308,129063,6,0,B|260:269|297:269|297:269|325:309|386:305,1,166.499994918823,2|0,1:2|1:2,0:0:0:0:
377,115,129525,2,0,P|365:167|356:210,1,83.2499974594117,8|0,0:0|0:0,0:0:0:0:
355,215,129756,1,8,0:0:0:0:
356,215,129832,1,0,1:2:0:0:
463,178,129986,1,0,1:2:0:0:
264,72,130140,2,0,P|276:126|285:169,1,83.2499974594117,10|0,0:0|0:0,0:0:0:0:
438,2,130448,6,0,P|449:54|476:177,1,166.499994918823,6|10,1:2|0:0,0:0:0:0:
361,304,130909,2,0,P|313:294|273:285,1,83.2499974594117,2|0,0:0|1:2,0:0:0:0:
358,196,131217,1,2,1:2:0:0:
423,376,131371,1,10,0:0:0:0:
219,210,131525,6,0,B|200:309|266:247|242:385,1,166.499994918823,2|0,1:2|1:2,0:0:0:0:
124,220,131986,2,0,P|136:148|146:100,1,83.2499974594117,8|0,0:0|0:0,0:0:0:0:
140,122,132217,1,8,0:0:0:0:
140,122,132294,1,0,1:2:0:0:
236,205,132448,1,0,0:0:0:0:
118,328,132602,2,0,P|77:320|36:312,1,83.2499974594117,10|0,0:0|0:0,0:0:0:0:
0,100,132909,6,0,P|6:54|127:43,1,166.499994918823,6|10,1:2|0:0,0:0:0:0:
247,184,133371,2,0,P|259:112|264:85,1,83.2499974594117,2|0,0:0|1:2,0:0:0:0:
139,230,133679,1,2,1:2:0:0:
329,183,133832,1,10,0:0:0:0:
157,89,133986,1,2,1:2:0:0:
272,282,134140,6,0,P|314:273|359:262,1,83.2499974594117,2|0,0:0|1:2,0:0:0:0:
400,99,134448,1,10,0:0:0:0:
365,353,134602,1,0,1:2:0:0:
280,109,134756,5,8,0:0:0:0:
463,322,134909,1,8,0:0:0:0:
216,219,135063,1,8,0:0:0:0:
488,150,135217,1,8,0:0:0:0:
263,346,135371,6,0,B|156:357|228:295|92:306,1,148,6|0,1:2|0:0,0:0:0:0:
126,304,135832,1,0,1:2:0:0:
19,197,135986,2,0,P|25:260|33:358,1,148,8|0,0:0|0:0,0:0:0:0:
116,201,136448,1,8,0:3:0:0:
116,201,136602,6,0,P|121:149|124:100,1,74,0|8,1:2|0:3,0:0:0:0:
189,18,136909,2,0,P|261:10|301:71,1,148,0|8,1:2|0:0,0:0:0:0:
226,202,137371,1,0,1:2:0:0:
226,202,137525,2,0,P|221:150|217:101,1,74,8|0,0:3|1:2,0:0:0:0:
315,313,137832,6,0,B|367:313|367:313|399:283|399:283|477:281,1,148,6|0,1:2|0:0,0:0:0:0:
451,281,138294,1,2,1:2:0:0:
402,124,138448,2,0,P|351:138|320:221,1,148,8|0,0:0|0:0,0:0:0:0:
502,163,138909,1,8,0:0:0:0:
502,163,139063,6,0,P|494:113|491:86,1,74,0|8,1:2|0:3,0:0:0:0:
397,205,139371,1,8,0:3:0:0:
512,261,139525,1,4,0:3:0:0:
384,109,139679,2,0,P|343:113|310:148,1,74,4|0,0:3|1:2,0:0:0:0:
210,273,139986,1,8,0:0:0:0:
207,289,140294,6,0,B|319:286|242:220|381:222,1,175.749995306969,6|10,1:2|0:0,0:0:0:0:
165,76,140756,2,0,P|169:117|174:177,1,87.8749976534844,2|0,0:0|1:2,0:0:0:0:
301,293,141062,1,2,1:2:0:0:
256,123,141217,1,8,0:0:0:0:
73,347,141371,6,0,B|68:280|68:280|91:246|91:246|83:148,1,175.749995306969,2|0,1:2|1:2,0:0:0:0:
5,0,141832,1,10,0:0:0:0:
0,221,141986,1,0,0:0:0:0:
165,76,142140,2,0,P|127:52|67:55,1,87.8749976534844,2|0,1:2|1:2,0:0:0:0:
194,208,142448,1,10,0:0:0:0:
313,21,142602,1,0,1:2:0:0:
313,21,142679,1,0,1:2:0:0:
313,21,142756,6,0,B|295:138|354:64|332:211,1,175.749995306969,6|0,1:2|1:2,0:0:0:0:
390,46,143217,1,0,1:2:0:0:
259,147,143371,1,0,1:2:0:0:
458,193,143525,1,0,1:2:0:0:
246,63,143679,1,0,1:2:0:0:
338,308,143832,1,0,1:0:0:0:
474,88,143986,1,6,1:2:0:0:
243,285,144140,5,8,0:0:0:0:
238,292,144217,1,8,0:0:0:0:
234,300,144294,2,0,L|173:287,1,43.9374988267422,8|8,1:2|0:0,0:0:0:0:
115,134,144448,2,0,L|54:147,1,43.9374988267422,8|8,0:0|0:0,0:0:0:0:
0,302,144602,1,8,1:2:0:0:
41,314,144678,1,8,0:0:0:0:
81,299,144755,1,8,0:0:0:0:
105,263,144832,1,8,0:0:0:0:
101,220,144909,1,8,1:2:0:0:
101,220,145217,6,0,B|205:216|133:164|261:165,1,145.68749555397,6|0,1:2|0:0,0:0:0:0:
250,165,145525,2,0,P|241:102|232:47,1,97.1249970359803,10|0,0:0|0:0,0:0:0:0:
344,281,145832,2,0,P|336:328|329:377,1,97.1249970359803,2|0,1:2|0:0,0:0:0:0:
512,167,146140,2,0,P|479:132|426:126,1,97.1249970359803,10|0,0:0|0:0,0:0:0:0:
250,249,146448,6,0,P|310:239|404:223,1,145.68749555397,2|0,1:2|0:0,0:0:0:0:
425,139,146756,2,0,P|373:147|317:156,1,97.1249970359803,10|0,0:0|0:0,0:0:0:0:
170,304,147063,2,0,P|164:251|158:200,1,97.1249970359803,2|0,1:2|0:0,0:0:0:0:
28,15,147371,1,10,0:0:0:0:
74,250,147525,1,0,0:0:0:0:
187,37,147679,6,0,B|231:2|272:-4|272:-4|300:46|370:36,1,194.249994071961,2|10,1:2|0:0,0:0:0:0:
499,205,148140,1,0,0:0:0:0:
447,0,148294,2,0,P|439:45|428:98,1,97.1249970359803,0|0,1:2|0:0,0:0:0:0:
419,304,148602,1,10,0:0:0:0:
512,111,148756,1,2,0:0:0:0:
295,244,148909,5,0,1:2:0:0:
295,244,149063,2,0,P|248:232|194:217,1,97.1249970359803,2|8,0:0|0:0,0:0:0:0:
353,380,149371,1,0,0:0:0:0:
423,215,149525,2,0,P|412:158|400:103,1,97.1249970359803,2|0,1:2|0:0,0:0:0:0:
495,283,149832,1,10,0:0:0:0:
299,116,149986,1,8,0:0:0:0:
299,116,150063,1,8,0:0:0:0:
299,116,150140,6,0,P|234:127|142:143,1,145.68749555397,6|0,1:2|0:0,0:0:0:0:
140,136,150448,2,0,P|150:192|159:251,1,97.1249970359803,10|0,0:0|0:0,0:0:0:0:
1,89,150756,2,0,P|36:52|86:50,1,97.1249970359803,2|0,1:2|0:0,0:0:0:0:
253,203,151063,2,0,P|243:259|234:318,1,97.1249970359803,10|0,0:0|0:0,0:0:0:0:
37,377,151371,6,0,P|29:329|6:196,1,145.68749555397,2|0,1:2|0:0,0:0:0:0:
0,216,151679,2,0,P|43:205|95:191,1,97.1249970359803,10|0,0:0|0:0,0:0:0:0:
316,236,151986,1,2,1:2:0:0:
114,276,152140,1,0,0:0:0:0:
233,31,152294,2,0,P|241:87|250:146,1,97.1249970359803,10|0,0:0|0:0,0:0:0:0:
291,353,152602,6,0,B|422:351|321:279|491:279,1,194.249994071961,2|8,1:2|0:0,0:0:0:0:
316,236,153063,1,2,0:0:0:0:
497,380,153217,2,0,B|486:341|476:317|476:317|503:250|523:169,1,194.249994071961,2|8,1:2|0:0,0:0:0:0:
446,10,153679,1,2,0:0:0:0:
301,219,153832,6,0,P|365:205|414:195,1,97.1249970359803,2|0,1:2|0:0,0:0:0:0:
233,31,154140,2,0,P|185:21|138:10,1,97.1249970359803,10|0,0:0|0:0,0:0:0:0:
195,206,154448,5,8,0:0:0:0:
195,206,154525,1,8,0:0:0:0:
195,206,154602,2,8,P|207:147|211:132,1,48.5624985179902
81,257,154756,1,8,0:0:0:0:
81,257,154833,1,8,0:0:0:0:
81,257,154910,2,8,P|69:198|65:183,1,48.5624985179902
226,384,155063,6,0,P|238:325|250:269,1,97.1249970359803,6|0,1:2|0:0,0:0:0:0:
100,90,155371,1,10,0:0:0:0:
100,90,155525,2,0,P|42:101|-12:110,1,97.1249970359803,2|0,0:0|1:2,0:0:0:0:
137,317,155832,1,0,1:2:0:0:
299,170,155986,5,10,0:0:0:0:
299,170,156140,2,0,P|241:159|187:150,1,97.1249970359803,2|0,0:0|1:2,0:0:0:0:
387,305,156448,1,0,1:2:0:0:
396,109,156602,1,10,0:0:0:0:
232,286,156756,1,0,1:2:0:0:
451,375,156909,2,0,P|463:302|472:245,1,97.1249970359803,2|0,0:0|1:2,0:0:0:0:
299,170,157217,2,0,P|306:217|314:265,1,97.1249970359803,10|0,0:0|0:0,0:0:0:0:
512,72,157525,6,0,B|422:71|483:17|365:20,1,145.68749555397,2|0,1:2|0:0,0:0:0:0:
364,27,157832,1,10,0:0:0:0:
183,110,157986,2,0,P|243:97|299:82,1,97.1249970359803,2|0,0:0|1:2,0:0:0:0:
153,220,158294,1,0,1:2:0:0:
111,25,158448,1,10,0:0:0:0:
299,170,158602,6,0,P|251:159|102:129,1,194.249994071961,2|0,0:0|1:2,0:0:0:0:
0,4,159063,2,0,P|11:53|20:105,1,97.1249970359803,8|0,0:0|0:0,0:0:0:0:
23,123,159294,1,8,0:0:0:0:
23,123,159371,1,0,1:2:0:0:
65,310,159525,1,0,1:2:0:0:
196,115,159679,2,0,P|166:51|97:41,1,145.68749555397,14|0,0:0|0:0,0:0:0:0:
160,199,159986,6,0,B|286:210|216:139|355:156,1,194.249994071961,6|10,1:2|0:0,0:0:0:0:
443,327,160448,2,0,P|452:268|462:208,1,97.1249970359803,2|0,0:0|1:2,0:0:0:0:
368,71,160756,1,0,1:2:0:0:
366,278,160909,1,10,0:0:0:0:
512,119,161063,1,2,0:0:0:0:
254,242,161217,6,0,P|207:229|158:215,1,97.1249970359803,2|0,1:2|1:2,0:0:0:0:
265,88,161525,1,10,0:0:0:0:
132,321,161679,2,0,P|127:254|116:89,1,194.249994071961,2|0,0:0|1:2,0:0:0:0:
40,270,162140,1,10,0:0:0:0:
203,144,162294,1,2,1:2:0:0:
20,26,162448,6,0,P|26:85|31:138,1,97.1249970359803,14|0,0:0|1:2,0:0:0:0:
0,334,162756,1,0,1:2:0:0:
127,30,162909,2,0,P|121:89|116:142,1,97.1249970359803,14|0,0:0|1:2,0:0:0:0:
230,357,163217,1,0,1:2:0:0:
385,92,163371,6,0,P|331:94|295:132,1,97.1249970359803,14|0,0:0|1:2,0:0:0:0:
140,330,163679,1,0,1:2:0:0:
368,172,163832,1,14,0:0:0:0:
117,126,163986,1,14,0:0:0:0:
327,379,164140,1,8,0:0:0:0:
327,379,164217,1,8,0:0:0:0:
327,379,164294,6,0,P|334:311|340:267,1,97.1249970359803,0|8,1:2|0:0,0:0:0:0:
339,261,164525,1,8,0:0:0:0:
339,261,164602,1,0,1:2:0:0:
493,112,164756,1,8,0:0:0:0:
493,112,164832,1,8,0:0:0:0:
493,112,164909,6,0,P|455:82|408:82,1,97.1249970359803,6|2,1:2|0:1,0:0:0:0:
236,213,165217,1,10,0:0:0:0:
430,161,165371,1,2,0:1:0:0:
252,7,165524,2,0,B|231:53|231:53|248:96,1,97.1249970359803,2|2,1:2|0:1,0:0:0:0:
431,270,165832,2,0,P|438:224|448:170,1,97.1249970359803,10|2,0:0|0:1,0:0:0:0:
188,162,166139,6,0,P|196:209|201:258,1,97.1249970359803,2|2,1:2|0:1,0:0:0:0:
304,157,166447,1,10,0:0:0:0:
88,257,166601,1,2,0:1:0:0:
321,365,166756,2,0,P|373:352|426:339,1,97.1249970359803,2|2,1:2|0:1,0:0:0:0:
282,172,167063,1,10,0:0:0:0:
198,384,167217,1,2,0:1:0:0:
372,179,167371,6,0,P|363:116|349:19,1,145.68749555397,2|0,1:2|0:0,0:0:0:0:
268,0,167679,2,0,P|278:72|282:107,1,97.1249970359803,8|2,0:0|0:1,0:0:0:0:
158,266,167986,2,0,P|113:267|72:227,1,97.1249970359803,0|2,1:2|0:1,0:0:0:0:
15,66,168294,1,10,0:0:0:0:
0,291,168448,1,2,0:1:0:0:
152,84,168602,5,0,1:2:0:0:
152,84,168756,2,0,P|145:142|138:191,1,97.1249970359803,2|8,0:1|0:0,0:0:0:0:
217,351,169063,1,2,0:1:0:0:
377,150,169217,1,8,1:2:0:0:
334,128,169293,1,8,0:0:0:0:
286,136,169370,1,8,0:0:0:0:
252,170,169447,1,8,0:0:0:0:
244,217,169525,2,0,L|257:269,1,48.5624985179902,8|8,1:2|0:0,0:0:0:0:
450,231,169679,2,0,L|460:181,1,48.5624985179902,8|8,0:0|0:0,0:0:0:0:
270,40,169832,6,0,P|277:87|288:149,1,97.1249970359803,6|2,1:2|0:1,0:0:0:0:
380,304,170140,1,10,0:0:0:0:
387,66,170293,1,2,0:1:0:0:
255,264,170448,2,0,B|207:284|207:284|142:250,1,97.1249970359803,2|2,1:2|0:1,0:0:0:0:
372,147,170755,2,0,P|419:154|458:182,1,97.1249970359803,10|2,0:0|0:1,0:0:0:0:
295,353,171062,6,0,P|249:375|199:373,1,97.1249970359803,2|2,1:2|0:1,0:0:0:0:
92,168,171370,1,10,0:0:0:0:
50,349,171524,1,2,0:1:0:0:
206,125,171679,1,2,1:2:0:0:
0,204,171832,1,2,0:1:0:0:
138,336,171986,2,0,P|148:270|156:219,1,97.1249970359803,10|2,0:0|0:1,0:0:0:0:
4,67,172294,6,0,B|66:12|149:36|149:36|108:45|99:89,1,194.249994071961,6|8,1:2|0:0,0:0:0:0:
311,106,172755,1,2,0:0:0:0:
246,2,172909,2,0,P|237:58|227:125,1,97.1249970359803,2|0,1:2|0:0,0:0:0:0:
45,270,173217,2,0,P|37:221|29:174,1,97.1249970359803,8|0,0:0|0:0,0:0:0:0:
211,248,173524,5,0,1:2:0:0:
22,377,173679,1,14,0:0:0:0:
155,139,173832,1,14,0:0:0:0:
299,359,173986,1,4,0:3:0:0:
299,359,174063,1,4,0:3:0:0:
299,359,174140,1,8,0:3:0:0:
342,362,174216,1,8,0:3:0:0:
380,342,174293,1,4,0:3:0:0:
399,302,174370,1,4,0:3:0:0:
382,260,174448,5,4,0:3:0:0:
363,264,174524,1,4,0:3:0:0:
344,269,174601,1,4,0:3:0:0:
325,273,174678,1,4,0:3:0:0:
306,278,174755,1,10,0:0:0:0:
291,281,175063,5,14,0:0:0:0:
291,281,175217,2,0,P|302:212|311:159,1,97.1249970359803,2|0,0:0|1:2,0:0:0:0:
400,21,175525,1,0,1:2:0:0:
194,238,175679,5,10,0:0:0:0:
194,238,175833,2,0,P|185:172|163:37,1,194.249994071961,2|0,1:2|1:2,0:0:0:0:
323,179,176294,2,0,P|379:166|429:154,1,97.1249970359803,10|0,0:0|0:0,0:0:0:0:
268,93,176602,1,2,1:2:0:0:
307,275,176756,1,0,1:2:0:0:
476,86,176909,2,0,P|469:143|454:252,1,145.68749555397,10|0,0:0|0:0,0:0:0:0:
482,323,177217,6,0,B|360:323|446:256|299:257,1,194.249994071961,2|10,1:2|0:0,0:0:0:0:
167,367,177679,1,2,0:0:0:0:
217,159,177832,2,0,P|222:209|227:266,1,97.1249970359803,0|0,1:2|1:0,0:0:0:0:
330,158,178140,1,10,0:0:0:0:
134,33,178294,6,0,P|129:83|114:231,1,194.249994071961,6|0,1:2|1:2,0:0:0:0:
44,47,178756,1,8,0:0:0:0:
217,159,178909,1,0,1:2:0:0:
217,159,178986,1,0,1:2:0:0:
217,159,179063,2,0,P|269:150|316:142,1,97.1249970359803,0|0,1:2|1:2,0:0:0:0:
133,312,179371,2,0,P|55:299|36:209,1,145.68749555397,14|0,0:0|0:0,0:0:0:0:
20,228,179679,6,0,B|76:211|138:192|138:192|165:242|221:242,1,194.249994071961,6|10,1:2|0:0,0:0:0:0:
354,46,180140,2,0,P|343:113|320:251,1,194.249994071961,2|0,0:0|1:2,0:0:0:0:
423,100,180602,1,10,0:0:0:0:
227,155,180756,1,2,0:0:0:0:
414,294,180909,6,0,P|469:284|514:275,1,97.1249970359803,2|0,1:2|1:2,0:0:0:0:
354,46,181217,2,0,P|306:37|258:27,1,97.1249970359803,10|0,0:0|0:0,0:0:0:0:
119,250,181525,1,2,1:2:0:0:
332,163,181679,1,0,1:2:0:0:
93,154,181832,1,10,0:0:0:0:
290,329,181986,1,2,0:0:0:0:
174,80,182140,6,0,B|148:208|232:152|211:280|211:280|205:264|194:250,1,242.812492589951,6|0,1:2|0:0,0:0:0:0:
128,353,183371,5,0,1:2:0:0:
128,353,183448,1,0,1:2:0:0:
128,353,183525,2,0,L|70:335,1,39.3125007498264,0|0,1:2|1:2,0:0:0:0:
0,221,183679,1,8,1:2:0:0:
0,221,183756,1,8,1:2:0:0:
0,221,183833,2,0,L|58:203,1,39.3125007498264,8|8,0:0|0:0,0:0:0:0:
174,80,183986,1,8,0:0:0:0:
172,107,184062,1,8,0:0:0:0:
171,134,184139,1,8,0:0:0:0:
169,162,184216,1,8,0:0:0:0:
168,189,184293,1,8,1:2:0:0:
167,213,184602,6,0,P|212:206|280:198,1,87.8749976534844,6|0,1:2|0:0,0:0:0:0:
359,342,184909,2,0,P|315:336|272:329,1,87.8749976534844,10|0,0:0|0:0,0:0:0:0:
398,155,185217,1,2,1:2:0:0:
454,356,185371,1,2,1:2:0:0:
318,241,185525,1,10,0:0:0:0:
512,83,185679,6,0,P|499:161|483:271,1,175.749995306969,2|2,1:2|1:2,0:0:0:0:
320,109,186140,1,10,0:0:0:0:
362,328,186294,1,2,0:0:0:0:
476,148,186448,1,2,1:2:0:0:
277,227,186602,1,2,1:2:0:0:
489,357,186756,1,10,0:0:0:0:
398,155,186909,1,2,0:0:0:0:
398,155,186986,1,2,0:0:0:0:
398,155,187063,6,0,P|386:212|377:258,1,87.8749976534844,6|0,1:2|0:0,0:0:0:0:
188,121,187371,2,0,P|179:77|170:34,1,87.8749976534844,10|0,0:0|0:0,0:0:0:0:
59,272,187679,1,2,1:2:0:0:
277,227,187832,2,0,P|218:216|173:208,1,87.8749976534844,2|8,1:2|0:0,0:0:0:0:
10,86,188140,6,0,B|135:86|40:24|196:36,1,175.749995306969,2|2,1:2|1:2,0:0:0:0:
277,227,188602,1,10,0:0:0:0:
160,118,188756,1,2,0:0:0:0:
384,169,188909,1,2,1:2:0:0:
181,317,189063,1,2,1:2:0:0:
291,120,189217,1,10,0:0:0:0:
398,315,189371,1,2,0:0:0:0:
398,315,189448,1,2,0:0:0:0:
398,315,189525,6,0,P|449:303|497:292,1,87.8749976534844,6|0,1:2|0:0,0:0:0:0:
439,80,189832,2,0,P|396:70|353:60,1,87.8749976534844,10|0,0:0|0:0,0:0:0:0:
175,227,190140,1,2,1:2:0:0:
250,0,190294,2,0,P|256:54|263:107,1,87.8749976534844,2|8,1:2|0:0,0:0:0:0:
219,301,190602,6,0,P|147:309|98:209,1,175.749995306969,2|2,1:2|1:2,0:0:0:0:
144,52,191063,1,10,0:0:0:0:
175,227,191217,1,2,0:0:0:0:
32,99,191371,1,2,1:2:0:0:
277,199,191525,1,2,1:2:0:0:
24,355,191679,1,8,0:0:0:0:
22,324,191755,1,8,0:0:0:0:
20,293,191832,1,8,0:3:0:0:
18,262,191909,1,8,0:3:0:0:
17,232,191986,5,14,0:0:0:0:
284,118,192140,1,0,1:2:0:0:
193,382,192294,1,0,1:2:0:0:
148,77,192448,5,14,0:0:0:0:
399,253,192602,1,0,1:2:0:0:
108,305,192756,1,0,1:2:0:0:
405,118,192909,1,10,0:0:0:0:
290,373,193063,6,0,P|282:315|275:252,1,87.8749976534844,14|0,0:0|1:2,0:0:0:0:
148,77,193371,1,8,0:3:0:0:
148,77,193448,1,8,0:3:0:0:
148,77,193525,2,0,P|142:120|136:164,1,87.8749976534844,0|0,1:2|1:2,0:0:0:0:
134,183,193756,1,0,1:2:0:0:
134,183,193832,1,0,1:2:0:0:
279,286,193986,5,8,0:3:0:0:
279,286,194063,1,8,0:3:0:0:
279,286,194140,1,4,0:3:0:0:
302,297,194217,1,4,0:3:0:0:
328,295,194294,1,4,0:3:0:0:
351,282,194371,1,4,0:3:0:0:
361,262,194448,6,0,B|467:269|393:210|508:223,1,148,6|0,1:2|0:0,0:0:0:0:
495,221,194909,1,0,1:2:0:0:
397,75,195063,2,0,P|345:90|241:122,1,148,10|2,0:0|0:0,0:0:0:0:
182,255,195525,1,0,1:2:0:0:
182,255,195832,2,0,P|173:195|168:160,1,74,10|0,0:0|0:0,0:0:0:0:
103,288,196140,1,0,1:2:0:0:
250,359,196294,2,0,P|259:299|264:264,1,74,10|0,0:0|0:0,0:0:0:0:
93,374,196602,2,0,P|84:314|79:279,1,74,2|0,0:0|0:0,0:0:0:0:
0,94,196909,6,0,B|53:89|53:89|79:114|79:114|144:109,1,148,2|0,1:2|0:0,0:0:0:0:
137,109,197371,1,0,1:2:0:0:
265,0,197525,2,0,P|259:44|245:148,1,148,10|0,0:0|0:0,0:0:0:0:
354,256,197986,1,0,1:2:0:0:
354,256,198294,2,0,P|408:245|449:236,1,74,10|0,0:0|0:0,0:0:0:0:
378,154,198602,1,0,1:2:0:0:
279,299,198756,2,0,P|225:288|184:279,1,74,10|0,0:0|1:2,0:0:0:0:
275,205,199063,1,8,0:3:0:0:
340,363,199217,1,0,1:2:0:0:
174,199,199371,6,0,P|120:210|3:235,1,148,4|0,1:2|0:0,0:0:0:0:
29,229,199832,1,0,1:0:0:0:
136,107,199986,1,8,0:0:0:0:
206,284,200140,1,8,0:0:0:0:
63,141,200294,1,0,1:2:0:0:
248,47,200448,1,0,1:2:0:0:
248,47,200756,2,0,P|252:100|257:136,1,74,10|0,0:0|0:0,0:0:0:0:
263,208,201063,1,0,1:2:0:0:
142,33,201217,2,0,P|140:70|136:107,1,74,10|0,0:0|1:2,0:0:0:0:
335,8,201525,2,0,P|339:61|344:97,1,74,2|0,0:0|0:0,0:0:0:0:
391,245,201832,5,6,1:2:0:0:
476,163,201986,2,0,P|429:154|388:148,1,74,10|0,0:0|0:0,0:0:0:0:
292,278,202294,1,0,1:2:0:0:
323,178,202448,2,0,P|334:238|358:355,1,148,10|0,0:0|1:2,0:0:0:0:
351,323,202909,1,8,0:0:0:0:
166,206,203063,5,0,1:2:0:0:
213,369,203217,1,8,0:3:0:0:
270,157,203371,1,0,1:2:0:0:
73,303,203525,1,0,1:2:0:0:
73,303,203602,1,0,1:2:0:0:
73,303,203679,2,0,P|67:246|63:215,1,83.2499974594117,0|0,1:2|0:0,0:0:0:0:
25,62,203986,1,10,0:0:0:0:
175,286,204140,1,8,0:0:0:0:
175,286,204217,1,8,0:0:0:0:
175,286,204294,6,0,P|181:229|185:198,1,87.8749976534844,6|0,1:2|1:2,0:0:0:0:
266,53,204602,2,0,B|385:34|306:112|456:88,1,175.749995306969,8|0,0:0|1:2,0:0:0:0:
289,137,205063,1,0,1:2:0:0:
413,11,205217,1,10,0:0:0:0:
487,209,205371,6,0,P|498:140|518:21,1,175.749995306969,2|0,1:2|1:2,0:0:0:0:
379,178,205832,2,0,P|393:264|398:291,1,87.8749976534844,10|0,0:0|0:0,0:0:0:0:
392,280,206063,1,0,1:2:0:0:
392,280,206140,1,0,1:2:0:0:
500,133,206294,1,0,1:2:0:0:
306,245,206448,2,0,P|257:232|194:216,1,87.8749976534844,10|0,0:0|0:0,0:0:0:0:
333,377,206756,6,0,P|376:367|418:354,1,87.8749976534844,2|0,1:2|1:2,0:0:0:0:
251,152,207063,2,0,P|182:152|160:269,1,175.749995306969,10|0,0:0|1:2,0:0:0:0:
74,71,207525,1,0,1:2:0:0:
220,222,207679,1,10,0:0:0:0:
25,316,207832,6,0,P|17:247|1:122,1,175.749995306969,2|0,1:2|1:2,0:0:0:0:
158,0,208294,2,0,P|146:87|144:116,1,87.8749976534844,8|0,0:0|0:0,0:0:0:0:
220,222,208602,2,0,P|268:213|327:202,1,87.8749976534844,0|0,1:2|1:2,0:0:0:0:
140,289,208909,1,10,0:0:0:0:
297,125,209063,1,4,0:3:0:0:
297,125,209140,1,4,0:3:0:0:
297,125,209217,6,0,B|416:118|331:191|495:182,1,175.749995306969,6|10,1:2|0:0,0:0:0:0:
452,0,209679,2,0,P|440:53|431:104,1,87.8749976534844,2|0,0:0|1:2,0:0:0:0:
324,291,209986,2,0,P|315:247|305:205,1,87.8749976534844,2|8,1:2|0:0,0:0:0:0:
205,36,210294,6,0,P|135:39|97:129,1,175.749995306969,2|0,1:2|1:2,0:0:0:0:
195,295,210756,1,8,0:0:0:0:
172,112,210909,1,0,0:0:0:0:
0,280,211063,2,0,P|47:289|88:299,1,87.8749976534844,0|0,1:2|1:2,0:0:0:0:
269,128,211371,1,10,0:0:0:0:
87,206,211525,1,2,1:2:0:0:
296,374,211678,6,0,B|285:343|270:317|270:317|292:275|315:185,1,175.749995306969,14|0,0:0|1:2,0:0:0:0:
403,35,212140,1,12,0:3:0:0:
414,216,212294,1,0,1:2:0:0:
257,39,212448,1,0,1:2:0:0:
496,162,212602,1,0,1:2:0:0:
226,243,212756,1,8,0:3:0:0:
480,55,212909,1,0,1:2:0:0:
446,287,213063,5,8,0:0:0:0:
446,287,213140,1,8,0:0:0:0:
446,287,213217,1,8,1:2:0:0:
403,296,213293,1,8,0:0:0:0:
363,281,213370,1,8,0:0:0:0:
338,246,213447,1,8,0:0:0:0:
338,202,213525,6,0,L|350:166,1,30.062498623848,2|0,1:2|0:0,0:0:0:0:
261,158,213679,6,0,L|252:117,1,34.6875013232232,2|0,0:0|0:0,0:0:0:0:
172,174,213832,6,0,L|144:143,1,39.3125007498264,2|0,0:0|0:0,0:0:0:0:
134,249,213986,6,0,L|90:243,1,43.9374988267422,2|0,0:0|0:0,0:0:0:0:
176,333,214140,6,0,L|5:368,1,145.68749555397,6|0,1:2|0:0,0:0:0:0:
10,361,214448,2,0,B|-5:312|-5:312|18:258,1,97.1249970359803,10|0,0:0|0:0,0:0:0:0:
154,49,214756,2,0,P|149:104|143:162,1,97.1249970359803,2|0,1:2|0:0,0:0:0:0:
255,301,215063,2,0,P|307:306|349:265,1,97.1249970359803,10|0,0:0|0:0,0:0:0:0:
411,58,215371,6,0,P|366:63|331:171,1,145.68749555397,2|0,1:2|0:0,0:0:0:0:
316,158,215679,2,0,P|308:105|301:50,1,97.1249970359803,10|0,0:0|0:0,0:0:0:0:
468,234,215986,1,2,1:2:0:0:
485,54,216140,1,0,0:0:0:0:
247,258,216294,2,0,P|294:269|341:280,1,97.1249970359803,10|0,0:0|0:0,0:0:0:0:
302,61,216602,6,0,B|157:44|256:129|100:113,1,194.249994071961,2|8,1:2|0:0,0:0:0:0:
0,226,217063,1,0,0:0:0:0:
0,0,217217,2,0,P|37:4|77:46,1,97.1249970359803,0|0,1:2|0:0,0:0:0:0:
175,197,217525,1,10,0:0:0:0:
159,24,217679,1,2,0:0:0:0:
45,292,217832,5,0,1:2:0:0:
45,292,217986,2,0,P|104:277|148:266,1,97.1249970359803,2|8,0:0|0:0,0:0:0:0:
302,351,218294,1,0,0:0:0:0:
258,123,218448,2,0,P|223:160|215:212,1,97.1249970359803,2|0,1:2|0:0,0:0:0:0:
202,380,218756,1,10,0:0:0:0:
459,208,218909,1,8,0:0:0:0:
459,208,218986,1,8,0:0:0:0:
459,208,219063,6,0,B|405:209|405:209|377:241|377:241|292:244,1,145.68749555397,6|0,1:2|0:0,0:0:0:0:
314,259,219371,2,0,P|378:275|420:284,1,97.1249970359803,10|0,0:0|0:0,0:0:0:0:
389,66,219679,2,0,P|341:76|294:88,1,97.1249970359803,2|0,1:2|0:0,0:0:0:0:
207,320,219986,2,0,P|196:247|191:212,1,97.1249970359803,10|0,0:0|0:0,0:0:0:0:
109,4,220294,6,0,P|99:75|85:170,1,145.68749555397,2|0,1:2|0:0,0:0:0:0:
4,169,220602,2,0,P|13:104|21:54,1,97.1249970359803,10|0,0:0|0:0,0:0:0:0:
193,224,220909,2,0,P|133:250|84:274,1,97.1249970359803,2|0,1:2|0:0,0:0:0:0:
259,45,221217,1,10,0:0:0:0:
240,297,221371,1,0,0:0:0:0:
101,75,221525,6,0,B|231:60|146:142|306:125,1,194.249994071961,2|8,1:2|0:0,0:0:0:0:
455,73,221986,1,2,0:0:0:0:
358,297,222140,2,0,B|329:223|344:165|344:165|357:210|391:222,1,194.249994071961,2|8,1:2|0:0,0:0:0:0:
297,28,222602,1,2,0:0:0:0:
512,168,222755,6,0,P|464:158|416:148,1,97.1249970359803,2|0,1:2|1:2,0:0:0:0:
230,223,223062,1,14,0:0:0:0:
426,57,223216,1,0,1:2:0:0:
375,213,223370,1,10,0:0:0:0:
272,108,223524,1,0,1:2:0:0:
510,244,223678,1,14,0:0:0:0:
311,343,223832,1,8,0:0:0:0:
311,343,223909,1,8,0:0:0:0:
311,343,223986,6,0,P|256:330|203:317,1,97.1249970359803,6|0,1:2|0:0,0:0:0:0:
48,132,224294,1,10,0:0:0:0:
48,132,224448,2,0,P|58:199|63:247,1,97.1249970359803,2|0,0:0|1:2,0:0:0:0:
20,361,224756,1,0,1:2:0:0:
179,113,224909,5,10,0:0:0:0:
179,113,225063,2,0,P|169:180|164:228,1,97.1249970359803,2|0,1:2|0:0,0:0:0:0:
216,320,225371,1,0,1:2:0:0:
60,124,225525,2,0,P|70:191|75:239,1,97.1249970359803,10|0,0:0|0:0,0:0:0:0:
79,237,225756,1,8,0:0:0:0:
78,237,225832,1,0,1:2:0:0:
246,138,225986,1,0,1:2:0:0:
87,17,226140,2,0,P|30:20|-9:57,1,97.1249970359803,10|0,0:0|0:0,0:0:0:0:
178,247,226448,6,0,P|251:229|336:208,1,145.68749555397,6|0,1:2|0:0,0:0:0:0:
340,215,226756,1,10,0:0:0:0:
242,33,226909,2,0,B|221:81|221:81|235:134,1,97.1249970359803,2|0,0:0|1:2,0:0:0:0:
370,305,227217,1,0,1:2:0:0:
442,111,227371,1,10,0:0:0:0:
253,316,227525,6,0,B|223:272|161:271|161:271|145:326|50:325,1,194.249994071961,2|0,0:0|1:2,0:0:0:0:
240,160,227986,1,8,0:0:0:0:
186,372,228140,1,0,1:2:0:0:
186,372,228217,1,0,1:2:0:0:
186,372,228294,1,0,1:2:0:0:
120,162,228448,1,0,1:2:0:0:
352,361,228602,2,0,P|420:350|449:282,1,145.68749555397,14|0,0:0|0:0,0:0:0:0:
505,210,228909,6,0,B|374:209|475:285|319:281,1,194.249994071961,6|10,1:2|0:0,0:0:0:0:
350,41,229371,2,0,P|357:92|366:155,1,97.1249970359803,2|0,0:0|1:2,0:0:0:0:
455,34,229679,1,0,1:2:0:0:
249,140,229832,1,10,0:0:0:0:
485,201,229986,1,2,0:0:0:0:
268,11,230140,6,0,P|190:28|156:35,1,97.1249970359803,2|0,1:2|1:2,0:0:0:0:
34,187,230448,1,10,0:0:0:0:
88,0,230602,2,0,P|98:57|124:212,1,194.249994071961,2|0,0:0|1:2,0:0:0:0:
225,373,231063,1,10,0:0:0:0:
257,142,231217,1,0,1:2:0:0:
101,360,231371,6,0,P|53:348|6:338,1,97.1249970359803,14|0,0:0|1:2,0:0:0:0:
181,116,231679,1,0,1:2:0:0:
320,351,231832,2,0,P|367:339|414:329,1,97.1249970359803,14|0,0:0|1:2,0:0:0:0:
311,75,232140,1,0,1:2:0:0:
146,278,232294,6,0,P|98:268|51:256,1,97.1249970359803,14|0,0:0|1:2,0:0:0:0:
211,33,232602,1,0,1:2:0:0:
253,311,232756,1,8,0:0:0:0:
98,62,232909,1,8,0:0:0:0:
391,228,233063,5,0,1:2:0:0:
391,228,233140,1,0,1:2:0:0:
391,228,233217,1,8,0:0:0:0:
438,223,233293,1,8,0:0:0:0:
474,191,233370,1,4,0:3:0:0:
484,144,233447,1,4,0:3:0:0:
465,100,233524,5,0,1:2:0:0:
446,103,233601,1,0,1:2:0:0:
426,106,233678,1,0,1:2:0:0:
407,109,233755,1,0,1:2:0:0:
388,111,233832,6,0,P|396:58|404:2,1,97.1249970359803,6|2,1:2|0:1,0:0:0:0:
239,147,234140,1,10,0:0:0:0:
438,223,234294,1,2,0:1:0:0:
250,34,234448,2,0,P|206:44|149:56,1,97.1249970359803,2|2,1:2|0:1,0:0:0:0:
238,262,234756,2,0,P|285:272|332:282,1,97.1249970359803,10|2,0:0|0:1,0:0:0:0:
103,142,235063,6,0,B|80:192|80:192|108:246,1,97.1249970359803,2|2,1:2|0:1,0:3:0:0:
195,381,235371,1,10,0:0:0:0:
222,174,235524,1,2,0:1:0:0:
104,342,235679,2,0,P|57:332|10:322,1,97.1249970359803,2|2,1:2|0:1,0:0:0:0:
103,142,235986,1,10,0:0:0:0:
196,367,236140,1,2,0:1:0:0:
18,114,236294,6,0,B|118:113|33:58|184:62,1,145.68749555397,2|0,1:2|0:0,0:0:0:0:
163,51,236601,2,0,P|110:40|59:29,1,97.1249970359803,10|2,0:0|0:1,0:0:0:0:
248,254,236909,2,0,P|304:250|334:223,1,97.1249970359803,0|2,1:2|0:1,0:0:0:0:
201,129,237217,1,10,0:0:0:0:
189,343,237371,1,2,0:1:0:0:
394,152,237525,5,0,1:2:0:0:
394,152,237679,2,0,P|385:90|377:45,1,97.1249970359803,2|8,0:1|0:0,0:0:0:0:
248,254,237986,1,2,0:1:0:0:
503,145,238140,1,6,1:2:0:0:
254,35,238294,1,8,0:0:0:0:
254,35,238371,1,8,0:0:0:0:
254,35,238448,2,0,L|201:45,1,48.5624985179902,8|8,0:3|0:3,0:0:0:0:
333,224,238602,2,0,L|380:233,1,48.5624985179902,4|4,0:3|0:3,0:0:0:0:
474,38,238755,6,0,P|423:48|366:57,1,97.1249970359803,6|2,1:2|0:1,0:0:0:0:
201,197,239063,1,10,0:0:0:0:
420,156,239216,1,2,0:1:0:0:
254,35,239370,2,0,P|261:90|268:139,1,97.1249970359803,2|2,1:2|0:1,0:0:0:0:
434,286,239679,2,0,P|440:237|446:189,1,97.1249970359803,10|2,0:0|0:1,0:0:0:0:
283,349,239986,6,0,P|231:354|186:314,1,97.1249970359803,2|2,1:2|0:1,0:0:0:0:
83,191,240293,1,10,0:0:0:0:
51,347,240447,1,2,0:1:0:0:
224,191,240601,2,0,P|215:138|200:89,1,97.1249970359803,2|2,1:2|0:1,0:0:0:0:
35,273,240909,2,0,P|21:319|13:367,1,97.1249970359803,10|2,0:0|0:1,0:0:0:0:
0,73,241217,6,0,B|14:74|37:66|37:66|95:93|147:125|147:125|169:119|202:116,1,194.249994071961,6|8,1:2|0:0,0:0:0:0:
376,117,241678,1,2,0:0:0:0:
306,3,241832,2,0,P|288:74|281:125,1,97.1249970359803,2|0,1:2|0:0,0:0:0:0:
168,312,242140,2,0,P|161:263|148:212,1,97.1249970359803,14|0,0:0|0:0,0:0:0:0:
115,12,242448,5,14,0:0:0:0:
342,215,242602,1,0,1:2:0:0:
65,221,242756,1,0,1:2:0:0:
377,118,242909,5,14,0:0:0:0:
203,317,243063,1,0,1:2:0:0:
269,27,243217,1,4,0:3:0:0:
269,27,243294,1,4,0:3:0:0:
269,27,243371,1,8,0:3:0:0:
269,51,243447,1,8,0:3:0:0:
270,75,243524,1,4,0:3:0:0:
270,99,243601,1,4,0:3:0:0:
271,124,243678,1,10,0:0:0:0:
272,144,243986,5,14,0:0:0:0:
272,144,244140,2,0,P|195:128|153:121,1,97.1249970359803,2|0,0:0|1:2,0:0:0:0:
306,287,244448,1,0,1:2:0:0:
512,161,244602,5,10,0:0:0:0:
512,161,244756,2,0,P|435:177|306:205,1,194.249994071961,2|0,1:2|1:2,0:0:0:0:
197,372,245217,2,0,P|187:307|180:256,1,97.1249970359803,10|0,0:0|0:0,0:0:0:0:
176,124,245525,1,2,1:2:0:0:
277,297,245679,1,0,1:2:0:0:
78,107,245832,2,0,P|71:155|53:281,1,145.68749555397,10|0,0:0|0:0,0:0:0:0:
14,358,246140,6,0,P|26:308|157:289,1,194.249994071961,6|10,1:2|0:0,0:0:0:0:
278,384,246602,1,2,0:0:0:0:
246,152,246756,2,0,P|237:222|229:275,1,97.1249970359803,0|0,1:2|1:2,0:0:0:0:
357,155,247063,1,10,0:0:0:0:
137,2,247217,6,0,P|143:50|165:213,1,194.249994071961,6|0,1:2|1:2,0:0:0:0:
307,33,247679,1,10,0:0:0:0:
335,235,247832,1,0,1:2:0:0:
222,68,247986,1,10,0:0:0:0:
437,200,248140,1,0,1:2:0:0:
244,320,248294,2,0,P|239:257|234:203,1,97.1249970359803,8|0,0:3|0:0,0:0:0:0:
313,58,248602,6,0,B|429:46|351:125|512:110,1,185,6|2,1:2|0:0,0:0:0:0:
346,266,249063,1,2,1:2:0:0:
346,266,249217,2,0,P|336:208|326:169,1,92.5,10|0,0:0|0:0,0:0:0:0:
327,175,249525,1,2,0:0:0:0:
386,40,249679,1,8,0:0:0:0:
244,195,249832,5,6,1:2:0:0:
413,138,249986,1,8,0:0:0:0:
249,0,250140,2,0,P|259:50|267:90,1,92.5,4|0,1:2|0:0,0:0:0:0:
273,114,250371,1,8,0:0:0:0:
273,114,250448,1,8,0:0:0:0:
182,333,250602,1,8,0:0:0:0:
141,100,250756,1,8,0:0:0:0:
334,281,250909,1,8,0:0:0:0:
20,253,251063,6,0,B|166:252|67:171|213:173|213:173|185:184|182:191,1,258.999992095948,6|8,1:2|0:3,0:0:0:0:
181,191,252602,5,0,1:2:0:0:
306,333,252755,2,0,P|319:265|326:226,1,101.750003105164,8|0,0:3|0:0,0:0:0:0:
324,232,253216,1,4,0:3:0:0:
492,62,253534,6,0,P|454:52|404:42,1,67.8333354034424,6|0,1:2|0:0,0:0:0:0:
347,91,253897,2,0,L|354:132,2,33.9166677017212,8|8|8,0:0|0:0|0:0,0:0:0:0:
279,21,254261,1,10,0:0:0:0:
279,21,254624,1,8,0:0:0:0:
258,25,254746,1,8,0:0:0:0:
238,28,254867,1,8,0:0:0:0:
218,33,254988,6,0,P|213:76|207:120,1,67.8333354034424,10|0,0:0|0:0,0:0:0:0:
165,182,255352,2,0,L|126:175,2,33.9166677017212,8|8|8,0:0|0:0|0:0,0:0:0:0:
246,271,255715,1,10,0:0:0:0:
246,271,256079,6,0,L|274:264,5,16.9583338508606,8|8|8|8|8|8,0:0|0:0|0:0|0:0|0:0|0:0,0:0:0:0:
232,285,256443,6,0,P|198:278|155:269,1,67.8333354034424,10|0,0:0|0:0,0:0:0:0:
72,314,256806,2,0,L|80:356,2,33.9166677017212,8|8|8,0:0|0:0|0:0,0:0:0:0:
10,231,257170,1,10,0:0:0:0:
10,231,257534,1,8,0:0:0:0:
12,210,257655,1,8,0:0:0:0:
15,189,257776,1,8,0:0:0:0:
18,168,257897,6,0,P|60:145|88:150,1,67.8333354034424,10|0,0:0|0:0,0:0:0:0:
167,184,258261,6,0,P|158:212|153:230,2,33.9166677017212,8|8|8,0:0|0:0|0:0,0:0:0:0:
229,103,258624,6,0,P|220:75|215:57,2,33.9166677017212,10|8|8,0:0|0:0|0:0,0:0:0:0:
289,229,258988,6,0,P|280:257|275:275,2,33.9166677017212,8|8|8,0:0|0:0|0:0,0:0:0:0:
352,135,259352,6,0,P|396:141|479:151,1,101.750003105164,14|8,0:0|0:0,0:0:0:0:
509,233,259837,1,8,0:0:0:0:
509,233,259958,1,8,0:0:0:0:
509,233,260079,2,0,P|502:277|495:327,1,67.8333354034424,10|0,0:0|0:0,0:0:0:0:
404,267,260443,2,0,P|401:250|398:233,2,33.9166677017212,8|8|8,0:0|0:0|0:0,0:0:0:0:
357,353,260806,6,0,P|306:346|256:339,1,101.750003105164,10|8,0:0|0:0,0:0:0:0:
174,270,261291,1,8,0:0:0:0:
174,270,261412,1,0,0:0:0:0:
174,270,261534,2,0,P|180:222|187:176,1,67.8333354034424,10|0,0:0|0:0,0:0:0:0:
244,129,261897,6,0,P|248:147|251:159,5,16.9583338508606,8|8|8|8|8|8,0:0|0:0|0:0|0:0|0:0|0:0,0:0:0:0:
241,104,262261,6,0,P|203:78|136:97,1,101.750003105164,10|8,0:0|0:0,0:0:0:0:
61,135,262746,1,8,0:0:0:0:
61,135,262867,1,8,0:0:0:0:
61,135,262988,2,0,P|66:176|71:225,1,67.8333354034424,10|0,0:0|0:0,0:0:0:0:
5,276,263352,2,0,P|2:254|-3:220,2,33.9166677017212,8|8|8,0:0|0:0|0:0,0:0:0:0:
100,331,263715,6,0,P|149:339|190:312,1,101.750003105164,10|8,0:0|0:0,0:0:0:0:
190,311,264443,2,0,P|185:288|180:261,2,33.9166677017212,10|8|8,0:0|0:0|0:0,0:0:0:0:
299,341,264806,2,0,P|294:363|289:391,2,33.9166677017212,8|8|8,0:0|0:0|0:0,0:0:0:0:
394,242,265170,6,0,P|389:219|375:126,1,101.750003105164,10|8,0:0|0:0,0:0:0:0:
314,41,265655,1,8,0:0:0:0:
314,41,265776,1,8,0:0:0:0:
314,41,265897,2,0,P|274:47|221:56,1,67.8333354034424,10|0,0:0|0:0,0:0:0:0:
195,133,266261,2,0,P|228:128|253:124,2,33.9166677017212,8|8|8,0:0|0:0|0:0,0:0:0:0:
107,81,266624,6,0,P|111:103|126:197,1,101.750003105164,10|8,0:0|0:0,0:0:0:0:
113,300,267109,1,8,0:0:0:0:
113,300,267230,1,8,0:0:0:0:
113,300,267352,2,0,P|161:290|202:282,1,67.8333354034424,10|0,0:0|0:0,0:0:0:0:
270,233,267715,6,0,P|252:228|242:225,5,16.9583338508606,8|8|8|8|8|8,0:0|0:0|0:0|0:0|0:0|0:0,0:0:0:0:
285,245,268079,6,0,P|332:257|389:273,1,101.750003105164,2|8,0:0|0:0,0:0:0:0:
494,244,268564,1,8,0:0:0:0:
494,244,268685,1,8,0:0:0:0:
494,244,268806,2,0,P|503:186|507:163,1,67.8333354034424,10|0,0:0|0:0,0:0:0:0:
434,108,269170,2,0,P|430:133|424:172,2,33.9166677017212,8|8|8,0:0|0:0|0:0,0:0:0:0:
512,46,269534,6,0,P|477:16|405:20,1,101.750003105164,10|8,0:0|0:0,0:0:0:0:
328,91,270018,1,8,0:0:0:0:
328,91,270140,1,8,0:0:0:0:
328,91,270261,2,0,P|324:116|318:155,2,33.9166677017212,10|8|8,0:0|0:0|0:0,0:0:0:0:
258,10,270624,1,8,0:0:0:0:
230,6,270746,1,8,0:0:0:0:
205,16,270867,1,8,0:0:0:0:
189,38,270988,6,0,P|197:94|207:171,1,101.750003105164,14|8,0:0|0:0,0:0:0:0:
153,252,271473,1,0,0:0:0:0:
146,259,271594,1,0,0:0:0:0:
140,267,271715,2,0,P|81:256|17:244,1,101.750003105164,2|0,0:0|0:0,0:0:0:0:
20,148,272200,1,0,0:0:0:0:
18,137,272321,1,0,0:0:0:0:
17,126,272443,6,0,P|76:137|140:149,1,101.750003105164,10|0,0:0|0:0,0:0:0:0:
214,202,272927,1,0,0:0:0:0:
224,200,273049,1,0,0:0:0:0:
234,198,273170,2,0,P|241:136|245:105,1,67.8333354034424,2|0,0:0|0:0,0:0:0:0:
295,56,273534,6,0,L|292:87,5,16.9583338508606,8|8|8|8|8|8,0:0|0:0|0:0|0:0|0:0|0:0,0:0:0:0:
303,36,273897,6,0,P|349:15|411:45,1,101.750003105164,10|8,0:0|0:0,0:0:0:0:
450,139,274382,1,8,0:0:0:0:
454,148,274503,1,8,0:0:0:0:
458,157,274624,2,0,P|411:176|365:156,1,101.750003105164,10|8,0:0|0:0,0:0:0:0:
273,116,275109,1,8,0:0:0:0:
263,119,275230,1,8,0:0:0:0:
253,122,275352,6,0,P|259:177|268:244,1,101.750003105164,10|8,0:0|0:0,0:0:0:0:
264,223,276079,2,0,L|219:212,2,33.9166677017212,10|8|8,0:0|0:0|0:0,0:0:0:0:
335,306,276443,2,0,L|367:297,2,33.9166677017212,8|8|8,0:0|0:0|0:0,0:0:0:0:
240,373,276806,6,0,P|185:362|129:350,1,101.750003105164,10|8,0:0|0:0,0:0:0:0:
34,360,277291,1,8,0:0:0:0:
24,358,277412,1,8,0:0:0:0:
14,353,277534,2,0,P|26:274|28:261,1,67.8333354034424,10|0,0:0|0:0,0:0:0:0:
89,218,277897,6,0,L|85:245,5,16.9583338508606,8|8|8|8|8|8,0:0|0:0|0:0|0:0|0:0|0:0,0:0:0:0:
80,198,278261,6,0,P|117:172|179:184,1,101.750003105164,10|8,0:0|0:0,0:0:0:0:
229,260,278746,1,8,0:0:0:0:
234,268,278867,1,8,0:0:0:0:
240,275,278988,2,0,P|288:283|330:256,1,101.750003105164,10|8,0:0|0:0,0:0:0:0:
449,178,279473,1,8,0:0:0:0:
439,181,279594,1,8,0:0:0:0:
431,187,279715,6,0,P|419:262|412:315,1,101.750003105164,10|8,0:0|0:0,0:0:0:0:
309,364,280200,1,8,0:0:0:0:
317,370,280321,1,8,0:0:0:0:
325,376,280443,2,0,P|317:325|310:275,1,101.750003105164,10|8,0:0|0:0,0:0:0:0:
310,275,281170,6,0,L|255:285,2,40.083331498464,8|0|0,0:0|1:2|1:2,0:0:0:0:
469,192,281534,2,0,L|524:202,2,40.083331498464,0|0|0,1:2|1:2|1:2,0:0:0:0:
399,50,281897,5,8,0:0:0:0:
354,24,282018,1,8,0:0:0:0:
305,37,282139,1,8,0:0:0:0:
277,80,282261,1,8,0:0:0:0:
232,105,282382,1,8,0:0:0:0:
183,92,282503,1,8,0:0:0:0:
155,49,282624,5,6,1:2:0:0:
155,49,283352,2,0,B|186:198|101:115|136:271,1,215.833326746623,8|0,0:3|0:0,0:0:0:0:
5,165,284079,2,0,P|11:114|79:91,1,129.499996047974,4|0,0:3|0:0,0:0:0:0:
78,90,284806,5,12,0:3:0:0:
99,76,284927,1,0,1:2:0:0:
125,74,285049,1,0,1:2:0:0:
147,87,285170,1,0,1:2:0:0:
169,100,285291,1,0,1:2:0:0:
194,101,285412,1,0,1:2:0:0:
216,88,285534,6,0,P|252:56|329:89,1,129.499996047974,0|8,1:2|0:0,0:0:0:0:
324,176,286018,1,8,0:0:0:0:
324,176,286140,1,8,0:0:0:0:
324,176,286261,2,0,B|436:178|375:117|496:120|496:120|459:145,1,215.833326746623,0|0,1:2|0:0,0:0:0:0:
322,200,286988,6,0,P|267:188|166:168,1,129.499996047974,0|0,1:2|0:0,0:0:0:0:
62,117,287473,1,8,0:3:0:0:
62,117,287594,1,8,0:3:0:0:
62,117,287715,2,0,L|58:50,2,43.1666653493246,4|8|8,0:3|0:3|0:3,0:0:0:0:
108,213,288079,1,4,0:3:0:0:
109,243,288200,1,4,0:3:0:0:
110,273,288321,1,4,0:3:0:0:
111,303,288443,6,0,B|146:304|168:283|168:283|196:302|241:310,1,129.499996047974,6|8,1:2|0:0,0:0:0:0:
354,243,288927,1,8,0:0:0:0:
354,243,289049,1,8,0:0:0:0:
354,243,289170,2,0,P|300:249|273:398,1,215.833326746623,0|0,1:2|0:0,0:0:0:0:
338,330,289897,6,0,P|331:279|316:185,1,129.499996047974,12|0,0:3|0:0,0:0:0:0:
160,36,290624,2,0,L|153:95,2,43.1666653493246,8|4|4,0:3|0:3|0:3,0:0:0:0:
234,109,290988,1,4,0:3:0:0:
237,134,291109,1,4,0:3:0:0:
241,160,291230,1,4,0:3:0:0:
244,185,291352,6,0,P|173:189|89:197,1,129.499996047974,0|8,1:2|0:0,0:0:0:0:
1,212,291837,1,8,0:0:0:0:
1,212,291958,1,8,0:0:0:0:
1,212,292079,2,0,P|70:206|79:63,1,215.833326746623,0|0,1:2|0:0,0:0:0:0:
15,84,292806,6,0,P|21:136|23:157,2,43.1666653493246,8|4|4,0:3|0:3|0:3,0:0:0:0:
152,151,293170,2,0,P|146:203|144:224,2,43.1666653493246,8|8|8,0:3|0:3|0:3,0:0:0:0:
32,215,293534,5,0,1:2:0:0:
32,240,293655,1,8,0:3:0:0:
32,266,293776,1,8,0:3:0:0:
22,285,293897,5,4,0:3:0:0:
22,310,294018,1,4,0:3:0:0:
22,336,294139,1,4,0:3:0:0:
22,357,294261,6,0,P|91:349|185:336,1,129.499996047974,14|8,1:2|0:0,0:0:0:0:
255,267,294746,1,8,0:0:0:0:
255,267,294867,1,8,0:0:0:0:
255,267,294988,2,0,P|246:314|238:361,1,86.3333306986492,0|0,1:2|0:0,0:0:0:0:
148,190,295352,2,0,P|157:237|161:264,2,43.1666653493246,4|8|8,0:3|0:3|0:3,0:0:0:0:
252,63,295715,5,6,1:2:0:0:
252,63,296079,1,8,0:0:0:0:
253,84,296200,1,8,0:0:0:0:
255,105,296321,1,8,0:0:0:0:
257,126,296443,2,0,P|309:118|356:111,1,86.3333306986492,8|0,1:2|0:0,0:0:0:0:
417,15,296806,6,0,L|377:19,5,21.5833326746623,8|8|8|8|8|8,0:0|0:0|0:0|0:0|0:0|0:0,0:0:0:0:
438,17,297170,6,0,P|445:90|453:169,1,129.499996047974,6|8,1:2|0:0,0:0:0:0:
501,257,297655,1,8,0:0:0:0:
501,257,297776,1,8,0:0:0:0:
501,257,297897,2,0,P|458:226|410:232,1,86.3333306986492,0|0,1:2|0:0,0:0:0:0:
355,304,298261,2,0,L|361:360,2,43.1666653493246,0|0|0,3:0|3:0|3:0,0:0:0:0:
223,241,298624,6,0,P|217:180|209:103,1,129.499996047974,6|0,1:2|0:0,0:0:0:0:
209,112,299352,2,0,L|154:125,2,43.1666653493246,0|4|4,1:2|0:3|0:3,0:0:0:0:
265,250,299715,2,0,L|222:240,2,43.1666653493246,0|4|4,1:2|0:3|0:3,0:0:0:0:
464,146,300079,6,0,P|379:154|285:162,1,148,6|4,1:2|0:3,0:0:0:0:
434,323,300806,2,0,P|483:319|508:229,1,148,12|0,0:3|3:0,0:0:0:0:
431,50,301412,1,12,0:3:0:0:
423,41,301534,6,0,P|338:48|244:57,1,148,0|0,1:2|0:0,0:0:0:0:
275,322,302261,2,0,P|324:318|349:228,1,148,12|0,0:3|3:0,0:0:0:0:
125,40,302867,1,12,0:3:0:0:
116,45,302988,6,0,P|123:125|131:216,1,148,6|0,1:2|0:0,0:0:0:0:
366,18,303715,2,0,B|261:18|339:72|221:78,1,148,12|0,0:3|0:0,0:0:0:0:
381,246,304386,6,0,P|391:176|398:132,1,101.750003105164,2|0,1:2|0:0,0:0:0:0:
193,219,305048,2,0,P|200:269|207:319,1,101.750003105164,2|0,1:2|0:0,0:0:0:0:
292,237,305546,1,0,0:0:0:0:
127,130,305719,5,6,1:2:0:0:
127,130,306026,1,0,1:2:0:0:
193,219,306180,1,0,1:2:0:0:
218,106,306334,5,0,1:2:0:0:
103,250,306488,1,0,1:2:0:0:
292,237,306642,1,0,1:2:0:0:
157,56,306795,1,0,1:2:0:0:
229,297,306949,5,8,1:2:0:0:
336,87,307103,1,8,1:2:0:0:
110,259,307257,1,8,1:2:0:0:
374,322,307411,1,8,1:2:0:0:
249,65,307565,5,8,1:2:0:0:
173,344,307719,1,8,1:2:0:0:
336,87,307872,1,8,1:2:0:0:
425,384,308026,1,8,1:2:0:0:
172,139,308170,6,0,B|263:127|209:193|321:175,1,138.750005292893,6|0,1:2|1:2,0:0:0:0:
453,123,308632,1,8,0:0:0:0:
453,123,308709,1,8,0:0:0:0:
453,123,308785,2,0,L|461:75,3,34.6875013232232,8|8|8|8,0:0|0:0|0:0|0:0,0:0:0:0:
404,214,309093,2,0,L|412:262,3,34.6875013232232,8|8|8|8,1:2|0:0|0:0|0:0,0:0:0:0:
342,84,309401,5,8,1:2:0:0:
310,55,309477,1,8,0:0:0:0:
271,46,309554,1,8,0:0:0:0:
234,58,309631,1,8,0:0:0:0:
205,86,309709,1,8,1:2:0:0:
182,119,309785,1,8,0:0:0:0:
145,135,309862,1,8,0:0:0:0:
105,133,309939,1,8,0:0:0:0:
77,103,310016,6,0,L|84:63,1,34.6875013232232,8|8,1:2|0:0,0:0:0:0:
5,245,310170,2,0,L|-2:205,1,34.6875013232232,8|8,0:0|0:0,0:0:0:0:
170,319,310324,1,8,1:2:0:0:
170,319,310632,6,0,B|243:347|317:296|251:233|320:167|396:182|396:182|424:219|414:290|357:309,1,444,6|0,1:2|1:2,0:0:0:0:
364,306,312632,6,0,L|367:263,1,27.7499991531372,0|0,1:2|1:2,0:0:0:0:
307,72,312785,1,8,0:0:0:0:
307,72,313093,6,0,B|169:62|266:143|114:140,1,194.249994071961,6|8,1:2|0:0,0:0:0:0:
280,174,313555,1,0,0:0:0:0:
123,42,313709,2,0,P|74:41|18:96,1,97.1249970359803,0|0,1:2|0:0,0:0:0:0:
180,252,314016,1,10,0:0:0:0:
220,46,314170,1,2,0:0:0:0:
74,229,314324,5,0,1:2:0:0:
74,229,314478,2,0,P|83:276|92:324,1,97.1249970359803,2|8,0:0|0:0,0:0:0:0:
191,172,314785,1,0,0:0:0:0:
34,66,314939,2,0,P|28:110|21:163,1,97.1249970359803,2|0,1:2|0:0,0:0:0:0:
92,324,315247,1,10,0:0:0:0:
277,174,315401,1,8,0:0:0:0:
277,174,315478,1,8,0:0:0:0:
277,174,315555,6,0,P|269:117|255:4,1,145.68749555397,6|0,1:2|0:0,0:0:0:0:
265,12,315862,2,0,P|219:3|177:27,1,97.1249970359803,10|0,0:0|0:0,0:0:0:0:
368,196,316170,2,0,P|407:224|456:221,1,97.1249970359803,2|0,1:2|0:0,0:0:0:0:
357,0,316478,2,0,P|350:50|344:106,1,97.1249970359803,10|0,0:0|0:0,0:0:0:0:
203,252,316785,2,0,P|197:203|190:155,1,97.1249970359803,2|0,1:2|0:0,0:0:0:0:
86,17,317093,6,0,P|38:14|0:42,1,97.1249970359803,10|0,0:0|0:0,0:0:0:0:
109,195,317400,1,2,1:2:0:0:
182,47,317554,1,0,0:0:0:0:
0,196,317708,2,0,P|8:247|15:305,1,97.1249970359803,10|0,0:0|0:0,0:0:0:0:
275,166,318016,6,0,P|246:99|127:100,1,194.249994071961,6|10,1:2|0:0,0:0:0:0:
219,253,318477,1,2,0:0:0:0:
342,84,318631,2,0,B|329:113|312:141|312:141|329:184|349:278,1,194.249994071961,2|8,1:2|0:0,0:0:0:0:
417,130,319093,1,2,0:0:0:0:
218,26,319246,6,0,P|156:42|98:58,1,97.1249970359803,2|0,1:2|0:0,0:0:0:0:
219,253,319554,1,14,0:0:0:0:
342,84,319708,1,0,1:2:0:0:
116,189,319862,1,10,0:0:0:0:
328,319,320016,1,0,1:2:0:0:
212,107,320170,1,8,0:0:0:0:
212,107,320246,1,8,0:0:0:0:
212,107,320323,1,8,0:0:0:0:
212,107,320400,1,8,0:0:0:0:
212,107,320477,6,0,P|205:166|200:221,1,97.1249970359803,6|0,1:2|1:2,0:0:0:0:
433,91,320785,1,10,0:0:0:0:
433,91,320939,2,0,P|404:60|349:53,1,97.1249970359803,2|0,0:0|1:2,0:0:0:0:
197,107,321246,1,0,1:2:0:0:
339,288,321400,5,10,0:0:0:0:
339,288,321554,2,0,B|473:289|367:214|538:227,1,194.249994071961,2|0,1:2|1:2,0:0:0:0:
336,57,322016,2,0,P|323:121|314:170,1,97.1249970359803,10|0,0:0|0:0,0:0:0:0:
314,174,322246,1,0,1:2:0:0:
314,174,322323,1,2,1:2:0:0:
432,123,322477,1,0,1:2:0:0:
191,0,322631,2,0,P|204:64|213:113,1,97.1249970359803,10|0,0:0|0:0,0:0:0:0:
305,301,322939,6,0,P|370:286|468:263,1,145.68749555397,6|0,1:2|0:0,0:0:0:0:
472,267,323247,1,10,0:0:0:0:
498,77,323401,2,0,P|456:45|399:47,1,97.1249970359803,2|0,0:0|1:2,0:0:0:0:
270,216,323709,1,0,1:2:0:0:
446,163,323862,1,10,0:0:0:0:
317,1,324016,6,0,B|306:118|368:43|346:234,1,194.249994071961,2|0,0:0|1:2,0:0:0:0:
173,313,324478,1,8,0:0:0:0:
237,143,324632,1,0,1:2:0:0:
237,143,324709,1,0,1:2:0:0:
237,143,324785,1,0,1:2:0:0:
322,345,324939,1,0,1:2:0:0:
155,124,325093,2,0,P|179:78|272:66,1,145.68749555397,14|0,0:0|0:0,0:0:0:0:
157,150,325401,6,0,P|102:137|51:125,1,97.1249970359803,6|0,1:2|0:0,0:0:0:0:
258,267,325709,5,10,0:0:0:0:
107,30,325862,1,0,1:2:0:0:
112,320,326016,5,10,0:0:0:0:
265,62,326170,1,0,1:2:0:0:
288,384,326324,5,10,0:0:0:0:
157,150,326478,1,0,1:2:0:0:
22,380,326632,5,10,0:0:0:0:
258,267,326785,1,0,1:2:0:0:
13,122,326939,5,10,0:0:0:0:
164,378,327093,1,0,1:2:0:0:
265,62,327247,5,10,0:0:0:0:
64,284,327401,1,0,1:2:0:0:
416,303,327555,5,10,0:0:0:0:
157,150,327709,1,0,1:2:0:0:
307,384,327862,6,0,P|315:336|323:288,1,97.1249970359803,14|0,0:0|1:2,0:0:0:0:
368,85,328170,1,0,1:2:0:0:
191,384,328324,2,0,P|182:336|174:288,1,97.1249970359803,14|0,0:0|1:2,0:0:0:0:
109,70,328632,1,0,1:2:0:0:
397,329,328785,6,0,P|405:281|413:233,1,97.1249970359803,14|0,0:0|1:2,0:0:0:0:
420,212,329016,1,8,0:0:0:0:
420,212,329093,1,4,1:2:0:0:
305,45,329247,1,8,0:0:0:0:
305,45,329324,1,8,0:0:0:0:
305,45,329401,2,0,P|246:57|202:66,1,97.1249970359803,8|8,1:2|0:0,0:0:0:0:
189,75,329632,1,8,0:0:0:0:
189,75,329709,1,0,1:2:0:0:
261,259,329862,5,8,0:0:0:0:
261,259,329939,1,8,0:0:0:0:
261,259,330016,1,4,0:3:0:0:
285,260,330093,1,4,0:3:0:0:
306,248,330170,1,4,0:3:0:0:
318,227,330247,1,4,0:3:0:0:
315,202,330323,6,0,P|266:187|213:174,1,97.1249970359803,6|2,1:2|0:1,0:0:0:0:
55,22,330632,1,10,0:0:0:0:
249,64,330785,1,2,0:1:0:0:
56,226,330939,2,0,P|47:178|39:130,1,97.1249970359803,2|2,1:2|0:1,0:0:0:0:
269,0,331247,2,0,P|261:47|252:95,1,97.1249970359803,10|2,0:0|0:1,0:0:0:0:
339,283,331554,6,0,P|412:270|432:238,1,97.1249970359803,2|2,1:2|0:1,0:0:0:0:
252,95,331862,1,10,0:0:0:0:
240,300,332016,1,2,0:1:0:0:
391,153,332170,2,0,P|380:96|367:47,1,97.1249970359803,2|2,1:2|0:1,0:0:0:0:
231,286,332477,2,0,P|217:332|209:380,1,97.1249970359803,10|2,0:0|0:1,0:0:0:0:
494,276,332785,6,0,P|502:215|515:112,1,145.68749555397,2|0,1:2|0:0,0:0:0:0:
447,53,333093,2,0,P|439:114|429:171,1,97.1249970359803,8|2,0:0|0:1,0:0:0:0:
309,302,333401,2,0,P|255:291|205:279,1,97.1249970359803,0|2,1:2|0:1,0:0:0:0:
313,130,333709,1,10,0:0:0:0:
394,337,333862,1,2,0:1:0:0:
205,179,334016,5,0,1:2:0:0:
205,179,334170,2,0,P|252:167|302:156,1,97.1249970359803,2|8,0:1|0:0,0:0:0:0:
119,292,334478,1,2,0:1:0:0:
93,144,334632,1,0,1:2:0:0:
203,267,334785,1,0,1:2:0:0:
0,161,334939,1,14,0:0:0:0:
212,0,335093,1,8,0:0:0:0:
212,0,335170,1,8,0:0:0:0:
212,0,335247,6,0,P|207:57|204:107,1,97.1249970359803,6|2,1:2|0:1,0:0:0:0:
119,292,335555,1,10,0:0:0:0:
48,82,335708,1,2,0:1:0:0:
230,245,335862,2,0,P|282:235|344:222,1,97.1249970359803,2|2,1:2|0:1,0:0:0:0:
97,367,336170,2,0,P|45:357|-17:344,1,97.1249970359803,10|2,0:0|0:1,0:0:0:0:
133,159,336477,6,0,P|143:226|149:263,1,97.1249970359803,2|2,1:2|0:1,0:0:0:0:
300,85,336785,1,10,0:0:0:0:
229,265,336939,1,2,0:1:0:0:
160,42,337093,2,0,P|104:55|69:84,1,97.1249970359803,2|2,1:2|0:1,0:0:0:0:
358,160,337400,2,0,P|397:187|444:196,1,97.1249970359803,10|2,0:0|0:1,0:0:0:0:
233,340,337709,6,0,B|93:350|197:269|26:283,1,194.249994071961,6|8,1:2|0:0,0:0:0:0:
193,242,338170,1,2,0:0:0:0:
6,109,338324,2,0,P|17:166|26:215,1,97.1249970359803,2|0,1:2|0:0,0:0:0:0:
175,33,338632,2,0,P|164:90|155:139,1,97.1249970359803,8|0,0:0|0:0,0:0:0:0:
70,2,338939,5,0,1:2:0:0:
296,141,339093,1,14,0:0:0:0:
24,204,339247,1,14,0:0:0:0:
273,57,339401,1,4,0:3:0:0:
273,57,339478,1,4,0:3:0:0:
273,57,339555,1,4,0:3:0:0:
316,53,339631,1,4,0:3:0:0:
355,72,339708,1,4,0:3:0:0:
377,109,339785,1,4,0:3:0:0:
374,152,339862,5,0,1:2:0:0:
354,149,339938,1,0,1:2:0:0:
335,146,340015,1,0,1:2:0:0:
316,144,340092,1,0,1:2:0:0:
296,141,340169,1,10,0:0:0:0:
277,140,340478,5,14,0:0:0:0:
277,140,340632,2,0,P|285:200|292:252,1,97.1249970359803,2|0,0:0|1:2,0:0:0:0:
243,353,340939,1,0,1:2:0:0:
448,160,341093,5,10,0:0:0:0:
448,160,341247,2,0,P|437:229|419:367,1,194.249994071961,2|0,1:2|1:2,0:0:0:0:
289,236,341709,2,0,P|225:244|186:249,1,97.1249970359803,10|0,0:0|0:0,0:0:0:0:
171,254,341939,1,0,1:2:0:0:
171,254,342016,1,2,1:2:0:0:
312,352,342170,1,0,0:0:0:0:
436,162,342324,2,0,B|339:174|394:119|293:133,1,145.68749555397,10|0,0:0|0:0,0:0:0:0:
199,109,342632,6,0,P|272:130|282:240,1,194.249994071961,6|10,1:2|0:0,0:0:0:0:
100,345,343093,2,0,P|89:263|83:224,1,97.1249970359803,2|0,0:0|1:2,0:0:0:0:
75,112,343401,1,0,1:2:0:0:
235,324,343555,2,0,P|239:283|245:237,1,48.5624985179902,10|0,0:0|0:0,0:0:0:0:
269,94,343709,6,0,B|399:79|309:158|463:140,1,194.249994071961,2|0,1:2|1:2,0:0:0:0:
276,220,344170,1,8,0:0:0:0:
416,46,344324,1,0,1:2:0:0:
416,46,344401,1,0,1:2:0:0:
416,46,344478,1,0,1:2:0:0:
418,255,344632,1,0,1:2:0:0:
269,20,344785,2,0,P|220:30|192:131,1,145.68749555397,14|0,0:0|0:0,0:0:0:0:
170,105,345093,6,0,P|183:191|198:304,1,194.249994071961,6|10,1:2|0:0,0:0:0:0:
451,175,345555,2,0,B|382:151|321:136|321:136|309:156|278:176,1,194.249994071961,2|0,0:0|1:2,0:0:0:0:
427,292,346016,1,10,0:0:0:0:
429,81,346170,1,2,0:0:0:0:
292,315,346324,6,0,P|245:306|174:293,1,97.1249970359803,2|0,1:2|1:2,0:0:0:0:
76,112,346632,2,0,P|123:103|171:94,1,97.1249970359803,10|0,0:0|0:0,0:0:0:0:
93,236,346939,1,2,1:2:0:0:
22,50,347093,1,0,1:2:0:0:
204,171,347247,1,10,0:0:0:0:
0,228,347401,1,2,1:2:0:0:
267,96,347555,5,12,0:0:0:0:
238,378,347709,1,0,1:2:0:0:
82,142,347862,1,0,1:2:0:0:
416,252,348016,5,14,0:0:0:0:
113,316,348170,1,0,1:2:0:0:
400,238,348324,1,0,1:2:0:0:
143,47,348478,5,14,0:0:0:0:
269,277,348632,1,0,1:2:0:0:
230,18,348786,5,12,0:0:0:0:
113,316,348939,1,8,0:0:0:0:
113,316,349016,1,8,0:0:0:0:
113,316,349093,2,0,P|62:304|6:293,1,97.1249970359803,12|0,0:3|1:2,0:0:0:0:
198,147,349401,5,8,0:3:0:0:
198,171,349477,1,8,0:3:0:0:
199,195,349554,1,4,0:3:0:0:
200,219,349631,1,4,0:3:0:0:
201,244,349709,2,0,P|252:232|308:221,1,97.1249970359803,4|0,0:3|0:0,0:0:0:0:
387,147,349939,1,0,1:2:0:0:
387,147,350016,6,0,P|339:137|292:126,1,97.1249970359803,14|0,0:0|0:0,0:0:0:0:
449,306,350324,5,10,0:0:0:0:
505,48,350478,1,0,1:2:0:0:
354,339,350632,5,10,0:0:0:0:
304,34,350786,1,0,1:2:0:0:
155,329,350939,5,10,0:0:0:0:
207,56,351093,1,0,1:2:0:0:
30,307,351247,5,14,0:0:0:0:
308,226,351401,1,0,1:2:0:0:
55,21,351555,2,0,P|59:46|74:152,1,104.833335332871,0|8,1:2|0:0,0:0:0:0:
54,216,351862,5,8,0:0:0:0:
93,247,351964,5,8,0:3:0:0:
140,243,352067,5,8,0:3:0:0:
167,211,352169,5,4,0:3:0:0:
192,191,352273,5,4,0:3:0:0:
218,191,352375,5,4,0:3:0:0:
231,197,352513,6,0,B|283:116|375:115|375:115|377:173|426:216|494:195,1,332.999989837647,6|0,1:2|0:0,0:0:0:0:
485,197,354346,5,8,0:0:0:0:
483,227,354422,1,8,0:0:0:0:
482,257,354499,1,8,0:0:0:0:
480,287,354576,1,8,0:0:0:0:
478,319,354653,2,8,L|421:304,1,43.9374988267422
370,122,354804,2,8,L|412:110,1,43.9374988267422
323,285,354951,6,8,P|274:276|218:268,1,92.5,6|0,1:2|0:0,0:0:0:0:
158,70,355258,2,8,P|201:63|251:55,1,92.5,10|0,0:0|0:0,0:0:0:0:
67,259,355566,1,2,1:2:0:0:
272,144,355720,1,0,1:2:0:0:
48,58,355874,1,10,0:0:0:0:
173,326,356027,6,0,P|183:259|201:132,1,185,2|2,1:2|1:2,0:0:0:0:
304,310,356489,1,10,0:0:0:0:
108,187,356643,1,2,0:0:0:0:
357,119,356797,1,2,1:2:0:0:
179,313,356951,1,2,1:2:0:0:
269,72,357104,1,10,0:0:0:0:
406,283,357258,1,2,0:0:0:0:
406,283,357335,1,2,0:0:0:0:
406,283,357412,6,0,P|462:269|509:259,1,92.5,6|0,1:2|0:0,0:0:0:0:
444,47,357720,2,0,P|398:37|354:25,1,92.5,10|0,0:0|0:0,0:0:0:0:
220,181,358027,1,2,1:2:0:0:
157,11,358181,1,2,1:2:0:0:
375,185,358335,5,10,0:0:0:0:
129,275,358489,1,2,1:2:0:0:
259,17,358643,2,0,P|262:78|264:119,1,92.5,2|0,0:0|1:2,0:0:0:0:
298,288,358951,1,8,0:0:0:0:
110,92,359104,1,8,0:0:0:0:
110,92,359181,1,8,0:0:0:0:
110,92,359258,2,0,P|107:153|105:194,1,92.5,0|0,1:2|1:2,0:0:0:0:
246,378,359566,1,10,0:0:0:0:
263,109,359720,1,2,0:0:0:0:
17,339,359874,6,0,P|96:327|144:319,1,92.5,6|0,1:2|0:0,0:0:0:0:
290,193,360181,2,0,P|244:185|198:178,1,92.5,8|0,0:0|0:0,0:0:0:0:
356,324,360489,1,2,1:2:0:0:
424,127,360643,1,0,1:2:0:0:
257,278,360797,1,10,0:0:0:0:
491,380,360951,6,0,B|503:351|517:328|517:328|494:267|472:178,1,185,2|0,1:2|1:2,0:0:0:0:
379,30,361412,1,10,0:0:0:0:
366,231,361566,1,2,0:0:0:0:
489,65,361720,1,2,1:2:0:0:
273,160,361874,1,2,1:2:0:0:
482,283,362027,1,10,0:0:0:0:
364,22,362181,1,2,0:0:0:0:
364,22,362258,1,2,0:0:0:0:
364,22,362335,6,0,P|355:85|348:129,1,92.5,6|0,1:2|0:0,0:0:0:0:
228,318,362643,1,10,0:0:0:0:
183,112,362797,1,2,0:0:0:0:
320,322,362951,2,0,P|381:312|433:301,1,92.5,2|0,1:2|1:2,0:0:0:0:
350,113,363258,1,10,0:0:0:0:
213,346,363412,6,0,B|85:350|178:280|20:285,1,185,6|0,1:2|1:2,0:0:0:0:
242,211,363874,1,10,0:0:0:0:
38,376,364027,1,0,1:2:0:0:
100,148,364181,1,8,0:0:0:0:
213,346,364335,1,8,0:0:0:0:
213,355,364412,1,8,0:0:0:0:
213,364,364489,1,8,0:0:0:0:
0,211,364643,1,4,0:3:0:0:
1,201,364720,1,4,0:3:0:0:
3,192,364797,6,0,B|66:165|126:152|126:152|147:176|179:191,1,185,6|8,1:2|0:0,0:0:0:0:
47,284,365258,1,0,0:0:0:0:
194,109,365412,2,0,P|253:123|312:136,1,92.5,2|0,1:2|0:0,0:0:0:0:
336,294,365720,2,0,P|290:304|245:314,1,92.5,8|0,0:0|0:0,0:0:0:0:
367,79,366027,6,0,P|381:127|394:184,1,92.5,2|0,1:2|0:0,0:0:0:0:
447,306,366335,1,10,0:0:0:0:
272,226,366489,1,0,0:0:0:0:
484,61,366643,2,0,P|477:126|470:211,1,138.75,2|0,1:2|0:0,0:0:0:0:
488,215,366951,2,0,P|493:162|498:101,1,92.5,10|0,0:0|0:0,0:0:0:0:
279,5,367258,6,0,B|143:6|250:79|82:80,1,185,6|8,1:2|0:0,0:0:0:0:
0,231,367720,1,0,0:0:0:0:
23,46,367874,2,0,P|33:102|43:152,1,92.5,2|0,1:2|0:0,0:0:0:0:
219,252,368181,2,0,P|227:206|235:161,1,92.5,10|0,0:0|0:0,0:0:0:0:
6,39,368489,6,0,P|16:95|26:145,1,92.5,2|0,1:2|0:0,0:0:0:0:
105,315,368797,1,8,0:0:0:0:
148,119,368951,1,0,0:0:0:0:
0,314,369104,2,0,P|68:300|114:292,1,92.5,2|0,1:2|0:0,0:0:0:0:
256,218,369412,2,0,P|210:209|165:199,1,92.5,8|0,0:0|0:0,0:0:0:0:
369,378,369720,6,0,B|375:305|375:305|357:279|357:279|365:176,1,185,6|8,1:2|0:0,0:0:0:0:
291,339,370181,1,0,0:0:0:0:
512,243,370335,2,0,P|481:209|437:199,1,92.5,2|0,1:2|0:0,0:0:0:0:
194,337,370643,2,0,B|238:354|238:354|295:325,1,92.5,8|0,0:0|0:0,0:0:0:0:
236,107,370951,6,0,P|226:167|217:227,1,92.5,2|0,1:2|0:0,0:0:0:0:
369,384,371258,1,10,0:0:0:0:
381,181,371412,1,0,0:0:0:0:
179,348,371566,2,0,P|121:338|72:328,1,92.5,2|0,1:2|0:0,0:0:0:0:
236,107,371874,2,0,P|294:97|343:87,1,92.5,10|0,0:0|0:0,0:0:0:0:
88,331,372181,5,14,0:0:0:0:
149,57,372335,1,0,1:2:0:0:
278,279,372489,1,0,1:2:0:0:
6,88,372643,5,14,0:0:0:0:
296,176,372797,1,0,1:2:0:0:
12,248,372951,1,0,1:2:0:0:
261,28,373104,1,10,0:0:0:0:
170,342,373258,6,0,P|163:275|145:141,1,185,6|8,1:2|0:3,0:0:0:0:
252,250,373720,1,8,0:0:0:0:
79,184,373874,1,8,0:0:0:0:
284,124,374027,1,8,0:0:0:0:
88,309,374181,1,8,0:0:0:0:
78,308,374258,1,8,0:0:0:0:
68,308,374335,1,8,0:0:0:0:
0,100,374489,1,4,0:3:0:0:
10,100,374566,1,4,0:3:0:0:
20,101,374649,6,0,B|132:102|43:35|198:46,1,178.062505434036,6|0,1:2|0:0,0:0:0:0:
201,50,375343,6,0,P|192:110|186:150,1,90.1874958715441,6|0,1:2|0:0,0:0:0:0:
275,160,375631,2,0,P|284:100|290:60,1,90.1874958715441,6|0,1:2|0:0,0:0:0:0:
375,6,375891,6,0,P|424:-2|469:26,1,90.1874958715441,6|0,1:2|0:0,0:0:0:0:
457,119,376145,2,0,P|413:127|372:109,1,90.1874958715441,6|0,1:2|0:0,0:0:0:0:
372,109,376483,5,8,0:0:0:0:
372,109,376577,1,8,0:0:0:0:
217,276,376932,6,0,L|224:326,2,39.3125007498264,8|8|8,0:3|0:3|0:3,0:0:0:0:
106,231,377232,6,0,L|99:291,2,52.4166676664353,8|4|8,0:3|0:3|0:3,0:0:0:0:
171,143,377624,5,8,0:3:0:0:
188,151,377772,1,4,0:3:0:0:
249,200,377948,6,0,P|281:191|316:182,1,52.4166676664353,4|4,0:3|0:3,0:0:0:0:
335,76,378354,6,0,P|296:66|260:51,1,78.6250014996529,4|4,0:3|0:3,0:0:0:0:
237,297,379040,6,0,P|313:278|393:256,1,145.68749555397,6|0,1:2|0:0,0:0:0:0:
494,167,380125,6,0,B|373:157|469:106|342:95|342:95|363:110|366:127,1,203.500006210327,4|0,1:2|0:0,0:0:0:0:
