osu file format v14

[General]
AudioFilename: audio.mp3
AudioLeadIn: 0
PreviewTime: 41320
Countdown: 0
SampleSet: Soft
StackLeniency: 0.7
Mode: 0
LetterboxInBreaks: 0
WidescreenStoryboard: 0

[Editor]
DistanceSpacing: 1.4
BeatDivisor: 4
GridSize: 32
TimelineZoom: 1

[Metadata]
Title:Aimai Moko
TitleUnicode:アイマイモコ
Artist:Minase Inori
ArtistUnicode:水瀬いのり
Creator:Kiriyume
Version:Hard
Source:徒然チルドレン
Tags:tsuredure children tsurezure
BeatmapID:1408377
BeatmapSetID:665484

[Difficulty]
HPDrainRate:5
CircleSize:3.8
OverallDifficulty:5.5
ApproachRate:6.5
SliderMultiplier:1.3
SliderTickRate:1

[Events]
//Background and Video events
0,0,"tsurezure.jpg",0,0
//Break Periods
//Storyboard Layer 0 (Background)
//Storyboard Layer 1 (Fail)
//Storyboard Layer 2 (Pass)
//Storyboard Layer 3 (Foreground)
//Storyboard Sound Samples

[TimingPoints]
606,451.127819548872,4,2,1,50,1,0
3538,-100,4,2,1,60,0,0
4215,-100,4,2,1,70,0,0
11433,-100,4,2,1,60,0,0
33087,-100,4,2,1,70,0,0
40981,-100,4,2,1,60,0,0
42109,-86.9565217391304,4,2,1,75,0,1
56545,-100,4,2,1,50,0,0
58350,-100,4,2,1,5,0,0

[Colours]
Combo1 : 252,221,192
Combo2 : 248,201,217
Combo3 : 207,235,249
Combo4 : 255,249,187

[HitObjects]
97,317,606,6,0,L|74:251,2,65,2|0|0,0:0|0:0|0:0,0:0:0:0:
191,347,1282,2,0,P|228:296|210:222,1,130,2|0,0:0|0:0,0:0:0:0:
160,155,1959,1,2,0:0:0:0:
289,75,2410,1,2,0:0:0:0:
410,170,3538,5,0,0:0:0:0:
410,170,3763,2,0,L|426:92,1,65,8|0,0:0|0:0,0:0:0:0:
343,34,4215,6,0,B|302:24|302:24|263:44|202:32,1,130,4|8,0:0|0:0,0:0:0:0:
122,74,4891,2,0,P|102:108|101:160,1,65,2|0,0:0|0:0,0:0:0:0:
154,204,5342,2,0,P|167:239|166:296,2,65,2|8|0,0:0|0:0|0:0,0:0:0:0:
109,322,6019,6,0,P|147:344|244:305,1,130,2|8,0:0|0:0,0:0:0:0:
300,274,6696,1,0,0:0:0:0:
390,297,6921,2,0,L|413:367,1,65,2|0,0:0|0:0,0:0:0:0:
486,300,7372,2,0,L|464:228,1,65,8|0,0:0|0:0,0:0:0:0:
424,150,7824,5,12,0:0:0:0:
249,73,8275,1,8,0:0:0:0:
270,261,8726,5,8,0:0:0:0:
360,245,8951,1,0,0:0:0:0:
329,333,9177,1,8,0:0:0:0:
187,314,9628,6,0,P|171:271|194:201,1,97.5,4|0,0:0|0:0,0:0:0:0:
311,154,10305,2,0,P|326:111|287:37,1,130,2|0,0:0|0:0,0:0:0:0:
192,20,10981,2,0,L|179:88,1,65,8|0,0:0|0:0,0:0:0:0:
135,166,11433,6,0,L|0:152,1,130,4|8,0:0|0:0,0:0:0:0:
23,256,12109,2,0,P|67:267|129:335,1,130,2|0,0:0|0:0,0:0:0:0:
224,346,12786,1,8,0:0:0:0:
224,346,13012,1,0,0:0:0:0:
189,252,13237,6,0,P|187:203|211:162,1,97.5,2|0,0:0|0:0,0:0:0:0:
349,157,13914,2,0,B|372:205|372:205|354:303,1,130,2|0,0:0|0:0,0:0:0:0:
468,236,14590,2,0,L|483:151,1,65,8|0,0:0|0:0,0:0:0:0:
410,96,15042,6,0,P|357:70|272:115,1,130,2|8,0:0|0:0,0:0:0:0:
197,127,15718,2,0,P|154:131|116:117,1,65,2|0,0:0|0:0,0:0:0:0:
53,192,16169,1,0,0:0:0:0:
53,192,16395,2,0,P|76:227|80:275,1,65,8|0,0:0|0:0,0:0:0:0:
163,305,16846,6,0,B|208:295|208:295|273:311,1,97.5,2|0,0:0|0:0,0:0:0:0:
397,296,17523,2,0,P|435:242|415:164,1,130,2|0,0:0|0:0,0:0:0:0:
360,120,18199,2,0,L|367:47,1,65,8|0,0:0|0:0,0:0:0:0:
285,17,18651,5,4,0:0:0:0:
285,17,18876,1,0,0:0:0:0:
207,65,19102,2,0,P|173:73|125:61,1,65,8|0,0:0|0:0,0:0:0:0:
57,42,19553,5,0,0:0:0:0:
57,42,19778,1,0,0:0:0:0:
11,123,20004,2,0,L|17:194,1,65,8|0,0:0|0:0,0:0:0:0:
74,275,20455,6,0,P|112:289|158:280,1,65,2|0,0:0|0:0,0:0:0:0:
233,254,20906,2,0,P|276:245|311:257,1,65,8|0,0:0|0:0,0:0:0:0:
395,295,21357,1,0,0:0:0:0:
395,295,21583,1,0,0:0:0:0:
480,220,21809,2,0,L|490:152,1,65,8|0,0:0|0:0,0:0:0:0:
421,68,22260,6,0,B|377:87|325:81|325:81|291:64,1,130,2|8,0:0|0:0,0:0:0:0:
201,61,22936,2,0,P|206:100|192:138,1,65,2|0,0:0|0:0,0:0:0:0:
128,188,23387,2,0,L|53:174,2,65,0|8|0,0:0|0:0|0:0,0:0:0:0:
213,248,24064,6,0,P|250:238|295:242,1,65,4|0,0:0|0:0,0:0:0:0:
366,266,24515,1,8,0:0:0:0:
447,213,24741,2,0,P|447:153|416:82,1,130,4|0,0:0|0:0,0:0:0:0:
330,52,25418,1,8,0:0:0:0:
330,52,25530,1,0,0:0:0:0:
330,52,25643,1,0,0:0:0:0:
235,104,25869,6,0,L|105:87,1,130,4|8,0:0|0:0,0:0:0:0:
22,137,26545,1,0,0:0:0:0:
79,207,26771,2,0,P|94:254|92:292,1,65
177,319,27222,2,0,P|186:287|203:260,1,65,8|0,0:0|0:0,0:0:0:0:
293,277,27673,6,0,P|342:295|426:240,1,130,2|8,0:0|0:0,0:0:0:0:
464,195,28350,2,0,P|415:177|331:232,1,130,0|0,0:0|0:0,0:0:0:0:
259,188,29027,2,0,L|243:115,1,65,8|0,0:0|0:0,0:0:0:0:
152,48,29478,6,0,L|130:190,1,130,2|8,0:0|0:0,0:0:0:0:
69,248,30154,1,0,0:0:0:0:
133,325,30380,2,0,P|173:333|217:315,1,65,0|0,0:0|0:0,0:0:0:0:
284,277,30831,2,0,P|316:308|335:351,1,65,8|0,0:0|0:0,0:0:0:0:
418,358,31282,6,0,L|437:211,1,130,2|8,0:0|0:0,0:0:0:0:
446,118,31959,1,0,0:0:0:0:
446,118,32184,1,2,0:0:0:0:
347,170,32410,1,0,0:0:0:0:
347,170,32523,1,0,0:0:0:0:
347,170,32636,2,0,P|293:174|258:156,1,65,8|0,0:0|0:0,0:0:0:0:
188,117,33087,6,0,L|165:22,2,97.5,4|0|0,0:0|0:0|0:0,0:0:0:0:
98,182,33989,2,0,L|75:277,2,97.5,2|0|0,0:0|0:0|0:0,0:0:0:0:
195,227,34891,6,0,P|209:267|185:332,2,97.5,2|0|0,0:0|0:0|0:0,0:0:0:0:
283,170,35793,2,0,P|269:130|293:65,2,97.5,2|0|0,0:0|0:0|0:0,0:0:0:0:
365,237,36696,6,0,L|475:222,1,97.5,4|0,0:0|0:0,0:0:0:0:
489,256,37147,2,0,L|476:326,1,65,8|0,0:0|0:0,0:0:0:0:
379,373,37598,6,0,P|307:344|269:360,1,97.5,2|0,0:0|0:0,0:0:0:0:
245,339,38049,2,0,P|228:308|234:258,1,65,8|0,0:0|0:0,0:0:0:0:
271,179,38500,6,0,L|306:119,1,65,12|0,0:0|0:0,0:0:0:0:
237,50,38951,2,0,L|204:106,1,65,8|0,0:0|0:0,0:0:0:0:
132,180,39402,2,0,P|91:189|19:157,2,97.5,8|0|4,0:0|0:0|0:0,0:0:0:0:
132,180,41433,5,0,0:0:0:0:
132,180,41658,2,0,L|121:256,1,65,8|0,0:0|0:0,0:0:0:0:
177,337,42109,6,0,P|242:358|321:319,1,149.500002851486,4|8,0:0|0:0,0:0:0:0:
377,244,42786,2,0,P|386:189|377:95,1,149.500002851486,2|0,0:0|0:0,0:0:0:0:
277,48,43463,1,8,0:0:0:0:
277,48,43688,1,0,0:0:0:0:
210,137,43914,6,0,L|219:216,2,74.7500014257431,2|0|8,0:0|0:0|0:0,0:0:0:0:
127,60,44590,2,0,P|69:81|53:183,1,149.500002851486,2|0,0:0|0:0,0:0:0:0:
35,264,45267,2,0,P|51:294|65:349,1,74.7500014257431,8|0,0:0|0:0,0:0:0:0:
170,351,45718,6,0,P|229:338|331:340,1,149.500002851486,2|8,0:0|0:0,0:0:0:0:
428,359,46395,1,2,0:0:0:0:
428,359,46846,2,0,L|445:283,1,74.7500014257431,0|8,0:0|0:0,0:0:0:0:
359,209,47297,6,0,B|332:163|355:115|355:115|395:79,1,149.500002851486,2|0,0:0|0:0,0:0:0:0:
476,152,47974,1,8,0:0:0:0:
428,249,48199,2,0,P|383:285|296:258,1,149.500002851486,2|0,0:0|0:0,0:0:0:0:
207,225,48876,2,0,P|165:215|118:214,1,74.7500014257431,8|0,0:0|0:0,0:0:0:0:
40,264,49327,6,0,L|23:150,1,112.125002138615,4|0,0:0|0:0,0:0:0:0:
69,130,49778,2,0,L|84:53,1,74.7500014257431,8|0,0:0|0:0,0:0:0:0:
204,85,50230,2,0,P|249:101|323:76,1,112.125002138615,2|0,0:0|0:0,0:0:0:0:
354,104,50681,2,0,P|377:68|381:25,1,74.7500014257431,8|0,0:0|0:0,0:0:0:0:
470,27,51132,6,0,L|482:104,1,74.7500014257431,2|0,0:0|0:0,0:0:0:0:
434,197,51583,2,0,L|423:276,1,74.7500014257431,8|0,0:0|0:0,0:0:0:0:
353,350,52034,2,0,P|321:359|269:345,1,74.7500014257431
212,264,52485,2,0,P|245:254|291:262,1,74.7500014257431,8|0,0:0|0:0,0:0:0:0:
434,197,52936,6,0,P|398:205|299:147,1,149.500002851486,12|8,0:0|0:0,0:0:0:0:
244,80,53613,1,0,0:0:0:0:
244,80,53839,2,0,L|233:6,1,74.7500014257431,8|0,0:0|0:0,0:0:0:0:
129,50,54290,2,0,L|141:131,1,74.7500014257431,8|0,0:0|0:0,0:0:0:0:
100,226,54741,6,0,P|68:249|-5:243,2,112.125002138615,12|8|8,0:0|0:0|0:0,0:0:0:0:
204,283,55643,2,0,P|258:274|305:301,2,112.125002138615,12|8|8,0:0|0:0|0:0,0:0:0:0:
117,356,56545,1,2,0:0:0:0:
256,192,56658,12,0,58350,0:0:0:0:
