osu file format v14

[General]
AudioFilename: audio.mp3
AudioLeadIn: 0
PreviewTime: 91209
Countdown: 0
SampleSet: Soft
StackLeniency: 0.4
Mode: 0
LetterboxInBreaks: 0
WidescreenStoryboard: 1

[Editor]
Bookmarks: 12712,24348,35985,47621,59257,70894,82530,94530,105803,117439,129076,140712
DistanceSpacing: 0.9
BeatDivisor: 4
GridSize: 16
TimelineZoom: 2.1

[Metadata]
Title:Gritter of lights feat. Kuroa*
TitleUnicode:Gritter of lights feat. Kuroa*
Artist:Minamotoya
ArtistUnicode:源屋
Creator:JrSzZ
Version:We did an oopsie
Source:Harmonoize II
Tags:electronic hardcore techno tano*c j-core jcore Tokyo tcplus-0032
BeatmapID:2023936
BeatmapSetID:967022

[Difficulty]
HPDrainRate:5
CircleSize:4.2
OverallDifficulty:8.5
ApproachRate:9.5
SliderMultiplier:2
SliderTickRate:1

[Events]
//Background and Video events
0,0,"BG.png",0,0
//Break Periods
//Storyboard Layer 0 (Background)
//Storyboard Layer 1 (Fail)
//Storyboard Layer 2 (Pass)
//Storyboard Layer 3 (Foreground)
//Storyboard Sound Samples

[TimingPoints]
1076,363.636363636364,4,2,1,50,1,0
1076,-66.6666666666667,4,2,1,50,0,0
1439,-125,4,2,1,50,0,0
3985,-100,4,2,1,50,0,0
4348,-125,4,2,1,50,0,0
5439,-83.3333333333333,4,2,1,50,0,0
5803,-125,4,2,1,50,0,0
9076,-83.3333333333333,4,2,1,50,0,0
9439,-125,4,2,1,50,0,0
11257,-83.3333333333333,4,2,1,50,0,0
11621,-71.4285714285714,4,2,1,50,0,0
12348,-100,4,2,1,50,0,0
12712,-66.6666666666667,4,2,1,50,0,0
13076,-83.3333333333333,4,2,1,50,0,0
13985,-71.4285714285714,4,2,1,50,0,0
14530,-83.3333333333333,4,2,1,50,0,0
15621,-71.4285714285714,4,2,1,50,0,0
15985,-83.3333333333333,4,2,1,50,0,0
17076,-66.6666666666667,4,2,1,50,0,0
17439,-83.3333333333333,4,2,1,50,0,0
18530,-71.4285714285714,4,2,1,50,0,0
23985,-166.666666666667,4,2,1,50,0,0
24712,-125,4,2,1,50,0,0
35985,-111.111111111111,4,2,2,50,0,0
46166,-153.846153846154,4,2,1,50,0,0
47257,-66.6666666666667,4,2,1,50,0,0
47621,-66.6666666666667,4,2,1,60,0,0
47985,-83.3333333333333,4,2,1,60,0,0
49076,-66.6666666666667,4,2,1,60,0,0
49439,-83.3333333333333,4,2,1,60,0,0
51621,-125,4,2,1,60,0,0
51985,-66.6666666666667,4,2,1,60,0,0
52348,-83.3333333333333,4,2,1,60,0,0
53439,-100,4,2,1,60,0,0
53803,-83.3333333333333,4,2,1,60,0,0
55985,-66.6666666666667,4,2,1,60,0,0
56712,-83.3333333333333,4,2,1,60,0,0
58530,-66.6666666666667,4,2,1,70,0,0
61621,-100,4,2,1,70,0,0
61803,-66.6666666666667,4,2,1,70,0,0
66530,-55.5555555555556,4,2,1,70,0,0
70166,-100,4,2,1,70,0,0
70894,-55.5555555555556,4,2,1,70,0,0
71257,-66.6666666666667,4,2,1,70,0,0
71621,-62.5,4,2,1,70,0,0
71985,-66.6666666666667,4,2,1,70,0,0
72348,-83.3333333333333,4,2,1,70,0,0
72712,-62.5,4,2,1,70,0,0
73076,-66.6666666666667,4,2,1,70,0,0
73439,-55.5555555555556,4,2,1,70,0,0
74166,-66.6666666666667,4,2,1,70,0,0
75257,-83.3333333333333,4,2,1,70,0,0
75621,-66.6666666666667,4,2,1,70,0,0
75803,-83.3333333333333,4,2,1,70,0,0
75985,-66.6666666666667,4,2,1,70,0,0
76712,-55.5555555555556,4,2,1,70,0,0
77075,-66.6666666666667,4,2,1,70,0,0
77439,-62.5,4,2,1,70,0,0
77803,-66.6666666666667,4,2,1,70,0,0
78166,-83.3333333333333,4,2,1,70,0,0
78530,-62.5,4,2,1,70,0,0
78894,-66.6666666666667,4,2,1,70,0,0
79257,-55.5555555555556,4,2,1,70,0,0
79984,-66.6666666666667,4,2,1,70,0,0
81075,-83.3333333333333,4,2,1,70,0,0
81803,-66.6666666666667,4,2,1,70,0,0
82530,-55.5555555555556,4,2,1,70,0,0
82894,-71.4285714285714,4,2,1,70,0,0
83257,-62.5,4,2,1,70,0,0
83985,-71.4285714285714,4,2,1,70,0,0
84348,-62.5,4,2,1,70,0,0
85076,-71.4285714285714,4,2,1,70,0,0
85439,-55.5555555555556,4,2,1,70,0,0
85803,-62.5,4,2,1,70,0,0
86712,-83.3333333333333,4,2,1,70,0,0
86894,-62.5,4,2,1,70,0,0
87257,-71.4285714285714,4,2,1,70,0,0
87803,-62.5,4,2,1,70,0,0
88348,-50,4,2,1,70,0,0
88712,-55.5555555555556,4,2,1,70,0,0
89439,-71.4285714285714,4,2,1,70,0,0
89621,-55.5555555555556,4,2,1,70,0,0
89803,-50,4,2,1,70,0,0
90166,-55.5555555555556,4,2,1,70,0,0
93439,-71.4285714285714,4,2,1,70,0,0
94166,-125,4,2,1,70,0,0
94530,-125,4,2,1,80,0,1
94894,-83.3333333333333,4,2,1,80,0,1
95257,-50,4,2,1,80,0,1
97076,-55.5555555555556,4,2,1,80,0,1
97439,-71.4285714285714,4,2,1,80,0,1
97803,-55.5555555555556,4,2,1,80,0,1
98166,-62.5,4,2,1,80,0,1
98530,-50,4,2,1,80,0,1
99257,-62.5,4,2,1,80,0,1
99985,-55.5555555555556,4,2,1,80,0,1
100348,-125,4,2,1,80,0,1
100712,-83.3333333333333,4,2,1,80,0,1
101076,-62.5,4,2,1,80,0,1
101439,-50,4,2,1,80,0,1
102894,-100,4,2,1,80,0,1
103257,-71.4285714285714,4,2,1,80,0,1
103621,-62.5,4,2,1,80,0,1
103985,-55.5555555555556,4,2,1,80,0,1
104348,-41.6666666666667,4,2,1,80,0,1
105803,-50,4,2,1,80,0,1
106166,-100,4,2,1,80,0,1
106530,-50,4,2,1,80,0,1
107621,-62.5,4,2,1,80,0,1
107985,-50,4,2,1,80,0,1
109803,-45.4545454545455,4,2,1,80,0,1
110166,-41.6666666666667,4,2,1,80,0,1
110530,-62.5,4,2,1,80,0,1
110894,-50,4,2,1,80,0,1
111621,-41.6666666666667,4,2,1,80,0,1
114530,-83.3333333333333,4,2,1,80,0,1
114894,-62.5,4,2,1,80,0,1
115257,-50,4,2,1,80,0,1
115621,-41.6666666666667,4,2,1,80,0,1
117076,-89.2857142857143,4,2,1,80,0,0
117439,-50,4,2,1,80,0,1
119257,-41.6666666666667,4,2,1,80,0,1
120348,-50,4,2,1,80,0,1
123257,-41.6666666666667,4,2,1,80,0,1
123985,-50,4,2,1,80,0,1
127985,-38.4615384615385,4,2,1,80,0,1
129076,-71.4285714285714,4,2,1,80,0,1
133621,-100,4,2,1,80,0,1
133803,-166.666666666667,4,2,1,80,0,1
133985,-83.3333333333333,4,2,1,80,0,1
134166,-166.666666666667,4,2,1,80,0,1
134348,-55.5555555555556,4,2,1,80,0,1
134894,-50,4,2,1,80,0,1
135985,-41.6666666666667,4,2,1,80,0,1
137439,-35.7142857142857,4,2,1,80,0,1
137803,-50,4,2,1,80,0,1
140712,-50,4,2,1,80,0,0

[Colours]
Combo1 : 181,106,255
Combo2 : 128,128,255
Combo3 : 192,192,192
Combo4 : 255,168,211
SliderBorder : 217,179,255
SliderTrackOverride : 60,60,60

[HitObjects]
243,58,1076,6,0,B|295:10|295:10|260:169,1,225.000008583069
271,173,1439,6,0,L|349:159,1,80
183,249,1803,2,0,L|105:235,1,80
318,331,2166,2,0,B|312:291|312:291|283:263,1,80
274,267,2439,1,0,0:0:0:0:
264,270,2530,6,0,P|232:319|169:332,1,120
175,333,2894,1,0,0:0:0:0:
167,156,3076,1,0,0:0:0:0:
58,360,3257,6,0,B|38:324|38:324|46:285,1,80
170,171,3621,2,0,L|184:250,1,80
339,332,3985,6,0,B|392:353|392:353|477:310,1,150
489,319,4348,5,0,0:0:0:0:
385,163,4530,1,0,0:0:0:0:
389,266,4712,2,0,B|437:243|437:243|453:214,1,80
294,115,5076,2,0,B|290:168|290:168|307:196,1,80
458,110,5439,6,0,B|438:124|438:124|427:128|427:128|409:143,1,59.9999981689454
227,70,5621,2,0,B|246:84|246:84|257:88|257:88|275:103,1,59.9999981689454
378,14,5803,5,0,0:0:0:0:
303,190,5985,1,0,0:0:0:0:
118,34,6166,5,0,0:0:0:0:
92,65,6257,1,0,0:0:0:0:
87,96,6348,1,0,0:0:0:0:
93,119,6439,1,0,0:0:0:0:
103,131,6530,1,0,0:0:0:0:
117,137,6621,1,0,0:0:0:0:
128,136,6712,1,0,0:0:0:0:
139,132,6803,1,0,0:0:0:0:
145,124,6894,6,0,B|65:134,1,80
116,369,7257,2,0,B|148:343|148:343|155:299,1,80
147,300,7530,1,0,0:0:0:0:
139,296,7621,6,0,P|74:280|64:210,1,120
57,234,7985,1,0,0:0:0:0:
303,358,8166,1,0,0:0:0:0:
301,194,8348,6,0,L|283:285,1,80
484,329,8712,2,0,B|445:318|445:318|404:334,1,80
405,340,8985,1,0,0:0:0:0:
401,347,9076,6,0,L|389:288,1,59.9999981689454
203,281,9257,2,0,L|215:222,1,59.9999981689454
430,202,9439,6,0,L|418:143,1,40
274,156,9621,2,0,L|286:97,1,40
373,63,9803,6,0,P|325:117|261:104,1,120
233,57,10166,6,0,B|193:48|193:48|159:68,1,80
167,253,10530,5,0,0:0:0:0:
56,122,10712,1,0,0:0:0:0:
181,248,10894,5,0,0:0:0:0:
54,292,11076,1,0,0:0:0:0:
293,210,11257,6,0,B|340:195|340:195|406:226,1,119.999996337891
407,235,11530,1,0,0:0:0:0:
410,245,11621,6,0,B|402:270|402:270|402:282|402:282|390:312,1,69.9999978637696,0|0,3:0|0:0,0:0:0:0:
451,113,11803,1,0,3:0:0:0:
238,104,11985,6,0,B|267:110|267:110|276:116|276:116|309:122,1,69.9999978637696,0|0,3:0|3:0,3:0:0:0:
454,24,12166,2,0,B|448:53|448:53|442:62|442:62|436:95,1,69.9999978637696,0|0,3:0|0:0,0:0:0:0:
244,202,12348,6,0,B|263:207|263:207|272:206|272:206|293:210,1,50,8|0,0:0|0:0,0:0:0:0:
368,0,12530,2,0,B|362:19|362:19|363:28|363:28|359:49,1,50,0|0,3:0|3:0,3:0:0:0:
390,311,12712,6,0,B|416:330|445:322|445:322|410:264|344:267|301:312,1,225.000008583069,4|0,0:0|0:0,0:0:0:0:
226,344,13076,6,0,P|169:369|118:341,1,119.999996337891,8|0,0:0|0:0,0:0:0:0:
43,149,13439,2,0,B|30:203|30:203|24:212|24:212|12:263,1,119.999996337891,0|0,0:0|3:0,0:0:0:0:
11,264,13712,1,0,3:0:0:0:
11,264,13803,1,8,0:0:0:0:
175,170,13985,6,0,P|173:132|143:107,1,69.9999978637696,0|0,3:0|0:0,0:0:0:0:
124,233,14166,6,0,B|199:293|240:180|324:247,1,209.999993591309,8|0,0:3|0:0,0:0:0:0:
314,259,14530,6,0,P|246:282|206:234,1,119.999996337891,8|0,0:0|0:0,0:0:0:0:
371,72,14894,5,0,0:0:0:0:
417,85,14985,1,0,0:0:0:0:
431,121,15076,1,0,0:0:0:0:
424,148,15166,1,0,0:0:0:0:
412,163,15257,1,0,0:0:0:0:
395,170,15348,1,0,0:0:0:0:
382,169,15439,1,0,0:0:0:0:
369,164,15530,1,0,0:0:0:0:
361,154,15621,6,0,P|453:125|496:212,1,209.999993591309,8|0,0:3|0:0,0:0:0:0:
434,268,15985,6,0,P|422:324|459:369,1,119.999996337891,8|0,0:0|0:0,0:0:0:0:
336,247,16348,2,0,B|295:231|295:231|221:249,1,119.999996337891,0|0,0:0|3:0,0:0:0:0:
216,260,16621,1,0,3:0:0:0:
212,271,16712,6,0,L|228:357,1,59.9999981689454,8|0,0:0|0:0,0:0:0:0:
117,125,16894,2,0,L|127:66,1,59.9999981689454,0|0,3:0|0:0,0:0:0:0:
22,334,17076,6,0,P|107:348|66:247,1,225.000008583069,8|0,0:3|0:0,0:0:0:0:
45,163,17439,1,8,0:0:0:0:
6,345,17621,1,0,0:0:0:0:
15,87,17803,6,0,P|78:88|125:178,1,119.999996337891,8|0,0:3|3:0,0:0:0:0:
161,192,18076,1,0,3:0:0:0:
154,203,18166,6,0,L|240:187,1,59.9999981689454,8|0,0:0|0:0,0:0:0:0:
458,102,18348,1,0,3:0:0:0:
458,102,18439,1,0,3:0:0:0:
458,102,18530,6,0,B|416:45|416:45|448:181,1,209.999993591309,8|0,0:3|3:0,0:0:0:0:
385,232,18894,6,0,L|404:319,1,69.9999978637696,8|0,0:3|0:0,0:0:0:0:
467,342,19076,1,8,0:0:0:0:
361,152,19257,6,0,P|309:194|308:262,1,139.999995727539,0|0,3:0|0:0,0:0:0:0:
304,276,19530,1,0,3:0:0:0:
300,289,19621,6,0,B|268:303|268:303|258:302|258:302|233:310,1,69.9999978637696,8|0,0:3|0:0,0:0:0:0:
56,335,19803,2,0,B|88:349|88:349|97:348|97:348|122:356,1,69.9999978637696,0|0,3:0|0:0,0:0:0:0:
170,96,19985,6,0,P|121:63|42:165,1,209.999993591309,8|0,0:3|3:0,0:0:0:0:
102,202,20348,6,0,B|110:236|110:236|94:267,1,69.9999978637696,8|0,0:3|0:0,0:0:0:0:
56,335,20530,1,8,0:0:0:0:
168,114,20712,6,0,B|212:145|212:145|298:130,1,139.999995727539,0|0,3:0|0:0,0:0:0:0:
307,140,20985,1,0,3:0:0:0:
317,148,21076,6,0,L|419:128,1,69.9999978637696,8|0,0:3|0:0,0:0:0:0:
465,40,21257,1,8,0:0:0:0:
474,249,21439,5,12,0:0:0:0:
470,290,21530,1,0,0:0:0:0:
444,321,21621,1,0,0:0:0:0:
404,332,21712,1,0,0:0:0:0:
365,318,21803,1,0,0:0:0:0:
342,284,21894,1,0,0:0:0:0:
304,264,21985,1,0,0:0:0:0:
262,268,22076,1,0,0:0:0:0:
286,343,22166,5,12,0:0:0:0:
330,312,22257,1,0,0:0:0:0:
345,259,22348,1,0,0:0:0:0:
324,208,22439,1,0,0:0:0:0:
276,182,22530,1,0,0:0:0:0:
222,192,22621,1,0,0:0:0:0:
168,211,22712,1,0,0:0:0:0:
113,196,22803,1,0,0:0:0:0:
78,149,22894,6,0,B|73:121|73:121|75:111|75:111|68:80,1,69.9999978637696,0|0,3:0|0:0,0:0:0:0:
36,292,23076,2,0,B|31:264|31:264|33:254|33:254|26:223,1,69.9999978637696
168,110,23257,6,0,B|163:82|163:82|165:72|165:72|158:41,1,69.9999978637696
138,350,23439,2,0,B|133:322|133:322|135:312|135:312|128:281,1,69.9999978637696
281,93,23621,5,0,3:0:0:0:
277,185,23712,1,0,3:0:0:0:
268,138,23803,1,0,3:0:0:0:
385,350,23985,6,0,L|483:333,1,89.9999972534181,4|0,0:0|0:0,0:0:0:0:
473,334,24348,5,4,0:0:0:0:
366,117,24712,6,0,B|406:130|410:172|410:172|380:209|395:251,2,160
470,226,25621,1,0,0:0:0:0:
375,334,25803,6,0,B|339:350|339:350|295:334,1,80
218,238,26166,2,0,B|254:222|254:222|298:238,1,80
178,349,26530,2,0,P|109:376|46:318,1,160
48,326,27257,5,0,0:0:0:0:
139,149,27621,6,0,B|157:200|157:200|122:299,2,160
55,205,28530,1,0,0:0:0:0:
178,76,28712,6,0,B|138:53|94:78,1,80
235,227,29076,1,0,0:0:0:0:
261,72,29257,2,0,B|260:26|217:1,1,80
242,245,29621,2,0,B|261:275|300:277|300:277|334:238|382:251,1,160
361,328,30166,5,0,0:0:0:0:
444,149,30348,1,0,0:0:0:0:
465,307,30530,2,0,B|492:198|492:198|441:146,1,160
457,42,31257,2,0,P|425:65|385:65,1,80
207,2,31621,5,0,0:0:0:0:
291,156,31803,1,0,0:0:0:0:
212,12,31985,5,0,0:0:0:0:
155,223,32166,2,0,B|118:238|118:238|81:223,1,80
101,80,32530,5,0,0:0:0:0:
167,234,32712,1,0,0:0:0:0:
217,23,32894,1,0,0:0:0:0:
217,23,33257,5,0,0:0:0:0:
384,92,33439,1,0,0:0:0:0:
134,157,33621,1,0,0:0:0:0:
134,157,33985,5,0,0:0:0:0:
178,324,34166,1,0,0:0:0:0:
256,125,34348,1,0,0:0:0:0:
41,184,34530,5,0,0:0:0:0:
301,272,34712,1,0,0:0:0:0:
236,45,34894,1,0,0:0:0:0:
178,324,35076,1,0,0:0:0:0:
178,324,35439,6,0,L|99:338,2,80
352,331,35985,6,0,B|310:348|310:348|270:327,1,89.9999972534181,8|0,0:0|0:0,0:0:0:0:
403,245,36348,2,0,B|445:228|445:228|484:248,1,89.9999972534181,8|0,0:0|0:0,0:0:0:0:
357,318,36712,6,8,P|318:250|376:165,1,179.999994506836
441,321,37257,1,0,0:0:0:0:
485,59,37439,6,8,B|470:103|423:108|423:108|381:74|334:91,2,179.999994506836
365,169,38348,5,0,0:0:0:0:
305,15,38530,1,8,0:0:0:0:
255,221,38712,1,0,0:0:0:0:
97,108,38894,6,0,P|86:68|112:19,1,89.9999972534181,8|0,0:0|0:0,0:0:0:0:
280,126,39257,1,8,0:0:0:0:
92,184,39439,2,0,P|49:171|24:135,1,89.9999972534181,0|8,0:0|0:0,0:0:0:0:
157,227,39803,2,0,P|125:257|81:262,1,89.9999972534181,0|8,0:0|0:0,0:0:0:0:
213,87,40166,1,0,0:0:0:0:
213,87,40348,6,8,P|290:50|353:107,1,179.999994506836
352,106,41076,2,8,P|289:49|213:87,1,179.999994506836
353,244,41621,1,0,0:0:0:0:
279,126,41803,6,0,B|263:168|263:168|272:212,1,89.9999972534181,8|0,0:0|0:0,0:0:0:0:
425,295,42166,2,0,B|441:253|441:253|431:208,1,89.9999972534181,8|0,0:0|0:0,0:0:0:0:
282,302,42530,2,0,P|236:314|192:298,1,89.9999972534181,8|0,0:0|0:0,0:0:0:0:
74,158,42894,2,0,P|119:145|163:161,1,89.9999972534181,8|0,0:0|0:0,0:0:0:0:
149,388,43257,6,8,B|112:367|104:324|104:324|116:223,1,179.999994506836
197,302,43803,1,0,0:0:0:0:
22,355,43985,2,0,B|32:265,1,89.9999972534181,8|0,0:0|0:0,0:0:0:0:
50,169,44348,5,8,0:0:0:0:
197,302,44530,1,0,0:0:0:0:
9,365,44712,6,0,B|19:275,1,89.9999972534181,8|0,0:0|0:0,0:0:0:0:
44,87,45076,1,8,0:0:0:0:
115,301,45257,6,0,B|155:319|155:319|198:299,1,89.9999972534181,0|8,0:0|0:0,0:0:0:0:
125,87,45621,2,0,B|84:68|84:68|41:88,1,89.9999972534181,0|8,0:0|0:0,0:0:0:0:
105,312,45985,1,0,0:0:0:0:
269,124,46166,6,0,B|346:76|302:-54|122:23|201:156|309:148|283:229,1,357.49998363495
291,240,47257,6,0,B|324:243|324:243|332:247|332:247|364:251,1,75.0000028610231,0|0,3:0|0:0,0:0:0:0:
512,187,47439,2,0,B|478:190|478:190|470:194|470:194|438:198,1,75.0000028610231
409,329,47621,6,0,P|452:268|435:194,1,150.000005722046,4|0,0:0|0:0,0:0:0:0:
363,46,47985,6,0,P|337:97|358:152,1,119.999996337891
474,117,48257,1,0,0:0:0:0:
472,75,48348,2,0,B|406:37|406:37|354:48,1,119.999996337891
109,146,48712,6,0,B|134:150|134:150|141:149|141:149|167:154,1,59.9999981689454
272,15,48894,2,0,B|267:39|267:39|269:46|269:46|264:72,1,59.9999981689454
248,252,49076,6,0,B|254:218|254:218|252:208|252:208|257:178,1,75.0000028610231
182,68,49257,2,0,B|175:101|175:101|177:111|177:111|172:141,1,75.0000028610231
136,262,49439,6,0,B|177:278|177:278|248:252,1,119.999996337891
255,262,49712,1,0,0:0:0:0:
261,272,49803,6,0,P|341:321|340:229,1,179.999994506836
366,265,50166,1,0,0:0:0:0:
150,359,50348,1,0,0:0:0:0:
75,123,50530,6,0,B|41:89|41:89|75:234,1,179.999994506836
93,309,50894,2,0,P|144:282|200:300,1,119.999996337891
205,311,51166,1,0,0:0:0:0:
210,322,51257,6,0,B|214:295|214:295|218:290|218:290|224:263,1,59.9999981689454
375,352,51439,2,0,B|370:325|370:325|366:320|366:320|360:293,1,59.9999981689454
185,183,51621,6,0,L|194:144,1,40
434,239,51803,2,0,L|424:200,1,40
271,193,51985,6,0,B|307:206|307:206|341:193,1,75.0000028610231
394,66,52166,2,0,B|358:53|358:53|323:65,1,75.0000028610231
424,200,52348,6,0,P|479:182|496:127,1,119.999996337891
496,127,52621,1,0,0:0:0:0:
496,127,52712,5,0,0:0:0:0:
400,342,52894,1,0,0:0:0:0:
394,66,53076,6,0,B|389:90|389:90|391:97|391:97|386:123,1,59.9999981689454
386,331,53257,2,0,B|381:306|381:306|383:299|383:299|378:273,1,59.9999981689454
303,107,53439,6,0,B|298:128|298:128|300:134|300:134|295:157,1,50
209,257,53621,2,0,B|204:235|204:235|206:229|206:229|201:206,1,50
214,60,53803,6,0,P|163:35|109:65,1,119.999996337891
64,154,54076,1,0,0:0:0:0:
100,175,54166,2,0,B|123:136|123:136|109:54,1,119.999996337891
78,342,54530,5,0,0:0:0:0:
30,131,54712,1,0,0:0:0:0:
70,349,54894,6,0,B|36:315|36:315|181:349,1,179.999994506836
231,291,55257,2,0,B|254:325|254:325|330:343,1,119.999996337891
337,334,55530,1,0,0:0:0:0:
345,325,55621,6,0,B|351:348|351:348|359:357|359:357|365:382,1,59.9999981689454
495,360,55803,2,0,B|498:335|498:335|506:326|506:326|508:302,1,59.9999981689454
282,177,55985,6,0,B|290:207|290:207|300:218|300:218|307:246,1,75.0000028610231
482,223,56166,2,0,B|487:195|487:195|497:184|497:184|504:150,1,75.0000028610231
387,23,56348,5,0,0:0:0:0:
410,224,56530,2,0,P|445:233|481:223,1,75.0000028610231
328,108,56712,6,0,B|243:63|228:157|149:100,1,179.999994506836
97,44,57076,6,0,P|40:40|3:85,1,119.999996337891
65,190,57348,1,0,0:0:0:0:
99,214,57439,6,0,B|109:183|109:183|91:154,1,59.9999981689454
14,267,57621,2,0,B|-1:290|-1:290|9:321,1,59.9999981689454
136,383,57803,5,0,0:0:0:0:
180,384,57894,1,0,0:0:0:0:
214,358,57985,1,0,0:0:0:0:
223,315,58076,1,0,0:0:0:0:
202,276,58166,6,0,B|178:281|178:281|160:280|160:280|142:283,1,59.9999981689454
303,357,58348,2,0,B|327:352|327:352|344:352|344:352|362:349,1,59.9999981689454
284,167,58530,6,0,B|291:200|291:200|289:210|289:210|294:240,1,75.0000028610231
471,336,58712,1,0,3:0:0:0:
479,299,58803,1,0,3:0:0:0:
468,262,58894,6,0,B|435:269|435:269|425:267|425:267|395:272,1,75.0000028610231,8|0,0:0|0:0,0:0:0:0:
211,157,59076,2,0,B|244:164|244:164|254:162|254:162|284:167,1,75.0000028610231,0|0,3:0|0:0,0:0:0:0:
467,75,59257,6,0,B|471:14|397:2|397:2|339:46|371:99,1,225.000008583069,4|0,0:0|0:0,0:0:0:0:
424,159,59621,6,0,B|389:185|389:185|284:167,1,150.000005722046,0|0,3:0|0:0,0:0:0:0:
284,167,59894,1,0,0:0:0:0:
284,167,59985,1,0,3:0:0:0:
126,26,60166,1,0,0:0:0:0:
89,18,60257,1,0,0:0:0:0:
52,29,60348,6,0,B|59:62|59:62|57:72|57:72|62:102,1,75.0000028610231,0|0,3:0|0:0,0:0:0:0:
184,168,60530,2,0,B|191:135|191:135|189:125|189:125|194:95,1,75.0000028610231
48,112,60712,6,0,B|55:145|55:145|53:155|53:155|58:185,1,75.0000028610231,0|0,3:0|0:0,0:0:0:0:
182,254,60894,2,0,B|189:221|189:221|187:211|187:211|192:181,1,75.0000028610231
0,324,61076,6,0,B|40:357|40:357|139:330,1,150.000005722046,0|0,3:0|0:0,0:0:0:0:
144,343,61348,1,0,0:0:0:0:
155,353,61439,6,0,B|186:344|186:344|193:338|193:338|231:325,1,75.0000028610231,0|0,3:0|0:0,0:0:0:0:
306,282,61621,6,0,B|324:287|324:287|329:291|329:291|352:299,1,50
442,359,61803,6,0,B|451:326|451:326|450:316|450:316|458:287,1,75.0000028610231,0|0,3:0|0:0,0:0:0:0:
394,208,61985,2,0,B|384:175|384:175|385:165|385:165|377:136,1,75.0000028610231
472,48,62166,6,0,P|447:115|377:135,1,150.000005722046,0|0,3:0|0:0,0:0:0:0:
377,135,62439,1,0,0:0:0:0:
377,135,62530,1,0,3:0:0:0:
204,69,62712,1,0,0:0:0:0:
196,106,62803,1,0,0:0:0:0:
207,143,62894,6,0,B|240:136|240:136|250:138|250:138|280:133,1,75.0000028610231,0|0,3:0|0:0,0:0:0:0:
348,37,63076,2,0,B|315:44|315:44|305:42|305:42|275:47,1,75.0000028610231,0|0,3:0|3:0,3:0:0:0:
156,227,63257,6,0,B|189:220|189:220|199:222|199:222|229:217,1,75.0000028610231,0|0,3:0|0:0,0:0:0:0:
179,31,63439,2,0,B|149:36|149:36|139:34|139:34|106:41,1,75.0000028610231,0|0,3:0|0:0,0:0:0:0:
146,301,63621,6,0,B|153:268|153:268|151:258|151:258|156:228,1,75.0000028610231,0|0,3:0|0:0,0:0:0:0:
33,89,63803,2,0,B|40:122|40:122|38:132|38:132|43:162,1,75.0000028610231
51,321,63985,6,0,B|-1:267|-1:267|145:300,1,225.000008583069,0|0,3:0|0:0,0:0:0:0:
204,360,64348,1,0,3:0:0:0:
366,211,64530,1,0,3:0:0:0:
374,198,64621,1,0,3:0:0:0:
382,185,64712,6,0,B|375:218|375:218|377:228|377:228|372:258,1,75.0000028610231,0|0,3:0|0:0,0:0:0:0:
304,383,64894,2,0,B|297:350|297:350|299:340|299:340|294:310,1,75.0000028610231,0|0,3:0|0:0,0:0:0:0:
256,80,65076,5,0,3:0:0:0:
140,259,65257,2,0,B|165:242|165:242|190:203,1,75.0000028610231,0|0,3:0|3:0,3:0:0:0:
256,64,65439,5,0,3:0:0:0:
372,259,65621,2,0,B|346:242|346:242|321:203,1,75.0000028610231,0|0,3:0|3:0,3:0:0:0:
256,48,65803,5,0,3:0:0:0:
256,336,65985,2,0,B|256:256,1,75.0000028610231,0|0,3:0|3:0,3:0:0:0:
256,32,66166,5,0,3:0:0:0:
55,190,66348,1,0,3:0:0:0:
55,190,66439,1,0,3:0:0:0:
55,190,66530,6,0,B|97:206|97:206|141:193,1,89.9999972534181,0|0,3:0|0:0,0:0:0:0:
256,32,66712,2,0,B|214:16|214:16|169:28,1,89.9999972534181,0|0,3:0|0:0,0:0:0:0:
120,280,66894,6,0,B|126:243|126:243|133:232|133:232|140:193,1,89.9999972534181,0|0,3:0|0:0,0:0:0:0:
170,28,67076,2,0,B|176:64|176:64|183:75|183:75|190:114,1,89.9999972534181,0|0,3:0|0:0,0:0:0:0:
400,156,67257,6,0,B|363:162|363:162|352:169|352:169|313:176,1,89.9999972534181,0|0,3:0|0:0,0:0:0:0:
127,287,67439,1,0,3:0:0:0:
127,287,67530,1,0,3:0:0:0:
127,287,67621,6,0,B|163:293|163:293|174:300|174:300|213:307,1,89.9999972534181,0|0,3:0|0:0,0:0:0:0:
413,331,67803,2,0,B|429:289|429:289|416:245,1,89.9999972534181,0|0,3:0|0:0,0:0:0:0:
431,62,67985,5,12,0:0:0:0:
386,35,68076,1,0,3:0:0:0:
333,41,68166,1,0,3:0:0:0:
295,78,68257,1,0,3:0:0:0:
288,130,68348,1,0,3:0:0:0:
314,176,68439,1,0,3:0:0:0:
317,229,68530,1,0,3:0:0:0:
293,277,68621,1,0,3:0:0:0:
223,229,68712,5,12,0:0:0:0:
163,210,68803,1,0,3:0:0:0:
105,231,68894,1,0,3:0:0:0:
72,284,68985,1,0,3:0:0:0:
78,345,69076,1,0,3:0:0:0:
116,295,69166,1,0,3:0:0:0:
105,231,69257,1,0,3:0:0:0:
50,200,69348,1,0,3:0:0:0:
27,141,69439,6,0,B|39:105|39:105|38:85|38:85|40:52,1,89.9999972534181,0|0,3:0|0:0,0:0:0:0:
72,284,69621,1,0,0:0:0:0:
288,130,69803,5,0,0:0:0:0:
73,294,69985,1,0,0:0:0:0:
368,354,70166,6,0,L|263:337,1,100,0|0,0:0|3:0,0:0:0:0:
265,347,70439,1,0,3:0:0:0:
261,356,70530,1,8,0:0:0:0:
512,164,70894,6,0,P|431:191|427:275,1,179.999994506836,4|0,3:2|0:0,0:0:0:0:
487,344,71166,1,0,0:0:0:0:
497,293,71257,6,0,B|465:274|465:274|423:275,1,75.0000028610231,0|0,3:0|0:0,0:0:0:0:
342,103,71439,1,0,0:0:0:0:
279,151,71530,1,0,0:0:0:0:
286,228,71621,6,0,P|357:155|260:74,1,240,0|0,3:0|0:0,0:0:0:0:
204,47,71985,6,0,B|173:48|173:48|162:55|162:55|131:58,1,75.0000028610231,0|0,3:0|0:0,0:0:0:0:
0,122,72166,2,0,B|30:123|30:123|41:130|41:130|72:133,1,75.0000028610231
143,250,72348,6,0,B|141:224|141:224|135:215|135:215|133:190,1,59.9999981689454,2|0,3:0|0:0,0:0:0:0:
131,59,72530,2,0,B|133:34|133:34|139:25|139:25|141:0,1,59.9999981689454,2|0,0:0|0:0,0:0:0:0:
64,284,72712,6,0,P|120:330|197:309,1,160,0|0,3:0|0:0,0:0:0:0:
267,262,72985,1,0,0:0:0:0:
198,307,73076,6,0,B|209:416,1,75.0000028610231,0|0,3:0|0:0,0:0:0:0:
335,384,73257,2,0,B|342:309,1,75.0000028610231
399,202,73439,6,0,B|358:181|358:181|316:196,1,89.9999972534181,0|0,3:0|0:0,0:0:0:0:
341,309,73621,2,0,B|381:329|381:329|423:314,1,89.9999972534181
489,122,73803,6,2,P|407:120|398:201,1,179.999994506836,2|2,3:0|0:0,0:0:0:0:
493,310,74076,1,0,0:0:0:0:
496,321,74166,6,0,B|465:320|465:320|454:313|454:313|423:313,1,75.0000028610231,0|0,3:0|0:0,0:0:0:0:
279,91,74348,1,0,2:0:0:0:
279,91,74439,1,0,2:0:0:0:
279,91,74530,6,0,B|236:118|236:118|110:76,1,150.000005722046,0|0,3:0|0:0,0:0:0:0:
120,0,74803,1,0,0:0:0:0:
158,15,74894,6,0,B|149:44|149:44|152:57|152:57|142:86,1,75.0000028610231,0|0,3:0|0:0,0:0:0:0:
37,254,75076,2,0,B|28:224|28:224|31:211|31:211|21:182,1,75.0000028610231
0,71,75257,6,0,B|24:79|24:79|31:87|31:87|55:96,1,59.9999981689454,2|0,3:0|0:0,0:0:0:0:
193,206,75439,2,0,B|168:214|168:214|161:222|161:222|137:231,1,59.9999981689454,2|0,0:0|0:0,0:0:0:0:
24,370,75621,6,0,B|55:361|55:361|62:355|62:355|100:342,1,75.0000028610231,0|0,3:0|0:0,0:0:0:0:
191,303,75803,6,0,B|217:310|217:310|222:317|222:317|246:323,1,59.9999981689454
327,365,75985,6,0,B|336:332|336:332|335:322|335:322|343:293,1,75.0000028610231,0|0,3:0|0:0,0:0:0:0:
396,140,76166,2,0,B|405:173|405:173|404:183|404:183|412:212,1,75.0000028610231
441,372,76348,5,0,3:0:0:0:
430,361,76439,1,0,3:0:0:0:
439,350,76530,1,0,3:0:0:0:
450,360,76621,1,0,3:0:0:0:
441,357,76712,6,2,B|479:323|467:281|467:281|414:264|412:213,1,179.999994506836,6|2,3:2|0:0,0:0:0:0:
498,120,76985,1,0,0:0:0:0:
484,208,77076,6,0,P|449:218|412:212,1,75.0000028610231,0|0,3:0|0:0,0:0:0:0:
305,24,77257,5,0,0:0:0:0:
356,13,77348,1,0,0:0:0:0:
409,1,77439,6,0,B|470:21|472:108|437:135|437:135|390:124|360:152,1,240,0|0,3:0|0:0,0:0:0:0:
401,284,77803,6,0,B|402:253|402:253|409:242|409:242|412:211,1,75.0000028610231,0|0,3:0|0:0,0:0:0:0:
221,188,77985,2,0,B|252:185|252:185|263:178|263:178|294:177,1,75.0000028610231
407,298,78166,6,0,B|412:273|412:273|409:263|409:263|413:239,1,59.9999981689454,2|0,3:0|0:0,0:0:0:0:
311,82,78348,2,0,B|306:57|306:57|309:47|309:47|304:23,1,59.9999981689454,2|0,0:0|0:0,0:0:0:0:
165,249,78530,6,0,P|144:156|215:109,1,160,0|0,3:0|0:0,0:0:0:0:
180,105,78803,1,0,0:0:0:0:
177,95,78894,6,0,B|164:65|164:65|171:24,1,75.0000028610231,0|0,3:0|0:0,0:0:0:0:
60,18,79076,2,0,B|67:49|67:49|58:96,1,75.0000028610231
97,235,79257,6,0,B|137:252|137:252|180:234,1,89.9999972534181,0|0,3:0|0:0,0:0:0:0:
59,92,79439,2,0,B|17:74|17:74|-23:92,1,89.9999972534181
0,364,79621,6,2,B|55:350|55:350|97:234,1,179.999994506836,2|2,3:0|0:0,0:0:0:0:
106,251,79894,1,0,0:0:0:0:
116,264,79985,6,0,B|146:270|146:270|155:279|155:279|185:287,1,75.0000028610231,0|0,3:0|0:0,0:0:0:0:
374,208,80166,1,0,0:0:0:0:
323,202,80257,1,0,0:0:0:0:
272,196,80348,6,0,B|254:251|254:251|288:335,1,150.000005722046,0|0,3:0|0:0,0:0:0:0:
371,370,80621,1,0,0:0:0:0:
384,365,80712,6,0,B|390:335|390:335|399:326|399:326|407:296,1,75.0000028610231,0|0,3:0|0:0,0:0:0:0:
415,98,80894,2,0,B|421:128|421:128|430:137|430:137|438:167,1,75.0000028610231
497,318,81076,6,0,B|473:308|473:308|462:309|462:309|439:301,1,59.9999981689454,2|0,3:2|0:0,0:0:0:0:
331,125,81257,2,0,B|354:115|354:115|365:116|365:116|388:108,1,59.9999981689454,2|0,0:0|0:0,0:0:0:0:
512,21,81439,5,0,3:0:0:0:
384,365,81621,1,0,3:0:0:0:
322,112,81803,6,0,B|283:84|283:84|184:111,1,150.000005722046,2|0,3:0|3:0,0:0:0:0:
178,125,82076,1,0,3:0:0:0:
172,138,82166,6,0,B|99:156,1,75.0000028610231,0|0,3:0|3:0,0:0:0:0:
28,86,82348,1,8,0:3:0:0:
103,303,82530,6,2,B|56:352|56:352|77:251|77:251|84:237|84:237|99:155,1,269.999991760254,4|0,0:0|0:0,0:0:0:0:
35,73,82894,6,0,B|28:41|28:41|22:34|22:34|16:6,1,69.9999978637696,8|0,0:0|0:0,0:0:0:0:
2,248,83076,2,0,B|8:218|8:218|13:212|13:212|21:173,1,69.9999978637696
141,8,83257,6,0,P|228:52|205:119,1,160,0|0,3:0|0:0,0:0:0:0:
241,254,83530,1,0,0:0:0:0:
174,176,83621,6,0,B|143:171|143:171|131:162|131:162|96:154,1,80,8|0,0:0|0:0,0:0:0:0:
363,79,83803,2,0,B|393:74|393:74|405:65|405:65|440:57,1,80
253,269,83985,6,0,B|259:236|259:236|264:230|264:230|270:202,1,69.9999978637696,2|0,3:0|0:0,0:0:0:0:
329,0,84166,2,0,B|335:32|335:32|340:38|340:38|346:66,1,69.9999978637696,2|0,0:0|0:0,0:0:0:0:
399,278,84348,6,0,B|351:305|351:305|252:268,1,160,8|0,0:0|0:0,0:0:0:0:
367,196,84621,1,0,0:0:0:0:
390,190,84712,6,0,P|482:251|442:355,1,240,0|0,3:0|0:0,0:0:0:0:
324,384,85076,6,0,B|327:354|327:354|331:347|331:347|335:307,1,69.9999978637696,8|0,0:0|0:0,0:0:0:0:
229,186,85257,2,0,B|231:217|231:217|235:225|235:225|239:254,1,69.9999978637696
164,350,85439,6,2,B|110:381|110:381|0:336,1,179.999994506836,2|2,3:0|0:0,0:0:0:0:
14,324,85712,1,0,0:0:0:0:
26,311,85803,6,0,B|47:216,1,80,8|0,0:0|0:0,0:0:0:0:
0,95,85985,1,0,0:0:0:0:
48,66,86076,1,0,0:0:0:0:
98,42,86166,6,0,B|135:80|135:80|113:185,1,160,0|0,3:0|2:0,2:0:0:0:
43,232,86439,1,0,0:0:0:0:
113,184,86530,6,0,B|143:199|143:199|153:201|153:201|186:218,1,80,8|0,0:0|0:0,0:0:0:0:
224,326,86712,6,0,B|246:314|246:314|253:313|253:313|277:301,1,59.9999981689454
380,134,86894,6,0,B|375:163|375:163|366:175|366:175|358:210,1,80,2|0,3:0|0:0,0:0:0:0:
299,376,87076,2,0,B|294:346|294:346|285:334|285:334|277:299,1,80,2|0,0:0|0:0,0:0:0:0:
292,113,87257,6,0,B|325:119|325:119|331:124|331:124|359:130,1,69.9999978637696,8|0,0:0|0:0,0:0:0:0:
512,270,87439,2,0,B|479:276|479:276|473:281|473:281|445:287,1,69.9999978637696
377,37,87621,5,0,3:0:0:0:
425,30,87712,1,0,0:0:0:0:
473,23,87803,6,0,B|485:62|485:62|466:97,1,80
292,161,87985,2,0,B|319:131|319:131|359:130,1,80,8|0,0:0|0:0,0:0:0:0:
503,249,88166,2,0,B|463:239|463:239|442:205,1,80
285,47,88348,6,4,B|262:21|206:3|161:37|161:37|152:31|152:31|157:40|157:40|114:75|119:144|146:168,1,300,4|0,3:2|0:0,3:0:0:0:
131,264,88712,6,0,B|167:297|167:297|155:240|155:240|158:223|158:223|144:159,1,179.999994506836,8|0,0:0|0:0,0:0:0:0:
47,108,88985,1,0,0:0:0:0:
47,108,89076,5,0,3:0:0:0:
32,303,89257,2,0,B|68:289|68:289|77:290|77:290|118:274,1,89.9999972534181
192,361,89439,6,0,B|219:371|219:371|226:370|226:370|258:382,1,69.9999978637696,8|0,0:0|0:0,0:0:0:0:
259,192,89621,6,0,B|264:230|264:230|270:237|270:237|277:278,1,89.9999972534181
435,343,89803,6,0,B|468:354|468:354|415:258|415:258|381:304|311:311|275:277,1,300,4|0,3:2|0:0,0:0:0:0:
226,117,90166,6,0,P|311:130|336:212,1,179.999994506836,8|0,0:0|0:0,0:0:0:0:
197,272,90439,1,0,0:0:0:0:
193,284,90530,5,0,3:0:0:0:
69,113,90712,2,0,P|116:115|150:157,1,89.9999972534181
189,296,90894,5,8,0:0:0:0:
301,79,91076,2,0,P|252:89|221:131,1,89.9999972534181
299,377,91257,5,4,3:2:0:0:
346,352,91348,1,0,0:0:0:0:
372,306,91439,1,0,0:0:0:0:
368,253,91530,1,0,0:0:0:0:
336,211,91621,1,8,0:0:0:0:
285,194,91712,1,0,0:0:0:0:
234,207,91803,1,0,0:0:0:0:
199,247,91894,1,0,0:0:0:0:
186,327,91985,5,4,3:2:0:0:
146,362,92076,1,0,0:0:0:0:
94,363,92166,1,0,0:0:0:0:
53,330,92257,1,0,0:0:0:0:
44,277,92348,1,8,0:0:0:0:
72,232,92439,1,0,0:0:0:0:
92,181,92530,1,0,0:0:0:0:
82,127,92621,1,0,0:0:0:0:
11,156,92712,5,4,3:2:0:0:
13,175,92803,1,0,3:2:0:0:
23,187,92894,1,0,3:2:0:0:
33,193,92985,1,0,3:2:0:0:
43,194,93076,6,0,B|78:198|78:198|87:204|87:204|135:212,1,89.9999972534181,8|0,0:3|0:0,0:0:0:0:
290,140,93257,2,0,B|254:144|254:144|245:150|245:150|197:158,1,89.9999972534181,8|0,0:3|0:0,0:0:0:0:
146,352,93439,6,0,B|149:325|149:325|156:316|156:316|159:284,1,69.9999978637696,0|0,3:0|0:0,0:0:0:0:
122,128,93621,2,0,B|119:97|119:97|112:87|112:87|109:61,1,69.9999978637696,0|0,3:0|0:0,0:0:0:0:
285,345,93803,5,0,3:0:0:0:
308,295,93894,1,0,3:0:0:0:
277,248,93985,1,0,3:0:0:0:
223,250,94076,1,0,3:0:0:0:
285,345,94166,6,0,B|357:366|357:366|403:339,1,120,8|0,3:0|0:0,0:0:0:0:
497,207,94530,6,0,L|503:247,1,40,8|0,0:0|0:0,0:0:0:0:
428,269,94712,2,0,L|417:192,1,40
412,109,94894,6,0,L|419:50,1,59.9999981689454,0|0,3:0|0:0,0:0:0:0:
344,32,95076,2,0,L|337:91,1,59.9999981689454
335,236,95257,6,0,B|376:247|376:247|389:258|389:258|435:270,1,100,8|0,0:0|0:0,0:0:0:0:
505,77,95439,2,0,B|463:88|463:88|450:99|450:99|404:111,1,100
465,339,95621,6,2,P|506:255|440:189,1,200,2|2,3:2|0:0,0:0:0:0:
332,323,95894,1,0,0:0:0:0:
328,333,95985,5,8,0:0:0:0:
276,138,96166,2,0,P|227:144|191:178,1,100,0|0,3:0|3:0,3:0:0:0:
163,378,96348,5,0,3:0:0:0:
47,226,96530,2,0,P|95:232|131:266,1,100,0|0,3:0|3:0,3:0:0:0:
170,364,96712,5,8,3:0:0:0:
175,37,96894,1,0,3:0:0:0:
105,46,96985,1,0,3:0:0:0:
35,57,97076,6,0,B|55:100|36:136|36:136|10:186|46:225,1,179.999994506836,2|2,3:0|0:0,0:0:0:0:
179,257,97348,1,0,0:0:0:0:
176,181,97439,6,0,B|145:179|145:179|138:176|138:176|107:174,1,69.9999978637696,8|0,0:0|0:0,0:0:0:0:
236,306,97621,2,0,B|268:304|268:304|274:301|274:301|306:299,1,69.9999978637696
179,96,97803,6,0,B|162:139|162:139|176:180,1,89.9999972534181,0|0,3:0|0:0,0:0:0:0:
303,383,97985,2,0,B|320:340|320:340|305:298,1,89.9999972534181
107,283,98166,6,0,P|164:333|235:306,1,160,8|0,0:0|0:0,0:0:0:0:
328,221,98439,1,0,0:0:0:0:
340,140,98530,6,8,B|293:117|293:117|251:140,1,100,2|0,3:2|0:0,0:0:0:0:
384,281,98712,2,8,B|430:303|430:303|472:280,1,100,2|0,0:0|0:0,0:0:0:0:
368,28,98894,6,0,B|362:71|362:71|354:82|354:82|349:124,1,100,8|0,0:0|0:0,0:0:0:0:
446,106,99076,2,0,B|440:149|440:149|432:160|432:160|427:202,1,100
211,319,99257,5,8,3:0:0:0:
140,334,99348,1,0,3:0:0:0:
82,290,99439,1,0,3:0:0:0:
75,218,99530,1,0,3:0:0:0:
122,164,99621,5,8,0:0:0:0:
180,207,99712,1,0,3:0:0:0:
149,232,99803,1,0,3:0:0:0:
109,235,99894,1,0,3:0:0:0:
122,164,99985,6,2,P|211:143|248:227,1,179.999994506836,2|2,3:0|0:0,0:0:0:0:
281,292,100257,1,0,0:0:0:0:
290,309,100348,6,0,L|301:232,1,40,8|0,0:0|0:0,0:0:0:0:
370,291,100530,2,0,L|365:331,1,40
457,151,100712,6,0,L|450:92,1,59.9999981689454,0|0,3:0|0:0,0:0:0:0:
375,110,100894,2,0,L|382:169,1,59.9999981689454
466,267,101076,6,0,B|427:275|427:275|419:283|419:283|390:289,1,80,8|0,0:0|0:0,0:0:0:0:
300,88,101257,2,0,B|339:96|339:96|347:104|347:104|375:110,1,80
295,269,101439,6,2,B|258:214|258:214|301:85,1,200,2|2,3:2|0:0,0:0:0:0:
239,19,101712,1,0,0:0:0:0:
232,12,101803,5,8,0:0:0:0:
23,216,101985,2,0,B|59:197|59:197|77:141,1,100,0|0,3:0|3:0,3:0:0:0:
58,0,102166,5,0,3:0:0:0:
180,191,102348,2,0,B|192:151|192:151|165:99,1,100,0|0,3:0|3:0,3:0:0:0:
57,14,102530,5,8,0:0:0:0:
24,301,102712,1,0,3:0:0:0:
103,354,102803,1,0,3:0:0:0:
171,322,102894,6,0,L|152:369,3,50,2|0|2|0,3:2|0:0|0:0|0:0,0:0:0:0:
186,153,103257,6,0,B|167:181|167:181|177:215,1,69.9999978637696,8|0,0:0|0:0,0:0:0:0:
249,359,103439,2,0,B|269:330|269:330|259:296,1,69.9999978637696
357,115,103621,6,0,B|327:119|327:119|312:128|312:128|280:131,1,80,0|0,3:0|0:0,0:0:0:0:
100,199,103803,2,0,B|129:203|129:203|144:212|144:212|177:215,1,80
300,45,103985,6,0,B|290:81|290:81|293:96|293:96|280:132,1,89.9999972534181,8|0,0:0|0:0,0:0:0:0:
340,317,104166,2,0,B|330:281|330:281|333:266|333:266|320:230,1,89.9999972534181
482,80,104348,6,0,B|476:51|392:2|347:99|377:141|403:164|459:162|459:162|493:160|500:201|500:201|476:176|444:172,1,359.999989013672,2|0,3:0|0:0,0:0:0:0:
452,303,104712,6,0,P|437:248|381:255,1,119.999996337891,8|0,0:0|0:0,0:0:0:0:
297,353,104894,1,0,3:0:0:0:
323,340,104985,1,0,3:0:0:0:
340,317,105076,6,0,P|343:258|305:212,1,119.999996337891,8|0,0:3|0:0,0:0:0:0:
139,61,105257,2,0,B|132:106|132:106|122:125|122:125|113:177,1,119.999996337891,0|0,3:0|0:0,0:0:0:0:
23,324,105439,5,0,3:0:0:0:
113,353,105530,1,0,3:0:0:0:
182,305,105621,1,8,0:0:0:0:
225,380,105803,6,2,B|244:333|214:293|214:293|174:238|203:193,1,200,6|2,3:2|0:0,0:0:0:0:
346,126,106076,1,0,0:0:0:0:
322,229,106166,6,0,L|234:236,1,50,8|0,0:0|0:0,0:0:0:0:
357,135,106348,2,0,L|444:142,1,50
454,295,106530,6,0,P|324:267|365:173,1,200,0|0,3:0|0:0,0:0:0:0:
410,55,106803,1,0,0:0:0:0:
422,42,106894,6,0,B|418:88|418:88|410:101|410:101|407:139,1,100,8|0,0:0|0:0,0:0:0:0:
464,311,107076,2,0,B|460:265|460:265|452:251|452:251|449:213,1,100
294,63,107257,6,2,B|280:107|228:108|228:108|188:56|126:80,1,200,2|2,3:2|0:0,0:0:0:0:
83,264,107530,1,0,0:0:0:0:
155,226,107621,6,0,B|174:189|174:189|161:152,1,80,8|0,0:0|0:0,0:0:0:0:
14,63,107803,2,0,B|-5:99|-5:99|7:136,1,80
28,320,107985,6,2,B|71:358|121:330|121:330|172:301|222:336,1,200,2|2,3:2|0:0,0:0:0:0:
292,368,108257,1,0,0:0:0:0:
287,384,108348,5,8,0:0:0:0:
208,195,108530,1,0,0:0:0:0:
470,184,108712,6,2,B|402:152|359:199|359:199|394:230|384:278,1,200,2|2,3:2|0:0,0:0:0:0:
304,356,108985,1,0,0:0:0:0:
304,356,109076,6,0,B|310:313|310:313|304:295|304:295|311:256,1,100,8|0,0:0|0:0,0:0:0:0:
210,103,109257,2,0,P|193:157|214:202,1,100
374,135,109439,6,0,B|331:144|331:144|313:140|313:140|276:150,1,100,0|0,3:0|0:0,0:0:0:0:
96,274,109621,2,0,B|138:283|138:283|156:279|156:279|193:289,1,100
48,80,109803,6,0,B|20:130|20:130|51:175,1,110.000003356934,8|0,0:0|0:0,0:0:0:0:
92,369,109985,2,0,B|121:321|121:321|90:263,1,110.000003356934
170,110,110166,6,2,B|137:108|114:127|114:127|184:202|277:150,1,239.999992675781,2|2,3:2|0:0,0:0:0:0:
402,120,110439,1,0,0:0:0:0:
382,41,110530,6,0,B|345:23|345:23|308:37,1,80,8|0,0:0|0:0,0:0:0:0:
429,203,110712,2,0,B|465:220|465:220|502:206,1,80
402,120,110894,6,0,P|343:193|385:277,1,200,0|0,3:0|0:0,0:0:0:0:
453,336,111166,1,0,0:0:0:0:
464,352,111257,6,0,B|428:359|428:359|411:370|411:370|368:375,1,100,8|0,0:0|0:0,0:0:0:0:
241,363,111439,2,0,B|223:331|223:331|207:319|207:319|189:279,1,100,8|0,0:0|0:0,0:0:0:0:
120,94,111621,5,14,0:0:0:0:
23,303,111803,2,0,P|76:277|106:226,1,119.999996337891,2|0,0:0|0:0,0:0:0:0:
127,75,111985,5,8,0:0:0:0:
288,325,112166,2,0,P|229:321|188:279,1,119.999996337891
134,56,112348,6,0,B|114:0|48:2|3:49|19:92|39:125|69:144|114:145|128:113|136:78|160:68|226:74|252:124,1,359.999989013672,8|0,0:3|0:0,0:0:0:0:
311,158,112712,5,8,0:0:0:0:
314,194,112803,1,0,3:0:0:0:
296,225,112894,2,0,P|240:228|227:174,1,119.999996337891,0|0,3:0|3:0,3:0:0:0:
419,9,113076,6,2,B|493:-15|493:-15|535:56|486:120|486:120|495:58,1,239.999992675781,14|2,0:0|0:0,0:0:0:0:
386,271,113348,1,0,0:0:0:0:
336,268,113439,6,0,B|326:242|296:225|296:225|329:239|355:232,1,119.999996337891,8|0,0:0|0:0,0:0:0:0:
469,199,113621,2,0,B|495:206|528:191|528:191|497:209|488:234,1,119.999996337891,8|0,0:0|0:0,0:0:0:0:
316,358,113803,6,2,B|254:401|200:362|200:362|147:319|82:363,1,239.999992675781,8|0,0:3|3:0,0:0:0:0:
0,356,114076,1,0,3:0:0:0:
0,356,114166,5,8,0:0:0:0:
257,300,114348,1,0,3:0:0:0:
90,119,114530,5,12,0:0:0:0:
95,89,114621,1,0,3:0:0:0:
100,59,114712,2,0,L|109:-7,1,59.9999981689454,0|0,3:0|3:0,0:3:0:0:
412,160,114894,5,8,0:0:0:0:
405,124,114985,1,0,3:0:0:0:
399,88,115076,2,0,L|387:9,1,80,0|0,3:0|3:0,0:3:0:0:
144,294,115257,5,8,0:0:0:0:
153,248,115348,1,0,3:0:0:0:
161,203,115439,2,0,L|174:104,1,100,0|0,3:0|3:0,0:3:0:0:
361,384,115621,5,8,0:0:0:0:
350,328,115712,1,0,3:0:0:0:
340,274,115803,2,0,L|323:156,1,119.999996337891,0|0,3:0|3:0,0:3:0:0:
214,29,115985,5,4,3:2:0:0:
340,274,116166,2,0,P|273:260|238:178,1,119.999996337891,0|0,3:0|3:0,3:0:0:0:
199,16,116348,5,0,3:0:0:0:
48,283,116530,2,0,P|106:285|152:248,1,119.999996337891,0|0,3:0|3:0,3:0:0:0:
184,3,116712,5,0,3:0:0:0:
142,364,116894,1,0,3:0:0:0:
142,364,116985,1,0,3:0:0:0:
142,364,117076,6,0,P|197:310|152:247,1,168.000002050781,8|0,0:0|0:0,0:0:0:0:
80,169,117439,6,2,B|65:216|9:218|-29:179|-18:143|-2:114|21:97|59:94|73:120|80:149|101:157|156:149|177:105,1,300,6|0,3:2|0:0,0:0:0:0:
351,110,117803,6,0,B|379:85|379:85|319:102,1,100,8|0,0:0|0:0,0:0:0:0:
123,60,117985,2,0,B|94:35|94:35|154:52,1,100
252,330,118166,6,0,P|377:297|302:211,1,200,0|0,3:0|0:0,0:0:0:0:
281,179,118439,1,0,0:0:0:0:
269,202,118530,6,0,P|270:250|307:282,1,100,8|0,0:0|0:0,0:0:0:0:
463,266,118712,2,0,P|420:243|373:258,1,100
479,369,118894,6,2,B|513:316|513:316|489:181,1,200,2|2,3:0|0:0,0:0:0:0:
382,0,119166,1,0,0:0:0:0:
290,16,119257,6,0,B|282:42|253:62|253:62|285:45|312:50,1,119.999996337891,8|0,0:0|0:0,0:0:0:0:
463,104,119439,2,0,B|488:94|522:106|522:106|490:91|478:67,1,119.999996337891
300,136,119621,5,8,3:0:0:0:
283,182,119712,1,0,3:0:0:0:
301,239,119803,1,0,3:0:0:0:
365,266,119894,1,0,3:0:0:0:
433,222,119985,5,8,3:0:0:0:
362,195,120076,1,0,3:0:0:0:
301,239,120166,1,0,3:0:0:0:
224,260,120257,1,0,3:0:0:0:
146,214,120348,6,2,B|95:206|49:261|66:315|66:315|93:283|138:296,1,200,2|2,3:0|0:0,0:0:0:0:
224,260,120621,1,0,0:0:0:0:
225,170,120712,6,0,P|172:124|93:143,1,100,8|0,0:0|0:0,0:0:0:0:
183,335,120894,2,0,P|251:342|305:281,1,100
362,195,121076,5,0,3:0:0:0:
169,39,121257,1,0,0:0:0:0:
120,50,121348,1,0,0:0:0:0:
71,61,121439,6,0,B|7:73|7:73|53:89,1,100,8|0,0:0|0:0,0:0:0:0:
245,194,121621,2,0,B|309:182|309:182|263:166,1,100
98,223,121803,6,0,P|90:272|129:323,1,100,2|0,3:0|0:0,0:0:0:0:
231,84,121985,2,0,P|247:37|217:-19,1,100,2|0,0:0|0:0,0:0:0:0:
166,256,122166,5,8,0:0:0:0:
218,289,122257,1,0,3:0:0:0:
287,279,122348,1,0,3:0:0:0:
354,236,122439,1,0,3:0:0:0:
440,260,122530,6,0,P|320:318|276:192,1,300,8|0,3:0|0:0,0:0:0:0:
464,69,122894,6,0,P|473:121|415:135,1,100,0|0,3:0|3:0,0:0:0:0:
360,109,123076,2,0,P|350:56|408:42,1,100,0|0,3:0|3:0,0:0:0:0:
509,280,123257,6,0,B|447:323|393:284|393:284|340:241|275:285,1,239.999992675781,6|2,3:2|0:0,0:0:0:0:
230,384,123530,1,0,0:0:0:0:
230,384,123621,5,8,0:0:0:0:
217,157,123803,1,0,0:0:0:0:
194,136,123894,1,0,0:0:0:0:
169,128,123985,6,0,P|119:127|76:157,1,100,0|0,3:0|2:0,2:0:0:0:
140,308,124166,2,0,P|158:262|147:214,1,100,0|0,0:0|2:0,2:0:0:0:
4,108,124348,6,0,P|-11:154|3:203,1,100,8|0,0:0|2:0,2:0:0:0:
140,308,124530,2,0,P|158:262|147:214,1,100,0|0,0:0|2:0,2:0:0:0:
125,21,124712,6,2,P|116:131|179:120,1,200,2|2,3:2|0:0,0:0:0:0:
366,60,124985,1,0,0:0:0:0:
396,56,125076,6,0,P|442:75|469:120,1,100,8|0,0:0|0:0,0:0:0:0:
383,232,125257,2,0,P|362:180|420:139,1,100
447,300,125439,6,0,B|385:343|331:304|331:304|278:261|213:305,1,200,0|2,3:2|0:0,0:0:0:0:
189,342,125712,1,0,0:0:0:0:
261,284,125803,6,0,P|266:226|169:222,1,100,8|0,0:0|0:0,0:0:0:0:
76,241,125985,2,0,P|71:299|168:303,1,100
160,77,126166,6,2,B|124:133|124:133|161:260,1,200,2|2,3:0|0:0,0:0:0:0:
161,260,126439,1,0,0:0:0:0:
161,260,126530,5,8,0:0:0:0:
378,219,126712,2,0,P|328:206|283:224,1,100
338,312,126894,6,0,B|372:260|341:204|341:204|333:121|432:97,1,200,0|0,3:0|0:0,0:0:0:0:
429,0,127166,1,0,0:0:0:0:
350,37,127257,6,0,P|344:94|388:136,1,100,8|0,0:0|0:0,0:0:0:0:
454,297,127439,2,0,P|460:240|440:182,1,100
271,100,127621,6,0,L|397:134,1,100,0|0,3:0|0:0,0:0:0:0:
104,191,127803,2,0,L|200:164,1,100,0|0,3:0|0:0,0:0:0:0:
319,333,127985,6,0,P|366:293|345:223,1,129.999994049073,8|0,3:0|0:0,0:0:0:0:
307,0,128166,2,0,P|259:39|280:109,1,129.999994049073,0|0,3:0|0:0,0:0:0:0:
427,199,128348,5,0,3:0:0:0:
403,168,128439,1,0,3:0:0:0:
366,152,128530,2,0,P|305:166|275:222,1,129.999994049073,0|0,3:0|3:0,0:0:0:0:
187,364,128712,2,0,P|205:304|171:250,1,129.999994049073,8|0,0:3|3:0,0:0:0:0:
92,102,128894,2,0,P|134:147|198:145,1,129.999994049073,0|0,3:0|3:0,0:0:0:0:
469,252,129076,6,0,B|528:225|515:148|475:131|475:131|431:141|428:194,1,209.999993591309,4|0,3:2|0:0,0:0:0:0:
469,252,129439,2,0,B|365:288|379:173|273:222,1,209.999993591309,8|0,0:3|0:3,0:3:0:0:
319,292,129803,5,0,3:0:0:0:
219,109,129985,1,0,3:0:0:0:
134,93,130076,1,0,3:0:0:0:
92,154,130166,2,0,B|50:200|90:254|90:254|149:259|168:322,1,209.999993591309,8|0,0:0|0:0,0:0:0:0:
84,336,130530,5,0,3:0:0:0:
349,250,130894,1,8,0:0:0:0:
92,154,131257,5,0,3:0:0:0:
314,21,131439,1,0,3:0:0:0:
296,105,131530,1,0,3:0:0:0:
224,131,131621,2,0,L|259:337,1,209.999993591309,8|0,0:0|0:0,0:0:0:0:
259,337,131985,6,0,B|347:273|366:388|454:312,1,209.999993591309,0|0,3:0|0:0,0:0:0:0:
396,262,132348,2,0,P|371:180|481:164,1,209.999993591309,8|0,0:0|0:0,0:0:0:0:
469,153,132712,5,0,3:0:0:0:
259,337,132894,1,0,3:0:0:0:
239,256,132985,1,0,3:0:0:0:
219,175,133076,5,8,0:0:0:0:
87,359,133257,1,0,0:0:0:0:
27,75,133439,6,0,L|116:90,1,69.9999978637696,2|0,3:0|0:0,0:0:0:0:
137,161,133621,6,0,L|226:176,1,50,2|0,0:0|3:0,3:0:0:0:
315,100,133803,6,0,L|261:91,1,29.9999990844727,10|0,0:3|0:0,0:0:0:0:
60,235,133985,6,0,L|149:250,1,59.9999981689454,0|0,3:0|3:0,3:0:0:0:
327,89,134166,6,0,L|273:80,1,29.9999990844727,8|0,0:3|0:0,0:0:0:0:
261,339,134348,6,0,B|294:319|294:319|299:309|299:309|340:286,1,89.9999972534181,2|0,3:3|3:0,3:0:0:0:
327,89,134530,2,0,B|327:128|327:128|333:137|333:137|333:184,1,89.9999972534181,2|0,3:0|3:0,3:0:0:0:
510,271,134712,2,0,B|476:251|476:251|465:252|465:252|424:228,1,89.9999972534181,2|0,3:2|3:2,3:2:0:0:
171,100,134894,5,4,3:0:0:0:
432,208,135076,1,0,3:0:0:0:
416,118,135166,1,0,3:0:0:0:
400,29,135257,5,8,0:0:0:0:
140,280,135439,1,0,3:0:0:0:
156,190,135530,1,0,3:0:0:0:
171,100,135621,5,0,3:0:0:0:
422,370,135803,1,8,0:0:0:0:
68,248,135985,6,0,B|33:347|119:383|218:397|196:302|247:258|346:322,1,359.999989013672,8|0,0:0|0:0,0:0:0:0:
422,370,136348,5,4,3:0:0:0:
292,18,136530,1,0,3:0:0:0:
276,108,136621,1,0,3:0:0:0:
260,197,136712,5,8,3:0:0:0:
31,84,136894,1,0,3:0:0:0:
47,174,136985,1,0,3:0:0:0:
63,263,137076,5,0,3:0:0:0:
292,18,137257,1,8,0:0:0:0:
396,301,137439,6,0,B|414:329|441:332|441:332|499:297|480:206|440:182|333:191|315:216|336:279|292:302|196:259,1,419.999987182618,8|0,0:0|0:0,0:0:0:0:
40,152,137803,5,12,0:0:0:0:
37,78,137894,1,0,3:0:0:0:
90,27,137985,1,0,3:0:0:0:
162,30,138076,1,0,3:0:0:0:
202,112,138166,5,8,0:0:0:0:
254,163,138257,1,0,3:0:0:0:
326,159,138348,1,0,3:0:0:0:
374,104,138439,1,0,3:0:0:0:
294,68,138530,5,8,0:0:0:0:
297,88,138621,1,0,3:0:0:0:
425,49,138712,5,0,3:0:0:0:
422,29,138803,1,0,3:0:0:0:
374,104,138894,5,8,0:0:0:0:
397,173,138985,1,0,3:0:0:0:
468,188,139076,1,0,3:0:0:0:
446,119,139166,1,0,3:0:0:0:
381,180,139257,6,0,B|266:224|302:110|157:170,1,200,4|0,3:2|3:0,0:0:0:0:
120,202,139530,1,0,3:0:0:0:
120,202,139621,5,8,0:0:0:0:
241,20,139803,1,0,3:0:0:0:
167,337,139985,5,0,3:0:0:0:
72,53,140166,1,0,3:0:0:0:
72,53,140257,1,0,3:0:0:0:
72,53,140348,5,8,0:0:0:0:
382,184,140530,1,0,3:0:0:0:
10,312,140712,5,4,0:0:0:0:
