osu file format v14

[General]
AudioFilename: audio.mp3
AudioLeadIn: 0
PreviewTime: 103830
Countdown: 0
SampleSet: Soft
StackLeniency: 0
Mode: 0
LetterboxInBreaks: 0
WidescreenStoryboard: 1

[Editor]
Bookmarks: 52163,60163
DistanceSpacing: 0.7
BeatDivisor: 4
GridSize: 4
TimelineZoom: 2.700001

[Metadata]
Title:Kanagawa Cyber Culvert
TitleUnicode:神奈川電脳暗渠
Artist:Minami Yuni
ArtistUnicode:南ゆに
Creator:peaceGiant
Version:Calm
Source:Arcaea
Tags:
BeatmapID:3128257
BeatmapSetID:748352

[Difficulty]
HPDrainRate:3.7
CircleSize:5.4
OverallDifficulty:4.7
ApproachRate:3.6
SliderMultiplier:0.7
SliderTickRate:1

[Events]
//Background and Video events
0,0,"too_lazy_by_tatasz-da6b7u7.png",0,0
//Break Periods
2,52363,58795
//Storyboard Layer 0 (Background)
//Storyboard Layer 1 (Fail)
//Storyboard Layer 2 (Pass)
//Storyboard Layer 3 (Foreground)
//Storyboard Layer 4 (Overlay)
//Storyboard Sound Samples

[TimingPoints]
832,333.333333333333,3,2,0,10,1,0
19831,-100,3,2,0,10,0,0
20165,-100,3,2,0,10,0,0
28498,333.333333333333,3,2,0,10,1,0
44164,333.333333333333,3,2,0,10,1,0
68163,-100,3,2,0,10,0,1
69497,-100,3,2,0,10,0,1
70163,-100,3,2,0,10,0,1
72163,-100,3,2,0,10,0,0
77163,-100,3,2,0,10,0,0
78163,-100,3,2,0,10,0,0
84163,-100,3,2,0,10,0,1
85497,-100,3,2,0,10,0,1
86163,-100,3,2,0,10,0,1
88163,-100,3,2,0,10,0,0
93163,-100,3,2,0,10,0,0
94163,-100,3,2,0,10,0,0
100163,-100,3,2,0,10,0,0
101163,-100,3,2,0,10,0,0
104163,-100,3,2,0,10,0,1
105496,-100,3,2,0,10,0,1
106163,-100,3,2,0,10,0,1
108163,-100,3,2,0,10,0,0
113162,-100,3,2,0,10,0,0
114162,-100,3,2,0,10,0,0
120163,-100,3,2,0,10,0,1
121496,-100,3,2,0,10,0,1
122162,-100,3,2,0,10,0,1
124163,-100,3,2,0,10,0,0
129162,-100,3,2,0,10,0,0
130162,-100,3,2,0,10,0,0
136162,-166.666666666667,3,2,0,10,0,0
140162,-100,3,2,0,10,0,0

[Colours]
Combo1 : 169,29,56
Combo2 : 40,162,155
Combo3 : 120,190,188
Combo4 : 65,154,197
Combo5 : 29,115,139
Combo6 : 183,188,180
Combo7 : 181,182,154
Combo8 : 200,34,67

[HitObjects]
49,33,720,22,0,L|58:44,2,11.6666666666667
194,52,1831,2,0,B|243:71|298:52|298:52|348:32|400:52,2,210
70,131,4831,1,0,0:0:0:0:
202,195,5831,2,0,P|224:242|118:341,2,210
283,72,8831,38,0,B|326:128|326:128|333:343,1,280
430,330,10831,2,0,B|472:273|472:273|465:64,1,280
372,31,12831,2,0,P|241:12|136:103,1,280
78,182,14831,22,0,B|87:211|126:229|126:229|151:197|179:183|179:183|215:221|215:221|261:192|324:190|324:190|343:219|377:234|422:224|422:224|429:218,1,420
404,44,17831,1,0,0:0:0:0:
256,44,18831,1,0,0:0:0:0:
108,44,19831,1,0,0:0:0:0:
210,149,20831,54,0,B|14:74|14:74|73:151|72:276|72:276|171:302|171:302|199:284|199:284|225:299|225:299|265:298|265:298|398:343|398:343|463:316|514:255|457:100|457:100|435:202|381:233|321:246|321:246|314:248,1,1260
343,98,27831,6,0,B|467:31|467:31|419:17|363:20|363:20|243:87|131:71|117:45|117:45|63:25|63:25|86:56|86:56|88:161|88:161|158:178|158:178|173:151|193:146|218:148|231:157|244:175|244:199|244:199|311:209|311:209|341:187|375:182|375:182|392:151|435:135|435:135|435:207|435:207|408:227|405:262|405:262|440:264|472:292|472:292|474:367,1,1400
328,368,35497,1,0,0:0:0:0:
181,357,36497,70,0,B|87:307|87:307|169:244|169:244|67:227|36:185|29:120|72:103|72:103|61:65|141:47|185:67|214:135|214:135|281:118|281:118|272:52|272:52|326:102|326:102|395:128|395:128|439:197|405:296|353:302|353:302|331:247|355:196|388:167,1,1260
446,40,43497,6,0,B|308:35|308:35|348:137|265:195|185:173|139:133|139:133|138:169|122:201|122:201|159:211|179:231|179:231|197:264|197:264|228:252|228:252|236:266|254:283|254:283|278:267|278:267|284:284|298:298|298:298|332:288|332:288|392:256|421:270|445:313|430:355|379:364|379:364|301:349|222:363|222:363|134:355|134:355|68:311|83:232|88:178,1,1400
3,60,51163,2,0,B|54:79|111:60|111:60|162:40|216:60,1,210
34,353,60163,6,0,L|47:270,3,70
191,276,62163,2,0,L|203:199,2,70
348,199,64163,2,0,L|360:122,3,70
224,68,66163,2,0,L|190:278,1,210
332,311,68163,6,0,B|439:292|439:292|359:211,1,210
348,28,70163,2,0,B|300:80|300:80|440:80|440:80|472:144|472:144|332:144,1,420
414,22,73163,1,0,0:0:0:0:
256,44,74163,1,0,0:0:0:0:
98,22,75163,1,0,0:0:0:0:
332,73,76163,22,0,B|439:92|439:92|368:165,1,210
164,28,78163,2,0,B|212:80|212:80|72:80|72:80|40:144|40:144|177:144,1,420
98,22,81163,1,0,0:0:0:0:
100,192,82163,1,0,0:0:0:0:
98,362,83163,1,0,0:0:0:0:
180,73,84163,38,0,B|73:92|73:92|145:164,1,210
164,356,86163,2,0,B|212:304|212:304|72:304|72:304|40:240|40:240|178:240,1,420
98,362,89163,1,0,0:0:0:0:
256,340,90163,1,0,0:0:0:0:
414,362,91163,1,0,0:0:0:0:
180,311,92163,6,0,B|73:292|73:292|144:219,1,210
348,356,94163,2,0,B|300:304|300:304|440:304|440:304|472:240|472:240|334:240,1,420
414,362,97163,1,0,0:0:0:0:
412,192,98163,1,0,0:0:0:0:
414,22,99163,1,0,0:0:0:0:
256,44,100163,1,0,0:0:0:0:
98,22,101163,1,0,0:0:0:0:
100,192,102163,1,0,0:0:0:0:
98,362,103163,1,0,0:0:0:0:
144,219,104163,70,0,B|73:292|73:292|180:311,1,210
348,356,106163,2,0,B|300:304|300:304|440:304|440:304|472:240|472:240|334:240,1,420
414,362,109163,1,0,0:0:0:0:
412,192,110163,1,0,0:0:0:0:
414,22,111163,1,0,0:0:0:0:
367,164,112163,70,0,B|439:92|439:92|332:73,1,210
164,28,114163,2,0,B|212:80|212:80|72:80|72:80|40:144|40:144|177:144,1,420
98,22,117163,1,0,0:0:0:0:
256,44,118163,1,0,0:0:0:0:
414,22,119163,1,0,0:0:0:0:
144,164,120163,22,0,B|73:92|73:92|180:73,1,210
348,356,122163,2,0,B|300:304|300:304|440:304|440:304|472:240|472:240|334:240,1,420
414,362,125163,1,0,0:0:0:0:
256,340,126163,1,0,0:0:0:0:
98,362,127163,1,0,0:0:0:0:
367,219,128163,6,0,B|439:292|439:292|332:311,1,210
164,28,130163,2,0,B|212:80|212:80|72:80|72:80|40:144|40:144|177:144,1,420
98,22,133163,1,0,0:0:0:0:
100,192,134163,1,0,0:0:0:0:
98,362,135163,1,0,0:0:0:0:
10,188,136163,54,0,B|130:142|256:191|256:191|395:240|502:198,1,503.999984619141
