osu file format v14

[General]
AudioFilename: carnation.lnk.mp3
AudioLeadIn: 0
PreviewTime: 141632
Countdown: 0
SampleSet: Soft
StackLeniency: 0
Mode: 0
LetterboxInBreaks: 0
WidescreenStoryboard: 1

[Editor]
DistanceSpacing: 0.8
BeatDivisor: 4
GridSize: 4
TimelineZoom: 1.3

[Metadata]
Title:carnation.lnk
TitleUnicode:carnation.lnk
Artist:Minami Yasuhiro
ArtistUnicode:南 泰宏
Creator:Mikagura Seisa
Version:Another Another
Source:
Tags:OMT.exe Obscure Music Team c76 Mei FreeSongs
BeatmapID:1357746
BeatmapSetID:370823

[Difficulty]
HPDrainRate:5
CircleSize:6
OverallDifficulty:7
ApproachRate:9
SliderMultiplier:1.6
SliderTickRate:1

[Events]
//Background and Video events
0,0,"1002.jpg",0,0
//Break Periods
2,96228,103108
//Storyboard Layer 0 (Background)
//Storyboard Layer 1 (Fail)
//Storyboard Layer 2 (Pass)
//Storyboard Layer 3 (Foreground)
//Storyboard Sound Samples

[TimingPoints]
28,480,4,2,1,50,1,0
7708,-100,4,2,1,60,0,0
16828,-200,4,2,1,60,0,0
17308,-100,4,2,1,60,0,0
20668,-200,4,2,1,60,0,0
21148,-100,4,2,1,60,0,0
24508,-200,4,2,1,60,0,0
24988,-100,4,2,1,60,0,0
28340,-200,4,2,1,60,0,0
28828,-100,4,2,1,75,0,0
32668,-200,4,2,1,75,0,0
33628,-100,4,2,1,85,0,0
33868,-100,4,2,1,80,0,0
34108,-100,4,2,1,100,0,0
34468,-100,4,2,1,80,0,0
34588,-66.6666666666667,4,2,2,100,0,1
35068,-74.0740740740741,4,2,2,100,0,1
47548,-66.6666666666667,4,2,2,100,0,1
48508,-55.5555555555556,4,2,2,100,0,1
49948,-50,4,2,2,100,0,1
50428,-74.0740740740741,4,2,2,100,0,1
63628,-66.6666666666667,4,2,2,100,0,1
65308,-100,4,2,1,50,0,0
69148,-100,4,2,1,75,0,0
72868,-200,4,2,2,75,0,0
73228,-100,4,2,5,5,0,0
74548,-100,4,2,2,75,0,0
78748,-100,4,2,2,85,0,0
80668,-74.0740740740741,4,2,2,95,0,0
82108,-100,4,2,2,95,0,0
82588,-74.0740740740741,4,2,2,95,0,0
96028,-100,4,2,1,95,0,0
103708,-100,4,2,5,90,0,0
109468,-100,4,2,5,100,0,0
111388,-200,4,2,2,60,0,0
126748,-100,4,2,3,50,0,0
127948,-100,4,2,1,40,0,0
141148,-100,4,2,1,45,0,0
141388,-100,4,2,1,65,0,0
141868,-100,4,2,1,85,0,0
142108,-74.0740740740741,4,2,2,100,0,1
172708,-74.0740740740741,4,2,2,100,0,0
172828,-74.0740740740741,4,2,2,100,0,1
203548,-100,4,2,1,60,0,0
215068,-100,4,2,1,50,0,0
216988,-100,4,2,1,40,0,0
217108,-100,4,2,1,5,0,0
217228,-100,4,2,1,40,0,0
217348,-100,4,2,1,5,0,0
217468,500,4,2,1,35,1,0
217468,-100,4,2,1,35,0,0
217593,-100,4,2,1,5,0,0
217718,-100,4,2,1,35,0,0
217843,-100,4,2,1,5,0,0
217968,631.578947368421,4,2,1,30,1,0
218125,-100,4,2,1,5,0,0
218283,888.888888888889,4,2,1,50,1,0
218505,-100,4,2,1,5,0,0
218727,1395.3488372093,4,2,1,50,1,0
219075,-100,4,2,1,5,0,0
219424,2142.85714285714,4,2,1,50,1,0
219959,-100,4,2,1,5,0,0
221118,1500,4,2,1,10,1,0
221211,-100,4,2,1,5,0,0
222388,1500,4,2,5,5,1,0

[HitObjects]
129,66,1468,5,0,0:0:0:0:
100,123,1708,1,0,0:0:0:0:
71,180,1948,1,2,0:0:0:0:
199,174,2428,5,0,0:0:0:0:
164,120,2668,1,0,0:0:0:0:
129,66,2908,1,0,0:0:0:0:
199,174,3148,1,0,0:0:0:0:
119,240,3388,6,0,P|78:204|71:165,1,80,2|0,0:0|0:0,0:0:0:0:
96,121,3868,2,0,B|126:65|126:65|175:61,1,80,2|0,0:0|0:0,0:0:0:0:
199,174,4348,2,0,P|138:186|116:170,1,80,0|0,0:0|0:0,0:0:0:0:
188,113,4828,6,0,P|241:127|260:167,1,80,2|0,0:0|0:0,0:0:0:0:
199,241,5308,5,2,0:0:0:0:
254,209,5548,1,0,0:0:0:0:
310,238,5788,1,2,0:0:0:0:
202,308,6268,5,0,0:0:0:0:
257,276,6508,1,0,0:0:0:0:
313,305,6748,1,2,0:0:0:0:
202,308,6988,1,0,0:0:0:0:
323,172,7228,6,0,P|366:205|365:250,1,80,2|0,0:0|0:0,0:0:0:0:
371,285,7708,1,2,0:0:0:0:
257,337,7948,1,2,0:0:0:0:
338,361,8188,1,2,0:0:0:0:
276,215,8428,1,2,0:0:0:0:
434,259,8668,6,0,P|438:207|423:170,1,80,2|0,0:0|0:0,0:0:0:0:
386,47,9148,6,0,L|376:136,1,80,2|0,0:0|0:0,0:0:0:0:
465,113,9628,1,0,0:0:0:0:
258,155,10108,5,2,0:0:0:0:
240,76,10348,1,0,0:0:0:0:
317,155,10588,2,0,P|305:195|249:216,1,80,2|0,0:0|0:0,0:0:0:0:
193,149,11068,6,0,L|170:47,1,80,2|0,0:0|0:0,0:0:0:0:
320,96,11548,1,2,0:0:0:0:
258,155,11788,1,0,0:0:0:0:
240,76,12028,1,2,0:0:0:0:
333,173,12268,1,0,0:0:0:0:
202,209,12508,5,2,0:0:0:0:
202,209,12988,5,2,0:0:0:0:
265,238,13228,1,0,0:0:0:0:
316,284,13468,2,0,P|323:323|314:362,1,80,2|0,0:0|0:0,0:0:0:0:
205,276,13948,5,2,0:0:0:0:
265,238,14188,1,0,0:0:0:0:
312,181,14428,1,2,0:0:0:0:
182,147,14668,1,0,0:0:0:0:
308,102,14908,6,0,P|317:150|308:189,1,80,2|0,0:0|0:0,0:0:0:0:
265,238,15388,5,2,0:0:0:0:
176,274,15628,1,0,0:0:0:0:
96,233,15868,1,2,0:0:0:0:
73,146,16108,1,2,0:0:0:0:
187,150,16348,5,2,0:0:0:0:
316,111,16588,1,2,0:0:0:0:
210,91,16828,2,0,P|204:49|213:18,1,60,0|0,0:0|0:0,0:0:0:0:
207,32,17308,5,2,0:0:0:0:
332,51,17548,2,0,L|395:42,2,40,2|0|0,0:0|0:0|0:0,0:0:0:0:
268,71,18028,6,0,P|256:109|274:154,1,80,2|2,0:0|0:0,0:0:0:0:
424,104,18748,5,2,0:0:0:0:
423,97,18868,1,0,0:0:0:0:
423,88,18988,1,2,0:0:0:0:
320,187,19228,5,2,0:0:0:0:
444,205,19468,2,0,L|507:196,2,40,2|0|0,0:0|0:0|0:0,0:0:0:0:
379,226,19948,6,0,P|367:264|385:309,1,80,2|2,0:0|0:0,0:0:0:0:
379,217,20668,6,0,P|382:180|375:143,1,60,0|0,0:0|0:0,0:0:0:0:
378,157,21148,5,2,0:0:0:0:
303,243,21388,2,0,L|301:307,2,40,2|0|0,0:0|0:0|0:0,0:0:0:0:
246,203,21868,5,2,0:0:0:0:
378,157,22108,1,2,0:0:0:0:
203,80,22588,5,2,0:0:0:0:
203,93,22708,1,0,0:0:0:0:
204,106,22828,1,2,0:0:0:0:
246,203,23068,5,2,0:0:0:0:
321,78,23308,2,0,P|286:45|255:40,1,80,2|0,0:0|0:0,0:0:0:0:
160,158,23788,1,2,0:0:0:0:
275,127,24028,1,2,0:0:0:0:
41,61,24508,6,0,L|40:125,1,60,0|0,0:0|0:0,0:0:0:0:
40,120,24988,5,2,0:0:0:0:
160,158,25228,2,0,L|160:215,2,40,2|0|0,0:0|0:0|0:0,0:0:0:0:
34,196,25708,2,0,L|34:255,1,40,2|0,0:0|0:0,0:0:0:0:
96,176,25948,1,2,0:0:0:0:
261,126,26428,5,2,0:0:0:0:
261,134,26548,1,0,0:0:0:0:
261,142,26668,1,2,0:0:0:0:
161,97,26908,5,2,0:0:0:0:
264,51,27148,2,0,P|280:90|262:131,1,80,2|0,0:0|0:0,0:0:0:0:
239,207,27628,2,0,L|230:264,2,40,2|0|2,0:0|0:0|0:0,0:0:0:0:
413,92,28348,6,0,L|399:163,1,60,0|0,0:0|0:0,0:0:0:0:
401,150,28828,5,2,0:0:0:0:
342,290,29068,2,0,P|330:245|343:211,1,80,2|0,0:0|0:0,0:0:0:0:
462,246,29548,5,2,0:0:0:0:
342,290,29788,1,2,0:0:0:0:
309,127,30268,5,2,0:0:0:0:
310,140,30388,1,0,0:0:0:0:
311,151,30508,1,2,0:0:0:0:
251,234,30748,5,2,0:0:0:0:
135,188,30988,2,0,P|121:138|138:97,1,80,2|2,0:0|0:0,0:0:0:0:
264,66,31468,1,2,0:0:0:0:
197,135,31708,1,2,0:0:0:0:
162,40,31948,1,2,0:0:0:0:
278,90,32188,2,0,L|366:79,1,80,2|2,0:0|0:0,0:0:0:0:
460,30,32668,5,2,0:0:0:0:
433,292,33748,5,2,0:0:0:0:
432,272,33868,1,0,0:0:0:0:
421,256,33988,1,2,0:0:0:0:
402,250,34108,1,0,0:0:0:0:
384,256,34228,1,2,0:0:0:0:
372,272,34348,1,0,0:0:0:0:
372,291,34468,1,0,0:0:0:0:
433,292,34588,6,0,P|416:253|375:298,1,120,8|0,0:0|0:0,0:0:0:0:
279,249,35068,2,0,L|276:315,1,54.0000002059937,4|0,0:0|0:0,0:0:0:0:
261,273,35308,2,0,L|266:334,1,54.0000002059937,0|0,0:0|0:0,0:0:0:0:
245,246,35548,1,8,0:0:0:0:
170,331,35788,5,0,0:0:0:0:
149,323,35908,1,0,0:0:0:0:
134,309,36028,1,4,0:0:0:0:
125,289,36148,1,0,0:0:0:0:
126,268,36268,1,0,0:0:0:0:
135,248,36388,1,0,0:0:0:0:
170,331,36508,6,0,P|125:279|149:237,1,108.000000411987,8|0,0:0|0:0,0:0:0:0:
210,183,36988,2,0,L|126:173,1,54.0000002059937,4|0,0:0|0:0,0:0:0:0:
87,169,37228,2,0,L|157:158,1,54.0000002059937,0|0,0:0|0:0,0:0:0:0:
251,108,37468,5,8,0:0:0:0:
256,125,37588,1,0,0:0:0:0:
261,142,37708,1,0,0:0:0:0:
266,159,37828,1,0,0:0:0:0:
251,108,37948,6,0,L|271:176,1,54.0000002059937,4|0,0:0|0:0,0:0:0:0:
283,117,38188,2,0,L|280:41,1,54.0000002059937,0|0,0:0|0:0,0:0:0:0:
318,38,38428,5,8,0:0:0:0:
352,27,38548,1,0,0:0:0:0:
388,30,38668,1,0,0:0:0:0:
420,43,38788,1,0,0:0:0:0:
318,38,38908,6,0,P|387:30|451:72,1,108.000000411987,4|0,0:0|0:0,0:0:0:0:
452,95,39268,1,0,0:0:0:0:
452,95,39388,2,0,P|456:128|441:173,2,54.0000002059937,8|0|0,0:0|0:0|0:0,0:0:0:0:
448,216,39868,6,0,P|417:202|385:167,2,54.0000002059937,4|0|0,0:0|0:0|0:0,0:0:0:0:
392,123,40348,5,8,0:0:0:0:
360,139,40468,1,0,0:0:0:0:
339,168,40588,1,0,0:0:0:0:
334,203,40708,1,0,0:0:0:0:
392,123,40828,6,0,P|367:134|343:231,1,108.000000411987,4|0,0:0|0:0,0:0:0:0:
349,263,41188,1,0,0:0:0:0:
283,286,41308,2,0,L|269:350,2,54.0000002059937,8|0|0,0:0|0:0|0:0,0:0:0:0:
375,325,41668,1,0,0:0:0:0:
441,302,41788,2,0,L|455:238,2,54.0000002059937,4|0|0,0:0|0:0|0:0,0:0:0:0:
349,263,42148,1,0,0:0:0:0:
283,286,42268,6,0,P|221:303|178:291,1,108.000000411987,8|0,0:0|0:0,0:0:0:0:
57,215,42748,5,4,0:0:0:0:
49,198,42868,1,0,0:0:0:0:
45,181,42988,1,0,0:0:0:0:
45,163,43108,1,0,0:0:0:0:
153,119,43228,1,8,0:0:0:0:
171,149,43348,1,0,0:0:0:0:
174,185,43468,1,0,0:0:0:0:
163,219,43588,1,0,0:0:0:0:
57,215,43708,6,0,P|48:151|61:125,1,54.0000002059937,4|0,0:0|0:0,0:0:0:0:
153,119,43948,2,0,P|174:184|140:243,1,108.000000411987,0|8,0:0|0:0,0:0:0:0:
74,55,44668,5,4,0:0:0:0:
109,51,44788,1,0,0:0:0:0:
145,47,44908,1,0,0:0:0:0:
181,43,45028,1,0,0:0:0:0:
74,55,45148,6,0,L|201:41,1,108.000000411987,8|0,0:0|0:0,0:0:0:0:
254,69,45508,1,0,0:0:0:0:
254,69,45628,2,0,L|246:143,2,54.0000002059937,4|0|0,0:0|0:0|0:0,0:0:0:0:
347,31,46108,5,8,0:0:0:0:
354,47,46228,1,0,0:0:0:0:
359,64,46348,1,0,0:0:0:0:
361,82,46468,1,0,0:0:0:0:
383,152,46588,1,4,0:0:0:0:
372,137,46708,1,0,0:0:0:0:
364,121,46828,1,0,0:0:0:0:
360,103,46948,1,0,0:0:0:0:
347,31,47068,6,0,P|359:104|352:125,1,54.0000002059937,8|0,0:0|0:0,0:0:0:0:
383,152,47308,2,0,P|360:91|362:73,1,54.0000002059937,0|0,0:0|0:0,0:0:0:0:
400,169,47548,6,0,P|409:199|400:248,1,60.0000022888184,4|0,0:0|0:0,0:0:0:0:
400,169,47788,5,0,0:0:0:0:
406,187,47908,1,0,0:0:0:0:
409,207,48028,1,8,0:0:0:0:
407,227,48148,1,0,0:0:0:0:
404,258,48268,2,0,P|436:317|480:323,1,60.0000022888184,0|0,0:0|0:0,0:0:0:0:
427,311,48508,5,4,0:0:0:0:
412,298,48628,1,0,0:0:0:0:
394,291,48748,1,0,0:0:0:0:
374,290,48868,1,0,0:0:0:0:
341,264,48988,5,8,0:0:0:0:
338,241,49108,1,0,0:0:0:0:
321,227,49228,1,0,0:0:0:0:
299,228,49348,1,0,0:0:0:0:
284,244,49468,1,4,0:0:0:0:
285,267,49588,1,0,0:0:0:0:
301,282,49708,1,0,0:0:0:0:
323,282,49828,1,0,0:0:0:0:
341,264,49948,6,0,P|304:284|334:276,1,160,8|0,0:0|0:0,0:0:0:0:
257,165,50428,5,4,0:0:0:0:
239,168,50548,1,0,0:0:0:0:
221,171,50668,1,0,0:0:0:0:
203,175,50788,1,0,0:0:0:0:
257,165,50908,6,0,L|178:180,1,54.0000002059937,8|0,0:0|0:0,0:0:0:0:
145,213,51148,5,0,0:0:0:0:
142,234,51268,1,0,0:0:0:0:
140,255,51388,1,4,0:0:0:0:
138,277,51508,1,0,0:0:0:0:
135,298,51628,1,0,0:0:0:0:
133,320,51748,1,0,0:0:0:0:
106,243,51868,6,0,B|145:210|145:210|131:337,1,162.000000617981,8|0,0:0|0:0,0:0:0:0:
56,349,52348,5,4,0:0:0:0:
56,349,52468,1,0,0:0:0:0:
48,295,52588,5,0,0:0:0:0:
48,295,52708,1,0,0:0:0:0:
56,349,52828,6,0,L|46:275,3,54.0000002059937,8|0|0|0,0:0|0:0|0:0|0:0,0:0:0:0:
39,191,53308,5,4,0:0:0:0:
66,168,53428,1,0,0:0:0:0:
100,155,53548,1,0,0:0:0:0:
136,154,53668,1,0,0:0:0:0:
39,191,53788,6,0,P|100:156|156:159,1,108.000000411987,8|0,0:0|0:0,0:0:0:0:
228,174,54148,1,0,0:0:0:0:
228,174,54268,2,0,P|232:207|217:252,2,54.0000002059937,4|0|0,0:0|0:0|0:0,0:0:0:0:
155,86,54628,1,0,0:0:0:0:
155,86,54748,6,0,P|124:72|92:37,2,54.0000002059937,8|0|0,0:0|0:0|0:0,0:0:0:0:
222,111,55228,5,4,0:0:0:0:
227,76,55348,1,0,0:0:0:0:
248,47,55468,1,0,0:0:0:0:
280,31,55588,1,0,0:0:0:0:
222,111,55708,6,0,P|236:60|280:31,1,108.000000411987,8|0,0:0|0:0,0:0:0:0:
355,63,56068,1,0,0:0:0:0:
400,121,56188,2,0,L|386:185,2,54.0000002059937,4|0|0,0:0|0:0|0:0,0:0:0:0:
332,130,56548,1,0,0:0:0:0:
434,58,56668,2,0,P|470:116|463:171,1,108.000000411987,8|0,0:0|0:0,0:0:0:0:
448,219,57028,1,0,0:0:0:0:
389,254,57148,6,0,P|331:269|284:259,1,108.000000411987,4|0,0:0|0:0,0:0:0:0:
244,197,57508,1,0,0:0:0:0:
317,168,57628,2,0,P|349:191|315:172,1,108.000000411987,8|0,0:0|0:0,0:0:0:0:
176,148,58108,6,0,P|165:220|180:276,1,108.000000411987,4|0,0:0|0:0,0:0:0:0:
259,118,58588,2,0,P|224:70|196:62,2,54.0000002059937,8|0|0,0:0|0:0|0:0,0:0:0:0:
65,74,59068,5,4,0:0:0:0:
87,46,59188,1,0,0:0:0:0:
120,32,59308,1,0,0:0:0:0:
156,35,59428,1,0,0:0:0:0:
65,74,59548,6,0,P|114:34|191:58,1,108.000000411987,8|0,0:0|0:0,0:0:0:0:
129,250,60028,5,4,0:0:0:0:
93,243,60148,1,0,0:0:0:0:
65,222,60268,1,0,0:0:0:0:
49,190,60388,1,0,0:0:0:0:
129,250,60508,6,0,P|69:227|52:148,1,108.000000411987,8|0,0:0|0:0,0:0:0:0:
134,130,60988,6,0,L|213:115,1,54.0000002059937,4|0,0:0|0:0,0:0:0:0:
304,158,61228,2,0,L|211:177,1,54.0000002059937,0|0,0:0|0:0,0:0:0:0:
257,73,61468,5,8,0:0:0:0:
274,69,61588,1,0,0:0:0:0:
292,66,61708,1,0,0:0:0:0:
310,62,61828,1,0,0:0:0:0:
427,101,61948,1,4,0:0:0:0:
409,104,62068,1,0,0:0:0:0:
391,108,62188,1,0,0:0:0:0:
374,111,62308,1,0,0:0:0:0:
257,73,62428,6,0,L|336:58,1,54.0000002059937,8|0,0:0|0:0,0:0:0:0:
427,101,62668,2,0,L|334:120,1,54.0000002059937,0|0,0:0|0:0,0:0:0:0:
393,19,62908,6,0,L|472:4,1,54.0000002059937,4|0,0:0|0:0,0:0:0:0:
448,183,63148,1,0,0:0:0:0:
428,186,63268,1,0,0:0:0:0:
408,190,63388,1,8,0:0:0:0:
389,194,63508,1,0,0:0:0:0:
370,197,63628,6,0,L|429:186,1,60.0000022888184,0|0,0:0|0:0,0:0:0:0:
329,164,63868,1,4,0:0:0:0:
309,167,63988,1,0,0:0:0:0:
289,171,64108,1,0,0:0:0:0:
270,175,64228,1,0,0:0:0:0:
249,178,64348,6,0,L|308:167,1,60.0000022888184,8|0,0:0|0:0,0:0:0:0:
171,199,64588,1,0,0:0:0:0:
160,229,64708,1,0,0:0:0:0:
157,260,64828,1,4,0:0:0:0:
161,292,64948,1,0,0:0:0:0:
173,322,65068,1,0,0:0:0:0:
191,348,65188,1,0,0:0:0:0:
171,198,65308,6,0,P|158:276|191:348,1,160,4|0,0:0|0:0,0:0:0:0:
344,176,66028,2,0,P|312:144|272:136,1,80,0|0,0:0|0:0,0:0:0:0:
288,320,66508,1,0,0:0:0:0:
311,320,66628,1,0,0:0:0:0:
334,313,66748,1,0,0:0:0:0:
355,301,66868,1,0,0:0:0:0:
371,283,66988,1,0,0:0:0:0:
382,262,67108,1,0,0:0:0:0:
392,240,67228,5,0,0:0:0:0:
184,96,67588,2,0,L|128:120,2,40,0|0|0,0:0|0:0|0:0,0:0:0:0:
296,56,68068,1,0,0:0:0:0:
128,280,68428,1,0,0:0:0:0:
105,270,68548,1,0,0:0:0:0:
86,256,68668,1,0,0:0:0:0:
71,237,68788,1,0,0:0:0:0:
61,216,68908,1,0,0:0:0:0:
56,192,69028,1,0,0:0:0:0:
56,168,69148,5,0,0:0:0:0:
224,104,69388,2,0,L|197:147,1,40,0|0,0:0|0:0,0:0:0:0:
68,68,69748,1,0,0:0:0:0:
215,175,69988,1,0,0:0:0:0:
84,104,70228,2,0,L|57:147,1,40,0|0,0:0|0:0,0:0:0:0:
384,96,70828,6,0,L|357:139,1,40,0|0,0:0|0:0,0:0:0:0:
363,129,71068,1,0,0:0:0:0:
224,104,71308,2,0,L|197:147,1,40,0|0,0:0|0:0,0:0:0:0:
68,68,71668,1,0,0:0:0:0:
215,175,71908,1,0,0:0:0:0:
368,56,72148,1,0,0:0:0:0:
68,68,72388,1,0,0:0:0:0:
215,175,72628,1,0,0:0:0:0:
368,56,72868,6,0,B|336:48|336:48|304:56,1,60,0|0,0:0|0:0,0:0:0:0:
368,56,74548,5,0,0:0:0:0:
348,51,74668,1,0,0:0:0:0:
329,49,74788,1,0,0:0:0:0:
309,54,74908,1,0,0:0:0:0:
144,328,75508,5,0,0:0:0:0:
163,332,75628,1,0,0:0:0:0:
182,334,75748,1,0,0:0:0:0:
202,329,75868,1,0,0:0:0:0:
240,160,76468,5,0,0:0:0:0:
253,182,76588,1,0,0:0:0:0:
267,205,76708,1,0,0:0:0:0:
281,228,76828,1,0,0:0:0:0:
256,192,77428,12,0,78268,0:0:0:0:
384,112,78748,6,0,L|376:200,1,53.3333333333333,0|0,0:0|0:0,0:0:0:0:
379,165,79068,1,0,0:0:0:0:
320,152,79228,6,0,L|312:240,1,53.3333333333333,0|0,0:0|0:0,0:0:0:0:
315,205,79548,1,0,0:0:0:0:
256,184,79708,6,0,L|248:272,1,53.3333333333333,0|0,0:0|0:0,0:0:0:0:
252,238,80028,1,0,0:0:0:0:
192,224,80188,6,0,L|184:312,1,53.3333333333333,0|0,0:0|0:0,0:0:0:0:
187,277,80508,1,0,0:0:0:0:
128,264,80668,5,6,0:0:0:0:
126,281,80788,1,2,0:0:0:0:
124,299,80908,1,2,0:0:0:0:
123,317,81028,1,2,0:0:0:0:
128,264,81148,6,0,L|120:352,2,53.3333333333333,8|0|2,0:0|0:0|0:0,0:0:0:0:
56,204,81628,1,4,0:0:0:0:
120,140,81868,2,0,P|152:132|188:160,1,54.0000002059937,2|0,0:0|0:0,0:0:0:0:
304,216,82108,2,0,P|248:232|184:184,1,108.000000411987,8|0,0:0|0:0,0:0:0:0:
264,88,82588,5,6,0:0:0:0:
261,105,82708,1,2,0:0:0:0:
259,123,82828,1,2,0:0:0:0:
257,141,82948,1,2,0:0:0:0:
264,88,83068,6,0,L|252:188,2,54.0000002059937,8|0|0,0:0|0:0|0:0,0:0:0:0:
320,36,83428,1,0,0:0:0:0:
320,36,83548,2,0,P|352:28|396:44,1,54.0000002059937,4|0,0:0|0:0,0:0:0:0:
444,36,83788,2,0,P|434:67|399:97,1,54.0000002059937,2|0,0:0|0:0,0:0:0:0:
384,140,84028,2,0,P|361:116|352:70,1,54.0000002059937,8|0,0:0|0:0,0:0:0:0:
372,32,84268,1,0,0:0:0:0:
462,132,84508,5,6,0:0:0:0:
474,119,84628,1,2,0:0:0:0:
484,104,84748,1,2,0:0:0:0:
492,88,84868,1,2,0:0:0:0:
462,132,84988,6,0,P|479:111|492:88,2,54.0000002059937,8|0|0,0:0|0:0|0:0,0:0:0:0:
388,208,85468,1,4,0:0:0:0:
448,288,85708,2,0,P|508:308|532:292,1,54.0000002059937,2|2,0:0|0:0,0:0:0:0:
388,208,85948,2,0,P|316:184|260:204,1,108.000000411987,8|0,0:0|0:0,0:0:0:0:
244,308,86428,5,6,0:0:0:0:
261,313,86548,1,2,0:0:0:0:
279,314,86668,1,2,0:0:0:0:
296,309,86788,1,2,0:0:0:0:
244,308,86908,6,0,P|308:304|328:284,2,54.0000002059937,8|0|0,0:0|0:0|0:0,0:0:0:0:
172,348,87388,2,0,P|140:344|80:376,1,54.0000002059937,4|0,0:0|0:0,0:0:0:0:
72,288,87628,1,2,0:0:0:0:
72,288,87748,1,2,0:0:0:0:
72,288,87868,2,0,L|64:216,1,54.0000002059937,8|0,0:0|0:0,0:0:0:0:
66,234,88108,1,0,0:0:0:0:
172,160,88348,5,6,0:0:0:0:
170,177,88468,1,2,0:0:0:0:
169,195,88588,1,2,0:0:0:0:
168,213,88708,1,2,0:0:0:0:
172,160,88828,6,0,L|168:224,2,54.0000002059937,8|0|0,0:0|0:0|0:0,0:0:0:0:
228,96,89308,1,4,0:0:0:0:
280,148,89548,2,0,L|276:212,1,54.0000002059937,2|2,0:0|0:0,0:0:0:0:
332,80,89788,2,0,P|380:60|444:84,1,108.000000411987,8|0,0:0|0:0,0:0:0:0:
384,128,90268,5,6,0:0:0:0:
382,145,90388,1,2,0:0:0:0:
381,163,90508,1,2,0:0:0:0:
380,181,90628,1,2,0:0:0:0:
384,128,90748,6,0,L|380:192,2,54.0000002059937,8|0|0,0:0|0:0|0:0,0:0:0:0:
496,116,91228,2,0,L|492:180,1,54.0000002059937,4|0,0:0|0:0,0:0:0:0:
492,169,91468,1,2,0:0:0:0:
492,169,91588,1,2,0:0:0:0:
436,236,91708,6,0,P|372:260|324:240,1,108.000000411987,8|0,0:0|0:0,0:0:0:0:
244,128,92188,5,6,0:0:0:0:
226,124,92308,1,2,0:0:0:0:
208,120,92428,1,2,0:0:0:0:
191,117,92548,1,2,0:0:0:0:
244,128,92668,6,0,L|144:108,2,54.0000002059937,8|0|0,0:0|0:0|0:0,0:0:0:0:
264,216,93148,2,0,L|324:232,1,54.0000002059937,4|0,0:0|0:0,0:0:0:0:
336,248,93388,1,2,0:0:0:0:
356,257,93508,1,0,0:0:0:0:
377,260,93628,1,8,0:0:0:0:
399,257,93748,1,0,0:0:0:0:
418,249,93868,1,0,0:0:0:0:
436,235,93988,1,0,0:0:0:0:
448,208,94108,5,6,0:0:0:0:
450,172,94228,1,2,0:0:0:0:
453,136,94348,1,2,0:0:0:0:
455,100,94468,1,2,0:0:0:0:
455,100,94588,6,0,L|448:212,1,108.000000411987,8|0,0:0|0:0,0:0:0:0:
256,192,95068,12,6,96028,0:0:0:0:
72,136,103708,6,0,L|140:128,3,40,2|2|2|2,0:0|0:0|0:0|0:0,0:0:0:0:
184,124,104428,1,0,0:0:0:0:
184,124,104548,1,4,0:0:0:0:
256,116,104788,1,4,0:0:0:0:
256,116,104908,1,4,0:0:0:0:
332,108,105148,1,4,0:0:0:0:
332,108,105388,2,0,L|396:100,1,40,4|0,0:0|0:0,0:0:0:0:
371,103,105628,5,2,0:0:0:0:
371,103,105748,1,2,0:0:0:0:
371,103,105868,1,2,0:0:0:0:
371,103,105988,1,2,0:0:0:0:
353,251,106348,1,4,0:0:0:0:
353,251,106468,1,4,0:0:0:0:
329,179,106708,1,4,0:0:0:0:
329,179,106828,1,4,0:0:0:0:
329,179,107068,2,0,P|398:179|417:199,1,80,4|0,0:0|0:0,0:0:0:0:
427,277,107548,6,0,L|414:321,3,40,4|0|4|0,0:0|0:0|0:0|0:0,0:0:0:0:
427,277,108028,1,4,0:0:0:0:
333,350,108268,1,0,0:0:0:0:
333,350,108388,1,4,0:0:0:0:
275,252,108628,1,4,0:0:0:0:
275,252,108748,1,4,0:0:0:0:
170,320,108988,1,4,0:0:0:0:
170,320,109228,2,0,L|124:297,1,40,4|0,0:0|0:0,0:0:0:0:
56,260,109468,6,0,L|36:150,1,80,4|4,0:0|0:0,0:0:0:0:
118,127,109948,6,0,L|137:236,1,80,4|4,0:0|0:0,0:0:0:0:
56,260,110428,5,4,0:0:0:0:
51,233,110548,1,4,0:0:0:0:
46,207,110668,1,4,0:0:0:0:
42,181,110788,1,4,0:0:0:0:
118,127,110908,5,4,0:0:0:0:
122,153,111028,1,4,0:0:0:0:
127,179,111148,1,4,0:0:0:0:
131,205,111268,1,4,0:0:0:0:
42,181,111388,5,6,0:0:0:0:
42,181,111868,6,0,L|77:182,1,20,2|0,0:0|0:0,0:0:0:0:
42,181,112108,6,0,L|58:211,1,20,2|0,0:0|0:0,0:0:0:0:
42,181,112348,6,0,L|23:210,1,20,2|0,0:0|0:0,0:0:0:0:
42,181,112588,6,0,L|7:180,1,20,2|0,0:0|0:0,0:0:0:0:
42,181,112828,6,0,L|25:150,1,20,2|0,0:0|0:0,0:0:0:0:
42,181,113068,6,0,L|60:151,1,20,2|0,0:0|0:0,0:0:0:0:
198,73,113308,5,2,0:0:0:0:
217,73,113788,6,0,L|197:72,1,20,2|0,0:0|0:0,0:0:0:0:
207,55,114028,6,0,L|196:72,1,20,2|0,0:0|0:0,0:0:0:0:
187,54,114268,6,0,L|196:71,1,20,2|0,0:0|0:0,0:0:0:0:
177,71,114508,6,0,L|196:71,1,20,2|0,0:0|0:0,0:0:0:0:
186,89,114748,6,0,L|196:71,1,20,2|0,0:0|0:0,0:0:0:0:
206,90,114988,6,0,L|196:72,1,20,2|0,0:0|0:0,0:0:0:0:
311,228,115228,5,2,0:0:0:0:
311,228,115708,6,0,L|294:199,1,20,2|0,0:0|0:0,0:0:0:0:
301,210,115948,6,0,L|317:181,1,20,2|0,0:0|0:0,0:0:0:0:
333,193,116188,6,0,B|341:209|341:209|330:229,1,40,2|2,0:0|0:0,0:0:0:0:
207,209,116668,5,2,0:0:0:0:
346,330,116908,5,2,0:0:0:0:
384,103,117148,6,0,B|384:62|384:62|417:43|417:43|453:61|453:61|453:101|453:101|423:126|423:126|383:104|383:104,1,240,2|2,0:0|0:0,0:0:0:0:
303,199,118828,5,2,0:0:0:0:
387,318,119068,2,0,B|347:296|347:296|347:246|347:246|395:230|395:230|396:183|396:183|344:154,1,240,6|0,0:0|0:0,0:0:0:0:
209,199,120748,5,0,0:0:0:0:
125,318,120988,2,0,B|165:296|165:296|165:246|165:246|127:227|127:227|122:192,1,160,6|0,0:0|0:0,0:0:0:0:
177,149,122188,1,0,0:0:0:0:
177,149,122428,1,0,0:0:0:0:
177,149,122668,1,0,0:0:0:0:
177,149,122908,6,0,B|162:113|162:113|176:69,3,80,6|0|0|0,0:0|0:0|0:0|0:0,0:0:0:0:
335,149,124588,1,0,0:0:0:0:
335,149,124828,6,0,B|350:113|350:113|336:69,2,80,6|0|0,0:0|0:0|0:0,0:0:0:0:
254,223,126028,1,0,0:0:0:0:
254,223,126268,1,0,0:0:0:0:
254,223,126508,1,0,0:0:0:0:
254,223,126748,5,2,0:0:0:0:
87,59,128188,2,0,P|87:112|110:152,1,80,2|0,0:0|0:0,0:0:0:0:
250,134,128668,2,0,P|204:107|157:107,1,80,2|0,0:0|0:0,0:0:0:0:
101,238,129148,1,2,0:0:0:0:
101,238,129388,2,0,P|146:211|170:171,1,80,0|2,0:0|0:0,0:0:0:0:
29,238,130108,6,0,P|49:287|92:314,1,80,2|0,0:0|0:0,0:0:0:0:
135,333,130588,1,2,0:0:0:0:
294,204,131068,2,0,P|326:162|328:111,1,80,2|0,0:0|0:0,0:0:0:0:
322,69,131548,1,2,0:0:0:0:
377,343,132028,6,0,P|324:335|279:359,1,80,2|0,0:0|0:0,0:0:0:0:
434,271,132508,2,0,P|454:320|497:347,1,80,2|0,0:0|0:0,0:0:0:0:
344,259,132988,1,2,0:0:0:0:
344,259,133228,2,0,P|376:217|378:166,1,80,0|2,0:0|0:0,0:0:0:0:
75,98,133948,5,2,0:0:0:0:
132,65,134188,1,0,0:0:0:0:
193,85,134428,1,2,0:0:0:0:
437,98,134908,1,2,0:0:0:0:
380,65,135148,1,0,0:0:0:0:
319,85,135388,1,2,0:0:0:0:
255,190,135868,6,0,B|254:233|254:233|285:273,1,80,2|0,0:0|0:0,0:0:0:0:
356,297,136348,1,2,0:0:0:0:
421,251,136588,1,0,0:0:0:0:
348,213,136828,1,2,0:0:0:0:
295,353,137068,1,0,0:0:0:0:
439,330,137308,1,2,0:0:0:0:
76,312,137788,6,0,L|56:234,1,80,2|0,0:0|0:0,0:0:0:0:
146,199,138268,1,2,0:0:0:0:
146,199,138748,5,2,0:0:0:0:
188,112,138988,1,0,0:0:0:0:
240,212,139228,2,0,P|228:252|172:273,1,80,2|0,0:0|0:0,0:0:0:0:
58,235,139708,6,0,L|35:133,1,80,2|0,0:0|0:0,0:0:0:0:
108,72,140188,5,2,0:0:0:0:
264,148,140428,1,0,0:0:0:0:
188,112,140668,1,2,0:0:0:0:
380,52,140908,1,0,0:0:0:0:
288,80,141148,5,2,0:0:0:0:
240,212,141388,1,2,0:0:0:0:
188,112,141628,5,2,0:0:0:0:
400,220,141868,1,2,0:0:0:0:
204,336,142108,6,0,P|144:344|100:280,1,108.000000411987,4|0,0:0|0:0,0:0:0:0:
204,336,142588,5,8,0:0:0:0:
170,347,142708,1,0,0:0:0:0:
135,340,142828,1,0,0:0:0:0:
109,315,142948,1,0,0:0:0:0:
52,248,143068,6,0,L|112:216,1,54.0000002059937,4|0,0:0|0:0,0:0:0:0:
224,244,143308,2,0,L|160:276,1,54.0000002059937,0|0,0:0|0:0,0:0:0:0:
64,224,143548,6,0,L|124:192,1,54.0000002059937,10|0,0:0|0:0,0:0:0:0:
236,220,143788,2,0,L|172:252,1,54.0000002059937,2|0,0:0|0:0,0:0:0:0:
92,112,144028,6,0,P|156:104|188:132,1,108.000000411987,4|0,0:0|0:0,0:0:0:0:
92,112,144508,5,8,0:0:0:0:
125,99,144628,1,2,0:0:0:0:
160,106,144748,1,0,0:0:0:0:
186,129,144868,1,0,0:0:0:0:
152,141,144988,5,4,0:0:0:0:
117,134,145108,1,0,0:0:0:0:
91,111,145228,1,0,0:0:0:0:
192,40,145468,6,0,L|264:36,1,54.0000002059937,10|0,0:0|0:0,0:0:0:0:
307,91,145708,2,0,L|360:88,1,54.0000002059937,2|0,0:0|0:0,0:0:0:0:
424,36,145948,6,0,P|472:108|448:144,1,108.000000411987,6|2,0:0|0:0,0:0:0:0:
416,212,146308,1,0,0:0:0:0:
416,212,146428,2,0,L|392:144,1,54.0000002059937,10|2,0:0|0:0,0:0:0:0:
332,236,146788,1,0,0:0:0:0:
332,236,146908,6,0,P|336:292|300:328,1,108.000000411987,6|2,0:0|0:0,0:0:0:0:
424,356,147268,1,0,0:0:0:0:
424,356,147388,2,0,L|400:288,1,54.0000002059937,10|2,0:0|0:0,0:0:0:0:
192,268,147748,1,0,0:0:0:0:
208,241,147868,6,0,L|247:180,1,54.0000002059937,6|0,0:0|0:0,0:0:0:0:
250,222,148108,2,0,L|282:286,1,54.0000002059937,2|0,0:0|0:0,0:0:0:0:
247,272,148348,2,0,L|177:270,1,54.0000002059937,10|2,0:0|0:0,0:0:0:0:
207,243,148588,1,0,0:0:0:0:
223,218,148708,5,0,0:0:0:0:
238,196,148828,1,4,0:0:0:0:
250,222,148948,5,4,0:0:0:0:
262,247,149068,1,4,0:0:0:0:
274,271,149188,5,0,0:0:0:0:
247,272,149308,1,12,0:0:0:0:
220,272,149428,5,4,0:0:0:0:
193,271,149548,1,4,0:0:0:0:
157,330,149668,5,0,0:0:0:0:
157,330,149788,6,0,P|121:291|127:238,1,108.000000411987,6|2,0:0|0:0,0:0:0:0:
157,330,150268,5,10,0:0:0:0:
129,307,150388,1,2,0:0:0:0:
118,273,150508,1,0,0:0:0:0:
127,238,150628,1,0,0:0:0:0:
180,173,150748,6,0,L|240:141,1,54.0000002059937,6|0,0:0|0:0,0:0:0:0:
303,193,150988,2,0,L|352:169,1,54.0000002059937,0|0,0:0|0:0,0:0:0:0:
281,228,151228,6,0,L|341:196,1,54.0000002059937,10|0,0:0|0:0,0:0:0:0:
192,134,151468,2,0,L|240:109,1,54.0000002059937,2|0,0:0|0:0,0:0:0:0:
389,86,151708,6,0,P|440:128|434:189,1,108.000000411987,6|2,0:0|0:0,0:0:0:0:
389,86,152188,5,10,0:0:0:0:
421,101,152308,1,2,0:0:0:0:
440,130,152428,1,0,0:0:0:0:
443,166,152548,1,2,0:0:0:0:
424,202,152668,2,0,P|420:243|443:206,1,108.000000411987,4|0,0:0|0:0,0:0:0:0:
424,202,153028,1,0,0:0:0:0:
407,221,153148,1,10,0:0:0:0:
420,242,153268,1,0,0:0:0:0:
445,237,153388,1,2,0:0:0:0:
448,212,153508,1,0,0:0:0:0:
424,202,153628,6,0,P|376:188|316:211,1,108.000000411987,6|2,0:0|0:0,0:0:0:0:
273,314,154108,1,10,0:0:0:0:
273,314,154228,2,0,B|303:303|303:303|317:269,1,54.0000002059937,2|0,0:0|0:0,0:0:0:0:
322,205,154588,6,0,P|303:146|223:129,1,108.000000411987,6|2,0:0|0:0,0:0:0:0:
394,306,155068,1,10,0:0:0:0:
394,306,155188,2,0,B|398:274|398:274|374:246,1,54.0000002059937,2|0,0:0|0:0,0:0:0:0:
224,235,155548,6,0,L|163:246,1,54.0000002059937,4|4,0:0|0:0,0:0:0:0:
144,250,155788,1,4,0:0:0:0:
144,250,156028,5,12,0:0:0:0:
170,245,156148,1,4,0:0:0:0:
196,240,156268,1,4,0:0:0:0:
223,235,156388,1,4,0:0:0:0:
250,230,156508,6,0,L|189:241,1,54.0000002059937,4|4,0:0|0:0,0:0:0:0:
170,245,156748,1,4,0:0:0:0:
170,245,156988,5,12,0:0:0:0:
196,240,157108,1,4,0:0:0:0:
222,235,157228,1,2,0:0:0:0:
249,230,157348,1,2,0:0:0:0:
280,224,157468,6,0,P|284:163|236:124,1,108.000000411987,6|0,0:0|0:0,0:0:0:0:
280,224,157948,5,10,0:0:0:0:
289,189,158068,1,2,0:0:0:0:
279,155,158188,1,0,0:0:0:0:
254,130,158308,1,2,0:0:0:0:
279,155,158428,5,4,0:0:0:0:
309,164,158548,1,0,0:0:0:0:
339,159,158668,1,0,0:0:0:0:
365,143,158788,1,0,0:0:0:0:
381,117,158908,1,10,0:0:0:0:
385,86,159028,1,0,0:0:0:0:
375,57,159148,1,2,0:0:0:0:
354,35,159268,1,0,0:0:0:0:
321,22,159388,6,0,L|211:36,1,108.000000411987,6|2,0:0|0:0,0:0:0:0:
321,22,159868,5,10,0:0:0:0:
285,26,159988,1,2,0:0:0:0:
249,31,160108,1,0,0:0:0:0:
213,35,160228,1,2,0:0:0:0:
119,143,160348,6,0,L|193:132,1,54.0000002059937,4|0,0:0|0:0,0:0:0:0:
293,91,160588,2,0,L|202:103,1,54.0000002059937,0|0,0:0|0:0,0:0:0:0:
112,156,160828,6,0,L|186:145,1,54.0000002059937,10|0,0:0|0:0,0:0:0:0:
286,104,161068,2,0,L|195:116,1,54.0000002059937,2|0,0:0|0:0,0:0:0:0:
47,201,161308,6,0,P|37:263|55:310,1,108.000000411987,6|2,0:0|0:0,0:0:0:0:
138,330,161668,1,2,0:0:0:0:
138,330,161788,2,0,L|227:332,1,54.0000002059937,8|2,0:0|0:0,0:0:0:0:
47,201,162148,1,6,0:0:0:0:
47,201,162268,6,0,P|37:263|55:310,1,108.000000411987,0|2,0:0|0:0,0:0:0:0:
123,360,162628,1,0,0:0:0:0:
123,360,162748,2,0,L|212:362,1,54.0000002059937,10|0,0:0|0:0,0:0:0:0:
156,296,162988,2,0,L|241:297,1,54.0000002059937,2|0,0:0|0:0,0:0:0:0:
47,201,163228,6,0,P|37:263|55:310,1,108.000000411987,6|0,0:0|0:0,0:0:0:0:
47,201,163708,5,10,0:0:0:0:
36,235,163828,1,0,0:0:0:0:
38,271,163948,1,0,0:0:0:0:
51,304,164068,1,0,0:0:0:0:
47,201,164188,6,0,P|37:263|55:310,1,108.000000411987,6|0,0:0|0:0,0:0:0:0:
47,201,164668,5,10,0:0:0:0:
36,235,164788,1,0,0:0:0:0:
38,271,164908,1,0,0:0:0:0:
51,304,165028,1,0,0:0:0:0:
127,170,165148,6,0,P|78:130|28:122,1,108.000000411987,6|0,0:0|0:0,0:0:0:0:
123,254,165508,1,0,0:0:0:0:
123,254,165628,2,0,P|181:231|201:206,1,54.0000002059937,8|0,0:0|0:0,0:0:0:0:
225,172,165868,5,2,0:0:0:0:
225,172,165988,2,0,L|230:111,1,54.0000002059937,2|4,0:0|0:0,0:0:0:0:
303,132,166228,1,2,0:0:0:0:
303,132,166348,2,0,L|308:71,1,54.0000002059937,2|0,0:0|0:0,0:0:0:0:
389,92,166588,1,10,0:0:0:0:
389,92,166708,2,0,L|384:145,1,54.0000002059937,2|0,0:0|0:0,0:0:0:0:
447,206,166948,1,2,0:0:0:0:
447,206,167068,6,0,P|434:281|383:295,1,108.000000411987,6|2,0:0|0:0,0:0:0:0:
269,238,167548,2,0,P|340:211|378:248,1,108.000000411987,10|0,0:0|0:0,0:0:0:0:
392,372,168028,1,0,0:0:0:0:
358,360,168148,1,2,0:0:0:0:
336,333,168268,1,2,0:0:0:0:
334,297,168388,1,2,0:0:0:0:
362,224,168508,6,0,L|390:159,1,54.0000002059937,10|0,0:0|0:0,0:0:0:0:
268,236,168748,2,0,L|243:289,1,54.0000002059937,2|0,0:0|0:0,0:0:0:0:
228,121,168988,6,0,P|169:108|120:127,1,108.000000411987,6|0,0:0|0:0,0:0:0:0:
228,121,169468,5,8,0:0:0:0:
194,108,169588,1,0,0:0:0:0:
158,109,169708,1,0,0:0:0:0:
125,123,169828,1,0,0:0:0:0:
0,253,169948,6,0,P|59:266|108:247,1,108.000000411987,6|0,0:0|0:0,0:0:0:0:
0,253,170428,5,10,0:0:0:0:
33,265,170548,1,0,0:0:0:0:
69,264,170668,1,0,0:0:0:0:
102,250,170788,1,0,0:0:0:0:
62,99,170908,6,0,P|59:159|67:189,1,54.0000002059937,6|4,0:0|0:0,0:0:0:0:
63,177,171148,1,4,0:0:0:0:
62,99,171388,5,12,0:0:0:0:
57,125,171508,1,4,0:0:0:0:
58,152,171628,1,4,0:0:0:0:
63,177,171748,1,4,0:0:0:0:
162,298,171868,6,0,P|165:238|157:208,1,54.0000002059937,4|4,0:0|0:0,0:0:0:0:
161,220,172108,1,0,0:0:0:0:
162,298,172348,5,8,0:0:0:0:
166,271,172468,1,4,0:0:0:0:
165,244,172588,1,2,0:0:0:0:
161,220,172708,1,2,0:0:0:0:
65,180,172828,6,0,P|56:117|71:76,1,108.000000411987,6|0,0:0|0:0,0:0:0:0:
240,220,173308,2,0,P|196:224|152:196,1,54.0000002059937,10|0,0:0|0:0,0:0:0:0:
144,136,173548,2,0,P|180:124|217:133,1,54.0000002059937,2|0,0:0|0:0,0:0:0:0:
320,264,173788,6,0,P|376:256|408:208,1,108.000000411987,6|0,0:0|0:0,0:0:0:0:
405,217,174148,5,0,0:0:0:0:
392,240,174268,1,10,0:0:0:0:
372,258,174388,1,0,0:0:0:0:
346,266,174508,1,2,0:0:0:0:
320,264,174628,1,0,0:0:0:0:
338,198,174748,6,0,P|313:188|296:168,1,54.0000002059937,6|0,0:0|0:0,0:0:0:0:
241,96,174988,2,0,P|262:80|288:72,1,54.0000002059937,2|0,0:0|0:0,0:0:0:0:
391,67,175228,2,0,P|392:94|384:120,1,54.0000002059937,10|0,0:0|0:0,0:0:0:0:
456,156,175468,1,0,0:0:0:0:
456,156,175588,6,0,P|484:96|480:32,1,108.000000411987,6|0,0:0|0:0,0:0:0:0:
485,55,175948,1,0,0:0:0:0:
256,64,176188,2,0,P|277:47|302:39,1,54.0000002059937,10|0,0:0|0:0,0:0:0:0:
272,152,176428,2,0,P|260:184|244:196,1,54.0000002059937,2|0,0:0|0:0,0:0:0:0:
76,120,176668,6,0,P|136:108|208:136,1,108.000000411987,6|0,0:0|0:0,0:0:0:0:
180,118,177028,5,0,0:0:0:0:
154,110,177148,1,10,0:0:0:0:
128,107,177268,1,0,0:0:0:0:
101,111,177388,1,2,0:0:0:0:
75,120,177508,1,6,0:0:0:0:
40,208,177628,2,0,L|52:284,2,54.0000002059937,0|0|0,0:0|0:0|0:0,0:0:0:0:
120,108,178108,2,0,B|108:72|108:72|112:28,1,54.0000002059937,8|0,0:0|0:0,0:0:0:0:
244,200,178348,2,0,B|256:164|256:164|256:120,1,54.0000002059937,0|0,0:0|0:0,0:0:0:0:
136,288,178588,6,0,P|220:312|252:280,1,108.000000411987,4|2,0:0|0:0,0:0:0:0:
356,276,179068,2,0,P|280:268|248:296,1,108.000000411987,10|2,0:0|0:0,0:0:0:0:
136,288,179548,5,4,0:0:0:0:
162,311,179668,1,0,0:0:0:0:
197,317,179788,1,0,0:0:0:0:
230,305,179908,1,0,0:0:0:0:
257,284,180028,1,10,0:0:0:0:
287,265,180148,1,0,0:0:0:0:
323,262,180268,1,2,0:0:0:0:
356,276,180388,1,0,0:0:0:0:
424,316,180508,6,0,B|421:295|421:295|453:231|453:231|453:215,1,108.000000411987,6|0,0:0|0:0,0:0:0:0:
412,88,180988,2,0,B|372:84|372:84|324:64,1,54.0000002059937,10|0,0:0|0:0,0:0:0:0:
288,176,181228,2,0,B|332:160|332:160|357:169,1,54.0000002059937,2|6,0:0|0:0,0:0:0:0:
176,116,181468,6,0,B|236:108|236:108|296:80,1,108.000000411987,0|0,0:0|0:0,0:0:0:0:
279,87,181828,5,0,0:0:0:0:
254,99,181948,1,10,0:0:0:0:
229,108,182068,1,0,0:0:0:0:
202,112,182188,1,2,0:0:0:0:
176,116,182308,1,0,0:0:0:0:
104,116,182428,6,0,P|79:105|61:85,1,54.0000002059937,6|0,0:0|0:0,0:0:0:0:
144,212,182668,2,0,P|165:195|190:187,1,54.0000002059937,2|0,0:0|0:0,0:0:0:0:
48,200,182908,2,0,P|48:226|40:252,1,54.0000002059937,10|0,0:0|0:0,0:0:0:0:
104,30,183148,1,2,0:0:0:0:
104,30,183268,6,0,P|168:45|230:27,1,108.000000411987,6|0,0:0|0:0,0:0:0:0:
209,37,183628,1,0,0:0:0:0:
312,180,183868,2,0,P|340:176|358:155,1,54.0000002059937,10|0,0:0|0:0,0:0:0:0:
296,64,184108,2,0,P|292:96|304:120,1,54.0000002059937,2|0,0:0|0:0,0:0:0:0:
384,240,184348,6,0,P|386:301|347:367,1,108.000000411987,6|0,0:0|0:0,0:0:0:0:
369,343,184708,5,0,0:0:0:0:
381,318,184828,1,10,0:0:0:0:
388,293,184948,1,0,0:0:0:0:
388,266,185068,1,2,0:0:0:0:
384,239,185188,1,6,0:0:0:0:
316,260,185308,2,0,B|288:272|288:272|236:264,2,54.0000002059937,0|0|0,0:0|0:0|0:0,0:0:0:0:
200,160,185788,2,0,B|224:178|224:178|243:227,2,54.0000002059937,10|0|2,0:0|0:0|0:0,0:0:0:0:
144,340,186268,6,0,B|164:332|164:332|176:280|176:280|200:256,1,108.000000411987,6|4,0:0|0:0,0:0:0:0:
92,176,186748,2,0,B|132:232|132:232|160:236,3,54.0000002059937,12|4|4|4,0:0|0:0|0:0|0:0,0:0:0:0:
144,340,187228,5,4,0:0:0:0:
167,317,187348,1,4,0:0:0:0:
175,282,187468,1,4,0:0:0:0:
199,256,187588,1,4,0:0:0:0:
169,244,187708,1,12,0:0:0:0:
136,232,187828,1,0,0:0:0:0:
112,205,187948,1,2,0:0:0:0:
91,176,188068,1,2,0:0:0:0:
64,112,188188,6,0,B|56:88|56:88|88:48|160:36,1,108.000000411987,4|0,0:0|0:0,0:0:0:0:
196,88,188668,2,0,P|264:80|288:88,1,54.0000002059937,8|0,0:0|0:0,0:0:0:0:
284,140,188908,2,0,P|344:148|360:160,1,54.0000002059937,2|6,0:0|0:0,0:0:0:0:
352,208,189148,6,0,P|420:268|420:312,1,108.000000411987,0|0,0:0|0:0,0:0:0:0:
422,279,189508,5,0,0:0:0:0:
414,254,189628,1,10,0:0:0:0:
399,232,189748,1,0,0:0:0:0:
377,216,189868,1,2,0:0:0:0:
351,207,189988,1,0,0:0:0:0:
352,292,190108,6,0,P|376:344|420:348,1,54.0000002059937,6|0,0:0|0:0,0:0:0:0:
272,224,190348,2,0,P|264:276|276:304,1,54.0000002059937,2|0,0:0|0:0,0:0:0:0:
204,144,190588,2,0,P|176:200|180:216,1,54.0000002059937,10|0,0:0|0:0,0:0:0:0:
140,72,190828,1,2,0:0:0:0:
140,72,190948,6,0,P|88:104|48:184,1,108.000000411987,6|0,0:0|0:0,0:0:0:0:
60,141,191308,1,2,0:0:0:0:
24,284,191548,2,0,P|32:308|92:340,1,54.0000002059937,10|0,0:0|0:0,0:0:0:0:
188,248,191788,2,0,B|160:236|136:244,1,54.0000002059937,2|0,0:0|0:0,0:0:0:0:
248,304,192028,6,0,P|336:312|396:288,1,108.000000411987,6|0,0:0|0:0,0:0:0:0:
354,307,192388,5,0,0:0:0:0:
327,313,192508,1,10,0:0:0:0:
300,314,192628,1,0,0:0:0:0:
273,311,192748,1,2,0:0:0:0:
247,303,192868,1,6,0:0:0:0:
260,200,192988,2,0,P|300:184|336:192,2,54.0000002059937,0|0|0,0:0|0:0|0:0,0:0:0:0:
380,136,193468,2,0,B|368:100|368:100|372:56,1,54.0000002059937,10|0,0:0|0:0,0:0:0:0:
232,76,193708,2,0,B|244:40|244:40|244:-4,1,54.0000002059937,2|0,0:0|0:0,0:0:0:0:
24,112,193948,6,0,P|108:136|140:104,1,108.000000411987,6|2,0:0|0:0,0:0:0:0:
196,176,194428,2,0,P|120:168|88:196,1,108.000000411987,10|2,0:0|0:0,0:0:0:0:
24,112,194908,5,0,0:0:0:0:
50,135,195028,1,4,0:0:0:0:
85,141,195148,1,4,0:0:0:0:
118,129,195268,1,0,0:0:0:0:
97,184,195388,1,14,0:0:0:0:
127,165,195508,1,0,0:0:0:0:
163,162,195628,1,6,0:0:0:0:
196,176,195748,1,4,0:0:0:0:
244,240,195868,6,0,P|320:288|368:264,1,108.000000411987,6|0,0:0|0:0,0:0:0:0:
464,264,196348,2,0,B|432:248|432:248|376:240,1,54.0000002059937,10|0,0:0|0:0,0:0:0:0:
320,364,196588,2,0,B|364:364|364:364|409:349,1,54.0000002059937,2|6,0:0|0:0,0:0:0:0:
396,132,196828,6,0,B|340:128|340:128|268:144,1,108.000000411987,0|0,0:0|0:0,0:0:0:0:
256,148,197188,5,0,0:0:0:0:
229,153,197308,1,10,0:0:0:0:
203,159,197428,1,0,0:0:0:0:
176,157,197548,1,2,0:0:0:0:
149,155,197668,1,0,0:0:0:0:
80,116,197788,6,0,P|55:105|37:85,1,54.0000002059937,6|0,0:0|0:0,0:0:0:0:
180,232,198028,2,0,P|180:258|172:284,1,54.0000002059937,2|0,0:0|0:0,0:0:0:0:
224,80,198268,2,0,P|245:63|270:55,1,54.0000002059937,10|0,0:0|0:0,0:0:0:0:
0,160,198508,1,2,0:0:0:0:
0,160,198628,6,0,P|44:196|116:208,1,108.000000411987,6|0,0:0|0:0,0:0:0:0:
92,208,198988,1,2,0:0:0:0:
276,328,199228,2,0,P|304:324|322:303,1,54.0000002059937,10|0,0:0|0:0,0:0:0:0:
144,56,199468,2,0,P|140:88|152:112,1,54.0000002059937,2|0,0:0|0:0,0:0:0:0:
268,148,199708,6,0,P|270:209|231:275,1,108.000000411987,6|0,0:0|0:0,0:0:0:0:
432,92,200188,2,0,P|380:64|332:68,1,108.000000411987,10|2,0:0|0:0,0:0:0:0:
268,148,200548,1,0,0:0:0:0:
268,148,200668,6,0,P|270:209|231:275,1,108.000000411987,6|0,0:0|0:0,0:0:0:0:
120,312,201148,2,0,P|108:280|116:240,1,54.0000002059937,10|0,0:0|0:0,0:0:0:0:
348,200,201388,2,0,P|332:248|308:268,1,54.0000002059937,2|0,0:0|0:0,0:0:0:0:
148,108,201628,6,0,L|76:104,2,72.0000002746582,6|4|4,0:0|0:0|0:0,0:0:0:0:
348,200,202108,6,0,L|444:188,2,72.0000002746582,6|4|4,0:0|0:0|0:0,0:0:0:0:
148,184,202588,5,4,0:0:0:0:
112,182,202748,1,4,0:0:0:0:
76,180,202908,1,4,0:0:0:0:
348,280,203068,5,4,0:0:0:0:
383,275,203228,1,4,0:0:0:0:
419,271,203388,1,4,0:0:0:0:
256,108,203548,5,4,0:0:0:0:
