osu file format v14

[General]
AudioFilename: audio.mp3
AudioLeadIn: 0
PreviewTime: 53890
Countdown: 0
SampleSet: Soft
StackLeniency: 0.7
Mode: 2
LetterboxInBreaks: 0
WidescreenStoryboard: 1

[Editor]
DistanceSpacing: 0.3
BeatDivisor: 4
GridSize: 16
TimelineZoom: 2.799999

[Metadata]
Title:Hanabira Memories
TitleUnicode:花びらメモリーズ
Artist:Minami Saki, Oozeki Eri, Watanabe Keiko, Fujii Yukiyo
ArtistUnicode:白石 紬 (CV: 南 早紀)、佐竹美奈子 (CV: 大関英里)、周防桃子 (CV: 渡部恵子)、所 恵美 (CV: 藤井ゆきよ)
Creator:Greaper
Version:Usaha's Overdose
Source:アイドルマスター ミリオンライブ!
Tags:アイマス ミリマス ミリシタ idolmaster imas im@s idol MLTD theater days 聖ミリオン女学園 Saint Million Girl Girls School St live videogame video game japanese pop jpop j-pop Takekii Nana Abe Usaha Hanasaka Yui Shiraishi Tsumugi Satake Minako Suou Momoko Tokoro Megumi Déraciné deracine デラシネ armeria アルメリア st. million's girls' senior high school
BeatmapID:3394276
BeatmapSetID:1662708

[Difficulty]
HPDrainRate:5
CircleSize:4
OverallDifficulty:9.2
ApproachRate:9.2
SliderMultiplier:1.9
SliderTickRate:2

[Events]
//Background and Video events
0,0,"hanabira.jpg",0,0
//Break Periods
2,82605,91777
//Storyboard Layer 0 (Background)
//Storyboard Layer 1 (Fail)
//Storyboard Layer 2 (Pass)
//Storyboard Layer 3 (Foreground)
//Storyboard Layer 4 (Overlay)
//Storyboard Sound Samples

[TimingPoints]
1475,348.837209302326,4,2,11,20,1,0
16649,-100,4,2,11,5,0,0
16823,-133.333333333333,4,2,11,20,0,0
29381,-100,4,2,11,40,0,0
40544,-100,4,2,11,55,0,0
42637,-100,4,2,11,40,0,0
43335,-100,4,2,11,45,0,0
46126,-85.4700854700855,4,2,11,55,0,0
46475,-100,4,2,11,55,0,0
47695,-100,4,2,11,45,0,0
48916,-100,4,2,11,50,0,0
52928,-100,4,2,11,60,0,0
53975,-100,4,2,11,50,0,0
54498,-90.9090909090909,4,2,11,70,0,1
76823,-100,4,2,11,50,0,0
79614,-100,4,2,11,55,0,0
82230,-100,4,2,11,40,0,0
82405,-133.333333333333,4,2,11,55,0,0
93044,-100,4,2,11,45,0,0
93568,-100,4,2,11,55,0,0
93916,-100,4,2,12,55,0,0
101940,-100,4,2,12,65,0,0
104730,-100,4,2,12,70,0,0
106998,-100,4,2,12,50,0,0
107521,-100,4,2,11,60,0,0
109614,-100,4,2,11,65,0,0
110312,-90.9090909090909,4,2,11,75,0,1
129847,-100,4,2,11,50,0,0
132637,-100,4,2,11,60,0,0
135428,-100,4,2,11,65,0,0
135515,-100,4,2,11,40,0,0
136126,-100,4,2,11,30,0,0
136475,-100,4,2,11,50,0,0
136823,-100,4,2,11,60,0,0
137172,-100,4,2,11,30,0,0
137521,-100,4,2,11,20,0,0
137870,-100,4,2,11,10,0,0
138219,-100,4,2,11,5,0,0

[Colours]
Combo1 : 142,148,219
Combo2 : 227,134,218
Combo3 : 177,237,124
Combo4 : 222,174,139

[HitObjects]
256,192,15428,12,0,16649,0:0:0:0:
85,365,16823,6,0,P|103:154|366:38,1,498.750019025803,2|2,0:0|0:0,0:0:0:0:
415,138,18219,2,0,P|332:114|362:10,1,213.750008153916,2|2,0:0|0:0,0:0:0:0:
499,55,19091,1,2,0:0:0:0:
192,164,19440,2,0,L|425:141,1,213.750008153916,2|2,0:0|0:0,0:0:0:0:
124,66,20312,1,2,0:0:0:0:
200,91,20486,2,0,L|278:87,2,71.2500027179719,2|2|2,0:0|0:0|0:0,0:0:0:0:
436,267,21009,6,0,L|441:112,1,142.500005435944,2|2,0:0|0:0,0:0:0:0:
301,199,21533,2,0,L|297:50,1,142.500005435944,2|2,0:0|0:0,0:0:0:0:
21,246,22230,6,0,L|174:241,1,142.500005435944,2|2,0:0|0:0,0:0:0:0:
185,217,22754,1,2,0:0:0:0:
159,143,22928,1,2,0:0:0:0:
79,126,23102,2,0,L|76:39,1,71.2500027179719,2|2,0:0|0:0,0:0:0:0:
194,78,23451,2,0,L|204:-25,1,71.2500027179719,2|2,0:0|0:0,0:0:0:0:
434,161,23800,6,0,P|474:133|440:47,1,142.500005435944,2|2,0:0|0:0,0:0:0:0:
290,60,24323,2,0,P|222:88|251:213,1,213.750008153916,2|0,0:0|0:0,0:0:0:0:
314,246,25021,1,2,0:0:0:0:
176,270,25195,6,0,L|2:271,1,142.500005435944,2|2,0:0|0:0,0:0:0:0:
31,215,25719,2,0,L|119:218,1,71.2500027179719,2|2,0:0|0:0,0:0:0:0:
265,232,26068,2,0,P|305:207|256:142,1,142.500005435944,2|2,0:0|0:0,0:0:0:0:
16,58,26591,6,0,L|174:59,1,142.500005435944,2|2,0:0|0:0,0:0:0:0:
174,30,27114,1,2,0:0:0:0:
45,114,27463,2,0,L|39:205,1,71.2500027179719,2|0,0:0|0:0,0:0:0:0:
298,194,27812,6,0,P|341:170|285:118,1,142.500005435944,2|2,0:0|0:0,0:0:0:0:
215,142,28335,1,2,0:0:0:0:
284,209,28509,1,2,0:0:0:0:
447,241,28684,2,0,B|350:241,1,71.2500027179719,2|8,0:0|3:0,0:0:0:0:
207,316,29033,2,0,L|206:216,1,71.2500027179719,8|2,0:0|0:0,0:0:0:0:
443,127,29381,6,0,L|240:127,1,190,12|2,0:0|3:0,0:0:0:0:
417,152,29905,2,0,L|425:255,1,95,2|2,0:0|3:0,0:0:0:0:
269,182,30254,2,0,L|260:285,1,95,2|2,0:0|3:0,0:0:0:0:
28,226,30602,6,0,P|19:157|71:50,1,190,2|0,0:0|0:0,0:0:0:0:
234,78,31126,2,0,L|242:182,1,95,2|0,3:0|0:0,0:0:0:0:
89,134,31475,2,0,L|81:238,1,95,2|8,3:0|0:0,0:0:0:0:
152,258,31736,1,8,0:0:0:0:
327,224,31823,2,0,L|437:224,1,95,10|0,0:0|0:0,0:0:0:0:
180,346,32172,6,0,P|121:298|200:241,1,190,2|2,3:0|3:0,0:0:0:0:
347,206,32695,2,0,L|249:202,1,95,0|2,0:0|3:0,0:0:0:0:
106,200,33044,2,0,L|107:102,1,95,0|2,0:0|3:0,0:0:0:0:
349,222,33393,6,0,L|465:216,1,95,0|2,0:0|3:0,0:0:0:0:
295,145,33742,2,0,L|194:145,2,95,0|2|0,0:0|3:0|0:0,0:0:0:0:
463,142,34265,1,2,3:0:0:0:
191,73,34440,1,8,0:0:0:0:
344,47,34614,2,0,L|345:153,1,95,10|0,3:0|0:0,0:0:0:0:
86,283,34963,6,0,P|32:236|106:162,1,190,12|2,0:0|3:0,0:0:0:0:
278,177,35486,2,0,P|331:130|257:56,1,190
91,132,36009,2,0,L|191:121,1,95,2|0,3:0|0:0,0:0:0:0:
445,167,36358,6,0,L|459:358,1,190,2|2,3:0|3:0,0:0:0:0:
293,303,36881,2,0,L|402:290,1,95,0|2,0:0|3:0,0:0:0:0:
225,230,37230,1,8,0:0:0:0:
184,208,37318,1,8,0:0:0:0:
225,230,37405,1,10,3:0:0:0:
369,180,37579,1,0,0:0:0:0:
104,326,37754,6,0,L|314:326,1,190,2|2,3:0|3:0,0:0:0:0:
138,228,38277,2,0,L|131:104,1,95,0|2,0:0|3:0,0:0:0:0:
395,153,38626,2,0,L|498:152,1,95,8|2,0:0|3:0,0:0:0:0:
206,66,38975,6,0,P|162:87|217:190,1,190,12|8,0:0|0:0,0:0:0:0:
259,183,39411,1,8,0:0:0:0:
417,125,39498,2,0,L|472:122,1,47.5,8|8,0:0|0:0,0:0:0:0:
239,278,39672,6,0,L|234:170,1,95,12|0,0:0|0:0,0:0:0:0:
480,147,40021,1,8,3:0:0:0:
333,116,40195,1,8,3:0:0:0:
480,147,40370,1,8,3:0:0:0:
192,195,40544,6,0,L|87:195,2,95,14|2|2,0:0|0:0|0:0,0:0:0:0:
426,204,41068,2,0,P|439:140|339:79,1,190,14|2,0:0|0:0,0:0:0:0:
172,114,41591,1,2,0:0:0:0:
443,221,41765,6,0,L|242:220,1,190,12|8,0:0|3:0,0:0:0:0:
426,172,42288,2,0,L|437:66,1,95,8|8,0:0|3:0,0:0:0:0:
196,110,42637,2,0,L|96:109,1,95,10|8,0:0|3:0,0:0:0:0:
273,114,42986,2,0,L|285:216,1,95,10|0,0:0|0:0,0:0:0:0:
37,333,43335,6,0,L|267:333,1,190,12|0,0:0|0:0,0:0:0:0:
251,291,43858,1,8,3:0:0:0:
108,191,44033,2,0,L|8:193,2,95,10|2|2,0:0|0:0|0:0,0:0:0:0:
358,182,44556,6,0,P|404:134|322:64,1,190,10|8,0:0|3:0,0:0:0:0:
164,121,45079,2,0,L|144:235,1,95,10|0,0:0|0:0,0:0:0:0:
392,194,45428,2,0,L|268:194,1,95,14|8,0:0|3:0,0:0:0:0:
139,161,45777,2,0,L|95:142,2,47.5,10|8|8,0:0|0:0|0:0,0:0:0:0:
402,303,46126,6,0,L|278:302,2,111.150000424004,6|2|2,0:0|0:0|0:0,0:0:0:0:
149,336,46649,2,0,P|110:304|172:205,1,190,6|2,0:0|0:0,0:0:0:0:
326,203,47172,1,2,0:0:0:0:
78,154,47347,6,0,L|271:154,1,190,6|8,0:0|3:0,0:0:0:0:
104,201,47870,2,0,L|93:308,1,95,8|8,0:0|3:0,0:0:0:0:
352,199,48219,2,0,L|447:192,2,63.3333333333333,10|8|8,0:0|0:0|0:0,0:0:0:0:
170,134,48568,2,0,L|77:126,2,63.3333333333333,10|8|8,3:0|3:0|3:0,0:0:0:0:
415,54,48916,6,0,P|426:109|402:257,1,190,12|2,0:0|0:0,0:0:0:0:
259,250,49440,2,0,L|250:318,1,47.5,2|0,0:0|0:0,0:0:0:0:
421,261,49614,2,0,L|436:157,1,95,0|2,0:0|0:0,0:0:0:0:
305,211,49963,2,0,L|409:210,1,95,10|2,0:0|0:0,0:0:0:0:
160,72,50312,6,0,L|152:171,1,95,0|2,0:0|0:0,0:0:0:0:
317,251,50661,2,0,L|418:250,1,95,10|2,0:0|0:0,0:0:0:0:
364,303,50922,1,0,0:0:0:0:
215,248,51009,2,0,L|202:128,1,95,0|2,0:0|0:0,0:0:0:0:
360,173,51358,1,10,0:0:0:0:
91,72,51533,6,0,P|26:113|107:165,1,190,14|8,0:0|0:0,0:0:0:0:
256,125,52056,2,0,L|269:18,1,95,8|8,0:0|0:0,0:0:0:0:
100,222,52405,2,0,L|165:217,1,47.5,8|8,0:0|0:0,0:0:0:0:
306,223,52579,2,0,L|371:219,1,47.5,8|8,0:0|0:0,0:0:0:0:
171,311,52754,2,0,L|106:315,1,47.5,8|8,0:0|0:0,0:0:0:0:
364,311,52928,6,0,L|370:202,1,95,12|0,0:0|0:0,0:0:0:0:
122,141,53277,1,8,0:0:0:0:
277,103,53451,1,8,0:0:0:0:
23,31,53626,1,12,0:0:0:0:
256,192,53713,12,2,54149,0:0:0:0:
329,207,54498,6,0,L|335:81,1,104.500003189087,12|0,0:0|0:0,0:0:0:0:
456,184,54847,1,10,0:0:0:0:
195,215,55021,2,0,L|76:215,2,104.500003189087,2|0|2,0:0|0:0|0:0,0:0:0:0:
371,136,55544,1,10,0:0:0:0:
90,333,55719,6,0,P|46:294|115:188,1,209.000006378174,2|2,0:0|0:0,0:0:0:0:
290,162,56242,2,0,B|308:127|308:127|304:51,1,104.500003189087,8|2,0:0|0:0,0:0:0:0:
244,19,56504,1,0,0:0:0:0:
85,94,56591,1,8,3:0:0:0:
42,120,56678,1,0,0:0:0:0:
85,94,56765,1,2,0:0:0:0:
323,133,56940,2,0,L|213:123,1,104.500003189087,10|2,0:0|0:0,0:0:0:0:
456,318,57288,6,0,P|471:259|395:132,1,209.000006378174,10|10,3:0|0:0,0:0:0:0:
220,139,57812,2,0,L|171:165,2,52.2500015945435,2|0|8,0:0|0:0|3:0,0:0:0:0:
479,182,58161,2,0,L|489:308,1,104.500003189087,2|10,0:0|0:0,0:0:0:0:
215,190,58509,6,0,L|426:189,1,209.000006378174,2|2,0:0|0:0,0:0:0:0:
428,145,59033,1,10,0:0:0:0:
251,111,59207,2,0,L|163:111,1,52.2500015945435,2|0,0:0|0:0,0:0:0:0:
388,127,59381,2,0,L|437:105,2,52.2500015945435,8|0|2,3:0|0:0|0:0,0:0:0:0:
138,183,59730,2,0,L|128:297,1,104.500003189087,10|2,0:0|0:0,0:0:0:0:
405,353,60079,6,0,P|476:302|402:237,1,209.000006378174,6|10,0:0|0:0,0:0:0:0:
226,211,60602,2,0,L|157:214,1,52.2500015945435,2|0,0:0|0:0,0:0:0:0:
354,158,60777,2,0,L|429:157,1,52.2500015945435,8|0,3:0|0:0,0:0:0:0:
208,80,60951,2,0,L|184:203,1,104.500003189087,2|10,0:0|0:0,0:0:0:0:
469,171,61300,6,0,P|465:85|336:48,1,209.000006378174,2|0,0:0|0:0,0:0:0:0:
178,91,61823,2,0,L|50:91,1,104.500003189087,10|8,0:0|0:0,0:0:0:0:
117,41,62085,1,8,0:0:0:0:
295,162,62172,6,0,L|242:156,1,52.2500015945435,10|8,0:0|0:0,0:0:0:0:
71,174,62347,2,0,L|16:169,1,52.2500015945435,8|8,0:0|0:0,0:0:0:0:
202,244,62521,2,0,L|257:239,1,52.2500015945435,10|8,0:0|0:0,0:0:0:0:
69,267,62695,2,0,L|14:262,1,52.2500015945435,8|8,0:0|0:0,0:0:0:0:
274,316,62870,6,0,L|382:316,2,104.500003189087,14|2|10,0:0|3:0|0:0,0:0:0:0:
432,181,63393,1,2,3:0:0:0:
471,213,63480,1,0,3:0:0:0:
476,263,63567,1,8,3:0:0:0:
444,303,63654,1,0,3:0:0:0:
250,235,63741,5,2,3:0:0:0:
388,171,63916,1,10,0:0:0:0:
142,192,64091,2,0,L|134:56,1,104.500003189087,2|8,0:0|3:0,0:0:0:0:
304,119,64440,5,2,0:0:0:0:
59,176,64614,1,10,0:0:0:0:
27,148,64701,1,8,0:0:0:0:
27,148,64788,1,10,0:0:0:0:
59,176,64876,1,8,0:0:0:0:
265,126,64963,6,0,L|315:100,1,52.2500015945435,10|8,3:0|0:0,0:0:0:0:
88,113,65137,2,0,L|62:57,1,52.2500015945435,10|8,0:0|0:0,0:0:0:0:
286,194,65312,2,0,L|420:173,1,104.500003189087,2|10,0:0|0:0,0:0:0:0:
333,128,65573,1,8,0:0:0:0:
92,308,65661,6,0,L|68:97,1,209.000006378174,14|2,0:0|0:0,0:0:0:0:
245,171,66183,2,0,L|364:171,2,104.500003189087,2|8|2,3:0|3:0|0:0,0:0:0:0:
84,111,66707,1,10,0:0:0:0:
343,242,66881,6,0,P|393:207|324:101,1,209.000006378174,2|2,0:0|0:0,0:0:0:0:
166,149,67405,2,0,L|154:36,1,104.500003189087,8|2,0:0|3:0,0:0:0:0:
212,37,67666,1,0,3:0:0:0:
371,110,67753,1,8,3:0:0:0:
414,136,67840,1,0,0:0:0:0:
371,110,67927,1,2,0:0:0:0:
122,148,68102,2,0,L|-7:148,1,104.500003189087,10|2,0:0|0:0,0:0:0:0:
278,281,68451,6,0,P|344:235|265:153,1,209.000006378174,10|8,3:0|0:0,0:0:0:0:
144,175,68975,2,0,L|137:229,1,52.2500015945435,8|8,3:0|3:0,0:0:0:0:
348,206,69149,6,0,L|362:91,1,104.500003189087,8|0,0:0|0:0,0:0:0:0:
210,168,69411,2,0,L|203:59,1,104.500003189087,8|0,0:0|0:0,0:0:0:0:
360,102,69672,2,0,L|421:95,1,52.2500015945435,8|0,0:0|0:0,0:0:0:0:
170,132,69847,6,0,L|48:125,1,104.500003189087,12|0,0:0|0:0,0:0:0:0:
340,185,70195,2,0,L|350:290,1,104.500003189087,8|0,0:0|0:0,0:0:0:0:
96,193,70544,2,0,L|86:298,1,104.500003189087,8|8,0:0|0:0,0:0:0:0:
143,322,70806,1,8,0:0:0:0:
336,220,70893,2,0,L|271:220,1,52.2500015945435,8|8,0:0|0:0,0:0:0:0:
122,138,71068,2,0,L|57:138,1,52.2500015945435,8|8,0:0|0:0,0:0:0:0:
293,202,71242,6,0,P|356:186|292:106,1,209.000006378174,12|8,0:0|0:0,0:0:0:0:
128,131,71765,2,0,L|94:90,2,52.2500015945435,8|8|8,3:0|3:0|3:0,0:0:0:0:
368,98,72114,1,10,3:0:0:0:
208,70,72288,1,10,0:0:0:0:
378,75,72463,1,2,0:0:0:0:
118,220,72637,6,0,L|113:95,1,104.500003189087,10|0,3:0|0:0,0:0:0:0:
282,97,72986,2,0,L|413:104,1,104.500003189087,10|0,0:0|3:0,0:0:0:0:
227,160,73335,2,0,L|107:165,1,104.500003189087,10|0,3:0|0:0,0:0:0:0:
366,278,73684,2,0,L|376:159,1,104.500003189087,10|0,0:0|0:0,0:0:0:0:
98,110,74033,6,0,L|332:110,1,209.000006378174,14|8,0:0|0:0,0:0:0:0:
325,154,74556,1,8,3:0:0:0:
158,192,74730,2,0,L|96:189,1,52.2500015945435,8|8,0:0|0:0,0:0:0:0:
287,196,74905,2,0,B|323:167|323:167|326:82,1,104.500003189087,8|8,0:0|3:0,0:0:0:0:
66,323,75254,6,0,L|285:317,1,209.000006378174,12|8,0:0|0:0,0:0:0:0:
117,231,75777,1,8,0:0:0:0:
74,207,75864,1,8,0:0:0:0:
74,207,75951,1,8,0:0:0:0:
117,231,76038,1,8,0:0:0:0:
291,157,76126,6,0,L|236:154,1,52.2500015945435,8|8,0:0|0:0,0:0:0:0:
88,117,76300,2,0,L|29:113,1,52.2500015945435,10|8,0:0|0:0,0:0:0:0:
233,109,76475,2,0,L|291:107,1,52.2500015945435,10|8,0:0|0:0,0:0:0:0:
106,90,76649,2,0,L|30:80,1,52.2500015945435,10|8,0:0|0:0,0:0:0:0:
291,46,76823,5,14,0:0:0:0:
256,192,76911,12,8,78916,0:0:0:0:
332,262,79265,5,8,0:0:0:0:
371,245,79352,1,8,0:0:0:0:
371,245,79440,1,8,3:0:0:0:
332,262,79527,1,8,3:0:0:0:
158,183,79614,6,0,L|47:183,1,95,4|8,0:0|3:0,0:0:0:0:
50,134,79963,1,8,3:0:0:0:
292,177,80137,2,0,L|183:170,1,95,12|0,0:0|0:0,0:0:0:0:
359,149,80486,2,0,L|364:51,1,95,8|8,3:0|3:0,0:0:0:0:
111,327,80835,6,0,P|47:305|116:251,1,190,12|0,0:0|3:0,0:0:0:0:
274,257,81358,2,0,L|165:258,1,95,10|8,3:0|3:0,0:0:0:0:
420,102,81707,1,10,0:0:0:0:
151,42,81881,2,0,P|123:88|141:225,1,190,10|2,0:0|0:0,0:0:0:0:
399,169,82405,5,14,0:0:0:0:
256,192,92347,12,0,92870,0:0:0:0:
327,137,93044,5,10,3:0:0:0:
156,206,93219,2,0,L|150:101,1,95,10|2,0:0|0:0,0:0:0:0:
391,268,93568,6,0,P|439:257|394:159,1,190,14|10,0:0|3:0,0:0:0:0:
237,173,94091,2,0,L|120:173,1,95,2|8,0:0|3:0,0:0:0:0:
379,145,94440,2,0,L|481:145,2,95,2|10|2,0:0|3:0|0:0,0:0:0:0:
108,279,94963,6,0,P|98:220|109:83,1,190,10|10,3:0|3:0,0:0:0:0:
270,165,95486,2,0,L|279:59,1,95,2|8,0:0|3:0,0:0:0:0:
41,162,95835,2,0,L|174:155,2,95,2|10|2,0:0|3:0|0:0,0:0:0:0:
295,233,96358,6,0,P|361:200|293:134,1,190,10|10,3:0|3:0,0:0:0:0:
146,177,96881,2,0,L|132:272,1,95,2|8,0:0|3:0,0:0:0:0:
369,232,97230,2,0,L|470:227,2,95,2|10|2,0:0|3:0|0:0,0:0:0:0:
127,117,97754,6,0,L|231:108,1,95,10|0,3:0|0:0,0:0:0:0:
238,68,98102,1,10,3:0:0:0:
73,208,98277,2,0,L|62:105,1,95,2|8,0:0|3:0,0:0:0:0:
231,130,98626,2,0,L|134:129,1,95,4|10,3:0|0:0,0:0:0:0:
280,176,98975,2,0,L|296:108,1,47.5,8|8,0:0|0:0,0:0:0:0:
97,219,99149,6,0,P|41:247|117:320,1,190,14|4,0:0|3:0,0:0:0:0:
195,303,99672,1,8,3:0:0:0:
360,344,99847,2,0,P|447:321|468:210,1,190,8|2,0:0|0:0,0:0:0:0:
56,76,100544,6,0,L|50:179,1,95,2|0,3:0|0:0,0:0:0:0:
205,164,100806,2,0,L|215:278,1,95,8|0,3:0|0:0,0:0:0:0:
59,253,101068,2,0,L|6:253,1,47.5,2|2,0:0|0:0,0:0:0:0:
212,306,101242,2,0,P|309:267|324:177,1,190,10|2,0:0|0:0,0:0:0:0:
241,138,101765,1,2,0:0:0:0:
482,212,101940,6,0,L|276:214,1,190,14|2,0:0|0:0,0:0:0:0:
455,163,102463,2,0,L|465:62,1,95,10|8,3:0|0:0,0:0:0:0:
296,121,102812,2,0,L|395:121,1,95,10|8,3:0|0:0,0:0:0:0:
121,286,103161,6,0,P|56:231|127:159,1,190,14|8,0:0|3:0,0:0:0:0:
271,174,103684,1,8,0:0:0:0:
28,115,103858,2,0,L|251:114,1,190,12|8,0:0|0:0,0:0:0:0:
370,126,104381,2,0,L|387:179,1,47.5,8|0,0:0|0:0,0:0:0:0:
219,200,104556,2,0,L|161:203,1,47.5,8|0,3:0|0:0,0:0:0:0:
371,288,104730,6,0,L|478:283,1,95,10|10,0:0|0:0,0:0:0:0:
215,211,105079,1,10,0:0:0:0:
482,132,105254,2,0,L|487:28,1,95,14|0,0:0|0:0,0:0:0:0:
229,142,105602,2,0,L|223:42,1,95,14|0,0:0|0:0,0:0:0:0:
482,250,105951,5,6,0:0:0:0:
256,192,106038,12,0,106823,0:0:0:0:
310,181,106998,6,0,L|414:181,2,95,2|2|2,0:0|0:0|0:0,0:0:0:0:
72,325,107521,2,0,P|31:274|92:178,1,190,14|2,0:0|0:0,0:0:0:0:
183,183,108044,1,10,3:0:0:0:
342,170,108219,2,0,L|370:124,1,47.5,8|8,0:0|0:0,0:0:0:0:
201,196,108393,2,0,L|132:194,1,47.5,10|8,0:0|0:0,0:0:0:0:
341,225,108568,2,0,L|395:227,1,47.5,10|8,0:0|0:0,0:0:0:0:
187,318,108742,6,0,L|384:307,1,190,14|8,0:0|3:0,0:0:0:0:
122,230,109265,2,0,L|107:103,1,95,8|2,0:0|0:0,0:0:0:0:
359,109,109614,1,12,0:0:0:0:
145,65,109876,1,12,0:0:0:0:
355,87,110137,2,0,L|293:82,1,47.5,14|8,0:0|0:0,0:0:0:0:
75,301,110312,6,0,P|35:255|111:128,1,209.000006378174,14|10,0:0|0:0,0:0:0:0:
266,134,110836,2,0,L|315:160,2,52.2500015945435,2|0|8,0:0|0:0|3:0,0:0:0:0:
87,213,111185,2,0,L|211:213,1,104.500003189087,2|10,0:0|0:0,0:0:0:0:
444,128,111533,6,0,L|233:127,1,209.000006378174,2|2,0:0|0:0,0:0:0:0:
213,88,112057,1,10,0:0:0:0:
385,112,112231,2,0,L|473:112,1,52.2500015945435,2|0,0:0|0:0,0:0:0:0:
246,197,112405,2,0,L|197:175,2,52.2500015945435,10|0|2,3:0|0:0|0:0,0:0:0:0:
484,201,112754,2,0,L|373:202,1,104.500003189087,10|2,0:0|0:0,0:0:0:0:
129,266,113103,6,0,P|58:215|132:150,1,209.000006378174,6|10,0:0|0:0,0:0:0:0:
296,197,113626,2,0,L|328:263,1,52.2500015945435,2|0,0:0|0:0,0:0:0:0:
134,164,113801,2,0,L|59:163,1,52.2500015945435,8|0,3:0|0:0,0:0:0:0:
293,99,113975,2,0,L|295:233,1,104.500003189087,2|10,0:0|0:0,0:0:0:0:
40,237,114323,6,0,L|271:205,1,209.000006378174,2|0,0:0|0:0,0:0:0:0:
87,177,114847,2,0,L|87:49,1,104.500003189087,10|8,0:0|0:0,0:0:0:0:
140,34,115109,1,8,0:0:0:0:
285,123,115196,6,0,L|347:123,1,52.2500015945435,10|8,0:0|0:0,0:0:0:0:
121,156,115371,2,0,L|107:84,1,52.2500015945435,8|8,0:0|0:0,0:0:0:0:
327,204,115545,2,0,L|385:204,1,52.2500015945435,10|8,0:0|0:0,0:0:0:0:
165,239,115719,2,0,L|107:239,1,52.2500015945435,8|8,0:0|0:0,0:0:0:0:
335,329,115893,6,0,L|441:329,2,104.500003189087,14|2|10,0:0|3:0|0:0,0:0:0:0:
167,193,116417,1,2,3:0:0:0:
128,225,116504,1,0,3:0:0:0:
123,275,116591,1,8,3:0:0:0:
155,315,116678,1,0,3:0:0:0:
338,211,116765,5,2,3:0:0:0:
199,189,116940,1,10,0:0:0:0:
448,176,117115,2,0,L|449:46,1,104.500003189087,2|8,0:0|3:0,0:0:0:0:
187,103,117464,5,2,0:0:0:0:
353,172,117638,1,10,0:0:0:0:
408,167,117725,1,8,0:0:0:0:
462,160,117812,1,10,0:0:0:0:
408,167,117900,1,8,0:0:0:0:
244,217,117986,6,0,L|186:214,1,52.2500015945435,10|8,3:0|0:0,0:0:0:0:
367,273,118161,2,0,L|425:270,1,52.2500015945435,10|8,0:0|0:0,0:0:0:0:
184,334,118336,2,0,L|67:330,1,104.500003189087,2|10,0:0|0:0,0:0:0:0:
135,267,118597,1,8,0:0:0:0:
414,304,118685,6,0,P|481:230|407:168,1,209.000006378174,14|2,0:0|0:0,0:0:0:0:
261,53,119207,2,0,L|142:53,2,104.500003189087,2|8|2,3:0|3:0|0:0,0:0:0:0:
436,244,119731,1,10,0:0:0:0:
163,238,119905,6,0,L|374:238,1,209.000006378174,2|2,0:0|0:0,0:0:0:0:
198,164,120429,2,0,L|186:51,1,104.500003189087,8|2,0:0|3:0,0:0:0:0:
249,38,120690,1,0,3:0:0:0:
396,114,120777,1,8,3:0:0:0:
439,140,120864,1,0,0:0:0:0:
396,114,120951,1,2,0:0:0:0:
139,186,121126,2,0,L|10:186,1,104.500003189087,10|2,0:0|0:0,0:0:0:0:
284,277,121475,6,0,P|350:231|271:149,1,209.000006378174,10|8,3:0|0:0,0:0:0:0:
137,163,121999,2,0,L|130:217,1,52.2500015945435,8|8,3:0|3:0,0:0:0:0:
292,182,122173,6,0,L|306:297,1,104.500003189087,8|0,0:0|0:0,0:0:0:0:
149,220,122435,2,0,L|142:329,1,104.500003189087,8|0,0:0|0:0,0:0:0:0:
304,286,122696,2,0,L|365:293,1,52.2500015945435,8|0,0:0|0:0,0:0:0:0:
68,342,122871,6,0,L|61:220,1,104.500003189087,12|0,0:0|0:0,0:0:0:0:
315,183,123219,2,0,L|442:176,1,104.500003189087,8|0,0:0|0:0,0:0:0:0:
156,115,123568,2,0,L|29:108,1,104.500003189087,8|8,0:0|0:0,0:0:0:0:
116,58,123830,1,8,0:0:0:0:
302,102,123917,2,0,L|369:100,1,52.2500015945435,8|8,0:0|0:0,0:0:0:0:
181,188,124092,2,0,L|116:188,1,52.2500015945435,8|8,0:0|0:0,0:0:0:0:
354,297,124266,6,0,P|417:281|353:201,1,209.000006378174,12|8,0:0|0:0,0:0:0:0:
183,242,124789,2,0,L|142:208,2,52.2500015945435,8|8|8,3:0|3:0|3:0,0:0:0:0:
424,122,125138,1,10,3:0:0:0:
264,94,125312,1,10,0:0:0:0:
434,99,125487,1,2,0:0:0:0:
162,205,125661,6,0,L|157:80,1,104.500003189087,10|0,3:0|0:0,0:0:0:0:
329,187,126010,2,0,L|460:194,1,104.500003189087,10|0,0:0|3:0,0:0:0:0:
254,281,126359,2,0,L|249:161,1,104.500003189087,10|0,3:0|0:0,0:0:0:0:
498,286,126708,2,0,L|379:276,1,104.500003189087,10|0,0:0|0:0,0:0:0:0:
141,333,127056,6,0,L|363:323,1,209.000006378174,14|8,0:0|0:0,0:0:0:0:
355,273,127580,1,8,3:0:0:0:
194,208,127754,2,0,L|132:206,1,52.2500015945435,8|8,0:0|0:0,0:0:0:0:
326,189,127929,2,0,L|347:79,1,104.500003189087,8|8,0:0|3:0,0:0:0:0:
78,231,128277,6,0,P|39:141|107:70,1,209.000006378174,12|8,0:0|0:0,0:0:0:0:
283,89,128801,1,8,0:0:0:0:
326,65,128888,1,8,0:0:0:0:
326,65,128975,1,8,0:0:0:0:
283,89,129062,1,8,0:0:0:0:
117,133,129150,6,0,L|109:198,1,52.2500015945435,8|8,0:0|0:0,0:0:0:0:
282,169,129324,2,0,L|297:245,1,52.2500015945435,10|8,0:0|0:0,0:0:0:0:
95,213,129499,2,0,L|68:257,1,52.2500015945435,10|8,0:0|0:0,0:0:0:0:
326,261,129673,2,0,L|366:297,1,52.2500015945435,10|8,0:0|0:0,0:0:0:0:
86,344,129847,5,6,0:0:0:0:
256,192,129935,12,2,131940,0:0:0:0:
373,245,132288,5,2,0:0:0:0:
61,266,132637,2,0,P|45:200|122:87,1,190,14|2,0:0|0:0,0:0:0:0:
216,90,133161,1,2,0:0:0:0:
121,107,133335,2,0,L|3:107,2,95,2|2|2,0:0|0:0|0:0,0:0:0:0:
273,119,133858,2,0,L|336:119,1,47.5,8|8,0:0|0:0,0:0:0:0:
172,257,134033,6,0,P|116:208|206:140,1,190,8|8,0:0|0:0,0:0:0:0:
346,201,134556,2,0,L|366:-2,1,190,8|0,3:0|0:0,0:0:0:0:
210,151,135079,2,0,L|204:43,1,95,8|0,3:0|0:0,0:0:0:0:
483,262,135428,5,12,0:0:0:0:
256,192,135515,12,0,138219,0:0:0:0:
