osu file format v14

[General]
AudioFilename: audio.mp3
AudioLeadIn: 0
PreviewTime: 53890
Countdown: 0
SampleSet: Soft
StackLeniency: 0.7
Mode: 2
LetterboxInBreaks: 0
WidescreenStoryboard: 1

[Editor]
Bookmarks: 15428,29033,29381,34963,38975,40544,41068,41765,43335,46126,46649,47347,48916,51533,52928,53626,54498,57288,60079,62870,65661,68451,69149,69411,69672,69847,71242,74033,75254,76823,79614,80835,81707,82405,93568,99149,101940,103161,103858,104730,105951,107521,108742,110312,113102,115893,118684,122172,122434,122695,122870,124265,127056,128277,129847
DistanceSpacing: 0.3
BeatDivisor: 4
GridSize: 16
TimelineZoom: 2.5

[Metadata]
Title:Hanabira Memories
TitleUnicode:花びらメモリーズ
Artist:Minami Saki, Oozeki Eri, Watanabe Keiko, Fujii Yukiyo
ArtistUnicode:白石 紬 (CV: 南 早紀)、佐竹美奈子 (CV: 大関英里)、周防桃子 (CV: 渡部恵子)、所 恵美 (CV: 藤井ゆきよ)
Creator:Greaper
Version:Rain
Source:アイドルマスター ミリオンライブ!
Tags:アイマス ミリマス ミリシタ idolmaster imas im@s idol MLTD theater days 聖ミリオン女学園 Saint Million Girl Girls School St live videogame video game japanese pop jpop j-pop Takekii Nana Abe Usaha Hanasaka Yui Shiraishi Tsumugi Satake Minako Suou Momoko Tokoro Megumi Déraciné deracine デラシネ armeria アルメリア st. million's girls' senior high school
BeatmapID:3394274
BeatmapSetID:1662708

[Difficulty]
HPDrainRate:5
CircleSize:4
OverallDifficulty:9
ApproachRate:9
SliderMultiplier:1.8
SliderTickRate:2

[Events]
//Background and Video events
0,0,"hanabira.jpg",0,0
//Break Periods
2,82605,91747
//Storyboard Layer 0 (Background)
//Storyboard Layer 1 (Fail)
//Storyboard Layer 2 (Pass)
//Storyboard Layer 3 (Foreground)
//Storyboard Layer 4 (Overlay)
//Storyboard Sound Samples

[TimingPoints]
1475,348.837209302326,4,2,11,20,1,0
16649,-100,4,2,11,5,0,0
16823,-125,4,2,11,20,0,0
29381,-100,4,2,11,40,0,0
40544,-100,4,2,11,55,0,0
42637,-100,4,2,11,40,0,0
43335,-100,4,2,11,45,0,0
46126,-100,4,2,11,55,0,0
47695,-100,4,2,11,45,0,0
48916,-100,4,2,11,50,0,0
52928,-100,4,2,11,60,0,0
53975,-100,4,2,11,50,0,0
54498,-90.9090909090909,4,2,11,70,0,1
76823,-100,4,2,11,50,0,0
79614,-100,4,2,11,55,0,0
82230,-100,4,2,11,40,0,0
82405,-125,4,2,11,55,0,0
93044,-100,4,2,11,45,0,0
93568,-100,4,2,11,55,0,0
93916,-100,4,2,12,55,0,0
101940,-100,4,2,12,65,0,0
104730,-100,4,2,12,70,0,0
106998,-100,4,2,12,50,0,0
107521,-100,4,2,11,60,0,0
109614,-100,4,2,11,65,0,0
110312,-90.9090909090909,4,2,11,75,0,1
129847,-100,4,2,11,50,0,0
132637,-100,4,2,11,60,0,0
135428,-100,4,2,11,65,0,0
135515,-100,4,2,11,40,0,0
136126,-100,4,2,11,30,0,0
136475,-100,4,2,11,50,0,0
136823,-100,4,2,11,60,0,0
137172,-100,4,2,11,30,0,0
137521,-100,4,2,11,20,0,0
137870,-100,4,2,11,10,0,0
138219,-100,4,2,11,5,0,0

[Colours]
Combo1 : 142,148,219
Combo2 : 227,134,218
Combo3 : 177,237,124
Combo4 : 222,174,139

[HitObjects]
256,192,15429,12,0,16650,0:0:0:0:
354,344,16823,6,0,P|460:288|250:115,1,504,2|2,0:0|0:0,0:0:0:0:
198,110,18219,6,0,L|192:260,1,144,2|2,0:0|0:0,0:0:0:0:
264,252,18742,1,2,0:0:0:0:
409,267,19091,1,2,0:0:0:0:
142,320,19440,6,0,P|76:256|145:171,1,216,2|2,0:0|0:0,0:0:0:0:
284,170,20312,1,2,0:0:0:0:
358,166,20486,2,0,L|446:162,2,72,2|2|2,0:0|0:0|0:0,0:0:0:0:
204,43,21009,6,0,P|172:112|218:155,1,144,2|2,0:0|0:0,0:0:0:0:
286,208,21533,2,0,L|131:219,1,144,2|2,0:0|0:0,0:0:0:0:
432,343,22230,6,0,P|466:306|406:239,1,144,2|2,0:0|0:0,0:0:0:0:
342,233,22754,1,2,0:0:0:0:
270,225,22928,1,2,0:0:0:0:
408,177,23102,1,2,0:0:0:0:
469,136,23276,1,2,0:0:0:0:
465,68,23450,1,2,0:0:0:0:
398,40,23625,1,2,0:0:0:0:
244,50,23800,6,0,L|91:56,1,144,2|2,0:0|0:0,0:0:0:0:
183,125,24323,2,0,P|252:171|176:258,1,216,2|0,0:0|0:0,0:0:0:0:
118,265,25021,1,2,0:0:0:0:
270,327,25195,6,0,L|421:321,1,144,2|2,0:0|0:0,0:0:0:0:
412,244,25719,2,0,L|257:231,2,144,2|2|2,0:0|0:0|0:0,0:0:0:0:
249,49,26591,6,0,P|211:102|252:178,1,144,2|2,0:0|0:0,0:0:0:0:
311,174,27114,1,2,0:0:0:0:
456,188,27463,1,2,0:0:0:0:
190,216,27812,6,0,L|19:221,1,144,2|2,0:0|0:0,0:0:0:0:
48,293,28335,1,2,0:0:0:0:
119,334,28509,1,2,0:0:0:0:
271,293,28684,2,0,L|347:292,1,72,2|8,0:0|3:0,0:0:0:0:
95,125,29033,2,0,L|21:125,1,72,8|2,0:0|0:0,0:0:0:0:
283,318,29381,6,0,P|338:263|271:208,1,180,12|2,0:0|3:0,0:0:0:0:
179,96,29905,2,0,L|174:203,1,90,2|2,0:0|3:0,0:0:0:0:
369,62,30254,2,0,L|374:157,1,90,2|2,0:0|3:0,0:0:0:0:
121,347,30602,6,0,P|76:308|136:223,1,180,2|0,0:0|0:0,0:0:0:0:
220,220,31126,1,2,3:0:0:0:
312,220,31300,1,0,0:0:0:0:
140,169,31475,2,0,L|135:67,1,90,2|8,3:0|0:0,0:0:0:0:
180,60,31736,1,8,0:0:0:0:
333,60,31823,2,0,L|456:51,1,90,10|0,0:0|0:0,0:0:0:0:
178,352,32172,6,0,P|128:301|192:226,1,180,2|2,3:0|3:0,0:0:0:0:
349,157,32695,2,0,L|359:102,2,45,0|0|2,0:0|0:0|3:0,0:0:0:0:
257,165,33044,2,0,L|151:162,1,90,0|2,0:0|3:0,0:0:0:0:
405,322,33393,6,0,L|408:206,1,90,0|2,0:0|3:0,0:0:0:0:
316,230,33742,2,0,L|220:229,2,90,0|2|0,0:0|3:0|0:0,0:0:0:0:
153,212,34265,2,0,L|149:109,1,90,2|8,3:0|0:0,0:0:0:0:
244,104,34614,2,0,L|355:100,1,90,10|0,3:0|0:0,0:0:0:0:
90,17,34963,6,0,P|39:60|91:145,1,180,12|2,0:0|3:0,0:0:0:0:
267,144,35486,2,0,L|75:152,1,180
87,236,36009,1,2,3:0:0:0:
178,266,36184,1,0,0:0:0:0:
412,272,36358,6,0,P|391:168|318:145,1,180,2|2,3:0|3:0,0:0:0:0:
225,105,36881,1,0,0:0:0:0:
404,118,37056,2,0,L|411:14,1,90,2|8,3:0|0:0,0:0:0:0:
364,11,37318,1,8,0:0:0:0:
207,22,37405,2,0,L|105:28,1,90,10|0,3:0|0:0,0:0:0:0:
367,346,37754,6,0,P|419:290|347:237,1,180,2|2,3:0|3:0,0:0:0:0:
264,241,38277,2,0,L|269:138,1,90,0|2,0:0|3:0,0:0:0:0:
458,227,38626,2,0,L|466:123,1,90,8|2,0:0|3:0,0:0:0:0:
201,115,38975,6,0,L|93:110,1,90,12|0,0:0|0:0,0:0:0:0:
275,65,39323,1,8,0:0:0:0:
319,93,39410,1,8,0:0:0:0:
320,136,39497,1,8,0:0:0:0:
278,164,39584,1,8,0:0:0:0:
121,337,39672,2,0,P|119:282|231:224,1,180,12|8,0:0|3:0,0:0:0:0:
305,213,40195,1,8,3:0:0:0:
398,209,40370,1,8,3:0:0:0:
138,94,40544,6,0,L|44:91,2,90,14|2|2,0:0|0:0|0:0,0:0:0:0:
373,163,41068,2,0,L|382:57,1,90,14|0,0:0|0:0,0:0:0:0:
289,65,41416,1,2,0:0:0:0:
384,25,41591,1,2,0:0:0:0:
134,276,41765,6,0,P|133:209|239:160,1,180,12|8,0:0|3:0,0:0:0:0:
311,180,42288,2,0,L|318:272,1,90,8|8,0:0|3:0,0:0:0:0:
143,74,42637,2,0,L|237:71,1,90,10|8,0:0|3:0,0:0:0:0:
399,91,42986,2,0,L|409:197,1,90,10|0,0:0|0:0,0:0:0:0:
78,322,43335,6,0,P|17:269|101:125,1,270,12|8,0:0|3:0,0:0:0:0:
224,148,44033,2,0,L|224:57,1,90,10|2,0:0|0:0,0:0:0:0:
130,47,44381,1,2,0:0:0:0:
388,50,44556,6,0,P|397:106|313:185,1,180,10|8,0:0|3:0,0:0:0:0:
221,231,45079,2,0,L|107:225,1,90,10|0,0:0|0:0,0:0:0:0:
385,351,45428,2,0,L|268:349,2,90,14|8|10,0:0|3:0|0:0,0:0:0:0:
431,323,45864,1,8,0:0:0:0:
436,258,45951,1,8,0:0:0:0:
391,234,46038,1,8,0:0:0:0:
228,102,46126,6,0,L|119:95,2,90,6|2|2,0:0|0:0|0:0,0:0:0:0:
472,171,46649,2,0,L|476:62,1,90,6|0,0:0|0:0,0:0:0:0:
384,70,46998,1,2,0:0:0:0:
476,45,47172,1,2,0:0:0:0:
209,47,47347,6,0,L|23:57,1,180,6|8,0:0|3:0,0:0:0:0:
214,115,47870,2,0,L|223:227,1,90,8|8,0:0|3:0,0:0:0:0:
40,196,48219,1,10,0:0:0:0:
31,243,48335,1,8,0:0:0:0:
40,196,48451,1,8,0:0:0:0:
166,269,48568,1,10,3:0:0:0:
225,269,48684,1,8,3:0:0:0:
285,270,48800,1,8,3:0:0:0:
106,64,48916,6,0,L|-6:61,2,90,12|2|2,0:0|0:0|0:0,0:0:0:0:
272,78,49440,2,0,L|273:143,1,45,2|0,0:0|0:0,0:0:0:0:
228,143,49614,2,0,L|115:147,2,90,0|2|10,0:0|0:0|0:0,0:0:0:0:
481,293,50137,6,0,L|488:195,1,90,2|0,0:0|0:0,0:0:0:0:
395,194,50486,2,0,L|268:194,1,90,2|10,0:0|0:0,0:0:0:0:
481,140,50835,2,0,L|478:92,1,45,2|0,0:0|0:0,0:0:0:0:
432,81,51009,2,0,L|326:81,1,90,0|2,0:0|0:0,0:0:0:0:
168,71,51358,1,10,0:0:0:0:
416,239,51533,6,0,P|472:287|409:354,1,180,14|8,0:0|0:0,0:0:0:0:
320,363,52056,1,8,0:0:0:0:
415,354,52230,1,8,0:0:0:0:
176,283,52405,1,8,0:0:0:0:
134,268,52492,1,8,0:0:0:0:
107,232,52579,1,8,0:0:0:0:
106,188,52666,1,8,0:0:0:0:
129,151,52753,1,8,0:0:0:0:
170,133,52841,1,8,0:0:0:0:
330,124,52928,6,0,L|436:118,1,90,12|0,0:0|0:0,0:0:0:0:
283,70,53277,1,8,0:0:0:0:
419,61,53451,1,8,0:0:0:0:
168,58,53626,5,12,0:0:0:0:
256,192,53800,12,2,54149,0:0:0:0:
414,333,54498,6,0,L|417:226,1,99.0000030212403,12|0,0:0|0:0,0:0:0:0:
256,216,54847,1,10,0:0:0:0:
419,188,55021,2,0,L|196:173,1,198.000006042481,2|2,0:0|0:0,0:0:0:0:
381,113,55544,1,10,0:0:0:0:
132,331,55719,6,0,P|71:278|144:198,1,198.000006042481,2|2,0:0|0:0,0:0:0:0:
279,176,56242,2,0,L|391:173,2,99.0000030212403,8|2|8,0:0|0:0|3:0,0:0:0:0:
180,173,56765,1,2,0:0:0:0:
350,116,56940,2,0,L|469:115,1,99.0000030212403,10|2,0:0|0:0,0:0:0:0:
194,134,57288,6,0,P|106:108|97:9,1,198.000006042481,10|10,3:0|0:0,0:0:0:0:
195,287,57812,2,0,L|197:183,1,99.0000030212403,2|8,0:0|3:0,0:0:0:0:
47,175,58161,2,0,L|156:163,1,99.0000030212403,2|10,0:0|0:0,0:0:0:0:
399,223,58509,6,0,P|466:183|386:118,1,198.000006042481,2|2,0:0|0:0,0:0:0:0:
245,209,59033,2,0,L|134:217,1,99.0000030212403,10|2,0:0|0:0,0:0:0:0:
149,281,59294,1,0,0:0:0:0:
198,311,59381,1,8,3:0:0:0:
299,298,59556,1,2,0:0:0:0:
139,140,59730,2,0,L|131:32,1,99.0000030212403,10|2,0:0|0:0,0:0:0:0:
364,164,60079,6,0,P|426:127|355:51,1,198.000006042481,6|10,0:0|0:0,0:0:0:0:
206,223,60602,2,0,L|195:282,2,49.5000015106202,2|0|8,0:0|0:0|3:0,0:0:0:0:
359,257,60951,2,0,L|467:256,1,99.0000030212403,2|10,0:0|0:0,0:0:0:0:
198,60,61300,6,0,P|136:107|206:182,1,198.000006042481,2|0,0:0|0:0,0:0:0:0:
358,186,61823,2,0,L|363:83,1,99.0000030212403,10|8,0:0|0:0,0:0:0:0:
312,76,62085,1,8,0:0:0:0:
162,349,62172,5,10,0:0:0:0:
121,322,62259,1,8,0:0:0:0:
115,275,62346,1,8,0:0:0:0:
148,239,62433,1,8,0:0:0:0:
323,241,62521,2,0,L|380:237,1,49.5000015106202,10|8,0:0|0:0,0:0:0:0:
223,190,62695,2,0,L|166:186,1,49.5000015106202,8|8,0:0|0:0,0:0:0:0:
368,76,62870,6,0,L|478:70,2,99.0000030212403,14|2|10,0:0|3:0|0:0,0:0:0:0:
214,110,63393,2,0,L|204:59,2,49.5000015106202,2|0|8,3:0|3:0|3:0,0:0:0:0:
470,176,63742,6,0,L|350:169,2,99.0000030212403,2|10|2,3:0|0:0|0:0,0:0:0:0:
478,275,64265,1,8,3:0:0:0:
216,252,64440,6,0,L|106:250,2,99.0000030212403,2|10|10,0:0|0:0|0:0,0:0:0:0:
266,251,64876,1,8,0:0:0:0:
118,149,64963,2,0,L|66:119,2,49.5000015106202,10|8|10,3:0|0:0|0:0,0:0:0:0:
364,80,65312,2,0,L|479:74,1,99.0000030212403,2|10,0:0|0:0,0:0:0:0:
465,22,65573,1,8,0:0:0:0:
289,338,65661,6,0,P|234:300|305:215,1,198.000006042481,14|2,0:0|0:0,0:0:0:0:
470,147,66184,2,0,L|478:92,2,49.5000015106202,2|0|8,3:0|3:0|3:0,0:0:0:0:
368,140,66533,1,2,0:0:0:0:
465,208,66707,1,10,0:0:0:0:
216,153,66881,6,0,L|4:117,1,198.000006042481,2|2,0:0|0:0,0:0:0:0:
22,44,67405,1,8,0:0:0:0:
178,76,67579,2,0,L|192:13,2,49.5000015106202,2|0|8,3:0|3:0|3:0,0:0:0:0:
79,78,67928,1,2,0:0:0:0:
237,125,68102,2,0,L|350:118,1,99.0000030212403,10|2,0:0|0:0,0:0:0:0:
84,344,68451,6,0,P|28:296|94:216,1,198.000006042481,10|8,3:0|0:0,0:0:0:0:
247,208,68975,2,0,L|316:203,1,49.5000015106202,8|8,3:0|3:0,0:0:0:0:
149,125,69149,2,0,L|14:121,1,99.0000030212403,8|0,0:0|0:0,0:0:0:0:
207,75,69411,2,0,L|318:76,1,99.0000030212403,8|0,0:0|0:0,0:0:0:0:
234,17,69672,2,0,L|163:14,1,49.5000015106202,8|0,0:0|0:0,0:0:0:0:
357,317,69847,6,0,L|360:196,1,99.0000030212403,12|0,0:0|0:0,0:0:0:0:
257,188,70195,1,8,0:0:0:0:
359,160,70370,1,0,0:0:0:0:
199,149,70544,1,8,0:0:0:0:
448,130,70719,2,0,L|451:61,1,49.5000015106202,8|8,0:0|0:0,0:0:0:0:
302,102,70893,1,8,0:0:0:0:
291,54,70980,1,8,0:0:0:0:
317,14,71067,1,8,0:0:0:0:
364,3,71154,1,8,0:0:0:0:
186,350,71242,6,0,P|133:264|220:213,1,198.000006042481,12|8,0:0|0:0,0:0:0:0:
300,182,71765,2,0,L|309:124,2,49.5000015106202,8|8|8,3:0|3:0|3:0,0:0:0:0:
192,122,72114,1,10,3:0:0:0:
351,107,72288,2,0,L|356:-4,1,99.0000030212403,10|2,0:0|0:0,0:0:0:0:
101,130,72637,6,0,L|94:24,1,99.0000030212403,10|0,3:0|0:0,0:0:0:0:
251,207,72986,2,0,L|373:214,1,99.0000030212403,10|0,0:0|3:0,0:0:0:0:
244,350,73335,2,0,L|239:251,1,99.0000030212403,10|0,3:0|0:0,0:0:0:0:
411,337,73684,2,0,L|416:238,1,99.0000030212403,10|0,0:0|0:0,0:0:0:0:
157,204,74033,6,0,P|151:126|253:63,1,198.000006042481,14|8,0:0|0:0,0:0:0:0:
344,55,74556,1,8,3:0:0:0:
94,68,74730,2,0,L|91:19,1,49.5000015106202,8|8,0:0|0:0,0:0:0:0:
241,152,74905,2,0,L|349:155,1,99.0000030212403,8|8,0:0|3:0,0:0:0:0:
48,292,75254,6,0,L|258:305,1,198.000006042481,12|8,0:0|0:0,0:0:0:0:
297,301,75690,1,8,0:0:0:0:
145,230,75777,1,8,0:0:0:0:
103,206,75864,1,8,0:0:0:0:
101,158,75951,1,8,0:0:0:0:
138,130,76038,1,8,0:0:0:0:
310,183,76126,5,8,0:0:0:0:
310,131,76213,1,8,0:0:0:0:
275,96,76300,1,10,0:0:0:0:
221,85,76387,1,8,0:0:0:0:
397,65,76475,2,0,L|462:58,1,49.5000015106202,10|8,0:0|0:0,0:0:0:0:
247,27,76649,2,0,L|172:22,1,49.5000015106202,10|8,0:0|0:0,0:0:0:0:
381,320,76823,5,14,0:0:0:0:
451,270,76997,1,2,0:0:0:0:
442,185,77171,1,2,0:0:0:0:
364,151,77346,1,2,0:0:0:0:
185,153,77695,1,2,0:0:0:0:
470,153,78044,6,0,P|465:49|371:21,1,180,2|2,0:0|0:0,0:0:0:0:
243,19,78568,2,0,L|129:22,1,90,2|8,0:0|3:0,0:0:0:0:
405,117,78916,2,0,L|498:125,1,90,8|8,0:0|3:0,0:0:0:0:
258,267,79265,1,8,0:0:0:0:
213,268,79352,1,8,0:0:0:0:
168,269,79439,1,8,3:0:0:0:
123,271,79526,1,8,3:0:0:0:
309,326,79614,6,0,L|409:338,2,90,4|8|8,0:0|3:0|3:0,0:0:0:0:
165,216,80137,2,0,L|162:124,1,90,12|0,0:0|0:0,0:0:0:0:
264,147,80486,2,0,L|268:48,1,90,8|8,3:0|3:0,0:0:0:0:
25,182,80835,6,0,P|23:107|114:54,1,180,12|0,0:0|3:0,0:0:0:0:
253,139,81358,2,0,L|359:146,1,90,10|8,3:0|3:0,0:0:0:0:
97,227,81707,1,10,0:0:0:0:
336,336,81881,2,0,P|382:307|321:201,1,180,10|2,0:0|0:0,0:0:0:0:
60,136,82405,5,14,0:0:0:0:
256,192,92347,12,0,92870,0:0:0:0:
183,167,93044,5,10,3:0:0:0:
329,149,93219,2,0,L|333:43,1,90,10|2,0:0|0:0,0:0:0:0:
77,36,93568,6,0,P|21:98|73:162,1,180,14|10,0:0|3:0,0:0:0:0:
165,184,94091,2,0,L|366:189,1,180,2|2,0:0|0:0,0:0:0:0:
198,122,94614,2,0,L|194:3,1,90,10|2,3:0|0:0,0:0:0:0:
440,207,94963,6,0,P|488:255|421:341,1,180,10|10,3:0|3:0,0:0:0:0:
344,346,95486,2,0,L|131:339,1,180,2|2,0:0|0:0,0:0:0:0:
317,274,96009,2,0,L|406:266,1,90,10|2,3:0|0:0,0:0:0:0:
160,129,96358,6,0,P|104:168|180:246,1,180,10|10,3:0|3:0,0:0:0:0:
248,295,96881,2,0,L|57:286,1,180,2|2,0:0|0:0,0:0:0:0:
224,221,97405,2,0,L|329:211,1,90,10|2,3:0|0:0,0:0:0:0:
61,194,97754,6,0,P|64:140|182:74,1,180,10|10,3:0|3:0,0:0:0:0:
254,159,98277,2,0,L|258:62,1,90,2|8,0:0|3:0,0:0:0:0:
159,71,98626,1,4,3:0:0:0:
309,45,98800,2,0,L|422:51,1,90,10|8,0:0|0:0,0:0:0:0:
445,49,99062,1,8,0:0:0:0:
286,278,99149,6,0,P|234:235|306:160,1,180,14|4,0:0|3:0,0:0:0:0:
379,151,99672,1,8,3:0:0:0:
223,118,99847,2,0,L|217:20,1,90,8|0,0:0|0:0,0:0:0:0:
308,110,100195,2,0,L|314:12,1,90,2|0,0:0|0:0,0:0:0:0:
68,326,100544,6,0,P|23:264|72:209,1,135,2|8,3:0|3:0,0:0:0:0:
94,197,100893,2,0,L|202:196,1,90,4|2,3:0|0:0,0:0:0:0:
340,336,101242,2,0,L|346:239,1,90,10|2,0:0|0:0,0:0:0:0:
109,129,101591,1,2,0:0:0:0:
71,107,101678,1,2,0:0:0:0:
68,64,101765,1,2,0:0:0:0:
102,37,101852,1,2,0:0:0:0:
257,51,101940,6,0,L|447:40,1,180,14|2,0:0|0:0,0:0:0:0:
287,131,102463,2,0,L|282:247,1,90,10|8,3:0|0:0,0:0:0:0:
437,159,102812,2,0,L|442:275,1,90,10|8,3:0|0:0,0:0:0:0:
191,279,103161,6,0,L|3:273,1,180,14|8,0:0|3:0,0:0:0:0:
99,211,103684,1,8,0:0:0:0:
347,204,103858,2,0,L|349:108,1,90,12|0,0:0|0:0,0:0:0:0:
301,111,104120,1,8,0:0:0:0:
253,103,104207,1,8,0:0:0:0:
407,50,104381,2,0,L|510:45,1,90,8|8,0:0|3:0,0:0:0:0:
221,209,104730,5,10,0:0:0:0:
363,225,104905,1,10,0:0:0:0:
221,209,105079,1,10,0:0:0:0:
479,335,105254,2,0,P|507:273|460:234,1,135,14|0,0:0|0:0,0:0:0:0:
304,149,105602,2,0,L|189:142,1,90,14|0,0:0|0:0,0:0:0:0:
467,104,105951,5,6,0:0:0:0:
256,192,106126,12,0,106823,0:0:0:0:
326,237,106998,6,0,L|424:234,2,90,2|2|2,0:0|0:0|0:0,0:0:0:0:
84,219,107521,2,0,P|33:174|94:96,1,180,14|2,0:0|0:0,0:0:0:0:
178,98,108044,1,10,3:0:0:0:
37,49,108219,2,0,L|33:-4,1,45,8|8,0:0|0:0,0:0:0:0:
187,22,108393,1,10,0:0:0:0:
232,20,108480,1,8,0:0:0:0:
277,19,108567,1,10,0:0:0:0:
322,17,108654,1,8,0:0:0:0:
156,48,108742,6,0,P|112:77|166:167,1,180,14|8,0:0|3:0,0:0:0:0:
298,184,109265,2,0,L|301:295,1,90,8|2,0:0|0:0,0:0:0:0:
42,218,109614,2,0,L|37:321,1,90,12|2,0:0|0:0,0:0:0:0:
189,287,109876,2,0,L|292:291,1,90,12|0,0:0|0:0,0:0:0:0:
113,337,110137,2,0,L|49:340,1,45,14|8,0:0|0:0,0:0:0:0:
246,339,110312,6,0,L|452:345,1,198.000006042481,14|10,0:0|0:0,0:0:0:0:
293,259,110836,2,0,L|294:147,1,99.0000030212403,2|8,0:0|3:0,0:0:0:0:
459,122,111185,2,0,L|347:118,1,99.0000030212403,2|10,0:0|0:0,0:0:0:0:
113,161,111533,6,0,P|46:201|126:266,1,198.000006042481,2|2,0:0|0:0,0:0:0:0:
267,175,112057,2,0,L|378:167,1,99.0000030212403,10|2,0:0|0:0,0:0:0:0:
363,103,112318,1,0,0:0:0:0:
314,73,112405,1,10,3:0:0:0:
213,86,112580,1,2,0:0:0:0:
373,244,112754,2,0,L|381:352,1,99.0000030212403,10|2,0:0|0:0,0:0:0:0:
148,220,113103,6,0,P|86:257|157:333,1,198.000006042481,6|10,0:0|0:0,0:0:0:0:
306,161,113626,2,0,L|317:102,2,49.5000015106202,2|0|8,0:0|0:0|3:0,0:0:0:0:
153,127,113975,2,0,L|45:128,1,99.0000030212403,2|10,0:0|0:0,0:0:0:0:
314,324,114324,6,0,L|93:263,1,198.000006042481,2|0,0:0|0:0,0:0:0:0:
358,198,114847,2,0,L|363:301,1,99.0000030212403,10|8,0:0|0:0,0:0:0:0:
312,308,115109,1,8,0:0:0:0:
162,35,115196,5,10,0:0:0:0:
121,62,115283,1,8,0:0:0:0:
115,109,115370,1,8,0:0:0:0:
148,145,115457,1,8,0:0:0:0:
323,143,115545,2,0,L|399:144,1,49.5000015106202,10|8,0:0|0:0,0:0:0:0:
380,88,115719,1,8,0:0:0:0:
117,224,115894,6,0,L|7:230,2,99.0000030212403,14|2|10,0:0|3:0|0:0,0:0:0:0:
276,234,116416,2,0,L|286:285,2,49.5000015106202,2|0|8,3:0|3:0|3:0,0:0:0:0:
20,168,116765,6,0,L|140:175,2,99.0000030212403,2|10|2,3:0|0:0|0:0,0:0:0:0:
25,106,117289,1,8,3:0:0:0:
287,93,117464,6,0,L|397:95,2,99.0000030212403,2|10|10,0:0|0:0|0:0,0:0:0:0:
237,94,117900,1,8,0:0:0:0:
394,235,117987,2,0,L|433:264,2,49.5000015106202,10|8|10,3:0|0:0|0:0,0:0:0:0:
148,304,118336,2,0,L|33:310,1,99.0000030212403,2|10,0:0|0:0,0:0:0:0:
100,362,118597,1,8,0:0:0:0:
276,46,118685,6,0,P|331:84|260:169,1,198.000006042481,14|2,0:0|0:0,0:0:0:0:
113,236,119207,2,0,L|105:291,2,49.5000015106202,2|0|8,3:0|3:0|3:0,0:0:0:0:
215,243,119556,1,2,0:0:0:0:
118,175,119731,1,10,0:0:0:0:
416,167,119905,6,0,P|485:228|399:280,1,198.000006042481,2|2,0:0|0:0,0:0:0:0:
326,310,120429,1,8,0:0:0:0:
170,278,120603,2,0,L|156:341,2,49.5000015106202,2|0|8,3:0|3:0|3:0,0:0:0:0:
269,276,120952,1,2,0:0:0:0:
105,145,121126,2,0,L|101:252,1,99.0000030212403,10|2,0:0|0:0,0:0:0:0:
376,56,121475,6,0,P|432:104|366:184,1,198.000006042481,10|8,3:0|0:0,0:0:0:0:
215,135,121999,2,0,L|140:139,1,49.5000015106202,8|8,3:0|3:0,0:0:0:0:
330,244,122173,2,0,L|465:248,1,99.0000030212403,8|0,0:0|0:0,0:0:0:0:
241,288,122435,2,0,L|130:287,1,99.0000030212403,8|0,0:0|0:0,0:0:0:0:
214,346,122696,2,0,L|285:349,1,49.5000015106202,8|0,0:0|0:0,0:0:0:0:
91,46,122871,6,0,L|88:167,1,99.0000030212403,12|0,0:0|0:0,0:0:0:0:
241,186,123219,2,0,L|362:193,1,99.0000030212403,8|0,0:0|0:0,0:0:0:0:
177,207,123568,1,8,0:0:0:0:
435,266,123743,2,0,L|507:270,1,49.5000015106202,8|8,0:0|0:0,0:0:0:0:
308,354,123916,1,8,0:0:0:0:
308,305,124003,1,8,0:0:0:0:
340,269,124090,1,8,0:0:0:0:
388,263,124177,1,8,0:0:0:0:
221,49,124266,6,0,P|141:82|148:188,1,198.000006042481,12|8,0:0|0:0,0:0:0:0:
244,219,124789,2,0,L|253:277,2,49.5000015106202,8|8|8,3:0|3:0|3:0,0:0:0:0:
136,279,125138,1,10,3:0:0:0:
290,273,125312,2,0,L|398:274,1,99.0000030212403,10|2,0:0|0:0,0:0:0:0:
101,254,125661,6,0,L|94:360,1,99.0000030212403,10|0,3:0|0:0,0:0:0:0:
251,177,126010,2,0,L|373:170,1,99.0000030212403,10|0,0:0|3:0,0:0:0:0:
244,34,126359,2,0,L|239:133,1,99.0000030212403,10|0,3:0|0:0,0:0:0:0:
411,47,126708,2,0,L|416:146,1,99.0000030212403,10|0,0:0|0:0,0:0:0:0:
157,180,127057,6,0,P|151:258|253:321,1,198.000006042481,14|8,0:0|0:0,0:0:0:0:
344,329,127580,1,8,3:0:0:0:
94,316,127754,2,0,L|91:365,1,49.5000015106202,8|8,0:0|0:0,0:0:0:0:
241,232,127929,2,0,L|349:229,1,99.0000030212403,8|8,0:0|3:0,0:0:0:0:
48,92,128278,6,0,L|258:79,1,198.000006042481,12|8,0:0|0:0,0:0:0:0:
297,83,128714,1,8,0:0:0:0:
145,154,128801,1,8,0:0:0:0:
103,178,128888,1,8,0:0:0:0:
101,226,128975,1,8,0:0:0:0:
138,254,129062,1,8,0:0:0:0:
310,201,129150,5,8,0:0:0:0:
310,253,129237,1,8,0:0:0:0:
275,288,129324,1,10,0:0:0:0:
221,299,129411,1,8,0:0:0:0:
397,319,129499,2,0,L|403:376,1,49.5000015106202,10|8,0:0|0:0,0:0:0:0:
202,356,129673,2,0,L|127:361,1,49.5000015106202,10|8,0:0|0:0,0:0:0:0:
335,66,129847,6,0,P|416:113|337:231,1,270,6|0,0:0|0:0,0:0:0:0:
243,235,130544,1,0,0:0:0:0:
149,238,130719,1,2,0:0:0:0:
302,163,130893,2,0,L|303:64,1,90,2|2,0:0|0:0,0:0:0:0:
61,45,131242,6,0,L|248:54,1,180,2|2,0:0|0:0,0:0:0:0:
57,129,131940,2,0,L|244:138,1,180,2|2,0:0|0:0,0:0:0:0:
327,144,132463,1,2,0:0:0:0:
96,311,132637,6,0,P|41:277|114:208,1,180,14|2,0:0|0:0,0:0:0:0:
192,203,133161,1,2,0:0:0:0:
283,199,133335,2,0,L|377:197,2,90,2|2|2,0:0|0:0|0:0,0:0:0:0:
126,136,133858,2,0,L|121:82,1,45,8|8,0:0|0:0,0:0:0:0:
297,170,134033,6,0,P|349:110|284:39,1,180,8|8,0:0|0:0,0:0:0:0:
132,42,134556,2,0,L|312:31,1,180,8|0,3:0|0:0,0:0:0:0:
149,125,135079,2,0,L|144:219,1,90,8|0,3:0|0:0,0:0:0:0:
423,255,135428,5,12,0:0:0:0:
256,192,135602,12,0,138219,0:0:0:0:
