osu file format v14

[General]
AudioFilename: audio.mp3
AudioLeadIn: 0
PreviewTime: 57474
Countdown: 1
SampleSet: Soft
StackLeniency: 0.7
Mode: 0
LetterboxInBreaks: 0
WidescreenStoryboard: 0

[Editor]
Bookmarks: 6224
DistanceSpacing: 0.3
BeatDivisor: 4
GridSize: 4
TimelineZoom: 2.3

[Metadata]
Title:Train to Train
TitleUnicode:トレイン to トレイン
Artist:Minami Kurihashi (CV:Aya Hirano)
ArtistUnicode:栗橋みなみ (CV:平野綾)
Creator:Lufu
Version:I love my station!
Source:鉄道むすめ
Tags:trainroll tetsudou musume
BeatmapID:1447368
BeatmapSetID:683879

[Difficulty]
HPDrainRate:6
CircleSize:4
OverallDifficulty:8
ApproachRate:9
SliderMultiplier:1.6
SliderTickRate:1

[Events]
//Background and Video events
0,0,"cutebg.png",0,0
//Break Periods
2,17495,23124
//Storyboard Layer 0 (Background)
//Storyboard Layer 1 (Fail)
//Storyboard Layer 2 (Pass)
//Storyboard Layer 3 (Foreground)
//Storyboard Sound Samples

[TimingPoints]
510,357.142857142857,4,2,0,60,1,0
23724,-125,4,2,0,60,0,0
28188,-100,4,2,0,60,0,0
29438,-125,4,2,0,60,0,0
34081,-100,4,2,0,60,0,0
34795,-125,4,2,0,60,0,0
45331,-100,4,2,0,60,0,0
46581,-125,4,2,0,60,0,0
51224,-100,4,2,0,60,0,0
51932,-125,4,2,0,60,0,0
57652,-83.3333333333333,4,2,0,60,0,1
69081,-125,4,2,0,60,0,0
79974,-66.6666666666667,4,2,0,60,0,0

[HitObjects]
176,92,6224,5,0,0:0:0:0:
108,280,6402,1,0,0:0:0:0:
235,220,6581,1,0,0:0:0:0:
48,151,6759,1,0,0:0:0:0:
196,60,6938,2,0,P|236:52|288:68,1,80
408,164,7295,2,0,P|368:172|316:156,1,80
468,108,7652,6,0,P|492:168|452:232,1,120
400,280,8009,1,0,0:0:0:0:
256,336,8188,2,0,P|196:352|128:328,1,120
48,276,8545,2,0,P|104:208|200:236,1,200
272,320,9081,5,0,0:0:0:0:
408,236,9259,1,0,0:0:0:0:
272,152,9438,1,0,0:0:0:0:
408,68,9616,1,0,0:0:0:0:
260,20,9795,2,0,P|220:12|168:28,1,80
72,128,10152,2,0,P|112:136|164:120,1,80
288,40,10509,6,0,B|320:104|252:104|304:180,1,120
340,248,10866,1,0,0:0:0:0:
480,172,11045,2,0,P|416:148|356:192,1,120
252,236,11402,2,0,B|208:260|208:260|88:220,1,160
196,64,11938,5,0,0:0:0:0:
356,88,12116,1,0,0:0:0:0:
220,160,12295,1,0,0:0:0:0:
60,136,12473,1,0,0:0:0:0:
264,24,12652,2,0,P|276:68|256:112,1,80
148,200,13009,2,0,P|136:156|156:112,1,80
372,107,13366,5,0,0:0:0:0:
422,259,13545,1,0,0:0:0:0:
271,311,13723,1,0,0:0:0:0:
220,160,13902,1,0,0:0:0:0:
440,68,14081,2,0,P|452:112|432:156,1,80
271,311,14438,2,0,P|259:267|279:223,1,80
357,61,14795,5,0,0:0:0:0:
386,253,14973,1,0,0:0:0:0:
249,115,15152,1,0,0:0:0:0:
441,143,15331,1,0,0:0:0:0:
269,235,15509,2,0,P|229:243|177:227,1,80
357,61,15866,2,0,P|397:53|449:69,1,80
180,156,16223,5,0,0:0:0:0:
436,352,16581,1,0,0:0:0:0:
120,320,16938,1,0,0:0:0:0:
404,168,17295,1,0,0:0:0:0:
156,184,23724,6,0,P|120:188|68:176,1,64
212,92,24081,2,0,P|248:88|300:100,1,64
392,124,24438,1,0,0:0:0:0:
444,232,24617,1,0,0:0:0:0:
392,340,24795,2,0,P|356:344|312:332,1,64
176,268,25152,1,0,0:0:0:0:
24,188,25331,2,0,B|120:120|120:228|224:160,1,192
416,72,26224,6,0,L|504:80,1,64
320,116,26581,2,0,L|232:108,1,64
424,168,26938,2,0,P|428:212|416:248,1,64
316,228,27295,2,0,P|312:272|324:308,1,64
436,332,27652,1,0,0:0:0:0:
216,356,27831,1,0,0:0:0:0:
48,124,28188,6,0,L|148:136,1,80
248,144,28545,1,0,0:0:0:0:
396,212,28724,2,0,L|416:212,6,20
288,236,29081,1,0,0:0:0:0:
388,40,29438,6,0,P|352:36|300:48,1,64
248,144,29795,2,0,P|284:148|336:136,1,64
428,116,30152,1,0,0:0:0:0:
484,220,30331,1,0,0:0:0:0:
428,328,30509,2,0,P|396:336|360:328,1,64
236,288,30867,1,0,0:0:0:0:
104,328,31045,2,0,B|64:276|64:276|116:220|76:144,1,192
244,48,31938,6,0,L|320:56,1,64
408,152,32295,2,0,L|344:145,1,64
244,224,32652,2,0,L|320:232,1,64
408,328,33009,2,0,L|344:321,1,64
192,304,33367,5,0,0:0:0:0:
416,240,33545,1,0,0:0:0:0:
120,244,33902,1,0,0:0:0:0:
320,64,34081,2,0,P|340:116|308:180,1,120
236,228,34438,2,0,L|204:228,6,20
328,256,34795,6,0,B|396:296|396:224|460:268,1,128
260,120,35331,2,0,B|192:80|192:152|128:108,1,128
16,60,35867,1,0,0:0:0:0:
44,192,36045,2,0,P|72:252|172:252,1,160
256,224,36581,2,0,L|336:240,1,64
460,148,36938,2,0,L|344:124,1,96
280,60,37295,2,0,P|324:40|380:48,1,96
472,72,37652,1,0,0:0:0:0:
200,200,38009,6,0,B|152:208|152:208|116:177,1,96
36,160,38367,2,0,P|80:104|156:104,1,128
360,148,39081,2,0,P|312:160|252:140,1,96
216,84,39438,1,0,0:0:0:0:
272,232,39617,1,0,0:0:0:0:
124,180,39795,2,0,L|88:188,3,32
180,328,40152,2,0,L|216:320,3,32
32,276,40509,5,0,0:0:0:0:
168,80,40867,2,0,P|204:72|240:84,1,64
372,168,41224,2,0,P|336:176|300:164,1,64
436,68,41581,1,0,0:0:0:0:
488,188,41759,1,0,0:0:0:0:
420,312,41938,2,0,L|336:316,1,64
236,292,42295,1,0,0:0:0:0:
60,168,42474,2,0,B|112:208|180:172|180:172|200:196|248:204,1,192
396,240,43367,6,0,L|460:224,1,64
476,96,43724,2,0,L|396:116,1,64
268,160,44081,1,0,0:0:0:0:
360,172,44259,1,0,0:0:0:0:
324,84,44438,1,0,0:0:0:0:
28,140,44795,5,0,0:0:0:0:
236,76,44974,1,0,0:0:0:0:
224,336,45331,2,0,L|348:316,1,120
464,292,45688,1,0,0:0:0:0:
504,164,45867,2,0,L|472:164,6,20
448,52,46224,1,0,0:0:0:0:
212,204,46581,5,0,0:0:0:0:
280,68,46759,1,0,0:0:0:0:
360,204,46938,1,0,0:0:0:0:
198,114,47117,1,0,0:0:0:0:
368,108,47295,1,0,0:0:0:0:
286,264,47474,1,0,0:0:0:0:
148,200,47652,2,0,L|240:205,1,64
368,208,48009,1,0,0:0:0:0:
468,56,48188,2,0,B|412:76|412:76|368:52|368:52|328:80|284:64,1,192
80,256,49081,6,0,L|168:256,1,64
296,172,49438,2,0,L|216:172,1,64
80,88,49795,2,0,B|128:100|128:100|180:88,1,96
264,36,50152,1,0,0:0:0:0:
348,88,50331,1,0,0:0:0:0:
248,288,50509,5,0,0:0:0:0:
456,204,50688,1,0,0:0:0:0:
116,240,51045,1,0,0:0:0:0:
324,124,51224,2,0,P|344:176|316:240,1,120
248,288,51581,2,0,L|216:296,6,20
328,336,51938,6,0,B|396:376|396:304|460:348,1,128
256,208,52474,2,0,B|188:168|188:240|124:196,1,128
32,120,53009,1,0,0:0:0:0:
144,52,53188,2,0,B|180:32|180:32|208:48|208:48|248:72|296:44,1,160
384,24,53724,2,0,L|400:104,1,64
416,192,54081,2,0,P|372:208|320:188,1,96
236,156,54438,2,0,B|192:140|192:140|136:160,1,96
52,200,54795,1,0,0:0:0:0:
296,304,55152,5,0,0:0:0:0:
296,304,55331,1,0,0:0:0:0:
296,304,55509,1,0,0:0:0:0:
296,304,55688,1,0,0:0:0:0:
296,304,55867,1,0,0:0:0:0:
296,304,56045,1,0,0:0:0:0:
296,304,56224,1,0,0:0:0:0:
296,304,56402,1,0,0:0:0:0:
296,304,56581,1,0,0:0:0:0:
296,304,56759,1,0,0:0:0:0:
296,304,56938,1,0,0:0:0:0:
456,252,57117,5,0,0:0:0:0:
456,252,57206,1,0,0:0:0:0:
456,252,57295,1,0,0:0:0:0:
184,84,57652,6,0,P|260:56|360:92,1,191.999994140625
184,216,58188,2,0,P|108:244|8:208,1,191.999994140625
228,336,58724,1,0,0:0:0:0:
436,320,58902,2,0,P|444:284|424:220,1,95.9999970703126
268,80,59259,1,0,0:0:0:0:
328,296,59438,1,0,0:0:0:0:
428,96,59617,1,0,0:0:0:0:
224,216,59795,2,0,P|180:228|120:212,2,95.9999970703126
348,160,60331,1,0,0:0:0:0:
152,316,60509,6,0,P|32:213|188:136,1,383.99998828125
248,308,61402,1,0,0:0:0:0:
260,72,61581,1,0,0:0:0:0:
360,316,61759,1,0,0:0:0:0:
436,64,61938,6,0,B|496:124|452:196|404:208|404:208|312:136|208:224,1,383.99998828125
480,284,62831,1,0,0:0:0:0:
480,284,62920,1,0,0:0:0:0:
480,284,63009,1,0,0:0:0:0:
348,92,63188,1,0,0:0:0:0:
104,144,63367,6,0,P|68:224|120:332,1,191.999994140625
236,196,63902,2,0,P|270:109|234:22,1,191.999994140625
420,136,64438,1,0,0:0:0:0:
368,336,64617,2,0,B|312:364|268:340|268:340|224:356|224:356|164:332,1,191.999994140625
108,120,65152,2,0,B|156:132|156:132|220:116,2,95.9999970703126
216,20,65688,1,0,0:0:0:0:
180,228,65867,1,0,0:0:0:0:
380,136,66045,1,0,0:0:0:0:
492,332,66224,6,0,B|324:404|324:196|124:368,1,383.99998828125
399,244,67117,1,0,0:0:0:0:
208,120,67295,1,0,0:0:0:0:
424,40,67474,1,0,0:0:0:0:
232,211,67652,6,0,B|183:254|123:245|79:195|79:195|145:135|129:55|61:22,1,383.99998828125
284,148,68545,1,0,0:0:0:0:
24,112,68724,1,0,0:0:0:0:
172,312,68902,1,0,0:0:0:0:
408,204,69081,5,0,0:0:0:0:
136,104,70509,5,0,0:0:0:0:
232,176,70777,1,0,0:0:0:0:
336,104,71045,1,0,0:0:0:0:
232,276,71224,1,0,0:0:0:0:
436,176,71492,1,0,0:0:0:0:
376,352,71670,2,0,L|328:356,1,32
152,368,71938,1,0,0:0:0:0:
168,80,73367,5,0,0:0:0:0:
326,105,73545,1,0,0:0:0:0:
300,264,73724,1,0,0:0:0:0:
142,238,73902,1,0,0:0:0:0:
300,264,74081,2,0,L|376:280,1,64
168,80,74438,2,0,L|92:64,1,64
32,208,74795,5,0,0:0:0:0:
368,160,75152,1,0,0:0:0:0:
200,160,75331,1,0,0:0:0:0:
436,88,75688,2,0,P|464:136|424:240,1,160
324,280,76224,5,0,0:0:0:0:
168,292,76402,1,0,0:0:0:0:
264,168,76581,1,0,0:0:0:0:
108,180,76759,1,0,0:0:0:0:
204,56,76938,2,0,P|240:52|276:60,1,64
420,148,77295,2,0,P|384:152|348:144,1,64
480,280,77652,5,0,0:0:0:0:
168,308,78009,1,0,0:0:0:0:
320,256,78188,1,0,0:0:0:0:
424,60,78545,2,0,B|348:44|348:44|248:60,1,160
148,96,79081,5,0,0:0:0:0:
348,136,79259,1,0,0:0:0:0:
148,96,79438,1,0,0:0:0:0:
348,136,79617,1,0,0:0:0:0:
96,300,80063,2,0,L|288:284,1,180.000006866455
