osu file format v14

[General]
AudioFilename: op.mp3
AudioLeadIn: 0
PreviewTime: 54231
Countdown: 0
SampleSet: Normal
StackLeniency: 0.7
Mode: 1
LetterboxInBreaks: 0
WidescreenStoryboard: 0

[Editor]
DistanceSpacing: 1
BeatDivisor: 2
GridSize: 32
TimelineZoom: 1

[Metadata]
Title:ZERO!! (Short Size)
TitleUnicode:ZERO!! (Short Size)
Artist:Minami Kuribayashi
ArtistUnicode:栗林みな実
Creator:qoot8123
Version:Kantan
Source:はたらく魔王さま!
Tags:Opening WHITE FOX The Devil is a Part-Timer! Hataraku Maou-sama! はたらくまおうさま!
BeatmapID:295860
BeatmapSetID:114189

[Difficulty]
HPDrainRate:7
CircleSize:5
OverallDifficulty:3
ApproachRate:5
SliderMultiplier:1.2
SliderTickRate:1

[Events]
//Background and Video events
0,0,"bg.jpg",0,0
//Break Periods
//Storyboard Layer 0 (Background)
//Storyboard Layer 1 (Fail)
//Storyboard Layer 2 (Pass)
//Storyboard Layer 3 (Foreground)
//Storyboard Sound Samples

[TimingPoints]
495,329.67032967033,4,1,0,90,1,0
54560,-100,4,1,0,90,0,1
78132,-100,4,1,0,90,0,0

[Colours]
Combo1 : 255,128,64
Combo2 : 255,128,255

[HitObjects]
256,192,495,5,4,0:0:0:0:
256,192,1813,1,8,0:0:0:0:
256,192,3132,1,4,0:0:0:0:
256,192,5769,1,4,0:0:0:0:
256,192,7088,1,8,0:0:0:0:
256,192,8407,1,0,0:0:0:0:
256,192,8736,1,8,0:0:0:0:
256,192,9066,1,8,0:0:0:0:
256,192,9560,1,4,0:0:0:0:
256,192,10549,1,8,0:0:0:0:
256,192,10714,1,8,0:0:0:0:
256,192,11044,1,4,0:0:0:0:
256,192,12363,1,0,0:0:0:0:
256,192,13022,1,0,0:0:0:0:
256,192,13352,1,8,0:0:0:0:
256,192,13681,1,0,0:0:0:0:
256,192,14341,1,8,0:0:0:0:
256,192,15000,1,0,0:0:0:0:
256,192,16319,1,0,0:0:0:0:
256,192,16978,1,8,0:0:0:0:
256,192,17637,1,0,0:0:0:0:
256,192,18956,1,0,0:0:0:0:
256,192,19615,1,8,0:0:0:0:
256,192,20110,1,0,0:0:0:0:
256,192,20604,1,8,0:0:0:0:
256,192,21593,1,4,0:0:0:0:
256,192,22912,1,0,0:0:0:0:
256,192,23571,1,8,0:0:0:0:
256,192,23901,1,8,0:0:0:0:
256,192,24231,1,0,0:0:0:0:
256,192,24890,1,8,0:0:0:0:
256,192,25549,1,0,0:0:0:0:
256,192,26209,1,8,0:0:0:0:
256,192,26538,1,8,0:0:0:0:
256,192,26868,1,0,0:0:0:0:
256,192,28187,1,0,0:0:0:0:
256,192,29176,1,8,0:0:0:0:
256,192,29505,1,0,0:0:0:0:
256,192,30165,1,8,0:0:0:0:
256,192,30659,1,4,0:0:0:0:
256,192,32143,1,4,0:0:0:0:
256,192,33462,1,0,0:0:0:0:
256,192,34121,1,0,0:0:0:0:
256,192,34451,1,8,0:0:0:0:
256,192,34780,1,0,0:0:0:0:
256,192,35440,1,8,0:0:0:0:
256,192,36099,1,0,0:0:0:0:
256,192,36758,1,8,0:0:0:0:
256,192,37088,1,0,0:0:0:0:
256,192,37418,1,4,0:0:0:0:
256,192,38736,1,0,0:0:0:0:
256,192,39396,1,8,0:0:0:0:
256,192,40055,1,0,0:0:0:0:
256,192,41374,1,0,0:0:0:0:
256,192,42033,1,8,0:0:0:0:
256,192,42363,1,8,0:0:0:0:
256,192,42692,1,4,0:0:0:0:
256,192,44011,1,0,0:0:0:0:
256,192,44670,1,0,0:0:0:0:
256,192,45000,1,8,0:0:0:0:
256,192,45330,1,0,0:0:0:0:
256,192,45989,1,8,0:0:0:0:
256,192,46648,1,0,0:0:0:0:
256,192,47308,1,8,0:0:0:0:
256,192,47637,1,8,0:0:0:0:
256,192,47967,1,4,0:0:0:0:
256,192,49121,1,4,0:0:0:0:
256,192,50604,1,0,0:0:0:0:
256,192,51264,1,8,0:0:0:0:
256,192,51593,1,8,0:0:0:0:
256,192,51923,1,0,0:0:0:0:
256,192,52582,1,8,0:0:0:0:
256,192,52912,1,8,0:0:0:0:
256,192,53242,12,0,54231,0:0:0:0:
256,192,54560,5,4,0:0:0:0:
256,192,54890,1,8,0:0:0:0:
256,192,55549,1,8,0:0:0:0:
256,192,56209,1,8,0:0:0:0:
256,192,56538,1,0,0:0:0:0:
256,192,56868,1,8,0:0:0:0:
256,192,57527,1,8,0:0:0:0:
256,192,58187,1,8,0:0:0:0:
256,192,58516,1,0,0:0:0:0:
256,192,59176,1,8,0:0:0:0:
256,192,59835,1,4,0:0:0:0:
256,192,60495,1,0,0:0:0:0:
256,192,60989,1,8,0:0:0:0:
256,192,61484,1,8,0:0:0:0:
256,192,62473,1,0,0:0:0:0:
256,192,63132,1,8,0:0:0:0:
256,192,63626,1,0,0:0:0:0:
256,192,64121,1,8,0:0:0:0:
256,192,64780,1,8,0:0:0:0:
256,192,65110,1,4,0:0:0:0:
256,192,65440,1,8,0:0:0:0:
256,192,66099,1,8,0:0:0:0:
256,192,66758,1,8,0:0:0:0:
256,192,67088,1,0,0:0:0:0:
256,192,67418,1,8,0:0:0:0:
256,192,68077,1,8,0:0:0:0:
256,192,68736,1,8,0:0:0:0:
256,192,69066,1,0,0:0:0:0:
256,192,69725,1,8,0:0:0:0:
256,192,70385,1,0,0:0:0:0:
256,192,71044,1,8,0:0:0:0:
256,192,72363,1,8,0:0:0:0:
256,192,73022,1,0,0:0:0:0:
256,192,73352,1,8,0:0:0:0:
256,192,74011,1,8,0:0:0:0:
256,192,74670,1,8,0:0:0:0:
256,192,75000,1,0,0:0:0:0:
256,192,75330,1,8,0:0:0:0:
256,192,75659,1,4,0:0:0:0:
256,192,76319,1,8,0:0:0:0:
256,192,76978,1,0,0:0:0:0:
256,192,77308,1,8,0:0:0:0:
256,192,77637,1,8,0:0:0:0:
256,192,78132,1,4,0:0:0:0:
256,192,79615,1,0,0:0:0:0:
256,192,80275,1,8,0:0:0:0:
256,192,80934,1,0,0:0:0:0:
256,192,82253,5,0,0:0:0:0:
256,192,82912,5,0,0:0:0:0:
256,192,83242,1,8,0:0:0:0:
256,192,83571,1,4,0:0:0:0:
256,192,84560,1,0,0:0:0:0:
256,192,84890,1,8,0:0:0:0:
256,192,85549,1,8,0:0:0:0:
256,192,85879,1,8,0:0:0:0:
256,192,86209,1,0,0:0:0:0:
256,192,86538,5,8,0:0:0:0:
256,192,87363,5,4,0:0:0:0:
