osu file format v14

[General]
AudioFilename: op.mp3
AudioLeadIn: 0
PreviewTime: 54231
Countdown: 0
SampleSet: Normal
StackLeniency: 0.7
Mode: 1
LetterboxInBreaks: 0
WidescreenStoryboard: 0

[Editor]
DistanceSpacing: 1
BeatDivisor: 4
GridSize: 32
TimelineZoom: 1

[Metadata]
Title:ZERO!! (Short Size)
TitleUnicode:ZERO!! (Short Size)
Artist:Minami Kuribayashi
ArtistUnicode:栗林みな実
Creator:qoot8123
Version:Futsuu
Source:はたらく魔王さま!
Tags:Opening WHITE FOX The Devil is a Part-Timer! Hataraku Maou-sama! はたらくまおうさま!
BeatmapID:295858
BeatmapSetID:114189

[Difficulty]
HPDrainRate:6.5
CircleSize:5
OverallDifficulty:4
ApproachRate:5
SliderMultiplier:1.4
SliderTickRate:1

[Events]
//Background and Video events
0,0,"bg.jpg",0,0
//Break Periods
//Storyboard Layer 0 (Background)
//Storyboard Layer 1 (Fail)
//Storyboard Layer 2 (Pass)
//Storyboard Layer 3 (Foreground)
//Storyboard Sound Samples

[TimingPoints]
495,329.67032967033,4,1,0,90,1,0
54560,-100,4,1,0,90,0,1
78132,-100,4,1,0,90,0,0

[Colours]
Combo1 : 255,128,64
Combo2 : 255,128,255

[HitObjects]
256,192,495,5,4,0:0:0:0:
256,192,1154,1,8,0:0:0:0:
256,192,2473,1,8,0:0:0:0:
256,192,2802,1,0,0:0:0:0:
256,192,3132,1,4,0:0:0:0:
256,192,3791,1,8,0:0:0:0:
256,192,4945,1,0,0:0:0:0:
256,192,5110,1,8,0:0:0:0:
256,192,5440,1,8,0:0:0:0:
256,192,5769,1,4,0:0:0:0:
256,192,6429,1,0,0:0:0:0:
256,192,7088,1,8,0:0:0:0:
256,192,8407,1,4,0:0:0:0:
256,192,8736,1,8,0:0:0:0:
256,192,9066,1,8,0:0:0:0:
256,192,9231,1,8,0:0:0:0:
256,192,9560,1,4,0:0:0:0:
256,192,10055,1,8,0:0:0:0:
256,192,10549,1,8,0:0:0:0:
256,192,10714,1,8,0:0:0:0:
256,192,11044,1,4,0:0:0:0:
256,192,11703,1,8,0:0:0:0:
256,192,12363,1,0,0:0:0:0:
256,192,13022,1,0,0:0:0:0:
256,192,13352,1,8,0:0:0:0:
256,192,13681,1,0,0:0:0:0:
256,192,14341,1,8,0:0:0:0:
256,192,15000,1,0,0:0:0:0:
256,192,15330,1,8,0:0:0:0:
256,192,15659,1,0,0:0:0:0:
256,192,15824,1,0,0:0:0:0:
256,192,15989,1,8,0:0:0:0:
256,192,16319,1,0,0:0:0:0:
256,192,16978,1,8,0:0:0:0:
256,192,17637,1,0,0:0:0:0:
256,192,17967,1,8,0:0:0:0:
256,192,18297,1,0,0:0:0:0:
256,192,18626,1,8,0:0:0:0:
256,192,18791,1,0,0:0:0:0:
256,192,18956,1,0,0:0:0:0:
256,192,19780,1,0,0:0:0:0:
256,192,20110,1,4,0:0:0:0:
256,192,20604,1,8,0:0:0:0:
256,192,21099,1,8,0:0:0:0:
256,192,21264,1,8,0:0:0:0:
256,192,21593,1,4,0:0:0:0:
256,192,22253,1,0,0:0:0:0:
256,192,22912,1,8,0:0:0:0:
256,192,23571,1,8,0:0:0:0:
256,192,23901,1,8,0:0:0:0:
256,192,24231,1,0,0:0:0:0:
256,192,24890,1,8,0:0:0:0:
256,192,25549,1,0,0:0:0:0:
256,192,25879,1,8,0:0:0:0:
256,192,26209,1,0,0:0:0:0:
256,192,26374,1,0,0:0:0:0:
256,192,26538,1,8,0:0:0:0:
256,192,26868,1,0,0:0:0:0:
256,192,27198,1,8,0:0:0:0:
256,192,27857,1,8,0:0:0:0:
256,192,28187,1,0,0:0:0:0:
256,192,28516,1,8,0:0:0:0:
256,192,29176,1,8,0:0:0:0:
256,192,29505,1,0,0:0:0:0:
256,192,29835,1,8,0:0:0:0:
256,192,30165,1,8,0:0:0:0:
256,192,30330,1,8,0:0:0:0:
256,192,30659,1,4,0:0:0:0:
256,192,31154,1,8,0:0:0:0:
256,192,31484,1,0,0:0:0:0:
256,192,31648,1,0,0:0:0:0:
256,192,31813,1,8,0:0:0:0:
256,192,32143,1,4,0:0:0:0:
256,192,32802,1,0,0:0:0:0:
256,192,33132,1,8,0:0:0:0:
256,192,33462,1,0,0:0:0:0:
256,192,34121,1,0,0:0:0:0:
256,192,34451,1,8,0:0:0:0:
256,192,34780,1,0,0:0:0:0:
256,192,35110,1,8,0:0:0:0:
256,192,35275,1,8,0:0:0:0:
256,192,35440,1,0,0:0:0:0:
224,192,35769,1,8,0:0:0:0:
256,192,36099,1,0,0:0:0:0:
256,192,36758,1,0,0:0:0:0:
256,192,36923,1,0,0:0:0:0:
256,192,37088,1,8,0:0:0:0:
256,192,37418,1,4,0:0:0:0:
256,192,37747,1,8,0:0:0:0:
256,192,38407,1,8,0:0:0:0:
256,192,38736,1,0,0:0:0:0:
256,192,39066,1,8,0:0:0:0:
256,192,39725,1,8,0:0:0:0:
256,192,40055,1,0,0:0:0:0:
256,192,40385,1,8,0:0:0:0:
256,192,41044,1,8,0:0:0:0:
256,192,41374,1,0,0:0:0:0:
256,192,41703,1,8,0:0:0:0:
256,192,42033,1,0,0:0:0:0:
256,192,42198,1,0,0:0:0:0:
256,192,42363,1,8,0:0:0:0:
256,192,42692,1,4,0:0:0:0:
256,192,43352,1,0,0:0:0:0:
256,192,43681,1,8,0:0:0:0:
256,192,44011,1,0,0:0:0:0:
256,192,44670,1,0,0:0:0:0:
256,192,45000,1,8,0:0:0:0:
256,192,45330,1,0,0:0:0:0:
256,192,45659,1,8,0:0:0:0:
256,192,45824,1,8,0:0:0:0:
256,192,45989,1,0,0:0:0:0:
256,192,46319,1,8,0:0:0:0:
256,192,46648,1,0,0:0:0:0:
256,192,47308,1,0,0:0:0:0:
256,192,47637,1,8,0:0:0:0:
256,192,47967,1,4,0:0:0:0:
256,192,48462,1,0,0:0:0:0:
256,192,48791,1,8,0:0:0:0:
256,192,49121,1,4,0:0:0:0:
256,192,49615,1,8,0:0:0:0:
256,160,50110,1,0,0:0:0:0:
256,192,50275,1,8,0:0:0:0:
256,192,50604,1,0,0:0:0:0:
256,192,51264,1,0,0:0:0:0:
256,192,51593,1,8,0:0:0:0:
256,192,51923,1,0,0:0:0:0:
256,192,52253,1,8,0:0:0:0:
256,192,52582,1,0,0:0:0:0:
256,192,52747,1,0,0:0:0:0:
256,192,52912,1,8,0:0:0:0:
256,192,53242,1,0,0:0:0:0:
256,192,53901,1,8,0:0:0:0:
256,192,54231,1,0,0:0:0:0:
256,192,54560,1,4,0:0:0:0:
256,192,54890,1,8,0:0:0:0:
256,192,55220,1,0,0:0:0:0:
256,192,55549,1,8,0:0:0:0:
256,192,55714,1,0,0:0:0:0:
256,192,56209,1,8,0:0:0:0:
256,192,56538,1,0,0:0:0:0:
256,192,56868,1,8,0:0:0:0:
256,192,57033,1,8,0:0:0:0:
256,192,57527,1,8,0:0:0:0:
256,192,58187,1,8,0:0:0:0:
256,192,58516,1,0,0:0:0:0:
416,160,58846,1,8,0:0:0:0:
256,192,59011,1,0,0:0:0:0:
256,192,59341,1,8,0:0:0:0:
256,192,59670,1,4,0:0:0:0:
256,192,60165,1,0,0:0:0:0:
256,192,60495,1,8,0:0:0:0:
256,192,60824,1,0,0:0:0:0:
256,192,60989,1,8,0:0:0:0:
256,192,61484,1,8,0:0:0:0:
256,192,62143,1,0,0:0:0:0:
256,192,62473,1,8,0:0:0:0:
256,192,62802,1,0,0:0:0:0:
256,192,62967,1,8,0:0:0:0:
256,192,63297,1,8,0:0:0:0:
256,192,63626,1,0,0:0:0:0:
256,192,63956,1,8,0:0:0:0:
256,192,64121,1,4,0:0:0:0:
256,192,64780,1,8,0:0:0:0:
256,192,65110,1,4,0:0:0:0:
256,192,65440,1,0,0:0:0:0:
256,192,65769,1,8,0:0:0:0:
256,192,66099,1,0,0:0:0:0:
256,192,66264,1,0,0:0:0:0:
256,192,66758,1,8,0:0:0:0:
256,192,67088,1,0,0:0:0:0:
256,192,67418,1,8,0:0:0:0:
256,192,67582,1,8,0:0:0:0:
256,192,68077,1,8,0:0:0:0:
256,192,68407,1,0,0:0:0:0:
256,192,68736,1,8,0:0:0:0:
256,192,68901,1,8,0:0:0:0:
256,192,69066,1,0,0:0:0:0:
256,192,69396,1,0,0:0:0:0:
256,192,69725,1,8,0:0:0:0:
256,192,70385,1,4,0:0:0:0:
256,192,71044,1,8,0:0:0:0:
256,192,71703,1,0,0:0:0:0:
256,192,72033,1,8,0:0:0:0:
256,192,72363,1,0,0:0:0:0:
256,192,72692,1,8,0:0:0:0:
256,192,72857,1,8,0:0:0:0:
256,192,73022,1,0,0:0:0:0:
256,192,73352,1,8,0:0:0:0:
256,192,74011,1,8,0:0:0:0:
256,192,74670,1,8,0:0:0:0:
256,192,75000,1,0,0:0:0:0:
256,192,75165,1,0,0:0:0:0:
256,192,75330,1,8,0:0:0:0:
256,192,75659,1,4,0:0:0:0:
256,192,75989,1,8,0:0:0:0:
256,192,76319,1,0,0:0:0:0:
256,192,76648,1,8,0:0:0:0:
256,192,76813,1,8,0:0:0:0:
256,192,76978,1,0,0:0:0:0:
256,192,77308,1,8,0:0:0:0:
256,192,77637,1,0,0:0:0:0:
256,192,78132,1,4,0:0:0:0:
256,192,78626,1,8,0:0:0:0:
256,192,79286,1,8,0:0:0:0:
256,192,79945,1,8,0:0:0:0:
256,192,80275,1,0,0:0:0:0:
256,192,80604,1,8,0:0:0:0:
256,192,80934,1,0,0:0:0:0:
256,192,81264,1,8,0:0:0:0:
256,192,81923,1,8,0:0:0:0:
256,192,82582,5,8,0:0:0:0:
256,192,82912,1,0,0:0:0:0:
352,160,83077,1,0,0:0:0:0:
256,192,83242,5,8,0:0:0:0:
256,192,83571,1,4,0:0:0:0:
256,192,83901,5,8,0:0:0:0:
256,192,84560,5,8,0:0:0:0:
256,192,84890,1,0,0:0:0:0:
256,192,85220,1,8,0:0:0:0:
256,192,85549,1,0,0:0:0:0:
256,192,85714,1,0,0:0:0:0:
256,192,85879,1,8,0:0:0:0:
256,192,86209,1,0,0:0:0:0:
256,192,86538,5,8,0:0:0:0:
256,192,86868,5,0,0:0:0:0:
256,192,87363,5,12,0:0:0:0:
