osu file format v14

[General]
AudioFilename: audio.mp3
AudioLeadIn: 0
PreviewTime: 223864
Countdown: 0
SampleSet: Soft
StackLeniency: 0.7
Mode: 0
LetterboxInBreaks: 0
WidescreenStoryboard: 0

[Editor]
Bookmarks: 273979,279496,326393
DistanceSpacing: 1.5
BeatDivisor: 3
GridSize: 4
TimelineZoom: 1.42

[Metadata]
Title:main actor
TitleUnicode:main actor
Artist:Minami
ArtistUnicode:美波
Creator:Koalazy
Version:Koa%wer
Source:
Tags:
BeatmapID:2056859
BeatmapSetID:982872

[Difficulty]
HPDrainRate:6
CircleSize:4.4
OverallDifficulty:9
ApproachRate:9
SliderMultiplier:1.74
SliderTickRate:1

[Events]
//Background and Video events
0,0,"06062019-1 main actor.jpg",0,0
//Break Periods
2,213289,220276
//Storyboard Layer 0 (Background)
//Storyboard Layer 1 (Fail)
//Storyboard Layer 2 (Pass)
//Storyboard Layer 3 (Foreground)
//Storyboard Layer 4 (Overlay)
//Storyboard Sound Samples

[TimingPoints]
876,344.827586206897,4,2,1,30,1,0
876,-200,4,2,1,30,0,0
11565,-133.333333333333,4,2,1,40,0,0
14324,-200,4,2,1,40,0,0
17082,-133.333333333333,4,2,1,40,0,0
22944,-1000,4,2,1,30,0,0
55013,-200,4,2,1,40,0,0
55703,-133.333333333333,4,2,1,50,0,0
56967,-200,4,2,1,50,0,0
57427,-133.333333333333,4,2,1,50,0,0
58117,-200,4,2,1,50,0,0
58807,-133.333333333333,4,2,1,50,0,0
59496,-200,4,2,1,50,0,0
65933,-200,4,2,1,10,0,0
66048,-133.333333333333,4,2,1,50,0,0
66278,-133.333333333333,4,2,1,30,0,0
66393,-200,4,2,1,50,0,0
67082,-133.333333333333,4,2,1,50,0,0
75272,-133.333333333333,4,2,1,20,0,0
75358,-133.333333333333,4,2,1,50,0,0
78117,-100,4,2,1,50,0,0
78807,-133.333333333333,4,2,1,50,0,0
79151,-100,4,2,1,50,0,0
80186,-133.333333333333,4,2,1,50,0,0
80531,-100,4,2,1,50,0,0
81565,-133.333333333333,4,2,1,50,0,0
81910,-100,4,2,1,50,0,0
83634,-133.333333333333,4,2,1,50,0,0
85013,-83.3333333333333,4,2,1,50,0,0
85358,-90.9090909090909,4,2,1,50,0,0
85703,-100,4,2,1,50,0,0
86393,-133.333333333333,4,2,1,50,0,0
89151,-100,4,2,1,50,0,0
94669,-133.333333333333,4,2,1,50,0,0
96048,-100,4,2,1,50,0,0
96738,-133.333333333333,4,2,1,50,0,0
99841,-200,4,2,1,50,0,0
100186,-133.333333333333,4,2,1,50,0,0
103864,-200,4,2,1,50,0,0
104324,-133.333333333333,4,2,1,50,0,0
105703,-100,4,2,1,50,0,0
110186,-400,4,2,1,50,0,0
111220,-100,4,2,1,50,0,0
127427,-200,4,2,1,50,0,0
127772,-100,4,2,1,50,0,0
132944,-400,4,2,1,50,0,0
133289,-400,4,2,1,10,0,0
138117,-100,4,2,1,30,0,0
138807,-100,4,2,1,50,0,0
141220,-200,4,2,1,50,0,0
141565,-100,4,2,1,50,0,0
143634,-200,4,2,1,50,0,0
144324,-100,4,2,1,50,0,0
146393,-200,4,2,1,50,0,0
147082,-100,4,2,1,50,0,0
147772,-200,4,2,1,50,0,0
148462,-100,4,2,1,50,0,0
149151,-133.333333333333,4,2,1,50,0,0
149496,-200,4,2,1,50,0,0
150186,-100,4,2,1,50,0,0
150876,-133.333333333333,4,2,1,50,0,0
151795,-100,4,2,1,50,0,0
152600,-80,4,2,1,50,0,0
152944,-76.9230769230769,4,2,1,50,0,0
153289,-74.0740740740741,4,2,1,50,0,0
153634,-71.4285714285714,4,2,1,50,0,0
153979,-66.6666666666667,4,2,1,50,0,0
155358,-66.6666666666667,4,2,1,50,0,1
156048,-133.333333333333,4,2,1,50,0,1
156393,-66.6666666666667,4,2,1,50,0,1
157427,-133.333333333333,4,2,1,50,0,1
157772,-66.6666666666667,4,2,1,50,0,1
158807,-133.333333333333,4,2,1,50,0,1
159151,-66.6666666666667,4,2,1,50,0,1
160531,-133.333333333333,4,2,1,50,0,1
160876,-80,4,2,1,50,0,1
161565,-133.333333333333,4,2,1,50,0,1
162255,-66.6666666666667,4,2,1,50,0,1
162944,-133.333333333333,4,2,1,50,0,1
163634,-125,4,2,1,50,0,1
163979,-111.111111111111,4,2,1,50,0,1
164324,-100,4,2,1,50,0,1
164669,-90.9090909090909,4,2,1,50,0,1
165013,-100,4,2,1,50,0,1
165703,-200,4,2,1,50,0,0
166393,-66.6666666666667,4,2,1,50,0,1
167082,-133.333333333333,4,2,1,50,0,1
167772,-66.6666666666667,4,2,1,50,0,1
168462,-133.333333333333,4,2,1,50,0,1
169151,-66.6666666666667,4,2,1,50,0,1
169841,-133.333333333333,4,2,1,50,0,1
170531,-66.6666666666667,4,2,1,50,0,1
171565,-133.333333333333,4,2,1,50,0,1
171910,-80,4,2,1,50,0,1
172255,-76.9230769230769,4,2,1,50,0,1
172600,-74.0740740740741,4,2,1,50,0,1
172944,-71.4285714285714,4,2,1,50,0,1
173289,-66.6666666666667,4,2,1,50,0,1
175358,-100,4,2,1,50,0,1
176048,-80,4,2,1,50,0,1
176393,-200,4,2,1,50,0,1
176738,-133.333333333333,4,2,1,50,0,1
177082,-100,4,2,1,50,0,1
177427,-100,4,2,1,50,0,0
177772,-80,4,2,1,50,0,0
178807,-100,4,2,1,50,0,0
179151,-80,4,2,1,50,0,0
180186,-100,4,2,1,50,0,0
180531,-80,4,2,1,50,0,0
181565,-71.4285714285714,4,2,1,50,0,0
181910,-74.0740740740741,4,2,1,50,0,0
182255,-76.9230769230769,4,2,1,50,0,0
182600,-80,4,2,1,50,0,0
187427,-133.333333333333,4,2,1,50,0,0
187772,-100,4,2,1,50,0,0
188807,-80,4,2,1,50,0,0
191220,-100,4,2,1,50,0,0
191565,-80,4,2,1,50,0,0
192600,-100,4,2,1,50,0,0
192944,-80,4,2,1,50,0,0
193634,-133.333333333333,4,2,1,50,0,0
194324,-80,4,2,1,50,0,0
197427,-83.3333333333333,4,2,1,50,0,0
197657,-90.9090909090909,4,2,1,50,0,0
198117,-66.6666666666667,4,2,1,50,0,0
198347,-400,4,2,1,50,0,0
199151,-80,4,2,1,50,0,0
199496,-400,4,2,1,50,0,0
200186,-200,4,2,1,50,0,0
200876,-400,4,2,1,50,0,0
201565,-133.333333333333,4,2,1,50,0,0
202255,-100,4,2,1,50,0,0
204324,-80,4,2,1,50,0,0
204545,-200,4,2,1,50,0,0
205358,-80,4,2,1,50,0,0
205933,-76.9230769230769,4,2,1,50,0,0
206278,-71.4285714285714,4,2,1,50,0,0
206623,-66.6666666666667,4,2,1,50,0,0
220876,-100,4,2,1,40,0,0
221565,-90.9090909090909,4,2,1,50,0,0
221910,-86.9565217391304,4,2,1,50,0,0
222255,-83.3333333333333,4,2,1,50,0,0
222600,-80,4,2,1,50,0,0
222944,-76.9230769230769,4,2,1,50,0,0
223289,-74.0740740740741,4,2,1,50,0,0
223634,-71.4285714285714,4,2,1,50,0,0
223979,-66.6666666666667,4,2,1,50,0,0
224324,-57.1428571428571,4,2,1,50,0,1
229496,-100,4,2,1,50,0,1
229841,-66.6666666666667,4,2,1,50,0,1
231220,-57.1428571428571,4,2,1,50,0,1
234669,-66.6666666666667,4,2,1,50,0,0
235358,-57.1428571428571,4,2,1,50,0,1
240531,-100,4,2,1,50,0,1
240876,-66.6666666666667,4,2,1,50,0,1
242255,-57.1428571428571,4,2,1,50,0,1
246393,-100,4,2,1,50,0,0
254669,-90.9090909090909,4,2,1,50,0,0
255013,-83.3333333333333,4,2,1,50,0,0
255358,-76.9230769230769,4,2,1,50,0,0
255703,-71.4285714285714,4,2,1,50,0,0
256048,-100,4,2,1,50,0,0
259496,-80,4,2,1,50,0,0
260186,-100,4,2,1,50,0,0
265703,-80,4,2,1,50,0,0
268117,-200,4,2,1,50,0,0
268462,-100,4,2,1,50,0,1
268807,-95.2380952380952,4,2,1,50,0,1
269151,-90.9090909090909,4,2,1,50,0,1
269496,-86.9565217391304,4,2,1,50,0,1
269841,-83.3333333333333,4,2,1,50,0,1
270186,-80,4,2,1,50,0,1
270531,-76.9230769230769,4,2,1,50,0,1
270876,-74.0740740740741,4,2,1,50,0,1
271220,-71.4285714285714,4,2,1,50,0,1
271565,-68.9655172413793,4,2,1,50,0,1
271910,-66.6666666666667,4,2,1,50,0,1
272255,-64.5161290322581,4,2,1,50,0,1
272600,-62.5,4,2,1,50,0,1
272944,-60.6060606060606,4,2,1,50,0,1
273289,-58.8235294117647,4,2,1,50,0,1
273634,-57.1428571428571,4,2,1,50,0,1
273979,-333.333333333333,4,2,1,50,0,1
274324,-285.714285714286,4,2,1,50,0,1
274669,-250,4,2,1,50,0,1
275013,-222.222222222222,4,2,1,50,0,1
275358,-200,4,2,1,50,0,1
275703,-181.818181818182,4,2,1,50,0,1
276048,-166.666666666667,4,2,1,50,0,1
276393,-153.846153846154,4,2,1,50,0,1
276738,-142.857142857143,4,2,1,50,0,1
277082,-133.333333333333,4,2,1,50,0,1
277427,-125,4,2,1,50,0,1
277772,-117.647058823529,4,2,1,50,0,1
278117,-111.111111111111,4,2,1,50,0,1
278462,-105.263157894737,4,2,1,50,0,1
278807,-100,4,2,1,50,0,1
279151,-95.2380952380952,4,2,1,50,0,1
279496,-90.9090909090909,4,2,1,50,0,1
279841,-86.9565217391304,4,2,1,50,0,1
280186,-83.3333333333333,4,2,1,50,0,1
280531,-80,4,2,1,50,0,1
280876,-76.9230769230769,4,2,1,50,0,1
281220,-74.0740740740741,4,2,1,50,0,1
281565,-71.4285714285714,4,2,1,50,0,1
281910,-68.9655172413793,4,2,1,50,0,1
282255,-66.6666666666667,4,2,1,50,0,1
282600,-64.5161290322581,4,2,1,50,0,1
282944,-62.5,4,2,1,50,0,1
283289,-60.6060606060606,4,2,1,50,0,1
283634,-58.8235294117647,4,2,1,50,0,1
283979,-57.1428571428571,4,2,1,50,0,1
285013,-57.1428571428571,4,2,1,50,0,0
285358,-66.6666666666667,4,2,1,50,0,0
303634,-100,4,2,1,50,0,0
303864,-80,4,2,1,50,0,0
304094,-66.6666666666667,4,2,1,50,0,0
304324,-57.1428571428571,4,2,1,50,0,0
304669,-66.6666666666667,4,2,1,50,0,0
305013,-71.4285714285714,4,2,1,50,0,0
305358,-76.9230769230769,4,2,1,50,0,0
305703,-83.3333333333333,4,2,1,50,0,0
306393,-86.9565217391304,4,2,1,50,0,0
307082,-400,4,2,1,50,0,0
307772,-400,4,2,1,10,0,0
308462,-400,4,2,1,50,0,0
309151,-133.333333333333,4,2,1,50,0,0
309841,-100,4,2,1,50,0,0
314324,-133.333333333333,4,2,1,50,0,0
314669,-100,4,2,1,50,0,0
315358,-100,4,2,1,40,0,0
316393,-200,4,2,1,40,0,0
318117,-400,4,2,1,40,0,0
326393,-400,4,2,1,5,0,0

[Colours]
Combo1 : 255,128,192
Combo2 : 90,225,255

[HitObjects]
170,293,876,6,0,P|127:302|88:334,2,87
251,324,1910,1,0,0:0:0:0:
337,331,2255,1,0,0:0:0:0:
404,276,2600,1,0,0:0:0:0:
389,47,3289,6,0,B|407:71|397:99|397:99|391:122|343:182|373:241|460:219|461:167|441:134|403:165,1,261
324,81,4669,2,0,B|312:71|279:72|248:92|248:92|205:119|173:113|149:92,1,174
116,25,5703,1,0,0:0:0:0:
54,195,6393,6,0,P|87:180|142:185,1,87
155,268,7082,2,0,P|208:276|236:311,1,87
389,335,7772,2,0,L|289:353,1,87
303,350,8807,1,0,0:0:0:0:
512,221,9496,5,0,0:0:0:0:
490,141,9841,1,0,0:0:0:0:
490,141,10186,2,0,P|438:112|337:173,1,174
274,259,11220,2,0,P|308:239|321:211,1,58
242,90,11565,2,0,P|233:130|247:174,1,87.0000033187868
200,312,11910,6,0,P|185:236|132:165,2,130.50000497818
329,329,12944,2,0,B|363:309|410:332|410:332|442:378|498:369|498:369|511:307|452:296,1,261.00000995636
432,246,14324,6,0,B|394:171|422:115|477:133|490:169|474:202|436:180,1,174
337,239,15358,1,0,0:0:0:0:
215,192,15703,1,0,0:0:0:0:
215,192,16393,1,0,0:0:0:0:
337,239,16738,1,0,0:0:0:0:
246,358,17082,2,0,B|261:343|261:343|278:265,1,87.0000033187868
227,68,17427,6,0,B|200:107|203:151|203:151|216:196,2,130.50000497818
439,177,18462,2,0,B|408:150|369:151|369:151|339:90|282:61|282:61|244:54|211:74,1,261.00000995636
373,45,19841,1,0,0:0:0:0:
256,192,20013,12,0,22600,0:0:0:0:
161,206,22944,6,0,P|204:198|231:178,1,69.6
172,132,24669,5,0,0:0:0:0:
190,48,25013,2,0,P|198:61|200:70,1,17.4
225,183,25703,6,0,L|202:257,1,69.6
120,217,27427,6,0,L|99:227,2,17.4
204,249,28462,6,0,L|181:323,1,69.6
104,224,30531,5,0,0:0:0:0:
183,315,31220,6,0,P|213:328|251:334,1,69.6
106,342,32944,5,0,0:0:0:0:
106,342,33289,2,0,L|99:318,1,17.4
249,333,33979,6,0,P|293:334|325:324,1,69.6
445,372,36048,5,0,0:0:0:0:
317,327,36738,6,0,P|359:312|380:298,1,69.6
476,282,38462,6,0,L|492:269,1,17.4
512,201,39151,1,0,0:0:0:0:
380,297,39496,6,0,P|403:269|406:232,1,69.6
474,150,41565,5,0,0:0:0:0:
406,237,42255,6,0,P|394:195|365:176,1,69.6
393,86,43979,6,0,L|395:104,2,17.4
375,180,45013,6,0,P|333:172|303:184,1,69.6
238,106,46738,5,0,0:0:0:0:
238,106,47082,2,0,L|243:123,1,17.4
308,180,47772,6,0,P|282:214|283:248,1,69.6
241,122,49841,5,0,0:0:0:0:
280,239,50531,6,0,P|296:271|333:285,1,69.6
191,252,52255,6,0,L|212:258,2,17.4
325,285,53289,5,0,0:0:0:0:
385,193,55013,6,0,P|397:198|413:219,2,29
341,131,55358,1,0,0:0:0:0:
341,131,55703,5,0,0:0:0:0:
341,131,55876,1,0,0:0:0:0:
164,200,56048,6,0,B|194:204|194:204|248:178,1,87.0000033187868
263,84,56393,2,0,B|241:85|241:85|179:111,1,87.0000033187868
111,142,56738,1,0,0:0:0:0:
406,263,56967,2,0,P|378:232|319:227,1,87
264,271,57427,6,0,P|252:312|272:362,1,87.0000033187868
124,321,57772,2,0,P|163:340|188:377,1,87.0000033187868
183,254,58117,2,0,P|178:211|155:188,1,58
106,247,58462,1,0,0:0:0:0:
36,102,58692,1,0,0:0:0:0:
36,102,58807,6,0,P|49:158|83:183,1,87.0000033187868
205,76,59151,2,0,B|187:68|187:68|101:82,1,87.0000033187868
234,147,59496,2,0,B|251:157|251:157|312:149,1,58
287,72,59841,1,0,0:0:0:0:
415,155,60071,1,0,0:0:0:0:
460,192,60186,6,0,P|470:238|447:279,2,87
460,192,61565,6,0,P|470:238|447:279,1,87
372,305,62255,1,0,0:0:0:0:
460,192,62944,5,0,0:0:0:0:
460,192,63289,2,0,P|470:238|447:279,1,87
460,192,64324,6,0,P|470:238|447:279,2,87
372,305,65703,6,0,B|361:317|361:317|308:321,1,58
254,265,66048,2,0,B|240:255|240:255|179:260|179:260|167:274,1,87.0000033187868
143,337,66393,2,0,L|47:344,1,87
32,67,67082,6,0,P|61:96|119:111,1,87.0000033187868
165,68,67427,2,0,P|206:83|271:76,1,87.0000033187868
316,44,67772,2,0,B|371:22|433:44|433:44|453:71,1,130.50000497818
511,143,68347,1,0,0:0:0:0:
474,196,68462,6,0,L|460:288,1,87.0000033187868
350,210,68807,2,0,L|359:298,1,87.0000033187868
272,304,69151,2,0,B|237:266|173:266|173:266|199:298,1,130.50000497818
80,331,69726,1,0,0:0:0:0:
34,285,69841,6,0,P|22:236|27:197,1,87.0000033187868
94,151,70186,2,0,P|116:106|150:86,1,87.0000033187868
200,18,70531,2,0,B|223:43|223:43|337:64,1,130.50000497818
436,83,71105,1,0,0:0:0:0:
488,121,71220,6,0,P|425:106|385:170,2,130.50000497818
331,247,72600,6,0,P|394:262|434:198,2,130.50000497818
270,180,73979,6,0,P|207:165|167:229,1,130.50000497818
166,289,74669,1,0,0:0:0:0:
358,253,75013,2,0,B|381:254|381:254|454:221,1,97.8750037336351
491,39,75358,5,0,0:0:0:0:
491,39,77427,1,0,0:0:0:0:
241,283,77772,5,0,0:0:0:0:
172,85,78002,1,0,0:0:0:0:
140,156,78117,2,0,L|110:223,1,58
301,132,78347,1,0,0:0:0:0:
333,61,78462,2,0,B|341:34|341:34|249:75,1,116
57,160,78807,2,0,P|21:136|21:86,1,87.0000033187868
92,245,79151,2,0,B|125:242|147:177|147:177|127:124,1,116
172,85,79496,5,0,0:0:0:0:
333,61,79726,1,0,0:0:0:0:
301,132,79841,2,0,B|277:149|277:149|242:203|242:203|219:216,1,116
401,186,80186,2,0,P|414:137|382:95,1,87.0000033187868
241,283,80531,5,0,0:0:0:0:
172,85,80761,1,0,0:0:0:0:
140,156,80876,2,0,B|111:142|111:142|94:108,1,58
301,132,81105,1,0,0:0:0:0:
333,61,81220,2,0,B|355:21|355:21|392:86,1,116
340,205,81565,2,0,B|340:231|340:231|384:288,1,87.0000033187868
333,61,81910,5,0,0:0:0:0:
140,156,82140,1,0,0:0:0:0:
172,85,82255,2,0,B|178:66|178:66|89:11,1,116
333,61,82600,2,0,B|296:126|296:126|243:135,1,116
277,348,82944,2,0,B|279:291|279:291|201:183,1,174
171,244,83634,6,0,L|286:269,1,87.0000033187868
304,194,83979,2,0,L|412:183,1,87.0000033187868
466,229,84324,1,0,0:0:0:0:
290,42,84669,2,0,P|326:36|362:71,1,87.0000033187868
361,68,85013,6,0,P|289:82|230:30,1,139.199995751953
136,109,85358,2,0,P|183:128|262:87,1,127.600003894043
417,181,85703,2,0,P|337:219|264:169,1,174
90,237,86393,6,0,B|133:220|133:220|242:250,1,130.50000497818
284,334,87082,2,0,B|241:351|241:351|132:321,1,130.50000497818
372,309,87600,1,0,0:0:0:0:
385,322,87686,1,0,0:0:0:0:
398,335,87772,6,0,L|426:261,1,65.2500024890901
487,234,88117,1,0,0:0:0:0:
212,58,88462,2,0,B|305:90|305:90|305:84|305:84|357:102,1,130.50000497818
342,221,89036,1,0,0:0:0:0:
417,181,89151,6,0,P|463:155|486:89,1,116
191,205,89496,2,0,P|264:176|345:226,1,174
269,337,90186,5,0,0:0:0:0:
342,221,90416,1,0,0:0:0:0:
417,181,90531,2,0,P|434:135|522:151,1,116
191,205,90876,2,0,B|267:172|264:88|264:88|228:133,1,174
269,337,91565,5,0,0:0:0:0:
417,181,91795,1,0,0:0:0:0:
342,221,91910,2,0,P|386:186|399:129,1,116
191,205,92255,2,0,P|182:106|119:69,1,174
269,337,92944,5,0,0:0:0:0:
417,181,93174,1,0,0:0:0:0:
342,221,93289,2,0,P|355:169|402:126,1,116
191,205,93634,2,0,P|181:145|199:90,1,116
296,54,93979,2,0,L|470:100,1,174
100,337,94669,6,0,P|117:263|100:223,1,87.0000033187868
263,249,95013,2,0,P|222:216|165:205,1,87.0000033187868
74,47,95358,2,0,P|123:102|206:98,1,130.50000497818
273,87,95933,1,0,0:0:0:0:
312,123,96048,6,0,L|333:8,1,116
263,249,96393,2,0,L|241:119,1,116
311,357,96738,2,0,L|348:216,1,130.50000497818
142,181,97427,6,0,P|158:288|180:296,1,130.50000497818
363,258,98002,1,0,0:0:0:0:
296,285,98117,2,0,L|341:179,1,87.0000033187868
292,169,98462,2,0,L|277:78,1,87.0000033187868
335,31,98807,5,0,0:0:0:0:
50,121,99151,1,0,0:0:0:0:
476,194,99496,2,0,P|461:164|405:148,1,87.0000033187868
365,202,99841,2,0,L|288:226,1,58
251,358,100186,6,0,B|265:316|265:316|255:243,1,87.0000033187868
193,203,100531,2,0,B|179:245|179:245|189:318,1,87.0000033187868
370,342,100876,1,0,0:0:0:0:
350,302,101105,1,0,0:0:0:0:
370,342,101220,2,0,L|423:353,1,43.5000016593934
477,271,101450,1,0,0:0:0:0:
493,230,101565,6,0,P|450:198|392:188,1,87.0000033187868
276,187,101910,2,0,P|319:219|377:229,1,87.0000033187868
463,91,102255,1,0,0:0:0:0:
463,91,102600,2,0,B|435:64|435:64|383:55,1,87.0000033187868
308,32,102944,6,0,B|299:52|299:52|224:94,1,87.0000033187868
100,117,103289,2,0,B|109:97|109:97|184:55,1,87.0000033187868
263,218,103634,1,0,0:0:0:0:
263,218,103864,2,0,L|277:277,1,58
330,325,104209,1,0,0:0:0:0:
404,317,104324,6,0,P|438:291|448:235,1,87.0000033187868
464,113,104669,2,0,P|430:139|420:195,1,87.0000033187868
494,184,105013,1,0,0:0:0:0:
216,87,105358,2,0,P|165:86|133:66,1,87.0000033187868
0,111,105703,6,0,L|190:86,2,174
129,193,106623,1,0,0:0:0:0:
112,233,106738,2,0,P|152:215|186:218,1,58
269,268,106967,1,0,0:0:0:0:
308,310,107082,6,0,L|418:293,2,87
146,335,107772,2,0,B|117:320|117:320|103:291|112:226,1,116
135,148,108117,1,0,0:0:0:0:
447,81,108347,1,0,0:0:0:0:
380,53,108462,6,0,B|351:43|351:43|254:55,1,116
338,118,108807,1,0,0:0:0:0:
343,347,109151,2,0,B|352:314|352:314|362:304|362:304|375:247|375:247|372:234|372:234|385:182,1,174
101,201,109726,1,0,0:0:0:0:
71,283,109841,5,0,0:0:0:0:
311,236,110186,2,0,P|275:228|240:233,1,72.5
158,268,110876,1,0,0:0:0:0:
378,323,111220,6,0,P|430:251|411:192,1,116
310,118,111565,2,0,P|365:170|386:119,1,116
298,41,111910,2,0,B|248:38|248:38|120:82,1,174
52,189,112485,1,0,0:0:0:0:
36,234,112600,6,0,L|119:212,1,58
174,274,112830,1,0,0:0:0:0:
158,319,112945,2,0,L|241:297,1,58
312,314,113174,1,0,0:0:0:0:
353,354,113289,2,0,P|419:318|428:273,1,116
497,265,113634,2,0,L|477:192,1,58
384,57,113864,1,0,0:0:0:0:
333,83,113979,6,0,P|372:137|444:155,1,116
206,217,114324,2,0,P|297:189|356:213,1,116
75,289,114669,2,0,P|175:298|198:339,1,116
212,369,115013,1,0,0:0:0:0:
375,306,115243,1,0,0:0:0:0:
432,312,115358,6,0,P|466:322|487:344,1,58
474,128,115588,1,0,0:0:0:0:
432,168,115703,2,0,P|364:191|301:157,1,116
243,31,116048,2,0,P|352:68|373:124,1,174
222,229,116623,1,0,0:0:0:0:
184,272,116738,6,0,B|194:240|194:240|145:137|145:137|155:108,2,174
306,330,117772,2,0,P|360:353|428:326,1,116
461,282,118117,6,0,L|485:147,1,116
496,94,118462,1,0,0:0:0:0:
263,169,118692,1,0,0:0:0:0:
263,169,118807,2,0,P|299:124|267:52,1,116
226,108,119151,1,0,0:0:0:0:
160,308,119381,1,0,0:0:0:0:
215,291,119496,6,0,B|259:321|259:321|393:341,2,174
141,34,120531,2,0,P|148:60|127:130,1,87
72,175,120876,5,0,0:0:0:0:
283,96,121105,1,0,0:0:0:0:
340,87,121220,2,0,P|310:73|269:73,1,58
451,168,121450,1,0,0:0:0:0:
394,159,121565,2,0,P|424:145|465:145,1,58
295,237,121795,1,0,0:0:0:0:
352,230,121910,2,0,P|405:248|430:330,1,116
352,308,122255,6,0,B|293:315|293:315|255:344|255:344|156:353,2,174
76,269,123289,2,0,L|146:305,1,58
242,219,123519,1,0,0:0:0:0:
150,222,123634,6,0,L|275:286,1,116
441,216,123979,2,0,P|386:213|314:266,1,116
223,346,124324,2,0,B|289:384|354:331|354:331|303:321,1,174
150,222,124898,1,0,0:0:0:0:
117,173,125013,6,0,P|94:250|150:340,1,174
300,166,125703,2,0,B|277:145|277:145|184:128,1,116
118,111,126048,1,0,0:0:0:0:
370,44,126220,1,0,0:0:0:0:
370,44,126623,5,0,0:0:0:0:
426,32,126738,2,0,P|435:75|421:166,1,116
346,230,127082,1,0,0:0:0:0:
346,230,127427,2,0,P|319:189|295:177,1,58
230,213,127772,6,0,P|148:203|129:108,2,174
442,95,128807,2,0,P|393:77|320:114,1,116
330,280,129151,6,0,B|330:255|330:255|370:156,1,116
391,156,129496,1,0,0:0:0:0:
454,311,129726,1,0,0:0:0:0:
420,333,129841,2,0,L|469:214,1,116
512,174,130186,2,0,P|479:122|491:63,1,116
330,30,130531,6,0,B|297:74|297:74|154:112,2,174
267,202,131565,1,0,0:0:0:0:
319,320,131795,1,0,0:0:0:0:
259,287,131910,6,0,P|322:252|366:268,1,87
35,81,132485,1,0,0:0:0:0:
75,125,132600,2,0,B|166:115|166:115|218:136,1,116
356,209,132944,2,0,P|337:210|322:205,1,29
261,160,133289,5,0,0:0:0:0:
382,111,133519,2,0,L|380:133,1,14.5
448,86,133864,1,0,0:0:0:0:
448,86,134669,6,0,L|445:124,1,29
483,181,135013,1,0,0:0:0:0:
348,278,135243,1,0,0:0:0:0:
348,278,136048,5,0,0:0:0:0:
221,293,136278,2,0,L|243:300,1,14.5
272,365,136623,1,0,0:0:0:0:
272,365,137427,6,0,P|254:375|234:377,1,29
221,293,137772,1,0,0:0:0:0:
93,178,138117,2,0,B|78:211|28:189|23:107|149:94|158:161|104:225|104:225|80:269|101:312|140:320,1,348
412,204,139151,6,0,P|416:144|378:109,1,116
281,150,139496,2,0,B|424:134|424:134|462:109,1,174
239,76,140071,1,0,0:0:0:0:
182,64,140186,6,0,P|160:109|189:189,1,116
219,374,140531,2,0,B|212:354|212:354|233:282|233:282|227:258,1,116
157,278,140876,1,0,0:0:0:0:
394,365,141220,2,0,P|415:337|421:303,1,58
350,308,141565,6,0,L|330:193,1,116
388,199,141910,2,0,L|415:71,1,116
211,45,142255,2,0,P|302:113|329:42,1,174
91,166,142830,1,0,0:0:0:0:
119,116,142944,6,0,B|114:155|114:155|135:206,1,58
172,246,143174,1,0,0:0:0:0:
286,265,143289,2,0,L|164:244,1,116
64,315,143634,2,0,P|113:301|141:300,1,58
188,323,143979,1,0,0:0:0:0:
301,352,144209,1,0,0:0:0:0:
236,364,144324,6,0,B|219:340|240:311|240:311|270:271|234:209,1,116
215,209,144669,2,0,B|236:184|215:157|215:157|192:132|217:87,1,116
339,129,145013,1,0,0:0:0:0:
339,129,145358,2,0,P|356:180|423:201,1,116
480,190,145703,5,0,0:0:0:0:
413,29,145933,1,0,0:0:0:0:
356,19,146048,2,0,B|359:40|344:57|344:57|361:100|335:133,1,116
276,88,146393,2,0,P|229:79|201:90,1,58
90,148,146738,1,0,0:0:0:0:
90,148,146967,1,0,0:0:0:0:
90,148,147082,6,0,P|105:196|81:255,1,116
175,282,147427,2,0,P|112:288|68:349,1,116
304,333,147772,2,0,B|319:329|319:329|352:337|352:337|385:331,1,58
416,291,148117,1,0,0:0:0:0:
309,143,148347,1,0,0:0:0:0:
426,157,148462,6,0,B|413:206|353:210|353:210|371:174,1,116
281,213,148807,2,0,B|248:200|222:229|222:229|206:252|150:244,1,116
104,231,149151,2,0,P|85:212|99:148,1,87.0000033187868
129,95,149496,2,0,L|78:38,1,58
29,86,149841,5,0,0:0:0:0:
195,57,150071,1,0,0:0:0:0:
225,95,150186,2,0,P|254:88|277:65,1,58
376,71,150416,1,0,0:0:0:0:
426,44,150531,2,0,L|386:166,1,116
474,147,150876,2,0,P|431:142|362:172,1,87.0000033187868
348,222,151220,5,0,0:0:0:0:
186,216,151450,1,0,0:0:0:0:
223,253,151565,1,0,0:0:0:0:
346,91,151795,2,0,B|378:62|433:67|433:67|399:97,1,116
308,154,152140,1,0,0:0:0:0:
308,154,152255,2,0,P|297:91|240:62,1,116
90,147,152600,6,0,P|156:129|254:185,1,145
433,223,152944,2,0,P|337:202|283:222,1,150.799993096924
53,266,153289,2,0,B|101:253|101:253|155:251|226:280,1,156.600000597382
414,316,153634,2,0,L|316:340,1,81.1999975219727
144,336,153864,1,0,0:0:0:0:
176,364,153979,6,0,P|208:345|210:278,1,87.0000033187868
187,73,154209,2,0,B|155:34|155:34|168:176,1,174.000006637574
262,208,154554,1,0,0:0:0:0:
336,162,154669,1,0,0:0:0:0:
414,198,154784,1,0,0:0:0:0:
483,162,154898,1,0,0:0:0:0:
482,92,155013,2,0,B|482:71|482:71|418:125,1,87.0000033187868
348,309,155243,1,0,0:0:0:0:
409,342,155358,6,0,B|419:301|419:301|388:238,1,87.0000033187868
289,36,155588,1,0,0:0:0:0:
289,36,155703,2,0,L|257:239,1,174.000006637574
180,215,156048,2,0,B|214:197|214:197|293:215,1,87.0000033187868
482,92,156393,2,0,L|378:67,1,87.0000033187868
336,356,156623,1,0,0:0:0:0:
409,342,156738,6,0,B|436:222|436:222|411:160,1,174.000006637574
289,36,157082,2,0,P|343:121|411:77,1,174.000006637574
180,215,157427,2,0,B|214:197|214:197|293:215,1,87.0000033187868
482,92,157772,2,0,L|359:106,1,87.0000033187868
310,115,158002,1,0,0:0:0:0:
409,342,158117,6,0,L|446:186,1,87.0000033187868
360,15,158347,1,0,0:0:0:0:
289,36,158462,2,0,L|246:216,1,174.000006637574
180,215,158807,2,0,B|214:233|214:233|293:215,1,87.0000033187868
482,92,159151,2,0,B|461:76|461:76|393:87,1,87.0000033187868
339,321,159381,1,0,0:0:0:0:
409,342,159496,6,0,B|436:222|436:222|411:160,1,174.000006637574
289,36,159841,2,0,P|245:97|248:214,1,174.000006637574
221,345,160186,2,0,P|306:246|423:237,1,174.000006637574
481,146,160531,2,0,L|450:240,1,87.0000033187868
376,315,160876,6,0,B|400:271|337:219|256:225,1,145
202,137,161220,2,0,B|177:180|240:232|321:226,1,145
405,157,161565,2,0,B|405:128|405:128|353:169,1,87.0000033187868
208,294,161910,1,0,0:0:0:0:
43,167,162082,2,0,L|27:151,2,21.7500008296967
57,179,162255,6,0,B|88:158|129:179|129:179|182:208|242:174|231:165,1,174.000006637574
335,87,162600,2,0,B|307:120|263:102|263:102|236:90|186:82|166:127,1,174.000006637574
265,240,162944,2,0,P|297:168|266:122,1,130.50000497818
97,38,163634,6,0,B|112:90|112:90|110:97|110:97|122:149,1,92.8
105,202,163979,2,0,P|107:231|78:297,1,104.399996813965
193,215,164324,2,0,B|209:272|209:272|207:279|207:279|223:338,1,116
199,61,164669,2,0,P|238:138|287:158,1,127.600003894043
355,160,165013,6,0,L|486:115,1,116
512,185,165358,1,0,0:0:0:0:
344,290,165588,1,0,0:0:0:0:
344,290,165703,2,0,P|371:280|414:304,1,58
458,335,166048,1,0,0:0:0:0:
244,269,166278,1,0,0:0:0:0:
265,334,166393,6,0,P|258:237|220:167,1,174.000006637574
179,240,166738,2,0,P|243:240|310:328,1,174.000006637574
346,139,167082,2,0,P|345:106|423:55,1,130.50000497818
335,3,167657,1,0,0:0:0:0:
385,128,167772,6,0,P|289:135|219:173,1,174.000006637574
278,107,168117,2,0,P|318:156|445:147,1,174.000006637574
85,34,168462,2,0,B|85:77|85:77|26:162,1,130.50000497818
35,148,169036,1,0,0:0:0:0:
180,7,169151,6,0,P|187:103|225:173,1,174.000006637574
272,217,169496,2,0,B|240:233|240:233|227:168|294:99,1,174.000006637574
191,47,169841,2,0,P|240:48|287:113,1,130.50000497818
265,99,170416,1,0,0:0:0:0:
58,210,170531,6,0,P|155:204|225:165,1,174.000006637574
407,320,170876,2,0,P|340:265|256:252,1,174.000006637574
408,97,171220,2,0,B|436:219|436:219|465:164,1,174.000006637574
482,135,171565,2,0,P|430:120|400:78,1,87.0000033187868
317,108,171910,6,0,P|206:76|199:43,1,145
77,132,172255,2,0,P|145:164|218:117,1,150.799993096924
384,217,172600,2,0,P|304:237|230:152,1,156.600000597382
41,286,172944,2,0,B|58:281|58:281|120:299|120:299|195:233,1,162.399995043945
279,276,173289,6,0,P|302:302|437:306,1,174.000006637574
479,250,173634,1,0,0:0:0:0:
336,59,173979,2,0,B|362:62|378:34|378:34|347:171,1,174.000006637574
336,223,174324,1,0,0:0:0:0:
100,139,174554,1,0,0:0:0:0:
63,71,174669,6,0,B|110:55|110:55|247:152,1,174.000006637574
258,252,175013,2,0,L|175:193,1,87.0000033187868
215,309,175243,1,0,0:0:0:0:
274,347,175358,2,0,B|336:351|336:351|384:322,1,116
417,262,175703,1,0,0:0:0:0:
358,107,175933,1,0,0:0:0:0:
296,99,176048,6,0,P|316:155|408:143,1,145
494,123,176393,2,0,L|454:105,1,29
372,13,176623,1,0,0:0:0:0:
349,33,176738,2,0,P|287:17|240:35,1,87.0000033187868
124,88,177082,1,0,0:0:0:0:
137,144,177197,1,0,0:0:0:0:
153,211,177312,1,0,0:0:0:0:
171,290,177427,6,0,B|250:337|250:337|309:336,1,116
350,313,177772,2,0,P|386:258|351:182,1,145
257,118,178117,2,0,P|286:176|369:184,1,145
472,135,178462,2,0,P|422:132|386:183,1,72.5
284,223,178692,1,0,0:0:0:0:
306,258,178807,6,0,B|227:242|227:242|152:258,1,116
22,214,179151,2,0,P|88:219|158:174,1,145
119,48,179496,2,0,P|114:114|159:184,1,145
284,145,179841,2,0,P|218:140|148:185,1,145
130,303,180186,6,0,L|254:329,1,116
328,318,180531,2,0,B|343:295|343:295|361:161,1,145
351,150,180876,2,0,B|377:264|377:264|398:282,1,145
303,195,181220,2,0,B|329:190|329:190|372:115,1,72.5
385,85,181450,1,0,0:0:0:0:
295,37,181565,6,0,B|281:73|281:73|304:202,1,162.399995043945
213,71,181910,2,0,B|199:107|199:107|222:236,1,156.600000597382
131,105,182255,2,0,B|117:141|117:141|140:270,1,150.799993096924
49,139,182600,2,0,B|35:175|35:175|58:304,1,145
72,351,182944,5,0,0:0:0:0:
288,319,183289,2,0,P|371:274|340:144,2,217.5
195,119,184209,1,0,0:0:0:0:
178,88,184324,6,0,P|228:68|318:95,1,145
362,163,184669,2,0,P|334:275|223:300,2,217.5
116,144,185588,1,0,0:0:0:0:
94,171,185703,6,0,L|139:320,1,145
247,306,186048,2,0,P|317:260|311:162,1,145
290,118,186393,2,0,P|243:186|161:166,1,145
86,55,186738,2,0,P|143:117|217:89,1,145
411,77,187082,6,0,B|385:86|385:86|259:55,1,145
362,163,187427,2,0,L|456:186,1,87.0000033187868
484,307,187772,2,0,P|466:275|431:268,1,58
371,284,188002,1,0,0:0:0:0:
350,318,188117,2,0,P|334:302|283:291,1,58
199,267,188347,1,0,0:0:0:0:
202,309,188462,6,0,L|67:353,1,116
37,184,188807,2,0,B|47:212|47:212|175:256,1,145
202,309,189151,2,0,B|224:328|224:328|357:302,1,145
373,246,189496,2,0,B|392:223|392:223|366:90,1,145
310,75,189841,5,0,0:0:0:0:
168,108,190071,1,0,0:0:0:0:
109,57,190186,2,0,L|188:81,1,72.5
245,193,190416,1,0,0:0:0:0:
273,235,190531,2,0,B|354:193|354:193|286:173,1,145
98,208,190876,2,0,B|72:226|76:261|137:292|77:355,1,145
30,301,191220,6,0,B|68:290|68:290|183:324,1,116
217,336,191565,2,0,P|283:312|301:240,1,145
262,69,191910,2,0,B|251:42|251:42|200:91|258:171,1,145
325,164,192255,1,0,0:0:0:0:
437,97,192485,1,0,0:0:0:0:
492,62,192600,6,0,P|423:59|385:18,1,116
188,54,192944,2,0,B|297:49|297:49|352:94,1,145
379,124,193289,1,0,0:0:0:0:
46,249,193634,2,0,B|60:238|60:238|139:233,1,87.0000033187868
191,275,193979,5,0,0:0:0:0:
471,128,194324,2,0,B|456:217|456:217|496:253,1,145
411,65,194669,2,0,B|396:154|396:154|436:190,1,145
351,2,195013,2,0,B|336:91|336:91|376:127,1,145
471,128,195358,5,0,0:0:0:0:
269,195,195588,1,0,0:0:0:0:
297,148,195703,2,0,P|318:173|386:197,1,72.5
448,305,195933,1,0,0:0:0:0:
481,263,196048,2,0,B|442:249|422:326|381:354|346:311,1,145
286,280,196393,2,0,B|294:264|277:253|186:286,1,72.5
125,313,196623,1,0,0:0:0:0:
72,348,196738,6,0,B|54:255|54:255|68:193,1,145
121,48,197082,1,0,0:0:0:0:
121,48,197427,2,0,P|90:74|29:65,1,69.5999978759766
174,143,197657,2,0,B|145:138|159:198|237:192|237:192|225:182,1,127.600003894043
355,98,198002,1,0,0:0:0:0:
300,65,198117,6,0,L|319:189,1,87.0000033187868
378,330,198347,2,0,L|346:316,1,29
421,352,198692,1,0,0:0:0:0:
459,367,198807,1,0,0:0:0:0:
266,320,199036,1,0,0:0:0:0:
202,355,199151,2,0,P|155:323|48:360,1,145
34,71,199496,6,0,L|69:81,1,29
273,161,199841,2,0,L|310:152,1,29
437,152,200186,2,0,B|411:125|353:179|305:183|293:136,1,145
35,142,200876,6,0,L|70:152,1,29
273,161,201221,2,0,L|310:152,1,29
439,145,201565,2,0,B|426:98|426:98|334:182|334:182|281:137,1,217.500008296967
36,213,202255,6,0,L|176:253,1,116
179,307,202600,1,0,0:0:0:0:
349,264,202830,1,0,0:0:0:0:
385,293,202944,2,0,P|417:255|414:202,1,58
424,104,203174,1,0,0:0:0:0:
445,146,203289,2,0,P|401:131|362:140,1,58
280,171,203519,1,0,0:0:0:0:
219,204,203634,6,0,B|210:216|210:216|154:192|105:224,1,116
106,291,203979,2,0,P|47:281|0:316,1,116
243,351,204324,2,0,B|245:334|245:334|278:286,1,72.5
418,184,204554,2,0,L|461:119,1,72.5
437,40,205013,5,0,0:0:0:0:
336,112,205243,1,0,0:0:0:0:
296,142,205358,2,0,B|191:116|191:116|148:130,1,145
74,169,205703,1,0,0:0:0:0:
475,282,205933,2,0,P|415:243|323:263,1,150.799993096924
69,305,206278,6,0,B|40:273|40:273|25:217|67:125|98:191,1,162.399995043945
292,18,206623,2,0,B|313:37|319:71|319:71|301:99|272:130,1,87.0000033187868
221,183,206853,1,0,0:0:0:0:
252,250,206968,1,0,0:0:0:0:
217,311,207082,2,0,B|221:341|213:361|213:361|258:321|269:257|232:205,1,174.000006637574
83,21,207427,2,0,B|55:43|41:88|48:123|48:123|92:169|154:154|154:154|135:102,1,261.00000995636
256,192,207887,12,0,210531,0:0:0:0:
403,153,220876,6,0,B|435:140|431:106|431:106|420:195|480:180|509:224|489:334|449:292,1,290
326,286,221565,6,0,P|308:226|256:192,1,127.600003894043
204,302,221910,2,0,P|251:257|256:192,1,133.400002544403
129,199,222255,2,0,P|194:220|256:192,1,139.199995751953
187,80,222600,2,0,P|198:150|256:192,1,145
324,75,222944,2,0,P|264:119|256:192,1,150.799993096924
394,197,223289,2,0,P|326:163|256:192,1,156.600000597382
129,199,223634,6,0,B|219:243|219:243|257:189,1,162.399995043945
222,22,223979,2,0,B|203:45|203:45|195:109,1,87.0000033187868
177,301,224209,1,0,0:0:0:0:
141,366,224324,6,0,L|245:338,1,101.500000967979
396,258,224554,1,0,0:0:0:0:
489,316,224669,2,0,B|495:340|495:340|408:336|371:264|371:264|403:255,1,203.000001935959
413,71,225013,2,0,B|468:37|468:37|424:185,1,203.000001935959
222,22,225358,2,0,B|195:41|195:41|92:60,1,101.500000967979
179,248,225588,1,0,0:0:0:0:
141,366,225703,6,0,B|175:310|154:212|154:212|195:270,1,203.000001935959
489,316,226048,2,0,P|510:249|364:180,1,203.000001935959
214,139,226393,2,0,B|188:153|188:153|140:135|140:135|102:166|102:166|50:158|50:158|14:188,1,203.000001935959
218,49,226738,2,0,B|248:42|248:42|288:67|288:67|295:116,1,101.500000967979
274,270,226967,1,0,0:0:0:0:
141,366,227082,6,0,B|108:349|108:349|79:211,1,101.500000967979
457,219,227312,1,0,0:0:0:0:
489,316,227427,2,0,B|489:343|513:375|513:375|418:328|418:328|407:275,1,203.000001935959
265,122,227772,2,0,B|284:89|284:89|285:187|285:187|212:261,1,203.000001935959
222,22,228117,2,0,P|263:2|334:38,1,101.500000967979
286,291,228347,1,0,0:0:0:0:
141,366,228462,6,0,B|95:322|125:251|180:232|180:232|239:266,1,203.000001935959
489,316,228807,2,0,B|500:326|500:326|528:208|428:117|353:193,1,203.000001935959
260,145,229151,2,0,B|246:177|205:198|205:198|171:193|198:155|223:171|217:191|217:191|202:228|229:265,1,203.000001935959
346,383,229496,2,0,B|364:309|364:309|417:235,1,116
441,217,229841,6,0,B|481:181|435:28|380:80,1,174.000006637574
320,113,230186,2,0,B|326:157|155:111|199:56,1,174.000006637574
0,147,230531,2,0,B|53:133|53:133|199:182,1,174.000006637574
270,277,230876,2,0,L|183:248,1,87.0000033187868
99,288,231105,1,0,0:0:0:0:
76,344,231220,6,0,B|151:322|151:322|195:267,1,101.500000967979
237,193,231450,1,0,0:0:0:0:
271,140,231565,2,0,B|310:89|310:89|489:39,1,203.000001935959
460,234,231910,2,0,B|452:244|459:277|511:236|496:180|366:193|320:262,1,203.000001935959
239,324,232255,2,0,B|247:349|185:341|137:309|175:296,1,101.500000967979
219,253,232485,1,0,0:0:0:0:
271,140,232600,6,0,B|251:94|251:94|153:39|93:92,1,203.000001935959
29,148,232944,2,0,B|110:164|133:247|133:247|67:192,1,203.000001935959
300,373,233289,2,0,P|197:297|301:235,1,203.000001935959
274,302,233634,1,0,0:0:0:0:
432,260,233864,1,0,0:0:0:0:
456,318,233979,6,0,B|430:346|430:346|385:268|447:191|497:206,1,203.000001935959
191,167,234324,2,0,B|183:202|163:224|163:224|259:211|263:102,1,203.000001935959
454,13,234669,2,0,P|423:51|367:55,1,87.0000033187868
302,27,234898,1,0,0:0:0:0:
239,57,235013,2,0,B|216:69|216:69|138:64,1,87.0000033187868
68,131,235243,1,0,0:0:0:0:
16,201,235358,6,0,B|89:179|89:179|68:231,1,101.500000967979
262,258,235588,1,0,0:0:0:0:
253,323,235703,2,0,P|356:311|395:205,1,203.000001935959
329,38,236048,2,0,B|305:171|305:171|389:104,1,203.000001935959
239,57,236393,2,0,L|140:96,1,101.500000967979
10,282,236623,1,0,0:0:0:0:
16,201,236738,6,0,B|12:239|31:272|31:272|85:342|129:335|183:322,1,203.000001935959
253,323,237082,2,0,B|284:340|318:326|318:326|305:262|235:208,1,203.000001935959
0,122,237427,2,0,B|140:110|140:110|192:143,1,203.000001935959
239,57,237772,2,0,B|216:37|216:37|135:37,1,101.500000967979
52,66,238002,1,0,0:0:0:0:
16,201,238117,6,0,B|40:216|40:216|-7:122,1,101.500000967979
323,308,238347,1,0,0:0:0:0:
253,323,238462,2,0,B|239:294|239:294|234:293|234:293|213:252|213:252|212:238|212:238|103:309,1,203.000001935959
56,21,238807,2,0,B|68:90|175:90|175:90|125:58,1,203.000001935959
239,57,239151,1,0,0:0:0:0:
98,340,239381,1,0,0:0:0:0:
16,201,239496,6,0,P|97:301|89:339,1,101.500000967979
381,262,239726,1,0,0:0:0:0:
253,323,239841,2,0,B|357:216|357:216|355:135,1,203.000001935959
239,57,240186,2,0,B|252:84|238:104|238:104|145:70|145:70|68:84,1,203.000001935959
6,276,240531,2,0,B|97:259|97:259|151:283,1,116
259,331,240876,6,0,B|293:368|293:368|372:333|353:245,1,174.000006637574
282,215,241220,2,0,B|232:229|232:229|194:148|290:91,1,174.000006637574
370,120,241565,2,0,B|433:135|472:91|472:91|387:33,1,174.000006637574
218,47,241910,2,0,B|169:31|169:31|97:48,1,87.0000033187868
37,128,242140,1,0,0:0:0:0:
0,197,242255,6,0,P|96:188|149:300,1,203.000001935959
238,193,242600,2,0,P|355:186|380:90,1,203.000001935959
257,32,242944,2,0,B|247:55|225:62|225:62|152:35|117:121|47:43,1,203.000001935959
76,219,243289,2,0,P|161:199|74:181,1,203.000001935959
61,315,243634,5,0,0:0:0:0:
244,238,243864,1,0,0:0:0:0:
193,325,243979,2,0,B|323:285|323:285|417:309,1,203.000001935959
498,195,244324,2,0,B|461:239|461:239|390:151|390:151|370:182,1,203.000001935959
297,137,244669,2,0,P|259:102|275:28,1,101.500000967979
407,29,244898,1,0,0:0:0:0:
489,145,245013,6,0,B|433:172|433:172|256:126,1,203.000001935959
195,145,245358,1,0,0:0:0:0:
195,226,245473,1,0,0:0:0:0:
283,249,245588,1,0,0:0:0:0:
224,166,245703,1,0,0:0:0:0:
112,166,245818,1,0,0:0:0:0:
194,256,245933,1,0,0:0:0:0:
312,197,246048,1,0,0:0:0:0:
294,55,246163,1,0,0:0:0:0:
151,0,246278,1,0,0:0:0:0:
70,153,246393,6,0,B|108:226|108:226|94:312,1,116
51,357,246738,2,0,P|125:348|182:379,1,116
376,315,247082,2,0,P|320:328|267:309,1,116
426,258,247427,1,0,0:0:0:0:
385,111,247657,1,0,0:0:0:0:
336,79,247772,6,0,B|356:170|356:170|372:143,1,116
415,39,248117,1,0,0:0:0:0:
56,84,248347,1,0,0:0:0:0:
169,129,248462,2,0,B|196:114|196:114|311:152,1,116
226,262,248807,2,0,B|313:291|313:291|357:277,1,116
491,266,249151,6,0,P|402:280|391:375,2,174
443,26,250186,2,0,L|414:100,1,58
400,134,250416,1,0,0:0:0:0:
476,125,250531,6,0,L|491:189,1,58
423,294,250761,1,0,0:0:0:0:
304,244,250876,2,0,P|227:212|169:218,1,116
65,328,251220,2,0,P|149:305|165:238,1,116
158,140,251565,2,0,P|165:106|194:72,1,58
242,25,251795,1,0,0:0:0:0:
380,133,251910,6,0,L|250:104,1,116
42,154,252255,2,0,L|166:138,1,116
338,266,252600,2,0,P|408:241|419:187,1,116
416,71,252944,1,0,0:0:0:0:
157,139,253174,1,0,0:0:0:0:
93,74,253289,6,0,B|89:108|89:108|122:220,1,116
151,325,253634,1,0,0:0:0:0:
151,325,253864,1,0,0:0:0:0:
210,284,253979,2,0,B|262:304|262:304|316:363,1,116
367,218,254324,2,0,B|390:194|390:194|405:136|355:83,1,116
187,133,254669,6,0,P|106:122|90:53,1,127.600003894043
299,178,255013,2,0,P|364:191|423:121,1,139.199995751953
126,241,255358,2,0,P|43:217|22:145,1,150.799993096924
345,308,255703,2,0,P|432:279|448:187,1,162.399995043945
492,55,256048,5,0,0:0:0:0:
226,154,256278,1,0,0:0:0:0:
175,182,256393,2,0,P|148:163|117:105,1,58
50,89,256623,1,0,0:0:0:0:
103,19,256738,2,0,L|87:94,1,58
59,310,256967,2,0,B|83:350|83:350|113:209,1,174
212,57,257427,6,0,P|247:103|348:97,1,116
377,73,257772,2,0,P|428:123|425:189,1,116
486,340,258117,2,0,B|452:311|452:311|344:288,1,116
277,348,258462,1,0,0:0:0:0:
99,221,258692,1,0,0:0:0:0:
123,273,258807,6,0,L|201:286,1,58
314,180,259036,1,0,0:0:0:0:
375,175,259151,2,0,B|394:151|394:151|263:197,1,116
99,221,259496,2,0,P|90:166|196:212,1,217.5
477,322,260071,1,0,0:0:0:0:
425,359,260186,6,0,B|457:279|457:279|453:234,1,116
401,145,260531,2,0,B|393:119|393:119|421:11,1,116
179,97,260876,2,0,P|239:115|301:77,1,116
330,36,261220,1,0,0:0:0:0:
36,158,261450,1,0,0:0:0:0:
12,230,261565,6,0,B|87:195|87:195|135:206,1,116
213,267,261910,2,0,B|227:282|227:282|357:263,1,116
467,169,262255,2,0,P|447:142|447:97,1,58
469,242,262485,1,0,0:0:0:0:
432,304,262600,2,0,B|410:337|410:337|374:369|313:369,1,116
169,311,262944,6,0,B|131:275|131:275|276:311,2,174
349,97,263864,1,0,0:0:0:0:
284,127,263979,2,0,L|206:104,1,58
366,26,264209,1,0,0:0:0:0:
418,76,264324,6,0,B|452:120|452:120|443:205,1,116
371,241,264669,2,0,P|336:238|306:207,1,58
228,110,264898,1,0,0:0:0:0:
145,137,265013,2,0,B|135:170|135:170|167:269,1,116
346,344,265358,2,0,P|397:307|473:309,1,116
508,367,265703,6,0,P|455:301|461:242,1,145
407,70,266048,2,0,P|376:148|322:173,1,145
201,306,266393,1,0,0:0:0:0:
65,91,266623,1,0,0:0:0:0:
43,160,266738,2,0,B|80:128|80:128|212:108,1,145
325,172,267082,6,0,P|367:148|356:85,1,72.5
279,36,267312,1,0,0:0:0:0:
174,113,267427,2,0,L|198:285,1,145
269,363,267772,2,0,L|257:280,1,72.5
373,127,268002,1,0,0:0:0:0:
417,284,268117,2,0,B|405:267|405:267|403:232,1,29
415,188,268347,1,0,0:0:0:0:
344,133,268462,6,0,L|229:106,1,116
413,202,268807,6,0,L|283:215,1,121.799996282959
356,123,269151,6,0,L|231:93,1,127.600003894043
420,208,269496,6,0,L|277:222,1,133.400002544403
368,113,269841,6,0,L|231:80,1,139.199995751953
427,214,270186,6,0,L|269:229,1,145
380,103,270531,6,0,L|229:67,1,150.799993096924
434,220,270876,6,0,L|260:237,1,156.600000597382
392,93,271220,6,0,L|226:54,1,162.399995043945
441,226,271565,6,0,L|250:245,1,168.200005133057
404,83,271910,6,0,L|222:40,1,174.000006637574
448,232,272255,6,0,L|238:252,1,179.800001371765
416,73,272600,6,0,L|215:26,1,185.6
455,238,272944,6,0,L|224:261,1,191.400001825333
428,63,273289,6,0,L|207:11,1,197.200003761292
462,244,273634,6,0,L|208:269,1,203.000001935959
150,205,273979,6,0,L|158:253,1,34.7999989379883
253,251,274324,6,0,L|239:309,1,40.5999987609864
143,200,274669,6,0,L|151:252,1,46.4
260,246,275013,6,0,L|244:309,1,52.1999984069825
136,195,275358,6,0,L|145:253,1,58
267,241,275703,6,0,L|250:311,1,63.8000019470215
129,190,276048,6,0,L|140:257,1,69.5999978759766
274,236,276393,6,0,L|255:313,1,75.3999965484621
122,185,276738,6,0,L|135:264,1,81.1999975219727
281,231,277082,6,0,L|260:315,1,87.0000033187868
115,180,277427,6,0,L|130:272,1,92.8
288,226,277772,6,0,L|264:325,1,98.6000018806458
125,277,278117,6,0,L|108:175,1,104.399996813965
269,328,278462,6,0,L|295:221,1,110.199997057343
120,284,278807,6,0,L|101:170,1,116
273,334,279152,6,0,L|302:216,1,121.799996282959
241,36,279496,6,0,P|252:95|317:124,1,127.600003894043
492,134,279841,6,0,B|399:156|399:156|355:208,1,133.400002544403
288,295,280186,6,0,B|189:282|189:282|145:242,1,139.199995751953
32,108,280531,6,0,P|94:62|177:120,1,145
246,135,280876,6,0,B|275:151|275:151|427:130,1,150.799993096924
219,205,281220,6,0,B|236:233|236:233|378:291,1,156.600000597382
144,231,281565,6,0,B|144:264|144:264|238:385,1,162.399995043945
78,194,281910,6,0,B|62:223|62:223|83:375,1,168.200005133057
352,281,282255,6,0,P|369:236|366:185,1,87.0000033187868
318,94,282485,1,0,0:0:0:0:
204,122,282600,2,0,B|104:133|76:96|62:20|125:37|136:79,1,179.800001371765
368,197,282944,6,0,B|353:193|353:193|215:254|215:254|153:231,1,185.6
172,184,283289,6,0,B|183:206|183:206|323:261|323:261|331:274,1,191.400001825333
251,304,283634,6,0,B|255:289|255:289|194:151|194:151|217:89,1,197.200003761292
274,103,283979,6,0,B|241:119|241:119|186:259|186:259|173:267,1,203.000001935959
124,213,284324,5,0,0:0:0:0:
107,154,284439,1,0,0:0:0:0:
170,185,284554,1,0,0:0:0:0:
244,153,284669,1,0,0:0:0:0:
303,222,284784,1,0,0:0:0:0:
402,233,284898,1,0,0:0:0:0:
430,125,285013,6,0,B|465:97|465:97|408:40|408:40|316:51,1,203.000001935959
231,78,285358,2,0,B|168:88|112:24|112:24|179:38,1,174.000006637574
226,157,285703,1,0,0:0:0:0:
237,200,285818,2,0,P|233:251|192:289,1,87.0000033187868
53,271,286048,2,0,B|82:243|82:243|232:283,1,174.000006637574
290,339,286393,6,0,P|341:324|457:366,1,174.000006637574
401,300,286738,1,0,0:0:0:0:
434,90,286967,1,0,0:0:0:0:
483,75,287082,2,0,B|510:68|510:68|464:163|366:135,1,174.000006637574
323,118,287427,2,0,P|291:90|281:28,1,87.0000033187868
137,99,287657,1,0,0:0:0:0:
93,146,287772,6,0,B|277:106|277:106|189:82,2,261.00000995636
321,328,288807,2,0,P|352:325|386:178,1,174.000006637574
367,26,289151,6,0,B|372:56|372:56|309:188,1,174.000006637574
448,118,289496,2,0,B|406:154|406:154|371:302,1,174.000006637574
201,253,289841,2,0,B|253:271|253:271|204:162,1,174.000006637574
155,26,290186,1,0,0:0:0:0:
155,26,290416,1,0,0:0:0:0:
49,145,290531,6,0,B|140:132|140:132|168:146|168:146|336:126,2,261.00000995636
228,295,291565,2,0,B|273:289|273:289|302:357|395:356,1,174.000006637574
361,258,291910,6,0,P|343:171|427:53,1,174.000006637574
443,41,292255,1,0,0:0:0:0:
487,214,292485,1,0,0:0:0:0:
484,321,292600,2,0,B|524:195|524:195|471:222,1,174.000006637574
414,255,292944,2,0,B|391:266|391:266|306:241,1,87.0000033187868
199,187,293174,1,0,0:0:0:0:
137,127,293289,6,0,B|100:90|100:90|319:103,1,261.00000995636
270,319,293979,2,0,B|225:319|202:348|202:348|138:273|149:197|239:166,1,261.00000995636
388,281,294554,1,0,0:0:0:0:
415,340,294669,6,0,B|444:283|444:283|459:143,1,174.000006637574
352,19,295013,2,0,L|373:147,1,87.0000033187868
348,229,295243,1,0,0:0:0:0:
298,272,295358,2,0,P|230:250|137:289,1,174.000006637574
201,345,295703,2,0,P|223:278|193:221,1,87.0000033187868
179,186,295933,1,0,0:0:0:0:
68,31,296048,6,0,B|88:86|88:86|292:179,2,261.00000995636
282,59,296967,1,0,0:0:0:0:
339,21,297082,2,0,P|348:64|318:121,1,87.0000033187868
231,253,297312,1,0,0:0:0:0:
104,316,297427,6,0,L|228:294,1,87.0000033187868
360,334,297657,1,0,0:0:0:0:
452,242,297772,2,0,P|393:266|303:197,1,174.000006637574
221,28,298117,2,0,B|284:102|284:102|212:213|212:213|208:150,1,261.00000995636
91,41,298692,1,0,0:0:0:0:
221,28,298807,6,0,B|267:57|267:57|337:18|426:34|426:34|451:101,2,261.00000995636
170,195,299726,1,0,0:0:0:0:
149,263,299841,2,0,L|117:366,1,87.0000033187868
353,326,300071,1,0,0:0:0:0:
439,260,300186,6,0,P|360:285|310:218,1,174.000006637574
318,134,300531,2,0,P|277:69|179:100,1,174.000006637574
35,233,300876,2,0,L|121:211,1,87.0000033187868
137,282,301105,1,0,0:0:0:0:
283,337,301220,2,0,B|329:307|329:307|146:284,1,174.000006637574
62,160,301565,6,0,P|70:48|199:56,2,261.00000995636
443,143,302600,2,0,B|420:127|420:127|338:110,1,87.0000033187868
285,98,302830,1,0,0:0:0:0:
501,120,302944,6,0,P|399:102|350:166,1,174.000006637574
350,221,303289,2,0,P|377:264|433:282,1,87.0000033187868
238,149,303519,1,0,0:0:0:0:
193,203,303634,2,0,L|213:275,1,58
151,109,303864,2,0,L|122:178,1,72.5
30,21,304094,2,0,P|49:62|85:92,1,87.0000033187868
59,336,304324,6,0,L|171:323,1,101.500000967979
243,315,304554,1,0,0:0:0:0:
313,351,304669,2,0,P|389:363|449:289,1,174.000006637574
468,46,305013,2,0,P|377:78|368:171,1,162.399995043945
442,225,305358,2,0,L|361:205,1,75.3999965484621
296,230,305588,1,0,0:0:0:0:
195,258,305703,6,0,P|161:272|124:324,1,69.5999978759766
62,151,305933,1,0,0:0:0:0:
81,121,306048,2,0,P|114:169|83:243,1,139.199995751953
42,181,306393,2,0,B|135:159|135:159|189:177,1,133.400002544403
241,199,306738,2,0,B|269:210|269:210|398:181,1,133.400002544403
478,71,307082,6,0,L|443:81,1,29
239,161,307427,2,0,L|196:150,1,43.5
186,160,308462,6,0,L|225:169,1,29
372,291,308807,2,0,L|406:274,1,29
463,193,309151,2,0,B|450:132|450:132|397:279,1,217.500008296967
264,341,309841,6,0,P|180:332|86:389,1,174
73,170,310531,2,0,B|91:202|91:202|70:287,1,116
71,278,310876,2,0,L|200:251,1,116
339,222,311220,6,0,L|306:293,1,58
456,173,311450,1,0,0:0:0:0:
412,112,311565,2,0,P|363:84|286:94,1,116
152,146,311910,2,0,P|86:146|34:100,1,116
86,53,312255,2,0,B|91:85|91:85|61:188,1,116
149,359,312600,6,0,P|176:295|87:270,1,174
96,263,313174,1,0,0:0:0:0:
262,333,313289,2,0,B|292:255|292:255|337:227,1,116
444,71,313634,6,0,B|479:83|472:145|454:173|454:173|422:185|422:185|423:146|326:99|292:124|298:152,1,290
244,180,314324,2,0,B|248:215|248:215|276:277,1,87.0000033187868
142,18,314669,2,0,P|175:58|171:145,1,116
157,205,315013,2,0,P|155:272|200:318,1,116
404,344,315358,5,0,0:0:0:0:
465,282,315703,1,0,0:0:0:0:
383,129,316048,1,0,0:0:0:0:
137,278,316393,2,0,B|149:227|98:182|98:182|77:173|52:176|52:176|76:197,1,174
193,174,317427,1,0,0:0:0:0:
270,99,317772,1,0,0:0:0:0:
358,273,318117,6,0,B|293:127|475:31|563:155|517:285|383:368|169:342|169:342|266:220|269:99|269:99|242:147|180:175,1,1044
