osu file format v14

[General]
AudioFilename: illuminate.mp3
AudioLeadIn: 0
PreviewTime: 47838
Countdown: 0
SampleSet: Soft
StackLeniency: 0.7
Mode: 0
LetterboxInBreaks: 0
WidescreenStoryboard: 0

[Editor]
DistanceSpacing: 1.2
BeatDivisor: 4
GridSize: 4
TimelineZoom: 0.8999994

[Metadata]
Title:illuminate
TitleUnicode:illuminate
Artist:Minami
ArtistUnicode:Minami
Creator:Kalibe
Version:Haruto's Easy
Source:テイルズ オブ ゼスティリア ザ クロス
Tags:Lantis 栗林みな実 Kuribayashi ufotable opening tv size Tales of Zestiria The Cross X Second Season haruto haruto_aizawa little CloudSplash16 garden doormat
BeatmapID:1212443
BeatmapSetID:558963

[Difficulty]
HPDrainRate:2
CircleSize:2.7
OverallDifficulty:2
ApproachRate:3
SliderMultiplier:1.5
SliderTickRate:1

[Events]
//Background and Video events
0,0,"edna !!.jpg",0,0
Video,0,"zestiria+op2 (1).avi"
//Break Periods
//Storyboard Layer 0 (Background)
//Storyboard Layer 1 (Fail)
//Storyboard Layer 2 (Pass)
//Storyboard Layer 3 (Foreground)
//Storyboard Sound Samples

[TimingPoints]
213,600,4,2,1,50,1,0
9813,-100,4,2,1,55,0,0
13713,-100,4,2,1,60,0,0
14013,-100,4,2,1,50,0,0
14313,-100,4,2,1,40,0,0
17013,-100,4,2,2,70,0,0
19413,-100,4,2,1,60,0,0
38613,-100,4,2,1,55,0,0
45813,-100,4,2,1,75,0,0
46263,-100,4,2,1,55,0,0
46713,-100,4,2,1,75,0,0
47163,-100,4,2,1,60,0,0
47613,-100,4,2,1,75,0,0
47763,-100,4,2,1,55,0,0
47913,-100,4,2,1,70,0,0
48138,-100,4,2,1,5,0,0
48213,-100,4,2,1,65,0,1
57738,-100,4,2,1,5,0,1
57813,-100,4,2,1,65,0,1
62613,-100,4,2,1,70,0,1
65913,-100,4,2,1,70,0,0
66363,-100,4,2,1,60,0,0
66513,-100,4,2,1,60,0,0
67263,-100,4,2,1,70,0,0
67338,-100,4,2,1,5,0,0
67413,-100,4,2,1,70,0,1
81813,-100,4,2,1,75,0,1
84213,-100,4,2,1,80,0,1
85563,-100,4,2,1,15,0,1
85638,-100,4,2,1,80,0,1
85713,-100,4,2,1,70,0,1
86313,-100,4,2,1,85,0,0

[Colours]
Combo1 : 91,171,3
Combo2 : 75,124,22
Combo3 : 50,173,90
Combo4 : 230,240,21

[HitObjects]
8,152,213,6,0,P|68:112|202:190,2,225,2|2|2,0:0|0:0|0:0,0:0:0:0:
153,258,2613,2,0,P|217:266|281:214,1,150,2|0,0:0|0:0,0:0:0:0:
316,132,3513,2,0,L|333:366,1,225,2|2,0:0|0:0,0:0:0:0:
504,304,5013,6,0,L|492:146,1,150,2|0,0:0|0:0,0:0:0:0:
420,104,5913,2,0,B|296:68|324:160|192:128,1,225,2|0,0:0|0:0,0:0:0:0:
40,52,7413,2,0,L|51:209,1,150,2|0,0:0|0:0,0:0:0:0:
31,289,8313,2,0,P|77:245|215:303,1,225,2|0,0:0|0:3,0:0:0:0:
270,363,9513,1,2,0:0:0:0:
352,326,9813,6,0,L|365:156,1,150,2|0,0:0|0:0,0:0:0:0:
379,87,10713,2,0,P|329:19|191:38,1,225,2|2,0:0|0:0,0:0:0:0:
65,150,12213,2,0,P|79:256|93:374,2,225,2|2|2,0:0|0:0|0:0,0:0:0:0:
217,53,14613,6,0,P|207:127|197:209,1,150,2|0,0:0|0:0,0:0:0:0:
175,289,15513,2,0,P|219:232|341:306,1,225,2|2,0:0|0:0,0:0:0:0:
504,358,17013,2,0,L|495:262,1,75,8|8,0:0|0:0,0:0:0:0:
468,197,17613,2,0,P|410:197|358:148,2,112.5,2|8|0,0:0|0:0|3:0,0:0:0:0:
441,110,18813,1,8,0:0:0:0:
291,9,19413,6,0,P|213:19|56:39,2,225,2|2|8,0:0|0:0|0:0,0:0:0:0:
441,110,21813,2,0,P|380:107|291:232,1,225,2|2,0:0|0:0,0:0:0:0:
163,354,23313,2,0,L|82:341,2,75,4|8|0,3:0|0:0|0:0,0:0:0:0:
226,290,24213,6,0,P|232:213|242:48,1,225,2|2,0:0|0:0,0:0:0:0:
417,30,25713,2,0,P|467:41|503:77,2,75,0|8|0,3:0|0:0|0:0,0:0:0:0:
336,69,26613,2,0,P|341:170|349:271,1,150,2|0,0:0|3:0,0:0:0:0:
356,308,27513,2,0,P|304:239|176:279,1,225,2|8,0:0|0:0,0:0:0:0:
33,369,29013,6,0,P|20:286|-3:145,1,225,2|2,0:0|0:0,0:0:0:0:
145,45,30513,2,0,P|191:41|227:51,2,75,0|8|0,3:0|0:0|0:0,0:0:0:0:
179,128,31413,2,0,P|160:239|143:350,2,225,2|2|8,0:0|0:0|0:0,0:0:0:0:
218,47,33513,1,0,0:0:0:0:
277,114,33813,6,0,B|326:141|393:129|433:79|433:79|462:136,1,225,2|8,0:0|0:0,0:0:0:0:
504,298,35313,1,2,0:0:0:0:
431,351,35613,2,0,P|377:342|350:337,1,75,8|0,0:0|0:0,0:0:0:0:
363,248,36213,2,0,P|288:256|214:265,1,150,2|2,0:0|0:0,0:0:0:0:
148,327,37113,2,0,P|122:269|247:185,1,225,8|8,0:0|0:0,0:0:0:0:
404,210,38613,6,0,P|414:294|424:387,1,150,4|2,0:0|0:0,0:0:0:0:
334,380,39513,2,0,P|325:305|316:230,1,150,0|0,3:0|0:0,0:0:0:0:
256,163,40413,2,0,P|195:132|114:166,2,150,8|0|0,0:0|3:0|0:0,0:0:0:0:
316,231,41913,2,0,L|300:71,1,150,0|0,3:0|3:0,0:0:0:0:
221,39,42813,2,0,L|138:54,1,75,8|0,0:0|3:0,0:0:0:0:
60,76,43413,6,0,L|43:240,2,150,4|8|8,0:0|0:0|0:0,0:0:0:0:
228,16,45213,1,10,0:0:0:0:
315,173,45813,2,0,P|228:196|143:92,2,225,8|8|8,0:0|0:0|0:0,0:0:0:0:
432,36,48213,6,0,L|452:199,1,150,12|8,0:0|0:0,0:0:0:0:
412,264,49113,2,0,P|359:251|314:170,1,150,0|0,3:0|0:0,0:0:0:0:
307,82,50013,2,0,P|305:43|282:5,1,75,8|0,0:0|0:0,0:0:0:0:
217,68,50613,2,0,P|203:151|191:223,2,150,4|8|0,0:0|0:0|0:0,0:0:0:0:
141,19,52113,1,0,0:0:0:0:
67,70,52413,2,0,P|61:104|50:165,1,75,8|0,0:0|0:0,0:0:0:0:
45,234,53013,6,0,P|94:271|179:254,1,150,4|8,0:0|0:0,0:0:0:0:
210,172,53913,2,0,P|266:148|358:208,1,150,2|0,0:0|3:0,0:0:0:0:
273,239,54813,2,0,P|267:281|285:321,1,75,8|0,0:0|0:0,0:0:0:0:
357,267,55413,2,0,P|424:277|512:290,2,150,2|8|0,0:0|0:0|0:0,0:0:0:0:
202,360,57213,1,8,0:0:0:0:
39,282,57813,6,0,P|7:219|39:146,1,150,12|8,0:0|0:0,0:0:0:0:
97,214,58713,2,0,L|265:184,1,150,0|2,3:0|0:0,0:0:0:0:
314,245,59613,2,0,L|344:170,1,75,8|0,0:0|0:0,0:0:0:0:
370,89,60213,2,0,B|465:72|465:72|523:105,2,150,4|8|0,0:0|0:0|0:0,0:0:0:0:
208,169,62013,1,8,0:0:0:0:
378,227,62613,6,0,B|259:201|276:295|160:257,2,225,12|12|12,0:0|0:0|0:0,0:0:0:0:
504,354,65013,2,0,L|426:373,1,75,2|8,0:0|0:0,0:0:0:0:
357,319,65613,2,0,L|279:307,1,75,8|12,0:0|0:0,0:0:0:0:
112,369,66513,1,0,3:0:0:0:
44,310,66813,2,0,P|36:280|52:225,1,75,0|0,0:0|3:0,0:0:0:0:
45,147,67413,6,0,P|117:128|183:167,1,150,8|8,0:0|0:0,0:0:0:0:
231,237,68313,2,0,B|305:271|305:271|379:249,1,150,2|0,0:0|0:0,0:0:0:0:
452,213,69213,2,0,P|463:177|455:130,1,75,8|0,0:0|0:0,0:0:0:0:
381,94,69813,2,0,P|468:106|516:59,1,150,4|8,3:0|0:0,0:0:0:0:
434,21,70713,2,0,B|275:46,1,150,2|0,0:0|0:0,0:0:0:0:
197,31,71613,1,8,0:0:0:0:
129,90,71913,1,8,0:0:0:0:
38,89,72213,6,0,P|15:184|43:229,1,150,2|8,0:0|0:0,0:0:0:0:
71,308,73113,2,0,P|151:293|244:279,1,150,2|0,0:0|0:0,0:0:0:0:
298,324,74013,2,0,P|304:287|310:250,1,75,8|0,0:0|0:0,0:0:0:0:
262,174,74613,2,0,P|343:202|415:168,1,150,4|8,0:0|0:0,0:0:0:0:
441,100,75513,1,2,0:0:0:0:
497,169,75813,2,0,P|512:212|510:251,1,75,8|0,0:0|3:0,0:0:0:0:
440,296,76413,1,8,0:0:0:0:
358,257,76713,1,8,0:0:0:0:
298,324,77013,6,0,P|218:363|155:338,1,150,4|8,0:0|0:0,0:0:0:0:
96,285,77913,2,0,B|76:197|76:197|102:142,1,150,2|0,0:0|0:0,0:0:0:0:
158,72,78813,2,0,L|235:84,1,75,8|0,0:0|0:0,0:0:0:0:
294,18,79413,2,0,P|325:88|289:154,1,150,4|8,0:0|0:0,0:0:0:0:
226,208,80313,2,0,L|382:188,1,150,2|0,0:0|0:0,0:0:0:0:
454,231,81213,2,0,P|465:193|456:153,1,75,8|0,0:0|0:0,0:0:0:0:
394,96,81813,6,0,L|148:126,1,225,12|10,0:0|0:0,0:0:0:0:
103,63,83013,2,0,P|85:89|80:144,1,75,2|0,0:0|3:0,0:0:0:0:
129,204,83613,1,10,0:0:0:0:
170,123,83913,1,10,0:0:0:0:
247,169,84213,2,0,L|360:186,2,112.5,6|6|12,0:0|0:0|0:0,0:0:0:0:
75,223,85713,2,0,P|63:260|68:307,1,75,0|2,3:0|0:0,0:0:0:0:
93,381,86313,1,12,0:0:0:0:
