osu file format v14

[General]
AudioFilename: illuminate.mp3
AudioLeadIn: 0
PreviewTime: 47838
Countdown: 0
SampleSet: Soft
StackLeniency: 0.4
Mode: 0
LetterboxInBreaks: 0
WidescreenStoryboard: 0

[Editor]
DistanceSpacing: 1.7
BeatDivisor: 4
GridSize: 4
TimelineZoom: 2.099999

[Metadata]
Title:illuminate
TitleUnicode:illuminate
Artist:Minami
ArtistUnicode:Minami
Creator:Kalibe
Version:Garden's Hard
Source:テイルズ オブ ゼスティリア ザ クロス
Tags:Lantis 栗林みな実 Kuribayashi ufotable opening tv size Tales of Zestiria The Cross X Second Season haruto haruto_aizawa little CloudSplash16 garden doormat
BeatmapID:1183371
BeatmapSetID:558963

[Difficulty]
HPDrainRate:5
CircleSize:3.7
OverallDifficulty:6
ApproachRate:7.7
SliderMultiplier:2
SliderTickRate:2

[Events]
//Background and Video events
0,0,"edna !!.jpg",0,0
Video,0,"zestiria+op2 (1).avi"
//Break Periods
//Storyboard Layer 0 (Background)
//Storyboard Layer 1 (Fail)
//Storyboard Layer 2 (Pass)
//Storyboard Layer 3 (Foreground)
//Storyboard Sound Samples

[TimingPoints]
213,600,4,2,1,60,1,0
48213,-83.3333333333333,4,2,1,80,0,1
65913,-83.3333333333333,4,2,1,80,0,0
66513,-100,4,2,1,65,0,0
67413,-83.3333333333333,4,2,1,80,0,1
86313,-83.3333333333333,4,2,1,80,0,0

[Colours]
Combo1 : 91,171,3
Combo2 : 75,124,22
Combo3 : 50,173,90
Combo4 : 230,240,21

[HitObjects]
486,225,213,6,0,P|445:196|396:193,1,100,2|0,0:0|0:0,0:0:0:0:
323,239,663,2,0,P|294:246|267:247,1,50,2|0,0:0|0:0,0:0:0:0:
196,297,963,1,0,0:0:0:0:
196,297,1113,2,0,B|153:199|241:203|187:91,1,200,2|0,0:0|0:0,0:0:0:0:
19,164,2013,2,0,P|68:170|120:157,1,100,2|0,0:0|0:0,0:0:0:0:
371,241,2613,6,0,P|322:235|270:248,1,100,2|0,0:0|0:0,0:0:0:0:
213,307,3063,2,0,P|213:335|225:368,1,50,2|0,0:0|0:0,0:0:0:0:
309,364,3363,1,0,0:0:0:0:
309,364,3513,2,0,B|329:306|329:306|317:155,1,200,2|0,0:0|0:0,0:0:0:0:
437,17,4413,2,0,L|428:117,1,100,2|0,0:0|0:0,0:0:0:0:
247,67,5013,6,0,P|198:62|142:93,1,100,2|0,0:0|0:0,0:0:0:0:
110,156,5463,2,0,L|59:154,1,50,2|0,0:0|0:0,0:0:0:0:
54,242,5763,1,0,0:0:0:0:
54,242,5913,2,0,B|134:244|134:244|175:221|175:221|259:224,1,200,2|0,0:0|0:0,0:0:0:0:
421,329,6813,2,0,B|314:326,1,100,2|0,0:0|0:0,0:0:0:0:
467,193,7413,6,0,B|454:164|454:164|460:90,1,100,2|0,0:0|0:0,0:0:0:0:
444,12,7863,2,0,P|421:19|400:34,1,50,2|0,0:0|3:0,0:0:0:0:
345,100,8163,1,0,0:0:0:0:
345,100,8313,2,0,P|288:128|184:54,1,200,2|0,0:0|0:0,0:0:0:0:
237,220,9213,2,0,B|239:233|239:233|235:243|235:243|227:338,1,100,4|2,3:0|0:0,0:0:0:0:
156,363,9663,1,0,0:0:0:0:
156,363,9813,6,0,P|97:370|50:336,1,100,2|0,0:0|0:0,0:0:0:0:
11,283,10263,2,0,P|11:257|19:230,1,50,2|0,0:0|0:0,0:0:0:0:
56,160,10563,1,0,0:0:0:0:
56,160,10713,2,0,B|154:117|171:199|269:147,1,200,2|0,0:0|0:0,0:0:0:0:
407,54,11613,2,0,P|356:60|305:71,1,100,2|0,0:0|0:0,0:0:0:0:
479,241,12213,6,0,P|496:193|488:141,1,100,2|0,0:0|0:0,0:0:0:0:
404,144,12663,2,0,P|373:148|343:157,1,50,2|0,0:0|3:0,0:0:0:0:
307,225,12963,1,0,0:0:0:0:
307,225,13113,2,0,P|224:243|160:153,1,200,2|2,0:0|0:0,0:0:0:0:
209,89,13863,1,0,0:0:0:0:
153,24,14013,2,0,L|89:11,1,50,2|0,0:0|0:0,0:0:0:0:
209,89,14313,2,0,L|268:85,1,50,2|0,0:0|0:0,0:0:0:0:
159,160,14613,6,0,L|61:141,1,100,2|0,0:0|0:0,0:0:0:0:
16,213,15063,2,0,P|23:240|24:264,1,50,2|0,0:0|0:0,0:0:0:0:
36,351,15363,1,0,0:0:0:0:
36,351,15513,2,0,B|87:343|108:290|108:290|137:338|195:330,1,200,2|0,0:0|0:0,0:0:0:0:
352,270,16413,1,2,0:0:0:0:
185,243,16713,2,0,P|176:228|167:214,4,25,0|0|0|0|8,3:0|3:0|3:0|3:0|0:0,0:0:0:0:
339,355,17313,6,0,P|364:355|391:349,1,50,8|0,0:0|3:0,0:0:0:0:
467,312,17613,1,0,3:0:0:0:
467,312,17763,2,0,B|457:201,1,100,0|8,3:0|0:0,0:0:0:0:
385,169,18213,2,0,B|380:144|380:144|386:110,1,50,0|0,0:0|3:0,0:0:0:0:
441,57,18513,2,0,B|464:61|464:61|492:56,1,50,4|0,3:0|0:0,0:0:0:0:
370,9,18813,1,8,0:0:0:0:
313,73,18963,2,0,P|265:92|213:83,1,100,4|0,3:0|3:0,0:0:0:0:
126,22,19413,6,0,B|106:44|106:44|90:114,1,100,2|0,0:0|0:0,0:0:0:0:
32,176,19863,1,2,0:0:0:0:
72,256,20013,1,0,3:0:0:0:
72,256,20313,2,0,P|144:240|216:280,1,150,2|0,0:0|0:0,0:0:0:0:
275,328,20913,2,0,P|299:323|322:312,1,50,0|0,0:0|0:0,0:0:0:0:
387,200,21213,2,0,P|382:225|381:250,1,50,8|0,0:0|0:0,0:0:0:0:
443,308,21514,2,0,P|465:305|496:292,1,50,0|0,0:0|0:0,0:0:0:0:
498,196,21813,6,0,P|479:157|471:97,1,100,2|0,0:0|0:0,0:0:0:0:
437,23,22263,1,2,0:0:0:0:
368,71,22413,1,0,3:0:0:0:
368,71,22713,2,0,L|192:64,1,150,2|0,0:0|3:0,0:0:0:0:
148,113,23313,2,0,L|98:111,1,50,4|0,3:0|0:0,0:0:0:0:
224,151,23613,2,0,P|251:190|254:249,1,100,8|0,0:0|0:0,0:0:0:0:
248,326,24063,1,0,0:0:0:0:
148,348,24213,6,0,P|105:340|48:334,1,100,2|0,0:0|0:0,0:0:0:0:
4,261,24663,1,2,0:0:0:0:
59,197,24813,1,0,3:0:0:0:
59,197,25113,2,0,L|48:38,1,150,2|0,0:0|0:0,0:0:0:0:
128,17,25713,2,0,P|144:43|156:73,1,50,0|0,3:0|0:0,0:0:0:0:
202,152,26013,2,0,L|258:142,2,50,8|0|0,0:0|0:0|0:0,0:0:0:0:
368,65,26613,6,0,P|358:124|355:175,1,100,2|0,0:0|0:0,0:0:0:0:
413,226,27063,1,2,0:0:0:0:
362,295,27213,1,0,3:0:0:0:
362,295,27513,2,0,P|309:292|265:315,1,100,2|0,0:0|0:0,0:0:0:0:
188,376,27963,1,8,0:0:0:0:
109,342,28113,2,0,L|53:333,1,50,2|0,0:0|0:0,0:0:0:0:
31,231,28413,2,0,P|15:193|21:127,1,100,8|0,0:0|0:0,0:0:0:0:
33,51,28863,1,0,0:0:0:0:
131,71,29013,6,0,P|190:68|243:63,1,100,2|0,0:0|0:0,0:0:0:0:
310,46,29463,1,2,0:0:0:0:
360,121,29613,1,0,3:0:0:0:
360,121,29913,2,0,P|303:132|195:168,1,150,2|0,0:0|0:0,0:0:0:0:
245,240,30513,2,0,P|253:270|261:305,1,50,0|0,3:0|0:0,0:0:0:0:
333,362,30813,2,0,P|335:337|341:313,1,50,8|0,0:0|0:0,0:0:0:0:
389,243,31113,2,0,P|415:239|449:232,1,50,0|0,0:0|3:0,0:0:0:0:
488,148,31413,6,0,P|488:105|481:45,1,100,2|0,0:0|0:0,0:0:0:0:
402,17,31863,1,2,0:0:0:0:
333,66,32013,1,0,3:0:0:0:
333,66,32313,2,0,L|166:59,1,150,2|0,0:0|3:0,0:0:0:0:
116,112,32913,2,0,P|105:175|125:224,1,100,2|8,0:0|0:0,0:0:0:0:
175,268,33363,1,0,0:0:0:0:
258,252,33513,2,0,P|286:255|315:263,1,50,0|0,0:0|3:0,0:0:0:0:
366,342,33813,6,0,P|315:345|261:352,1,100,2|0,0:0|0:0,0:0:0:0:
184,373,34263,1,0,0:0:0:0:
106,338,34413,1,0,3:0:0:0:
106,338,34713,2,0,P|51:286|67:215,1,150,8|0,0:0|0:0,0:0:0:0:
49,133,35313,2,0,L|-8:137,1,50,2|0,0:0|0:0,0:0:0:0:
96,58,35613,2,0,L|206:71,1,100,8|0,0:0|0:0,0:0:0:0:
273,33,36063,1,0,0:0:0:0:
369,56,36213,6,0,P|408:119|401:193,1,150,2|0,0:0|0:0,0:0:0:0:
358,271,36813,2,0,P|357:304|363:331,1,50,2|0,3:2|0:0,0:0:0:0:
274,243,37113,2,0,L|161:233,1,100,8|0,0:0|0:0,0:0:0:0:
145,151,37563,1,0,3:0:0:0:
203,83,37713,2,0,L|266:89,1,50,4|0,3:0|0:0,0:0:0:0:
391,101,38013,1,8,0:0:0:0:
391,101,38163,2,0,P|405:153|385:206,1,100,8|0,0:0|0:0,0:0:0:0:
314,262,38613,6,0,B|367:319|437:289|437:289|402:315|401:352,1,200,4|2,0:0|0:0,0:0:0:0:
392,196,39513,2,0,P|283:166|216:224,1,200,0|0,3:0|0:0,0:0:0:0:
144,345,40413,2,0,P|87:341|39:322,1,100,8|0,0:0|0:0,0:0:0:0:
12,110,41013,6,0,B|103:75|103:75|161:89,1,150,0|2,3:0|0:0,0:0:0:0:
243,108,41613,1,0,0:0:0:0:
243,108,41913,2,0,P|298:118|352:95,1,100,0|2,3:0|0:0,0:0:0:0:
412,61,42363,1,8,0:0:0:0:
494,85,42513,2,0,P|501:110|508:146,1,50,0|0,3:0|0:0,0:0:0:0:
413,195,42813,2,0,P|418:172|421:146,1,50,8|8,0:0|0:3,0:0:0:0:
328,224,43113,2,0,P|342:252|358:274,1,50,4|0,3:0|3:0,0:0:0:0:
449,356,43413,6,0,P|409:346|344:354,1,100,4|2,0:0|0:0,0:0:0:0:
269,372,43863,1,0,0:0:0:0:
269,372,44013,1,8,0:0:0:0:
328,224,44313,1,0,3:0:0:0:
143,322,44613,2,0,L|43:328,1,100,8|0,0:0|3:0,0:0:0:0:
228,217,45213,2,0,L|348:225,1,100,10|0,0:0|3:0,0:0:0:0:
152,18,45813,6,0,L|143:118,1,100,12|0,0:0|0:0,0:0:0:0:
25,231,46263,2,0,P|68:207|118:206,1,100,8|0,0:3|3:0,0:0:0:0:
232,235,46713,5,8,0:0:0:0:
232,235,46863,2,0,L|240:306,1,50,8|0,0:0|0:0,0:0:0:0:
305,343,47163,2,0,L|296:373,3,16.6666666666667,4|4|4|8,0:3|0:3|0:3|0:3,0:0:0:0:
375,286,47463,1,4,0:3:0:0:
451,334,47613,2,0,P|463:290|447:231,1,100,8|8,0:0|0:3,0:0:0:0:
451,237,48213,6,0,B|442:212|442:212|466:163|449:119,1,119.999996337891,12|0,0:0|0:0,0:0:0:0:
394,42,48663,1,0,0:0:0:0:
312,92,48813,2,0,P|257:104|195:90,2,119.999996337891,8|2|0,0:0|0:0|0:0,0:0:0:0:
373,173,49563,1,0,3:0:0:0:
373,173,49713,2,0,P|361:210|358:235,1,59.9999981689454,2|0,0:0|0:0,0:0:0:0:
437,286,50013,2,0,P|397:279|320:310,1,119.999996337891,8|2,0:0|0:0,0:0:0:0:
75,286,50613,6,0,P|115:279|192:310,1,119.999996337891,4|0,0:0|0:0,0:0:0:0:
255,237,51063,1,0,0:0:0:0:
255,237,51213,2,0,L|255:166,1,59.9999981689454,8|0,0:0|0:0,0:0:0:0:
171,131,51513,2,0,P|164:70|204:14,1,119.999996337891,2|0,0:0|0:0,0:0:0:0:
285,0,51963,2,0,P|317:15|338:31,1,59.9999981689454,8|0,0:0|0:0,0:0:0:0:
262,91,52263,1,0,0:0:0:0:
262,91,52413,2,0,L|123:72,1,119.999996337891,8|0,0:0|0:0,0:0:0:0:
54,110,52863,1,8,0:0:0:0:
107,204,53013,6,0,B|119:239|119:239|108:337,1,119.999996337891,2|0,0:0|0:0,0:0:0:0:
193,369,53463,1,0,0:0:0:0:
280,328,53613,2,0,P|343:318|421:356,2,119.999996337891,8|0|0,0:0|0:0|0:0,0:0:0:0:
199,274,54363,2,0,L|206:208,1,59.9999981689454,8|0,0:0|0:0,0:0:0:0:
191,119,54663,1,0,0:0:0:0:
105,173,54813,1,8,0:0:0:0:
105,173,55113,2,0,P|73:174|42:166,1,59.9999981689454,0|0,0:0|0:0,0:0:0:0:
191,119,55413,6,0,P|254:128|294:171,1,119.999996337891,2|0,0:0|0:0,0:0:0:0:
323,258,55863,1,0,0:0:0:0:
408,214,56013,2,0,P|446:218|480:227,1,59.9999981689454,8|0,0:0|0:0,0:0:0:0:
323,258,56313,2,0,P|267:273|191:275,2,119.999996337891,2|0|2,0:0|0:0|0:0,0:0:0:0:
291,166,57063,1,0,0:0:0:0:
291,166,57213,2,0,P|291:136|296:106,1,59.9999981689454,8|8,0:0|0:0,0:0:0:0:
380,19,57513,2,0,P|385:49|386:79,1,59.9999981689454,2|0,0:0|0:0,0:0:0:0:
232,39,57813,6,0,P|152:38|111:75,1,119.999996337891,12|0,0:0|0:0,0:0:0:0:
58,132,58263,1,0,0:0:0:0:
104,216,58413,2,0,B|113:252|113:252|102:342,2,119.999996337891,8|0|0,0:0|3:0|0:0,0:0:0:0:
174,149,59163,1,8,0:0:0:0:
174,149,59313,2,0,L|245:157,1,59.9999981689454,2|0,0:0|0:0,0:0:0:0:
281,238,59613,2,0,L|404:219,1,119.999996337891,8|0,0:0|0:0,0:0:0:0:
491,248,60063,1,0,3:0:0:0:
477,141,60213,6,0,P|428:107|365:112,1,119.999996337891,4|0,0:0|0:0,0:0:0:0:
312,40,60663,1,0,0:0:0:0:
312,40,60813,2,0,P|279:31|240:30,1,59.9999981689454,8|0,0:0|0:0,0:0:0:0:
148,107,61113,2,0,P|202:132|262:124,1,119.999996337891,2|0,0:0|0:0,0:0:0:0:
327,194,61563,2,0,P|322:234|320:279,1,59.9999981689454,0|0,0:0|3:0,0:0:0:0:
326,349,61863,1,0,0:0:0:0:
326,349,62013,2,0,P|293:334|246:327,1,59.9999981689454,8|8,0:0|0:0,0:0:0:0:
180,362,62313,2,0,P|142:367|106:364,1,59.9999981689454,2|0,0:0|0:0,0:0:0:0:
23,285,62613,6,0,B|30:257|30:257|22:200|22:200|33:160,1,119.999996337891,12|0,0:0|0:0,0:0:0:0:
52,49,63063,1,8,0:3:0:0:
52,49,63513,6,0,B|95:61|127:39|127:39|147:51|178:56,1,119.999996337891,12|0,0:0|0:0,0:0:0:0:
133,171,63963,1,8,0:3:0:0:
133,171,64413,6,0,B|257:133,1,119.999996337891,12|0,0:0|0:0,0:0:0:0:
306,35,64863,2,0,P|353:73|365:136,1,119.999996337891,4|0,3:2|0:0,0:0:0:0:
308,207,65313,6,0,B|304:239|304:239|313:273,1,59.9999981689454,8|0,0:0|0:0,0:0:0:0:
392,363,65613,2,0,B|390:332|390:332|398:304,1,59.9999981689454,8|0,0:0|0:0,0:0:0:0:
460,230,65913,1,12,0:0:0:0:
460,230,66513,6,0,L|458:172,1,50,2|4,0:0|3:0,0:0:0:0:
444,96,66813,2,0,B|421:97|399:116|399:116|375:103|343:109,1,100,8|8,3:0|3:3,0:0:0:0:
265,155,67263,1,8,0:0:0:0:
326,245,67413,6,0,L|316:378,1,119.999996337891,8|0,0:0|0:0,0:0:0:0:
222,382,67863,1,0,0:0:0:0:
148,319,68013,2,0,P|91:309|34:336,2,119.999996337891,8|2|0,0:0|0:0|0:0,0:0:0:0:
229,266,68763,1,8,0:0:0:0:
229,266,68913,2,0,P|222:234|220:201,1,59.9999981689454,0|0,3:0|0:0,0:0:0:0:
291,142,69213,2,0,P|229:111|162:131,1,119.999996337891,8|2,0:0|0:0,0:0:0:0:
98,70,69663,1,0,0:0:0:0:
60,170,69813,6,0,L|69:298,1,119.999996337891,4|0,3:0|0:0,0:0:0:0:
162,381,70263,1,0,0:0:0:0:
162,381,70413,2,0,P|164:341|169:307,1,59.9999981689454,8|0,0:0|0:0,0:0:0:0:
229,248,70713,1,2,0:0:0:0:
229,248,70863,2,0,P|280:285|352:288,1,119.999996337891,8|0,0:0|0:0,0:0:0:0:
439,276,71313,2,0,L|435:217,1,59.9999981689454,0|0,3:0|0:0,0:0:0:0:
365,149,71613,1,8,0:0:0:0:
365,149,71913,2,0,P|329:163|304:167,1,59.9999981689454,8|8,0:0|0:0,0:0:0:0:
391,59,72213,6,0,L|258:45,1,119.999996337891,2|0,0:0|0:0,0:0:0:0:
180,78,72663,1,2,0:0:0:0:
216,180,72813,2,0,B|228:216|228:216|215:307,2,119.999996337891,8|2|0,0:0|0:0|0:0,0:0:0:0:
121,158,73563,2,0,L|58:175,1,59.9999981689454,8|0,0:0|3:0,0:0:0:0:
25,90,73863,1,0,0:0:0:0:
25,90,74013,2,0,L|142:54,1,119.999996337891,8|2,0:0|0:0,0:0:0:0:
225,12,74463,1,0,0:0:0:0:
267,98,74613,6,0,L|278:172,1,59.9999981689454,4|8,0:0|0:0,0:0:0:0:
364,224,74913,2,0,L|371:165,1,59.9999981689454,0|0,0:0|3:0,0:0:0:0:
282,276,75213,2,0,P|216:268|159:308,1,119.999996337891,8|2,0:0|0:0,0:0:0:0:
238,363,75663,1,0,0:0:0:0:
368,324,75813,1,8,0:0:0:0:
368,324,76113,2,0,L|443:307,1,59.9999981689454,8|0,3:0|3:0,0:0:0:0:
494,243,76413,2,0,P|496:213|493:182,1,59.9999981689454,8|0,0:0|0:0,0:0:0:0:
441,108,76713,1,8,0:0:0:0:
441,108,76863,1,8,0:0:0:0:
344,157,77013,6,0,L|222:142,1,119.999996337891,4|0,0:0|0:0,0:0:0:0:
130,157,77463,1,0,0:0:0:0:
191,230,77613,2,0,B|201:264|201:264|190:367,2,119.999996337891,8|0|0,0:0|0:0|0:0,0:0:0:0:
108,278,78363,2,0,L|100:345,1,59.9999981689454,8|0,0:0|0:0,0:0:0:0:
23,249,78663,1,0,0:0:0:0:
23,249,78813,2,0,P|20:183|15:123,1,119.999996337891,8|0,0:0|0:0,0:0:0:0:
4,33,79263,1,0,0:0:0:0:
98,86,79413,6,0,P|162:92|234:51,1,119.999996337891,4|0,0:0|0:0,0:0:0:0:
280,2,79863,1,2,0:0:0:0:
356,59,80013,2,0,L|415:61,1,59.9999981689454,8|0,0:0|0:0,0:0:0:0:
288,126,80313,2,0,P|267:177|276:251,1,119.999996337891,6|0,0:0|0:0,0:0:0:0:
339,309,80763,2,0,L|398:301,1,59.9999981689454,8|0,0:0|3:0,0:0:0:0:
273,380,81063,1,0,0:0:0:0:
273,380,81213,2,0,L|207:369,1,59.9999981689454,8|8,0:0|0:0,0:0:0:0:
114,316,81513,2,0,P|111:347|118:376,1,59.9999981689454,2|0,0:0|3:0,0:0:0:0:
195,264,81813,6,0,L|201:144,1,119.999996337891,12|0,0:0|3:0,0:0:0:0:
269,75,82263,2,0,P|218:47|160:55,1,119.999996337891,12|0,0:0|3:0,0:0:0:0:
294,168,82713,2,0,P|326:169|357:157,1,59.9999981689454,10|0,0:0|0:0,0:0:0:0:
423,46,83013,2,0,L|433:106,1,59.9999981689454,0|4,3:0|3:0,0:0:0:0:
496,178,83313,1,8,3:0:0:0:
463,268,83463,2,0,L|460:317,2,29.9999990844727,8|8|10,0:0|0:0|0:0,0:0:0:0:
368,252,83763,1,10,0:0:0:0:
314,331,83913,2,0,P|274:327|238:320,1,59.9999981689454,10|10,0:0|0:0,0:0:0:0:
150,250,84213,6,0,B|164:275|164:275|144:317|159:364,1,119.999996337891,6|4,0:0|0:3,0:0:0:0:
57,222,84663,2,0,P|99:169|161:156,1,119.999996337891,6|4,0:0|0:3,0:0:0:0:
258,203,85113,2,0,L|390:193,2,119.999996337891,12|0|2,0:0|3:0|0:0,0:0:0:0:
416,92,86013,2,0,P|445:107|472:138,1,59.9999981689454,0|0,3:0|0:0,0:0:0:0:
500,215,86313,5,12,0:0:0:0:
