osu file format v14

[General]
AudioFilename: illuminate.mp3
AudioLeadIn: 0
PreviewTime: 47838
Countdown: 0
SampleSet: Soft
StackLeniency: 0.7
Mode: 0
LetterboxInBreaks: 0
WidescreenStoryboard: 0

[Editor]
DistanceSpacing: 1
BeatDivisor: 12
GridSize: 4
TimelineZoom: 2.699999

[Metadata]
Title:illuminate
TitleUnicode:illuminate
Artist:Minami
ArtistUnicode:Minami
Creator:Kalibe
Version:Doormat's Insane
Source:テイルズ オブ ゼスティリア ザ クロス
Tags:Lantis 栗林みな実 Kuribayashi ufotable opening tv size Tales of Zestiria The Cross X Second Season haruto haruto_aizawa little CloudSplash16 garden doormat
BeatmapID:1219046
BeatmapSetID:558963

[Difficulty]
HPDrainRate:5.5
CircleSize:4
OverallDifficulty:7
ApproachRate:8.5
SliderMultiplier:2.2
SliderTickRate:1

[Events]
//Background and Video events
Video,0,"zestiria+op2 (1).avi"
0,0,"berseria.jpg",0,0
//Break Periods
//Storyboard Layer 0 (Background)
//Storyboard Layer 1 (Fail)
//Storyboard Layer 2 (Pass)
//Storyboard Layer 3 (Foreground)
//Storyboard Sound Samples

[TimingPoints]
213,600,4,2,1,50,1,0
9813,-100,4,2,1,55,0,0
13713,-100,4,2,1,60,0,0
14013,-100,4,2,1,50,0,0
14313,-100,4,2,1,40,0,0
17013,-100,4,2,2,70,0,0
19413,-100,4,2,1,60,0,0
38613,-100,4,2,1,55,0,0
45813,-100,4,2,1,75,0,0
46263,-100,4,2,1,55,0,0
46713,-100,4,2,1,75,0,0
47163,-66.6666666666667,4,2,1,60,0,0
47463,-100,4,2,1,60,0,0
47613,-100,4,2,1,75,0,0
47763,-100,4,2,1,55,0,0
47913,-100,4,2,1,70,0,0
48138,-100,4,2,1,5,0,0
48213,-90.9090909090909,4,2,1,65,0,1
57513,-90.9090909090909,4,2,1,65,0,0
57813,-90.9090909090909,4,2,1,65,0,1
62613,-90.9090909090909,4,2,1,70,0,1
63063,-90.9090909090909,4,2,1,70,0,0
63513,-90.9090909090909,4,2,1,70,0,1
63963,-90.9090909090909,4,2,1,70,0,0
64413,-90.9090909090909,4,2,1,70,0,1
64863,-90.9090909090909,4,2,1,70,0,0
66363,-66.6666666666667,4,2,1,60,0,0
66663,-90.9090909090909,4,2,1,60,0,0
67263,-90.9090909090909,4,2,1,70,0,0
67413,-90.9090909090909,4,2,1,70,0,1
81813,-90.9090909090909,4,2,1,75,0,0
84213,-90.9090909090909,4,2,1,80,0,1
85563,-90.9090909090909,4,2,1,15,0,1
85713,-90.9090909090909,4,2,1,70,0,0
86313,-90.9090909090909,4,2,1,85,0,0

[Colours]
Combo1 : 0,136,202
Combo2 : 211,24,24
Combo3 : 0,0,202
Combo4 : 255,45,15

[HitObjects]
140,64,213,6,0,L|148:204,1,110,2|0,0:0|0:0,0:0:0:0:
232,92,663,1,0,0:0:0:0:
232,92,813,2,0,P|236:52|228:16,1,55,0|0,0:0|0:0,0:0:0:0:
256,180,1113,2,0,P|292:188|372:148,1,110,2|0,0:0|0:0,0:0:0:0:
416,268,1563,1,2,0:0:0:0:
416,268,1713,2,0,L|408:348,1,55,0|0,0:0|0:0,0:0:0:0:
300,384,2013,2,0,L|288:252,1,110,2|0,0:0|0:0,0:0:0:0:
100,188,2613,6,0,P|152:201|203:182,1,110,2|0,0:0|0:0,0:0:0:0:
144,92,3063,1,2,0:0:0:0:
144,92,3213,2,0,P|117:84|90:85,1,55,0|0,0:0|0:0,0:0:0:0:
251,88,3513,2,0,P|306:79|361:81,1,110,2|0,0:0|0:0,0:0:0:0:
460,128,3963,1,0,0:0:0:0:
460,128,4113,1,0,0:0:0:0:
372,328,4413,2,0,L|360:208,1,110,2|0,0:0|0:0,0:0:0:0:
280,160,4863,1,0,0:0:0:0:
218,288,5013,6,0,B|156:324|112:290|112:290|64:256|8:284,1,220,2|0,0:0|0:0,0:0:0:0:
303,316,5913,2,0,P|305:258|265:211,1,110,2|0,0:0|0:0,0:0:0:0:
172,176,6363,1,0,0:0:0:0:
172,176,6513,1,0,0:0:0:0:
296,60,6813,2,0,L|424:72,1,110,2|0,0:0|0:0,0:0:0:0:
484,148,7263,1,0,0:0:0:0:
444,264,7413,6,0,P|408:244|240:296,1,220,2|0,0:0|3:0,0:0:0:0:
60,108,8313,2,0,P|104:132|216:96,1,165,2|0,0:0|0:0,0:0:0:0:
271,12,8913,2,0,P|325:0|378:10,1,110,0|4,0:0|3:0,0:0:0:0:
496,164,9513,2,0,L|504:120,2,36.6666666666667,2|2|2,0:0|0:0|0:0,0:0:0:0:
503,244,9813,6,0,P|451:231|418:188,1,110,2|0,0:0|0:0,0:0:0:0:
324,252,10263,1,0,0:0:0:0:
324,252,10413,2,0,P|316:288|316:328,1,55,0|0,0:0|0:0,0:0:0:0:
196,364,10713,2,0,P|188:308|164:244,1,110,2|0,0:0|0:0,0:0:0:0:
62,212,11163,1,0,0:0:0:0:
62,212,11313,2,0,P|54:248|54:288,1,55,0|0,0:0|0:0,0:0:0:0:
126,166,11613,2,0,P|81:135|27:141,1,110,2|0,0:0|0:0,0:0:0:0:
360,196,12213,6,0,P|404:226|458:219,1,110,2|0,0:0|0:0,0:0:0:0:
348,116,12663,2,0,P|299:139|278:189,1,110,2|0,0:0|0:0,0:0:0:0:
423,145,13113,2,0,P|426:91|394:48,1,110,2|0,0:0|0:0,0:0:0:0:
292,12,13563,1,0,0:0:0:0:
192,72,13713,6,0,L|197:126,1,55,2|2,0:0|0:0,0:0:0:0:
104,56,14013,2,0,L|100:110,1,55,2|2,0:0|0:0,0:0:0:0:
19,26,14313,2,0,L|7:79,1,55,2|2,0:0|0:0,0:0:0:0:
16,228,14613,6,0,P|56:212|140:232,1,110,2|0,0:0|0:0,0:0:0:0:
192,304,15063,1,2,0:0:0:0:
192,304,15213,1,0,0:0:0:0:
320,104,15513,2,0,L|316:236,1,110,2|0,0:0|0:0,0:0:0:0:
416,168,15963,2,0,L|418:94,1,55,0|0,0:0|0:0,0:0:0:0:
216,20,16413,2,0,L|212:152,1,110,2|0,0:0|0:0,0:0:0:0:
120,72,16863,1,0,0:0:0:0:
48,196,17013,6,0,L|49:250,1,55,8|0,0:0|0:0,0:0:0:0:
160,204,17313,1,8,0:0:0:0:
104,328,17463,2,0,P|72:344|-8:328,2,110,0|0|8,3:0|3:0|0:0,0:0:0:0:
232,308,18213,6,0,L|286:316,1,55,0|0,0:0|3:0,0:0:0:0:
214,195,18513,2,0,L|159:203,1,55,0|0,3:0|0:0,0:0:0:0:
200,68,18813,1,8,0:0:0:0:
336,143,18963,2,0,P|389:152|441:136,1,110,4|0,3:0|3:0,0:0:0:0:
384,312,19413,6,0,P|331:295|278:304,1,110,2|0,0:0|0:0,0:0:0:0:
156,356,19863,2,0,L|160:284,1,55,2|0,0:0|0:0,0:0:0:0:
252,68,20313,2,0,L|268:196,1,110,2|0,0:0|0:0,0:0:0:0:
364,216,20763,1,0,0:0:0:0:
447,156,20913,2,0,P|453:129|455:101,1,55,0|0,0:0|0:0,0:0:0:0:
456,258,21213,2,0,P|482:250|507:238,1,55,8|0,0:0|0:0,0:0:0:0:
371,315,21513,2,0,P|390:334|413:349,1,55,0|0,0:0|0:0,0:0:0:0:
279,269,21813,6,0,P|224:256|174:271,1,110,2|0,0:0|0:0,0:0:0:0:
173,377,22263,2,0,L|228:368,1,55,2|0,0:0|0:0,0:0:0:0:
160,164,22713,2,0,L|28:188,1,110,2|0,0:0|0:0,0:0:0:0:
112,64,23163,1,0,3:0:0:0:
243,131,23313,2,0,P|247:159|246:186,1,55,4|0,3:0|0:0,0:0:0:0:
148,308,23613,2,0,P|144:280|145:253,1,55,8|0,0:0|0:0,0:0:0:0:
280,328,23913,2,0,P|283:355|282:382,1,55,0|0,0:0|0:0,0:0:0:0:
420,308,24213,6,0,P|416:253|423:198,1,110,2|0,0:0|0:0,0:0:0:0:
504,276,24663,2,0,P|510:302|509:330,1,55,2|0,0:0|0:0,0:0:0:0:
300,248,25113,2,0,P|301:192|314:138,1,110,2|2,0:0|0:0,0:0:0:0:
204,128,25563,1,0,0:0:0:0:
112,192,25713,2,0,L|57:185,1,55,0|0,3:0|0:0,0:0:0:0:
172,292,26013,2,0,L|226:285,1,55,8|0,0:0|0:0,0:0:0:0:
100,376,26313,2,0,L|45:369,1,55,0|0,0:0|0:0,0:0:0:0:
112,192,26613,6,0,L|243:175,1,110,2|0,0:0|0:0,0:0:0:0:
172,76,27063,2,0,L|102:86,1,55,2|0,0:0|3:0,0:0:0:0:
440,136,27513,2,0,P|456:204|432:256,1,110,2|0,0:0|0:0,0:0:0:0:
344,192,27963,2,0,L|352:112,1,55,8|2,0:0|0:0,0:0:0:0:
144,224,28413,2,0,L|154:333,1,110,8|0,0:0|0:0,0:0:0:0:
256,260,28863,1,0,0:0:0:0:
179,141,29013,6,0,P|125:136|79:164,1,110,2|0,0:0|0:0,0:0:0:0:
0,88,29463,1,2,0:0:0:0:
0,88,29613,1,0,0:0:0:0:
180,8,29913,2,0,L|296:28,1,110,2|0,0:0|0:0,0:0:0:0:
396,0,30363,1,0,0:0:0:0:
475,75,30513,2,0,P|480:96|482:130,1,55,0|0,3:0|0:0,0:0:0:0:
364,120,30813,2,0,P|366:141|365:175,1,55,8|0,0:0|0:0,0:0:0:0:
248,152,31113,2,0,P|248:173|243:207,1,55,0|4,0:0|3:0,0:0:0:0:
192,68,31413,6,0,P|234:51|304:68,1,110,2|0,0:0|0:0,0:0:0:0:
404,40,31863,1,2,0:0:0:0:
404,40,32013,1,0,3:0:0:0:
512,204,32313,2,0,L|505:259,1,55,2|0,0:0|0:0,0:0:0:0:
412,320,32613,2,0,L|405:265,1,55,0|0,0:0|3:0,0:0:0:0:
316,200,32913,2,0,L|309:255,1,55,2|0,0:0|0:0,0:0:0:0:
375,132,33213,2,0,P|317:110|270:123,1,110,8|0,0:0|0:0,0:0:0:0:
172,168,33663,1,0,3:0:0:0:
60,112,33813,6,0,L|70:2,1,110,2|0,0:0|0:0,0:0:0:0:
172,48,34263,1,0,0:0:0:0:
172,48,34413,1,2,0:0:0:0:
448,184,34713,2,0,P|393:177|342:195,1,110,8|0,0:0|0:0,0:0:0:0:
404,288,35163,1,0,0:0:0:0:
404,288,35313,2,0,L|480:280,1,55,2|0,0:0|0:0,0:0:0:0:
316,372,35613,2,0,L|184:356,1,110,8|0,0:0|0:0,0:0:0:0:
148,264,36063,1,0,0:0:0:0:
256,120,36213,6,0,P|270:172|252:224,1,110,2|0,0:0|0:0,0:0:0:0:
156,164,36663,1,0,0:0:0:0:
156,164,36813,2,0,L|164:84,1,55,2|0,0:0|0:0,0:0:0:0:
52,236,37113,2,0,L|61:370,1,110,8|0,0:0|0:0,0:0:0:0:
164,384,37563,1,0,0:0:0:0:
164,384,37713,1,2,0:0:0:0:
164,384,38013,5,8,0:0:0:0:
184,232,38163,1,8,0:0:0:0:
264,332,38313,1,0,0:0:0:0:
280,232,38463,1,8,0:3:0:0:
121,286,38613,6,0,P|35:270|102:213,1,220,4|2,0:0|0:0,0:0:0:0:
301,303,39513,2,0,P|367:245|280:232,1,220,0|0,3:0|0:0,0:0:0:0:
120,288,40413,1,8,0:0:0:0:
8,156,40713,2,0,L|13:101,1,55,0|0,0:0|0:0,0:0:0:0:
140,56,41013,6,0,B|164:124|116:152|140:221,1,165,0|2,3:0|0:0,0:0:0:0:
232,176,41613,1,0,0:0:0:0:
456,48,41913,2,0,P|404:31|351:43,1,110,0|2,3:0|0:0,0:0:0:0:
260,88,42363,1,8,0:0:0:0:
260,88,42513,1,0,3:0:0:0:
260,88,42813,5,8,0:0:0:0:
284,240,42963,1,8,0:3:0:0:
172,180,43113,1,0,3:0:0:0:
184,280,43263,1,0,3:0:0:0:
72,128,43413,6,0,P|59:181|72:234,1,110,4|2,0:0|0:0,0:0:0:0:
112,328,43863,1,0,0:0:0:0:
112,328,44013,1,8,0:0:0:0:
172,180,44313,1,0,3:0:0:0:
260,372,44613,1,8,0:0:0:0:
344,136,44913,1,0,3:0:0:0:
428,380,45213,1,10,0:0:0:0:
504,116,45513,1,0,3:0:0:0:
228,180,45813,5,8,0:0:0:0:
424,200,45963,1,8,0:0:0:0:
104,100,46263,6,0,P|109:155|109:210,1,110,8|0,0:3|3:0,0:0:0:0:
208,276,46713,5,8,0:0:0:0:
254,85,46863,1,8,0:0:0:0:
254,85,47163,6,0,L|248:52,3,27.5000010490418,4|4|4|8,0:3|0:3|0:3|0:3,0:0:0:0:
380,140,47463,1,4,0:3:0:0:
248,216,47613,2,0,P|220:212|193:211,1,55,8|0,0:0|0:0,0:0:0:0:
374,271,47913,2,0,P|401:267|428:266,1,55,8|0,0:3|0:0,0:0:0:0:
224,364,48213,6,0,P|133:353|43:351,1,181.500005538941,12|0,0:0|0:0,0:0:0:0:
68,184,48813,2,0,P|77:216|88:264,1,60.5000018463135,8|0,0:0|0:0,0:0:0:0:
204,284,49113,2,0,P|216:224|236:160,1,121.000003692627,2|0,0:0|0:0,0:0:0:0:
292,64,49563,1,0,3:0:0:0:
292,64,49713,1,2,0:0:0:0:
464,328,50013,2,0,L|473:268,1,60.5000018463135,8|0,0:0|0:0,0:0:0:0:
340,200,50313,2,0,L|349:259,1,60.5000018463135,2|0,0:0|0:0,0:0:0:0:
396,100,50613,6,0,P|352:88|236:156,1,181.500005538941,4|0,0:0|0:0,0:0:0:0:
108,184,51213,2,0,L|100:116,1,60.5000018463135,8|0,0:0|0:0,0:0:0:0:
192,264,51513,2,0,L|178:384,1,121.000003692627,2|0,0:0|0:0,0:0:0:0:
284,348,51963,1,8,0:0:0:0:
352,248,52113,2,0,P|356:218|354:187,1,60.5000018463135,0|0,0:0|0:0,0:0:0:0:
208,112,52413,2,0,P|203:141|205:172,1,60.5000018463135,8|0,0:0|0:0,0:0:0:0:
328,68,52713,1,0,0:0:0:0:
160,16,52863,1,8,0:0:0:0:
124,216,53013,6,0,P|202:261|280:220,1,181.500005538941,2|0,0:0|0:0,0:0:0:0:
368,120,53613,2,0,L|360:48,1,60.5000018463135,8|0,0:0|0:0,0:0:0:0:
189,50,53913,2,0,L|204:171,1,121.000003692627,0|0,0:0|0:0,0:0:0:0:
90,66,54363,1,8,0:0:0:0:
278,14,54513,2,0,P|286:43|283:73,1,60.5000018463135
203,170,54813,1,8,0:0:0:0:
203,170,55113,2,0,P|200:199|208:228,1,60.5000018463135
360,220,55413,5,2,0:0:0:0:
268,104,55563,2,0,P|212:80|154:92,1,121.000003692627,8|0,0:0|0:0,0:0:0:0:
0,156,56013,2,0,L|12:76,1,60.5000018463135,8|0,0:0|0:0,0:0:0:0:
108,212,56313,2,0,L|128:359,1,121.000003692627,2|0,0:0|0:0,0:0:0:0:
229,382,56763,1,0,0:0:0:0:
324,286,56913,1,2,0:0:0:0:
324,286,57063,1,0,0:0:0:0:
240,180,57213,1,8,0:0:0:0:
240,180,57363,1,8,0:0:0:0:
338,88,57513,1,2,0:0:0:0:
72,16,57813,6,0,L|268:32,1,181.500005538941,12|0,0:0|0:0,0:0:0:0:
112,127,58413,2,0,P|82:135|52:135,1,60.5000018463135,8|0,0:0|0:0,0:0:0:0:
204,200,58713,2,0,P|240:208|328:204,1,121.000003692627,0|0,3:0|0:0,0:0:0:0:
424,144,59163,1,8,0:0:0:0:
424,144,59313,1,2,0:0:0:0:
80,368,59613,1,8,0:0:0:0:
104,256,59763,1,0,3:0:0:0:
196,324,59913,2,0,P|236:332|272:328,1,60.5000018463135,2|0,0:0|0:0,0:0:0:0:
407,232,60213,6,0,P|321:206|236:232,1,181.500005538941,4|0,0:0|0:0,0:0:0:0:
96,228,60813,2,0,L|84:160,1,60.5000018463135,8|0,0:0|0:0,0:0:0:0:
204,24,61113,2,0,L|181:159,1,121.000003692627,2|0,0:0|0:0,0:0:0:0:
235,232,61563,1,0,0:0:0:0:
335,160,61713,2,0,P|340:130|337:100,1,60.5000018463135,0|0,3:0|0:0,0:0:0:0:
280,0,62013,1,8,0:0:0:0:
412,24,62163,1,8,0:0:0:0:
256,128,62313,2,0,L|188:116,1,60.5000018463135,2|0,0:0|0:0,0:0:0:0:
208,256,62613,5,12,0:0:0:0:
208,256,62763,1,12,0:0:0:0:
427,307,63063,2,0,P|368:299|307:303,1,121.000003692627,8|0,0:3|0:0,0:0:0:0:
136,356,63513,5,12,0:0:0:0:
136,356,63663,1,12,0:0:0:0:
211,135,63963,2,0,P|204:194|207:255,1,121.000003692627,8|0,0:3|0:0,0:0:0:0:
336,308,64413,5,12,0:0:0:0:
336,308,64563,1,12,0:0:0:0:
456,100,64863,2,0,P|449:159|452:220,1,121.000003692627,8|0,0:3|0:0,0:0:0:0:
420,360,65313,5,8,0:0:0:0:
328,96,65613,1,8,0:0:0:0:
112,276,65913,1,12,0:0:0:0:
112,276,66363,6,0,L|76:282,3,27.5000010490418,4|4|4|8,0:3|0:3|0:3|0:3,0:0:0:0:
167,150,66663,1,4,3:0:0:0:
242,282,66813,2,0,P|238:311|237:342,1,60.5000018463135,8|0,3:0|0:0,0:0:0:0:
298,156,67113,2,0,P|296:125|292:95,1,60.5000018463135,8|0,3:3|0:0,0:0:0:0:
108,67,67413,6,0,P|67:149|104:227,1,181.500005538941,8|0,0:0|0:0,0:0:0:0:
72,364,68013,2,0,L|-12:356,1,60.5000018463135,8|0,0:0|0:0,0:0:0:0:
196,320,68313,2,0,L|340:306,1,121.000003692627,2|0,0:0|0:0,0:0:0:0:
408,244,68763,1,8,0:0:0:0:
407,243,68913,2,0,P|420:271|425:301,1,60.5000018463135,0|0,3:0|0:0,0:0:0:0:
324,208,69213,2,0,P|341:183|365:164,1,60.5000018463135,8|0,0:0|0:0,0:0:0:0:
333,297,69513,2,0,P|304:294|275:284,1,60.5000018463135,2|0,0:0|0:0,0:0:0:0:
164,180,69813,6,0,P|160:209|150:238,1,60.5000018463135,4|0,3:0|0:0,0:0:0:0:
60,180,70113,1,0,0:0:0:0:
126,75,70263,2,0,P|171:66|208:76,1,60.5000018463135,0|8,0:0|0:0,0:0:0:0:
336,116,70563,1,0,0:0:0:0:
256,288,70713,2,0,L|248:160,1,121.000003692627,2|0,0:0|0:0,0:0:0:0:
376,216,71163,1,0,0:0:0:0:
376,216,71313,1,0,3:0:0:0:
208,352,71613,2,0,P|164:336|76:352,1,121.000003692627,8|8,0:0|0:0,0:0:0:0:
4,264,72063,1,8,0:0:0:0:
116,96,72213,6,0,B|104:232|104:232|138:203,1,181.500005538941,2|0,0:0|0:0,0:0:0:0:
160,28,72813,2,0,P|131:17|101:17,1,60.5000018463135,8|0,0:0|0:0,0:0:0:0:
228,124,73113,2,0,P|268:136|348:112,1,121.000003692627,2|0,0:0|0:0,0:0:0:0:
420,32,73563,1,8,0:0:0:0:
420,32,73713,1,0,3:0:0:0:
492,236,74013,2,0,L|485:296,1,60.5000018463135,8|0,0:0|0:0,0:0:0:0:
376,352,74313,2,0,L|369:291,1,60.5000018463135,2|0,0:0|0:0,0:0:0:0:
280,212,74613,5,4,0:0:0:0:
144,340,74763,2,0,B|180:356|180:356|280:332,1,121.000003692627,8|0,0:0|0:0,0:0:0:0:
104,252,75213,2,0,P|72:272|56:304,1,60.5000018463135,8|0,0:0|0:0,0:0:0:0:
192,256,75513,2,0,P|208:216|192:128,1,121.000003692627,2|8,0:0|0:0,0:0:0:0:
88,112,75963,1,0,0:0:0:0:
116,1,76113,1,8,3:0:0:0:
226,29,76263,1,0,3:0:0:0:
88,112,76413,2,0,L|27:105,1,60.5000018463135,8|0,0:0|0:0,0:0:0:0:
226,29,76713,2,0,L|286:22,1,60.5000018463135,8|8,0:0|0:0,0:0:0:0:
464,188,77013,6,0,L|283:172,1,181.500005538941,4|0,0:0|0:0,0:0:0:0:
172,260,77613,2,0,P|167:289|169:320,1,60.5000018463135,8|0,0:0|0:0,0:0:0:0:
283,172,77913,2,0,P|288:136|276:48,1,121.000003692627,0|0,0:0|0:0,0:0:0:0:
176,8,78363,1,8,0:0:0:0:
176,8,78513,1,0,0:0:0:0:
16,196,78813,2,0,L|22:256,1,60.5000018463135,8|0,0:0|0:0,0:0:0:0:
120,200,79113,2,0,L|113:139,1,60.5000018463135,0|0,0:0|0:0,0:0:0:0:
87,320,79413,6,0,P|126:324|234:239,1,181.500005538941,4|0,0:0|0:0,0:0:0:0:
316,116,80013,2,0,L|332:196,1,60.5000018463135,8|0,0:0|0:0,0:0:0:0:
120,200,80313,2,0,L|143:81,1,121.000003692627,2|0,0:0|0:0,0:0:0:0:
60,0,80763,1,8,0:0:0:0:
60,0,80913,1,0,3:0:0:0:
396,64,81213,1,8,0:0:0:0:
376,192,81363,1,8,0:0:0:0:
252,156,81513,2,0,L|242:96,1,60.5000018463135,2|0,0:0|3:0,0:0:0:0:
100,24,81813,6,0,P|111:83|111:143,1,121.000003692627,12|0,0:0|0:0,0:0:0:0:
152,344,82263,2,0,P|197:304|250:274,1,121.000003692627,8|0,0:0|0:0,0:0:0:0:
403,138,82713,2,0,P|345:118|293:87,1,121.000003692627,10|0,0:0|0:0,0:0:0:0:
208,12,83163,1,4,3:0:0:0:
109,70,83313,1,8,3:0:0:0:
133,181,83463,1,8,0:0:0:0:
133,181,83538,1,8,0:0:0:0:
133,181,83613,2,0,P|135:211|135:241,1,60.5000018463135,10|0,0:0|0:0,0:0:0:0:
295,148,83913,2,0,P|292:117|292:87,1,60.5000018463135,10|0,0:0|0:0,0:0:0:0:
432,272,84213,6,0,L|312:255,1,121.000003692627,6|0,0:0|0:0,0:0:0:0:
72,156,84663,2,0,L|191:139,1,121.000003692627,6|0,0:0|0:0,0:0:0:0:
444,68,85113,2,0,B|304:48|304:48|336:108,1,181.500005538941,12|0,0:0|0:0,0:0:0:0:
412,168,85713,5,2,0:0:0:0:
64,248,86013,1,0,3:0:0:0:
404,356,86313,1,12,0:0:0:0:
