osu file format v14

[General]
AudioFilename: illuminate.mp3
AudioLeadIn: 0
PreviewTime: 47838
Countdown: 0
SampleSet: Soft
StackLeniency: 0.4
Mode: 0
LetterboxInBreaks: 0
WidescreenStoryboard: 0

[Editor]
DistanceSpacing: 2.4
BeatDivisor: 8
GridSize: 4
TimelineZoom: 2.899999

[Metadata]
Title:illuminate
TitleUnicode:illuminate
Artist:Minami
ArtistUnicode:Minami
Creator:Kalibe
Version:Melancholy
Source:テイルズ オブ ゼスティリア ザ クロス
Tags:Lantis 栗林みな実 Kuribayashi ufotable opening tv size Tales of Zestiria The Cross X Second Season haruto haruto_aizawa little CloudSplash16 garden doormat
BeatmapID:1182248
BeatmapSetID:558963

[Difficulty]
HPDrainRate:6
CircleSize:4
OverallDifficulty:7.5
ApproachRate:9
SliderMultiplier:2.4
SliderTickRate:1

[Events]
//Background and Video events
0,0,"edna !!.jpg",0,0
Video,0,"zestiria+op2 (1).avi"
//Break Periods
//Storyboard Layer 0 (Background)
//Storyboard Layer 1 (Fail)
//Storyboard Layer 2 (Pass)
//Storyboard Layer 3 (Foreground)
//Storyboard Sound Samples

[TimingPoints]
213,600,4,2,1,50,1,0
213,-125,4,2,1,50,0,0
9813,-125,4,2,1,55,0,0
13713,-125,4,2,1,60,0,0
14013,-125,4,2,1,50,0,0
14313,-125,4,2,1,40,0,0
17013,-100,4,2,2,70,0,0
19413,-111.111111111111,4,2,1,60,0,0
38613,-125,4,2,1,55,0,0
43413,-111.111111111111,4,2,1,55,0,0
45813,-111.111111111111,4,2,1,75,0,0
46263,-111.111111111111,4,2,1,55,0,0
46713,-111.111111111111,4,2,1,75,0,0
47163,-111.111111111111,4,2,1,60,0,0
47613,-111.111111111111,4,2,1,75,0,0
47763,-111.111111111111,4,2,1,55,0,0
47913,-133.333333333333,4,2,1,70,0,0
48138,-133.333333333333,4,2,1,5,0,0
48213,-90.9090909090908,4,2,1,65,0,1
57513,-133.333333333333,4,2,1,65,0,0
57738,-90.9090909090908,4,2,1,5,0,0
57813,-90.9090909090908,4,2,1,65,0,1
59538,-90.9090909090908,4,2,1,5,0,1
59613,-90.9090909090908,4,2,1,65,0,1
62613,-90.9090909090908,4,2,1,70,0,1
63063,-90.9090909090908,4,2,1,70,0,0
63513,-90.9090909090908,4,2,1,70,0,1
63963,-90.9090909090908,4,2,1,70,0,0
64413,-90.9090909090908,4,2,1,70,0,1
64863,-90.9090909090908,4,2,1,70,0,0
66363,-100,4,2,1,60,0,0
67263,-100,4,2,1,70,0,0
67338,-100,4,2,1,5,0,0
67413,-90.9090909090909,4,2,1,70,0,1
81813,-83.3333333333333,4,2,1,75,0,0
84213,-76.9230769230769,4,2,1,80,0,1
85563,-76.9230769230769,4,2,1,65,0,1
85713,-76.9230769230769,4,2,1,70,0,0
86313,-76.9230769230769,4,2,1,85,0,0

[Colours]
Combo1 : 91,171,3
Combo2 : 75,124,22
Combo3 : 50,173,90
Combo4 : 230,240,21

[HitObjects]
40,248,213,6,0,P|95:258|145:269,1,96,2|0,0:0|0:0,0:0:0:0:
220,328,663,1,0,0:0:0:0:
280,192,813,2,0,L|292:240,1,48
109,359,1113,6,0,P|121:313|137:255,1,96,2|0,0:0|0:0,0:0:0:0:
15,155,1563,2,0,P|27:201|39:247,1,96,2|0,0:0|0:0,0:0:0:0:
152,164,2013,2,0,P|139:117|127:71,1,96,2|0,0:0|0:0,0:0:0:0:
127,71,2463,1,0,0:0:0:0:
239,115,2613,6,0,P|285:122|328:103,1,96,2|0,0:0|0:0,0:0:0:0:
413,30,3063,2,0,P|459:22|502:41,1,96,2|0,0:0|0:0,0:0:0:0:
512,156,3513,6,0,P|416:169|356:180,1,144,2|0,0:0|0:0,0:0:0:0:
304,272,4113,2,0,L|253:261,1,48
160,240,4413,1,2,0:0:0:0:
216,48,4713,2,0,L|160:60,1,48
72,80,5013,6,0,P|50:129|60:177,1,96,2|0,0:0|0:0,0:0:0:0:
130,252,5463,1,0,0:0:0:0:
54,332,5613,2,0,L|40:272,1,48
237,213,5913,6,0,P|227:262|217:313,1,96,2|0,0:0|0:0,0:0:0:0:
130,252,6363,1,0,0:0:0:0:
148,160,6513,2,0,L|161:100,1,48
244,188,6813,2,0,P|295:177|344:167,1,96,2|0,0:0|0:0,0:0:0:0:
416,120,7263,1,0,0:0:0:0:
304,32,7413,6,0,L|292:84,1,48,2|0,0:0|0:0,0:0:0:0:
244,188,7712,1,0,0:0:0:0:
158,113,7863,2,0,P|111:100|64:89,1,96,2|0,0:0|0:0,0:0:0:0:
197,198,8313,6,0,L|253:186,1,48,2|0,0:0|0:0,0:0:0:0:
158,113,8612,1,0,0:0:0:0:
64,168,8763,2,0,P|36:224|40:264,1,96,2|0,0:0|0:0,0:0:0:0:
16,352,9213,2,0,P|63:343|116:332,1,96,4|2,3:0|0:0,0:0:0:0:
202,297,9613,2,0,L|172:288,1,32,2|2,0:0|0:0,0:0:0:0:
260,376,9813,6,0,P|273:328|288:280,1,96,2|0,0:0|0:0,0:0:0:0:
368,344,10263,2,0,P|413:329|460:317,1,96,2|0,0:0|0:0,0:0:0:0:
346,238,10713,1,2,0:0:0:0:
346,238,11013,6,0,L|281:248,1,48,0|2,0:0|0:0,0:0:0:0:
168,180,11313,2,0,L|228:188,1,48
416,135,11613,2,0,P|388:140|352:147,1,48,2|0,0:0|0:0,0:0:0:0:
220,76,11913,2,0,P|243:80|267:85,1,48
369,144,12213,6,0,P|358:190|345:241,1,96,2|0,0:0|0:0,0:0:0:0:
268,196,12663,1,0,0:0:0:0:
412,280,12813,2,0,L|460:268,1,48,2|0,0:0|0:0,0:0:0:0:
372,372,13113,2,0,P|320:360|268:352,1,96,2|0,0:0|0:0,0:0:0:0:
164,256,13563,1,0,0:0:0:0:
115,384,13713,5,2,0:0:0:0:
198,336,13863,5,2,0:0:0:0:
164,256,14013,5,2,0:0:0:0:
202,189,14163,5,2,0:0:0:0:
175,128,14313,5,2,0:0:0:0:
184,71,14463,5,2,0:0:0:0:
155,33,14613,6,0,P|164:80|179:149,1,96,2|0,0:0|0:0,0:0:0:0:
256,52,15063,2,0,P|343:44|380:90,1,144,2|0,0:0|0:0,0:0:0:0:
202,218,15813,5,2,0:0:0:0:
288,168,15963,2,0,P|329:177|394:195,1,96
476,248,16413,2,0,P|434:257|368:276,1,96,2|0,0:0|0:0,0:0:0:0:
292,331,16863,1,0,0:0:0:0:
407,363,17013,6,0,P|329:341|280:328,1,120,8|8,0:0|0:0,0:0:0:0:
216,268,17463,1,0,3:0:0:0:
100,320,17613,2,0,L|36:336,1,60,0|0,3:0|3:0,0:0:0:0:
48,244,17913,1,0,0:0:0:0:
156,376,18063,1,8,0:0:0:0:
292,331,18213,6,0,L|226:342,1,60,0|8,3:0|3:0,0:0:0:0:
48,244,18513,2,0,L|108:236,1,60,0|4,3:0|0:3,0:0:0:0:
304,236,18813,5,8,0:0:0:0:
196,104,18963,2,0,P|124:72|72:80,1,120,4|0,3:0|3:0,0:0:0:0:
0,168,19413,6,0,P|44:179|112:196,1,107.999996704102,2|0,0:0|0:0,0:0:0:0:
248,288,19863,2,0,B|143:260|143:260|88:292,1,161.999995056153,2|2,0:0|0:0,0:0:0:0:
156,368,20463,1,0,0:0:0:0:
260,316,20613,2,0,L|276:376,1,53.9999983520508
375,271,20913,2,0,L|363:327,1,53.9999983520508
222,183,21213,2,0,P|236:240|250:299,1,107.999996704102,8|0,0:0|0:0,0:0:0:0:
500,164,21813,6,0,P|486:221|472:280,1,107.999996704102,2|0,0:0|0:0,0:0:0:0:
364,324,22263,2,0,B|336:252|396:248|352:168,1,161.999995056153,2|2,0:0|0:0,0:0:0:0:
236,208,22863,2,0,P|260:216|300:220,1,53.9999983520508
500,164,23163,1,0,3:0:0:0:
404,154,23313,2,0,L|350:168,1,53.9999983520508,4|0,3:0|0:0,0:0:0:0:
264,299,23613,2,0,P|320:327|376:319,1,107.999996704102,8|0,0:0|0:0,0:0:0:0:
141,211,24213,6,0,P|113:267|121:323,1,107.999996704102,2|0,0:0|0:0,0:0:0:0:
216,235,24663,2,0,L|58:184,1,161.999995056153,2|2,0:0|0:0,0:0:0:0:
116,310,25263,1,0,0:0:0:0:
36,356,25413,2,0,P|29:330|20:296,1,53.9999983520508,2|0,0:0|0:0,0:0:0:0:
196,356,25713,2,0,P|203:330|212:296,1,53.9999983520508,0|0,3:0|0:0,0:0:0:0:
112,280,26013,1,8,0:0:0:0:
296,320,26163,1,0,0:0:0:0:
296,320,26313,1,0,0:0:0:0:
296,320,26613,6,0,P|392:352|456:320,1,161.999995056153,2|2,0:0|0:0,0:0:0:0:
510,244,27213,2,0,P|437:227|392:220,1,107.999996704102,0|2,3:0|0:0,0:0:0:0:
220,107,27813,1,0,0:0:0:0:
321,68,27963,1,8,0:0:0:0:
321,68,28113,2,0,L|295:179,1,107.999996704102,2|8,0:0|0:0,0:0:0:0:
108,244,28713,1,0,0:0:0:0:
88,144,28863,1,0,0:0:0:0:
0,187,29013,6,0,B|90:157|70:223|159:187,1,161.999995056153,2|2,0:0|0:0,0:0:0:0:
230,109,29613,2,0,L|159:94,1,53.9999983520508
24,48,29913,2,0,P|72:60|133:23,1,107.999996704102,2|0,0:0|0:0,0:0:0:0:
212,0,30363,1,0,0:0:0:0:
244,172,30513,2,0,P|238:145|233:119,1,53.9999983520508,0|0,3:0|0:0,0:0:0:0:
352,24,30813,2,0,P|343:77|336:130,1,107.999996704102,8|0,0:0|0:0,0:0:0:0:
428,100,31263,1,0,3:0:0:0:
512,216,31413,6,0,B|442:186|417:251|351:207,1,161.999995056153,2|2,0:0|0:0,0:0:0:0:
268,254,32013,2,0,L|280:312,1,53.9999983520508,0|0,3:0|0:0,0:0:0:0:
348,376,32313,2,0,P|408:384|452:348,1,107.999996704102,2|0,0:0|0:0,0:0:0:0:
384,304,32763,1,0,3:0:0:0:
272,340,32913,2,0,L|218:330,1,53.9999983520508,2|0,0:0|0:0,0:0:0:0:
28,288,33213,2,0,P|74:282|160:272,1,107.999996704102,8|0,0:0|0:0,0:0:0:0:
210,213,33663,1,0,3:0:0:0:
72,176,33813,6,0,P|123:187|184:200,1,107.999996704102,2|0,0:0|0:0,0:0:0:0:
292,128,34263,1,0,0:0:0:0:
213,71,34413,2,0,P|176:78|151:88,1,53.9999983520508,2|0,0:0|0:0,0:0:0:0:
135,274,34713,2,0,P|224:319|282:298,1,161.999995056153,8|0,0:0|0:0,0:0:0:0:
368,252,35313,2,0,P|359:304|350:360,2,107.999996704102,2|8|0,0:0|0:0|0:0,0:0:0:0:
479,93,36213,6,0,P|426:103|371:115,1,107.999996704102,2|0,0:0|0:0,0:0:0:0:
316,35,36663,1,0,0:0:0:0:
222,114,36813,2,0,P|217:152|220:176,1,53.9999983520508,2|0,0:0|0:0,0:0:0:0:
136,64,37113,2,0,P|83:40|32:52,1,107.999996704102,8|0,0:0|0:0,0:0:0:0:
60,198,37563,1,0,3:0:0:0:
79,116,37713,2,0,L|64:184,1,53.9999983520508,4|0,3:0|0:0,0:0:0:0:
28,336,38013,1,8,0:0:0:0:
28,336,38163,1,8,0:0:0:0:
122,264,38313,1,0,0:0:0:0:
220,360,38463,1,8,0:3:0:0:
305,268,38613,6,0,B|222:227|201:316|120:262,1,192,4|2,0:0|0:0,0:0:0:0:
0,181,39513,2,0,P|72:205|76:113,1,192,0|0,3:0|0:0,0:0:0:0:
220,188,40413,2,0,P|264:180|336:168,1,96,8|0,0:0|0:0,0:0:0:0:
462,127,41013,6,0,P|410:119|370:87,1,96,0|0,3:0|0:0,0:0:0:0:
302,31,41463,2,0,P|254:37|215:64,1,96,2|0,0:0|0:0,0:0:0:0:
137,120,41913,2,0,L|41:104,1,96,0|2,3:0|0:0,0:0:0:0:
228,156,42363,2,0,L|284:148,2,48,8|0|0,0:0|3:0|0:0,0:0:0:0:
55,211,42813,1,8,0:0:0:0:
137,120,42963,1,8,0:3:0:0:
42,104,43113,1,0,3:0:0:0:
104,36,43263,1,0,3:0:0:0:
161,232,43413,6,0,P|98:219|48:210,1,107.999996704102,4|2,0:0|0:0,0:0:0:0:
0,286,43863,1,0,0:0:0:0:
0,286,44013,1,8,0:0:0:0:
161,232,44313,1,0,3:0:0:0:
7,113,44613,5,8,0:0:0:0:
82,315,44913,1,0,3:0:0:0:
248,145,45213,1,10,0:0:0:0:
359,379,45513,1,0,3:0:0:0:
208,244,45813,5,8,0:0:0:0:
396,300,45963,1,8,0:0:0:0:
84,208,46263,6,0,P|92:272|96:320,1,107.999996704102,8|0,0:3|3:0,0:0:0:0:
256,152,46713,5,8,0:0:0:0:
200,340,46863,1,8,0:0:0:0:
291,29,47163,6,0,L|299:-4,3,17.9999994506836,4|4|4|8,0:3|0:3|0:3|0:3,0:0:0:0:
256,152,47463,1,4,0:3:0:0:
384,52,47613,2,0,L|368:112,1,53.9999983520508,8|0,0:0|0:0,0:0:0:0:
156,128,47913,6,0,L|172:204,1,67.5000025749207,8|0,0:3|0:0,0:0:0:0:
175,237,48213,6,0,B|284:200|248:296|375:245,1,198.000006042481,12|0,0:0|0:0,0:0:0:0:
316,144,48813,1,8,0:0:0:0:
385,64,48963,1,0,0:0:0:0:
437,159,49113,2,0,P|376:173|309:136,1,132.00000402832,2|0,0:0|0:0,0:0:0:0:
216,72,49563,1,0,3:0:0:0:
216,72,49713,6,0,P|176:77|140:92,1,66.0000020141602,2|0,0:0|0:0,0:0:0:0:
0,136,50013,2,0,P|39:141|76:156,1,66.0000020141602,8|0,0:0|0:0,0:0:0:0:
111,252,50313,2,0,P|144:249|174:237,1,66.0000020141602,2|0,0:0|0:0,0:0:0:0:
316,144,50613,6,0,P|348:272|328:336,1,198.000006042481,4|0,0:0|0:0,0:0:0:0:
174,236,51213,1,8,0:0:0:0:
264,200,51363,1,0,0:0:0:0:
184,352,51513,2,0,P|108:336|32:320,1,132.00000402832,2|0,0:0|0:0,0:0:0:0:
192,260,51963,1,8,0:0:0:0:
68,208,52113,2,0,L|0:222,1,66.0000020141602,2|0,0:0|0:0,0:0:0:0:
116,100,52413,2,0,P|172:116|245:75,1,132.00000402832,8|0,0:0|0:0,0:0:0:0:
380,116,52863,2,0,P|378:99|369:67,1,33.0000010070801,8|0,0:0|0:0,0:0:0:0:
293,5,53013,6,0,B|239:88|327:108|271:192,1,198.000006042481,2|0,0:0|0:0,0:0:0:0:
136,148,53613,2,0,L|216:136,1,66.0000020141602,8|0,0:0|0:0,0:0:0:0:
332,256,53913,2,0,P|256:238|192:224,1,132.00000402832
40,264,54363,1,8,0:0:0:0:
192,316,54513,1,0,0:0:0:0:
128,184,54663,1,0,0:0:0:0:
48,356,54813,1,8,0:0:0:0:
48,356,55113,2,0,L|120:348,1,66.0000020141602
204,240,55413,5,2,0:0:0:0:
321,340,55563,2,0,P|246:325|173:312,1,132.00000402832,8|0,0:0|0:0,0:0:0:0:
100,220,56013,2,0,P|133:217|180:208,1,66.0000020141602,8|0,0:0|0:0,0:0:0:0:
339,127,56313,1,2,0:0:0:0:
242,57,56463,2,0,P|214:133|238:181,1,132.00000402832,8|0,0:0|0:0,0:0:0:0:
404,143,56913,2,0,L|336:127,1,66.0000020141602,2|0,0:0|0:0,0:0:0:0:
308,124,57138,1,8,0:3:0:0:
308,124,57213,1,8,0:0:0:0:
384,48,57363,1,8,0:0:0:0:
352,216,57513,6,0,L|336:284,1,67.5000025749207,2|0,0:0|0:0,0:0:0:0:
326,324,57813,6,0,B|240:277|223:367|136:308,1,198.000006042481,12|0,0:0|0:0,0:0:0:0:
224,160,58413,1,8,0:0:0:0:
192,252,58563,1,0,0:0:0:0:
64,168,58713,2,0,P|120:156|208:136,1,132.00000402832,0|0,3:0|0:0,0:0:0:0:
308,48,59163,1,8,0:0:0:0:
388,120,59313,2,0,P|449:140|485:128,1,99.0000030212403,2|0,0:0|0:0,0:0:0:0:
501,104,59613,2,0,P|491:72|483:40,1,66.0000020141602,8|0,0:0|3:0,0:0:0:0:
304,124,59913,2,0,P|311:155|320:196,1,66.0000020141602,2|0,0:0|3:0,0:0:0:0:
468,328,60213,6,0,B|404:316|404:316|348:352|348:352|268:340,1,198.000006042481,4|0,0:0|0:0,0:0:0:0:
160,260,60813,1,8,0:0:0:0:
100,384,60963,1,0,0:0:0:0:
20,264,61113,2,0,P|132:288|216:312,1,198.000006042481,2|0,0:0|0:0,0:0:0:0:
296,180,61713,2,0,L|231:194,1,66.0000020141602,0|0,3:0|0:0,0:0:0:0:
124,240,62013,1,8,0:0:0:0:
172,136,62163,1,8,0:0:0:0:
304,256,62313,2,0,L|384:272,1,66.0000020141602,2|0,0:0|3:0,0:0:0:0:
231,193,62613,5,12,0:0:0:0:
143,354,62763,1,12,0:0:0:0:
143,354,63063,2,0,P|208:343|274:333,1,132.00000402832,8|0,0:3|0:0,0:0:0:0:
372,380,63513,5,12,0:0:0:0:
498,247,63663,1,12,0:0:0:0:
498,247,63963,2,0,P|411:261|356:270,1,132.00000402832,8|0,0:3|0:0,0:0:0:0:
244,324,64413,5,12,0:0:0:0:
165,159,64563,1,12,0:0:0:0:
165,159,64863,2,0,P|252:173|307:182,1,132.00000402832,4|0,3:2|0:0,0:0:0:0:
393,291,65313,5,8,0:0:0:0:
165,159,65613,1,8,0:0:0:0:
394,27,65913,1,12,0:0:0:0:
65,311,66363,6,0,L|69:331,3,20,4|4|4|2,0:3|0:3|0:3|0:0,0:0:0:0:
131,183,66663,1,4,3:0:0:0:
170,354,66813,2,0,L|154:282,1,60,8|0,3:0|0:0,0:0:0:0:
110,88,67113,1,8,3:3:0:0:
124,212,67263,6,0,L|136:167,1,30,8|0,0:0|0:0,0:0:0:0:
216,116,67413,6,0,B|267:91|310:116|310:116|355:148|408:120,1,198.000006042481,8|0,0:0|0:0,0:0:0:0:
328,24,68013,1,8,0:0:0:0:
264,192,68163,1,0,0:0:0:0:
156,48,68313,2,0,P|120:116|144:172,1,132.00000402832,2|0,0:0|0:0,0:0:0:0:
304,92,68763,1,8,0:0:0:0:
308,276,68913,6,0,L|288:348,1,66.0000020141602,0|0,3:0|0:0,0:0:0:0:
448,216,69213,2,0,L|472:300,1,66.0000020141602,8|0,0:0|0:0,0:0:0:0:
252,160,69513,2,0,L|232:232,1,66.0000020141602,2|0,0:0|0:0,0:0:0:0:
376,112,69813,5,4,3:0:0:0:
353,220,69963,2,0,P|339:285|325:352,1,132.00000402832,8|0,0:0|0:0,0:0:0:0:
225,253,70413,2,0,P|185:261|155:268,1,66.0000020141602,8|0,0:0|0:0,0:0:0:0:
0,332,70713,1,2,0:0:0:0:
81,381,70863,2,0,P|92:317|61:261,1,132.00000402832,8|0,0:0|0:0,0:0:0:0:
0,332,71313,1,0,3:0:0:0:
212,188,71613,6,0,L|228:268,1,66.0000020141602,8|0,0:0|0:0,0:0:0:0:
257,86,71913,1,8,0:0:0:0:
224,252,72063,1,8,0:0:0:0:
120,140,72213,6,0,B|224:104|196:196|316:148,1,198.000006042481,2|2,0:0|0:0,0:0:0:0:
276,24,72813,2,0,P|261:60|258:97,1,66.0000020141602,8|0,0:0|0:0,0:0:0:0:
324,228,73113,2,0,P|377:253|450:232,1,132.00000402832,2|0,0:0|0:0,0:0:0:0:
386,162,73563,1,8,0:0:0:0:
256,292,73713,2,0,L|268:368,1,66.0000020141602,0|0,3:0|0:0,0:0:0:0:
324,228,74013,1,8,0:0:0:0:
266,357,74163,1,0,3:0:0:0:
140,308,74313,2,0,P|98:298|63:290,1,66.0000020141602,2|0,0:0|0:0,0:0:0:0:
248,216,74613,5,4,0:0:0:0:
92,174,74763,2,0,P|60:246|80:298,1,132.00000402832,8|0,0:0|3:0,0:0:0:0:
201,369,75213,2,0,L|265:357,1,66.0000020141602,8|0,0:0|0:0,0:0:0:0:
408,268,75513,38,0,L|340:252,1,66.0000020141602,2|0,0:0|0:0,0:0:0:0:
228,188,75813,1,8,0:0:0:0:
308,132,75963,1,0,0:0:0:0:
343,252,76113,1,8,3:0:0:0:
428,100,76263,1,0,3:0:0:0:
512,204,76413,2,0,P|435:188|376:176,1,132.00000402832,8|8,0:0|0:0,0:0:0:0:
288,244,76863,1,8,0:0:0:0:
428,340,77013,6,0,B|343:285|323:381|235:321,1,198.000006042481,4|0,0:0|0:0,0:0:0:0:
112,248,77613,2,0,P|141:243|180:236,1,66.0000020141602,8|0,0:0|0:0,0:0:0:0:
372,192,77913,2,0,P|304:200|248:160,1,132.00000402832,2|0,0:0|0:0,0:0:0:0:
164,80,78363,1,8,0:0:0:0:
164,80,78513,2,0,L|143:147,1,66.0000020141602
260,72,78813,1,8,0:0:0:0:
180,0,78963,1,0,3:0:0:0:
72,36,79113,2,0,P|62:68|48:108,1,66.0000020141602
0,208,79413,6,0,B|48:188|96:212|96:212|144:236|200:212,1,198.000006042481,4|2,0:0|0:0,0:0:0:0:
44,280,80013,2,0,P|36:320|48:352,1,66.0000020141602,8|0,0:0|0:0,0:0:0:0:
172,312,80313,2,0,P|260:324|316:336,1,132.00000402832,2|0,0:0|0:0,0:0:0:0:
432,296,80763,1,8,0:0:0:0:
340,212,80913,2,0,P|348:155|356:107,1,99.0000030212403,0|0,3:0|0:0,0:0:0:0:
360,80,81213,1,8,0:0:0:0:
480,136,81363,1,8,0:0:0:0:
340,212,81513,1,2,0:0:0:0:
448,288,81663,1,0,3:0:0:0:
296,368,81813,6,0,P|216:376|168:328,1,143.999995605469,12|0,0:0|3:0,0:0:0:0:
32,260,82263,2,0,P|112:244|184:236,1,143.999995605469,8|0,0:0|3:0,0:0:0:0:
334,191,82713,2,0,P|250:171|194:151,1,143.999995605469,10|0,0:0|3:0,0:0:0:0:
80,96,83163,1,4,3:0:0:0:
184,36,83313,1,8,3:0:0:0:
171,241,83463,1,8,0:0:0:0:
171,241,83538,1,8,0:0:0:0:
171,241,83613,5,10,0:0:0:0:
196,152,83763,1,10,0:0:0:0:
156,336,83913,5,10,0:0:0:0:
256,220,84063,1,10,0:0:0:0:
408,320,84213,6,0,P|320:336|264:300,1,155.999992858887,6|4,0:0|0:3,0:0:0:0:
280,132,84663,2,0,P|368:116|424:152,1,155.999992858887,6|4,0:0|0:3,0:0:0:0:
256,220,85113,2,0,B|140:164|140:280|32:220,1,233.999989288331,12|0,0:0|0:0,0:0:0:0:
88,144,85713,5,2,0:0:0:0:
352,240,86013,1,2,3:2:0:0:
104,372,86313,1,12,0:0:0:0:
