osu file format v14

[General]
AudioFilename: audio.mp3
AudioLeadIn: 0
PreviewTime: 63407
Countdown: 0
SampleSet: Soft
StackLeniency: 0.6
Mode: 0
LetterboxInBreaks: 0
WidescreenStoryboard: 1

[Editor]
Bookmarks: 6387,9836,24743,31450,36668,48594,63500,66853,90333
DistanceSpacing: 0.7
BeatDivisor: 4
GridSize: 32
TimelineZoom: 1.6

[Metadata]
Title:SWITCH
TitleUnicode:SWITCH
Artist:Minami
ArtistUnicode:Minami
Creator:ProfessionalBox
Version:Insaner
Source:ハイスクールD×D HERO
Tags:highschool dxd hero opening op probox
BeatmapID:1607331
BeatmapSetID:763128

[Difficulty]
HPDrainRate:5.8
CircleSize:4
OverallDifficulty:8.5
ApproachRate:8.9
SliderMultiplier:1.68
SliderTickRate:1

[Events]
//Background and Video events
Video,1707,"dxd_op.flv"
0,0,"twin_tail_holding_heart_float.png",0,0
//Break Periods
//Storyboard Layer 0 (Background)
//Storyboard Layer 1 (Fail)
//Storyboard Layer 2 (Pass)
//Storyboard Layer 3 (Foreground)
//Storyboard Sound Samples

[TimingPoints]
891,372.670807453416,4,2,1,60,1,0
891,-100,4,2,1,60,0,0
3872,-100,4,2,1,60,0,0
5363,-100,4,2,1,65,0,0
7785,-100,4,2,1,70,0,0
8717,-100,4,2,1,50,0,0
9462,-100,4,2,1,50,0,0
9835,-100,4,2,1,75,0,0
23437,-100,4,3,1,75,0,0
24369,-100,4,3,2,75,0,0
24555,-100,4,2,1,75,0,0
24741,-100,4,2,1,75,0,0
47847,-100,4,2,1,60,0,0
60518,-100,4,2,1,75,0,0
63080,-100,4,2,2,75,0,0
63499,-90.9090909090909,4,2,1,80,0,1
74120,-90.9090909090909,4,3,1,80,0,1
75238,-90.9090909090909,4,2,1,80,0,1
90331,-100,4,2,1,5,0,0

[Colours]
Combo1 : 84,250,233
Combo2 : 254,167,208
Combo3 : 234,55,73
Combo4 : 253,234,96
Combo5 : 64,170,234
Combo6 : 244,130,53
Combo7 : 108,104,183
Combo8 : 247,55,113

[HitObjects]
325,286,2381,5,0,1:0:0:0:
325,286,2474,1,0,0:0:0:0:
325,286,2568,2,0,P|372:286|417:270,1,84,2|0,0:0|0:0,0:0:0:0:
471,231,2847,1,2,0:0:0:0:
288,363,3127,6,0,P|252:349|189:341,1,84,2|0,0:0|0:0,0:0:0:0:
129,343,3406,2,0,P|89:357|48:364,1,84,2|0,0:0|0:0,0:0:0:0:
2,299,3686,2,0,L|17:222,1,42,2|0,0:0|0:0,0:0:0:0:
26,177,3872,5,0,0:0:0:0:
26,177,3965,1,0,0:0:0:0:
26,177,4058,2,0,L|109:198,1,84,2|0,0:0|0:0,0:0:0:0:
202,227,4338,1,2,0:0:0:0:
97,72,4617,6,0,L|200:55,1,84,2|0,0:0|0:0,0:0:0:0:
253,124,4897,2,0,L|356:144,1,84,2|0,0:0|0:0,0:0:0:0:
416,95,5176,2,0,L|405:48,1,42,0|0,1:0|0:0,0:0:0:0:
453,173,5363,6,0,P|436:233|419:325,1,126,2|0,1:2|0:0,0:0:0:0:
436,379,5735,2,0,P|367:362|290:352,1,126,2|0,0:0|0:0,0:0:0:0:
219,372,6108,2,0,P|219:325|260:266,1,84,2|0,0:0|0:0,0:0:0:0:
132,180,6387,2,0,P|149:217|153:260,1,84,2|0,0:0|0:0,0:0:0:0:
77,348,6667,5,2,0:0:0:0:
256,192,6760,12,0,8251,0:0:0:0:
173,293,8344,6,0,P|167:262|159:231,1,42,0|0,1:0|0:0,0:0:0:0:
144,207,8530,1,0,0:0:0:0:
102,384,8717,6,0,P|151:341|375:332,1,294,2|0,0:0|0:0,0:0:0:0:
407,361,9462,2,0,L|384:223,1,126,2|0,0:0|0:0,0:0:0:0:
433,149,9835,5,4,1:2:0:0:
302,164,10021,1,0,0:0:0:0:
458,147,10207,1,2,0:0:0:0:
280,167,10394,6,0,L|297:16,1,126,2|0,0:0|0:0,0:0:0:0:
303,0,10766,1,2,0:2:0:0:
388,69,10953,1,2,0:2:0:0:
210,60,11139,6,0,L|105:74,1,84,2|4,0:2|0:0,0:0:0:0:
29,161,11512,2,0,P|101:202|192:184,2,168,0|0|0,0:0|0:0|0:0,0:0:0:0:
126,71,12443,1,2,0:2:0:0:
121,292,12630,6,0,P|188:271|239:276,1,84,0|4,0:0|1:2,0:0:0:0:
317,303,13002,1,0,0:0:0:0:
333,197,13189,1,2,0:0:0:0:
484,231,13375,2,0,P|427:241|341:213,1,126,2|0,0:0|0:0,0:0:0:0:
317,303,13748,1,0,3:2:0:0:
333,197,13934,1,2,3:2:0:0:
252,349,14120,6,0,P|176:326|82:323,1,168,2|0,3:2|0:0,0:0:0:0:
192,211,14679,1,0,0:0:0:0:
0,359,14866,6,0,L|27:223,1,126,0|0,0:0|0:0,0:0:0:0:
67,167,15238,1,0,1:0:0:0:
40,162,15332,1,0,0:0:0:0:
15,157,15425,1,0,1:0:0:0:
192,211,15797,5,0,1:0:0:0:
125,83,15984,1,0,0:0:0:0:
85,259,16170,1,0,1:0:0:0:
0,68,16356,1,0,0:0:0:0:
0,68,16450,2,0,L|132:84,1,126,0|2,0:0|0:2,0:0:0:0:
260,103,16915,1,2,1:2:0:0:
199,4,17102,1,2,0:2:0:0:
180,197,17288,6,0,L|166:315,1,84,0|0,1:0|0:0,0:0:0:0:
352,164,17661,2,0,L|364:247,1,84,0|0,1:0|0:0,0:0:0:0:
283,384,18033,1,2,1:2:0:0:
269,234,18220,1,2,0:2:0:0:
172,320,18406,1,2,1:2:0:0:
369,300,18592,1,2,0:2:0:0:
248,143,18779,6,0,L|135:132,1,84,0|0,1:0|0:0,0:0:0:0:
370,247,19151,2,0,L|416:350,1,84,0|0,1:0|0:0,0:0:0:0:
404,323,19431,1,0,0:0:0:0:
404,323,19524,1,2,1:2:0:0:
371,131,19710,1,2,0:2:0:0:
265,275,19897,1,2,1:2:0:0:
152,115,20083,6,0,P|210:60|308:67,1,168,6|0,0:2|1:0,0:0:0:0:
185,314,20642,1,0,0:0:0:0:
185,314,20735,1,0,0:0:0:0:
185,314,20828,2,0,P|106:294|9:281,1,168,0|2,1:0|1:2,0:0:0:0:
298,360,21387,2,0,L|288:306,1,42,2|0,0:2|0:0,0:0:0:0:
204,183,21574,2,0,L|197:223,1,42,2|0,1:2|1:0,0:0:0:0:
185,314,21760,5,0,1:0:0:0:
336,51,22133,5,0,1:0:0:0:
53,175,22505,5,0,1:0:0:0:
298,360,22785,1,0,1:0:0:0:
336,51,23064,1,4,0:0:0:0:
171,295,23437,6,0,L|130:285,3,28,0|0|0|0,0:0|0:0|0:0|0:0,0:0:0:0:
348,217,23810,2,0,L|389:207,3,28,0|0|0|0,0:0|0:0|0:0|0:0,0:0:0:0:
180,99,24182,2,0,L|152:92,3,28,0|0|0|8,0:0|0:0|0:0|0:2,0:0:0:0:
255,326,24555,6,0,L|263:253,1,42,2|0,0:0|0:0,0:0:0:0:
264,198,24741,5,6,1:2:0:0:
171,275,24928,1,0,0:0:0:0:
348,217,25114,1,0,1:2:0:0:
208,60,25300,1,0,0:0:0:0:
173,192,25487,1,0,0:0:0:0:
306,50,25673,1,2,0:0:0:0:
113,74,25859,2,0,L|27:84,1,84,2|2,1:2|0:0,0:0:0:0:
306,50,26232,6,0,L|410:36,1,84,0|2,1:0|0:0,0:0:0:0:
226,162,26605,2,0,L|241:251,1,84,0|0,1:2|0:0,0:0:0:0:
267,371,26977,1,0,1:2:0:0:
330,195,27164,1,0,0:0:0:0:
177,310,27350,1,2,1:2:0:0:
359,325,27536,1,2,0:0:0:0:
149,217,27723,6,0,P|111:207|67:201,1,84,0|0,1:2|0:0,0:0:0:0:
226,162,28095,1,0,1:2:0:0:
243,307,28282,1,2,0:0:0:0:
341,182,28468,1,0,0:0:0:0:
359,325,28654,1,2,0:0:0:0:
300,102,28841,1,2,1:2:0:0:
192,239,29027,1,2,0:0:0:0:
395,251,29213,6,0,P|434:246|490:241,1,84,0|0,1:2|0:0,0:0:0:0:
511,75,29586,2,0,P|469:71|427:65,1,84,0|0,1:2|0:0,0:0:0:0:
277,23,29959,1,0,1:2:0:0:
341,182,30145,1,0,0:0:0:0:
363,13,30331,1,2,1:2:0:0:
250,166,30518,1,2,0:0:0:0:
173,16,30704,6,0,L|56:28,1,84,0|0,1:2|0:0,0:0:0:0:
264,91,31077,1,0,1:2:0:0:
88,188,31263,2,0,L|171:194,1,84,0|0,0:0|0:0,0:0:0:0:
313,269,31636,1,2,0:0:0:0:
264,91,31822,1,2,1:2:0:0:
181,278,32009,1,2,0:0:0:0:
360,163,32195,5,0,1:2:0:0:
337,306,32381,1,0,0:0:0:0:
264,91,32568,2,0,P|254:46|238:-21,1,84,0|0,1:2|0:0,0:0:0:0:
181,278,32940,2,0,P|171:318|162:359,1,84,0|0,1:2|0:0,0:0:0:0:
116,191,33313,1,2,1:2:0:0:
266,368,33499,1,2,0:0:0:0:
360,163,33686,5,2,1:2:0:0:
181,278,33872,2,0,L|81:290,1,84,2|2,1:2|0:2,0:0:0:0:
70,94,34245,5,2,1:2:0:0:
433,140,34617,1,2,1:2:0:0:
63,261,34990,1,2,1:2:0:0:
424,310,35363,1,2,1:2:0:0:
251,34,35735,1,2,1:2:0:0:
235,346,36108,1,0,1:2:0:0:
192,230,36294,5,2,0:2:0:0:
216,234,36387,1,0,0:0:0:0:
240,239,36480,1,0,0:0:0:0:
265,243,36574,1,0,0:0:0:0:
289,247,36667,5,4,1:0:0:0:
251,34,36853,1,0,1:0:0:0:
259,15,37412,5,0,1:0:0:0:
251,269,37599,1,0,1:0:0:0:
251,286,37971,6,0,P|177:272|68:258,1,168,2|2,1:2|3:2,0:0:0:0:
12,286,38437,1,0,3:0:0:0:
12,286,38530,1,2,3:2:0:0:
120,159,38717,1,0,3:0:0:0:
208,374,38903,5,2,1:2:0:0:
425,169,39182,5,2,1:2:0:0:
157,52,39462,5,2,1:2:0:0:
252,127,39648,6,0,P|264:168|267:230,1,84,4|0,1:2|0:0,0:0:0:0:
100,384,40021,2,0,P|104:342|115:302,1,84,8|0,0:0|0:0,0:0:0:0:
155,188,40394,1,2,1:2:0:0:
293,372,40580,1,0,0:0:0:0:
293,372,40673,2,0,L|193:361,1,84,2|0,0:0|0:0,0:0:0:0:
193,281,40953,6,0,L|352:296,1,126,0|0,0:0|0:0,0:0:0:0:
409,313,41325,1,0,0:0:0:0:
366,125,41512,1,8,0:2:0:0:
262,169,41698,1,0,0:0:0:0:
447,67,41884,2,0,P|462:112|459:166,1,84,2|0,1:2|0:0,0:0:0:0:
175,199,42257,2,0,P|176:157|190:117,1,84,10|0,0:2|0:0,0:0:0:0:
288,28,42630,5,0,1:2:0:0:
248,260,42816,1,0,0:0:0:0:
87,70,43002,2,0,P|157:43|224:34,1,126,8|0,0:2|0:0,0:0:0:0:
288,28,43375,2,0,L|274:122,1,84,2|0,1:2|0:0,0:0:0:0:
380,228,43748,2,0,L|366:134,1,84,8|2,0:0|0:0,0:0:0:0:
388,0,44120,5,0,1:2:0:0:
285,243,44307,1,0,0:0:0:0:
487,191,44493,1,8,0:2:0:0:
275,111,44679,1,0,0:0:0:0:
358,316,44866,6,0,P|402:317|442:300,1,84,2|0,1:2|0:0,0:0:0:0:
200,212,45238,2,0,P|161:196|119:198,1,84,8|2,0:0|0:0,0:0:0:0:
55,246,45518,1,0,0:0:0:0:
55,246,45611,6,0,L|67:342,1,84,0|0,1:2|0:0,0:0:0:0:
285,243,45984,2,0,L|295:159,1,84,8|0,0:2|0:0,0:0:0:0:
178,292,46356,1,0,1:2:0:0:
178,292,46450,1,2,0:0:0:0:
293,370,46636,2,0,P|349:353|430:351,1,126,2|2,0:0|0:0,0:0:0:0:
487,199,47102,6,0,P|437:229|400:233,1,84,0|0,1:2|0:0,0:0:0:0:
258,97,47474,1,8,1:2:0:0:
325,273,47661,1,0,0:0:0:0:
414,124,47847,6,0,L|427:16,1,84,2|0,1:2|0:0,0:0:0:0:
193,173,48220,2,0,L|203:256,1,84,2|0,1:2|0:0,0:0:0:0:
0,133,48592,6,0,P|67:86|161:103,1,168,4|0,1:2|1:0,0:0:0:0:
264,229,49151,1,2,0:0:0:0:
218,33,49338,1,0,1:0:0:0:
93,188,49524,1,2,0:0:0:0:
294,125,49710,1,0,1:0:0:0:
330,322,49897,6,0,P|248:334|178:290,1,168,2|2,0:0|0:0,0:0:0:0:
369,74,50456,2,0,P|387:137|373:186,1,84,0|2,1:0|0:0,0:0:0:0:
88,190,50828,2,0,P|87:148|103:109,1,84,0|2,1:0|0:0,0:0:0:0:
185,15,51201,1,8,1:2:0:0:
225,180,51387,1,2,0:0:0:0:
4,39,51574,6,0,P|43:36|97:28,1,84,0|2,1:0|0:0,0:0:0:0:
284,20,51946,2,0,P|264:63|247:106,1,84,0|2,1:0|0:0,0:0:0:0:
165,270,52319,2,0,P|136:228|108:194,1,84,0|2,1:0|0:0,0:0:0:0:
148,100,52692,1,0,1:0:0:0:
59,292,52878,1,2,0:0:0:0:
249,198,53064,5,2,1:2:0:0:
37,155,53251,1,2,0:0:0:0:
119,354,53437,1,2,1:2:0:0:
140,176,53623,1,2,0:0:0:0:
0,241,53810,6,0,L|95:260,1,84,2|2,1:2|0:0,0:0:0:0:
243,373,54182,2,0,P|235:328|210:278,1,84,10|2,1:2|0:0,0:0:0:0:
163,96,54555,6,0,P|146:134|139:175,1,84,0|2,1:0|0:0,0:0:0:0:
150,351,54928,1,0,1:0:0:0:
239,169,55114,1,2,0:0:0:0:
82,257,55300,1,0,1:0:0:0:
302,254,55487,1,2,0:0:0:0:
163,96,55673,1,0,1:0:0:0:
188,257,55859,1,2,0:0:0:0:
220,25,56046,6,0,P|181:6|141:6,1,84,0|2,1:0|0:0,0:0:0:0:
6,195,56418,2,0,P|47:194|84:175,1,84,0|2,1:0|0:0,0:0:0:0:
239,169,56791,1,0,1:0:0:0:
18,107,56977,1,2,0:0:0:0:
85,312,57164,1,8,1:2:0:0:
188,257,57350,1,2,0:0:0:0:
109,82,57536,6,0,L|97:176,1,84,0|2,1:0|0:0,0:0:0:0:
294,327,57909,2,0,L|282:233,1,84,0|2,1:0|0:0,0:0:0:0:
381,78,58282,1,0,1:0:0:0:
239,169,58468,1,2,0:0:0:0:
371,216,58654,1,0,1:0:0:0:
270,60,58841,1,2,0:0:0:0:
157,238,59027,6,0,P|104:258|60:249,1,84,0|2,1:0|0:0,0:0:0:0:
294,327,59400,2,0,P|335:326|373:344,1,84,0|2,1:0|0:0,0:0:0:0:
500,185,59772,1,0,1:0:0:0:
335,239,59959,1,2,0:0:0:0:
381,78,60145,1,0,1:0:0:0:
433,261,60331,1,2,0:0:0:0:
264,141,60518,6,0,P|178:154|91:166,1,168,4|0,1:2|1:0,0:0:0:0:
0,333,61077,2,0,P|64:286|182:289,1,168,0|0,1:0|1:2,0:0:0:0:
258,359,61636,1,2,1:2:0:0:
146,185,61822,6,0,P|153:116|190:5,1,168,2|0,1:2|1:0,0:0:0:0:
86,22,62381,1,0,1:0:0:0:
261,158,62568,2,0,L|500:136,1,231,0|10,1:0|0:0,0:0:0:0:
186,369,63499,5,6,1:2:0:0:
144,189,63686,1,2,0:0:0:0:
303,272,63872,1,8,1:2:0:0:
114,294,64058,2,0,L|-14:313,1,92.4000028198243,0|0,0:0|1:0,0:0:0:0:
234,151,64431,1,0,0:0:0:0:
199,285,64617,1,8,1:2:0:0:
165,86,64804,6,0,P|205:63|273:67,1,92.4000028198243,2|0,0:0|1:0,0:0:0:0:
437,229,65176,2,0,P|391:226|351:203,1,92.4000028198243,0|8,0:0|1:2,0:0:0:0:
311,0,65549,1,0,0:0:0:0:
234,151,65735,1,2,1:2:0:0:
425,138,65922,1,2,0:2:0:0:
332,98,66108,1,10,1:2:0:0:
266,301,66294,1,2,0:2:0:0:
140,150,66481,6,0,P|131:105|119:47,1,92.4000028198243,2|0,1:2|0:0,0:0:0:0:
47,202,66853,1,8,1:2:0:0:
234,151,67040,2,0,P|314:163|432:187,1,184.800005639649,2|0,0:0|0:0,0:0:0:0:
459,268,67599,1,8,1:2:0:0:
355,83,67785,1,2,0:0:0:0:
235,246,67971,6,0,L|119:222,1,92.4000028198243,0|0,1:2|0:0,0:0:0:0:
315,323,68344,1,8,1:2:0:0:
448,108,68530,2,0,P|486:156|451:274,1,184.800005639649,0|2,0:0|0:2,0:0:0:0:
254,106,69089,2,0,P|255:60|281:11,1,92.4000028198243,10|2,1:2|0:2,0:0:0:0:
366,11,69369,1,0,0:0:0:0:
366,11,69462,6,0,L|457:23,1,92.4000028198243,4|0,1:2|0:0,0:0:0:0:
395,195,69835,2,0,L|303:182,1,92.4000028198243,8|0,1:2|0:0,0:0:0:0:
96,170,70207,1,2,1:2:0:0:
291,273,70394,1,2,0:2:0:0:
156,97,70580,1,10,1:2:0:0:
164,312,70766,1,2,0:2:0:0:
254,106,70953,6,0,L|235:-21,1,92.4000028198243,0|0,1:2|0:0,0:0:0:0:
68,187,71325,2,0,L|54:278,1,92.4000028198243,8|0,1:2|0:0,0:0:0:0:
46,360,71605,1,0,0:0:0:0:
46,360,71698,2,0,L|113:353,1,46.2000014099122,2|0,1:2|0:0,0:0:0:0:
158,256,71884,2,0,L|205:260,1,46.2000014099122,2|0,0:2|0:0,0:0:0:0:
290,354,72071,1,10,1:2:0:0:
267,186,72257,6,0,L|241:-10,1,184.800005639649,4|0,0:0|0:0,0:0:0:0:
149,108,72816,1,8,1:2:0:0:
348,30,73002,2,0,L|363:139,1,92.4000028198243,0|2,0:0|1:2,0:0:0:0:
378,234,73375,1,2,0:2:0:0:
378,234,73468,1,0,0:0:0:0:
378,234,73561,1,10,1:2:0:0:
241,69,73748,6,0,P|195:27|66:51,1,184.800005639649,6|0,0:2|1:0,0:0:0:0:
23,106,74213,1,0,0:0:0:0:
23,106,74307,5,0,1:0:0:0:
147,382,74493,1,0,0:0:0:0:
148,113,74679,5,0,1:2:0:0:
38,375,74866,1,0,0:0:0:0:
241,178,75052,5,0,1:2:0:0:
0,267,75238,2,0,L|80:274,1,46.2000014099122,2|0,0:0|0:0,0:0:0:0:
150,286,75425,5,4,1:2:0:0:
160,77,75611,1,0,0:0:0:0:
50,165,75797,1,8,1:2:0:0:
241,178,75984,6,0,L|357:162,1,92.4000028198243,0|0,0:0|1:2,0:0:0:0:
490,251,76356,1,0,0:0:0:0:
385,96,76543,1,8,1:2:0:0:
348,283,76729,1,2,0:0:0:0:
348,283,76822,1,0,0:0:0:0:
348,283,76915,5,0,1:2:0:0:
151,209,77102,2,0,P|148:166|183:102,1,92.4000028198243,0|8,0:0|1:2,0:0:0:0:
419,233,77474,2,0,P|436:275|433:321,1,92.4000028198243,0|2,0:0|1:2,0:0:0:0:
241,178,77847,2,0,L|370:159,1,92.4000028198243,2|10,0:2|1:2,0:0:0:0:
211,358,78220,6,0,L|114:343,1,92.4000028198243,2|2,0:0|1:2,0:0:0:0:
22,321,78592,1,0,0:0:0:0:
118,98,78779,1,8,1:2:0:0:
45,198,78965,2,0,L|164:214,1,92.4000028198243,2|0,0:0|1:0,0:0:0:0:
305,276,79338,1,0,0:0:0:0:
270,96,79524,1,8,1:2:0:0:
255,348,79710,6,0,P|299:364|351:355,1,92.4000028198243,2|0,0:0|1:2,0:0:0:0:
355,203,80083,2,0,P|312:187|266:192,1,92.4000028198243,0|8,0:0|1:2,0:0:0:0:
207,262,80456,1,0,0:0:0:0:
42,198,80642,5,2,1:2:0:0:
25,170,80735,1,0,0:0:0:0:
17,138,80828,1,2,0:0:0:0:
20,105,80922,1,0,0:0:0:0:
38,78,81015,2,0,L|149:93,1,92.4000028198243,10|2,1:2|0:0,0:0:0:0:
305,276,81387,5,0,1:2:0:0:
238,65,81574,1,0,0:0:0:0:
200,287,81760,1,8,1:2:0:0:
326,52,81946,1,0,0:0:0:0:
326,52,82040,2,0,L|429:68,1,92.4000028198243,0|0,0:0|0:0,0:0:0:0:
462,63,82319,1,2,0:0:0:0:
489,207,82505,2,0,P|422:204|395:184,1,92.4000028198243,10|2,1:2|0:0,0:0:0:0:
223,29,82878,6,0,L|247:150,1,92.4000028198243,0|0,1:2|0:0,0:0:0:0:
193,328,83251,1,8,1:2:0:0:
322,206,83437,1,0,0:0:0:0:
137,222,83623,2,0,L|211:236,1,46.2000014099122,2|0,1:2|0:0,0:0:0:0:
354,304,83810,2,0,L|308:295,1,46.2000014099122,2|0,0:0|0:0,0:0:0:0:
240,119,83996,1,10,0:0:0:0:
267,373,84182,1,2,0:0:0:0:
402,191,84369,6,0,P|442:182|510:170,1,92.4000028198243,0|0,1:2|0:0,0:0:0:0:
193,328,84741,2,0,P|147:317|102:309,1,92.4000028198243,8|0,1:2|0:0,0:0:0:0:
72,315,85021,1,0,0:0:0:0:
72,315,85114,1,2,1:2:0:0:
206,186,85300,1,2,0:0:0:0:
267,373,85487,1,10,1:2:0:0:
313,169,85673,6,0,P|393:137|499:165,1,184.800005639649,6|2,0:0|0:2,0:0:0:0:
512,177,86139,1,2,0:2:0:0:
512,177,86232,1,10,1:2:0:0:
368,62,86418,2,0,L|351:-26,2,46.2000014099122,2|2|2,0:2|0:2|1:2,0:0:0:0:
400,248,86791,6,0,L|393:300,1,46.2000014099122,2|0,0:2|0:2,0:0:0:0:
292,367,86977,2,0,L|285:321,1,46.2000014099122,10|2,1:2|3:2,0:0:0:0:
181,251,87164,1,2,3:2:0:0:
177,287,87257,1,2,0:2:0:0:
173,315,87350,5,2,1:2:0:0:
193,26,87723,1,2,1:2:0:0:
448,112,88095,5,2,1:2:0:0:
153,174,88375,1,2,1:2:0:0:
461,279,88654,1,6,1:2:0:0:
256,192,88748,12,0,90331,0:0:0:0:
