osu file format v14

[General]
AudioFilename: audio.mp3
AudioLeadIn: 0
PreviewTime: 57177
Countdown: 0
SampleSet: Soft
StackLeniency: 0.7
Mode: 0
LetterboxInBreaks: 0
WidescreenStoryboard: 0

[Editor]
DistanceSpacing: 1.4
BeatDivisor: 4
GridSize: 4
TimelineZoom: 2.4

[Metadata]
Title:Lilac
TitleUnicode:ライラック
Artist:Minami
ArtistUnicode:美波
Creator:Nathan
Version:receiver
Source:
Tags:jpop japanese pop sukiNathan カワキヲアメク Kawaki Wo Ameku flying DOG 373
BeatmapID:1945199
BeatmapSetID:931609

[Difficulty]
HPDrainRate:5
CircleSize:4.2
OverallDifficulty:9
ApproachRate:9.6
SliderMultiplier:2.2
SliderTickRate:1

[Events]
//Background and Video events
Video,251,"musicvid.mp4"
0,0,"smaller_background.jpg",0,0
//Break Periods
2,71933,76377
2,115488,128067
//Storyboard Layer 0 (Background)
//Storyboard Layer 1 (Fail)
//Storyboard Layer 2 (Pass)
//Storyboard Layer 3 (Foreground)
//Storyboard Layer 4 (Overlay)
//Storyboard Sound Samples

[TimingPoints]
622,444.444444444444,4,2,1,70,1,0
622,-200,4,2,1,70,0,0
2399,-166.666666666667,4,2,1,70,0,0
4177,-133.333333333333,4,2,1,70,0,0
7288,-100,4,2,1,70,0,0
8621,-100,4,2,1,70,0,0
8733,-100,4,2,1,70,0,0
8955,-100,4,2,1,70,0,0
9399,-100,4,2,1,70,0,0
9510,-100,4,2,1,70,0,0
10510,-100,4,2,1,70,0,0
10733,-100,4,2,1,70,0,0
11177,-100,4,2,1,70,0,0
11288,-100,4,2,1,70,0,0
14844,-66.6666666666667,4,2,1,70,0,0
21733,-57.1428571428571,4,2,1,70,0,0
21955,-66.6666666666667,4,2,1,70,0,0
27733,-80,4,2,1,70,0,0
29066,-100,4,2,1,70,0,0
30399,-66.6666666666667,4,2,1,70,0,0
30844,-100,4,2,1,70,0,0
35733,-66.6666666666667,4,2,1,70,0,0
36177,-100,4,2,1,70,0,0
42844,-200,4,2,1,70,0,0
43288,-80,4,2,1,70,0,0
47510,-133.333333333333,4,2,1,70,0,0
47955,-80,4,2,1,70,0,0
49288,-133.333333333333,4,2,1,70,0,0
49733,-80,4,2,1,70,0,0
57510,-166.666666666667,4,2,1,70,0,0
57955,-142.857142857143,4,2,1,70,0,0
58399,-125,4,2,1,70,0,0
58621,-111.111111111111,4,2,1,70,0,0
58844,-100,4,2,1,70,0,0
59066,-90.9090909090909,4,2,1,70,0,0
59288,-83.3333333333333,4,2,1,70,0,0
59733,-83.3333333333333,4,2,1,70,0,0
60177,-83.3333333333333,4,2,1,70,0,0
60621,-83.3333333333333,4,2,1,70,0,0
61510,-90.9090909090909,4,2,1,70,0,0
61955,-100,4,2,1,70,0,0
62399,-111.111111111111,4,2,1,70,0,0
62844,-125,4,2,1,70,0,0
63066,-125,4,2,1,70,0,0
63510,-125,4,2,1,70,0,0
63955,-125,4,2,1,70,0,0
64399,-83.3333333333333,4,2,1,70,0,0
65510,-166.666666666667,4,2,1,70,0,0
65733,-125,4,2,1,70,0,0
65955,-100,4,2,1,70,0,0
66177,-83.3333333333333,4,2,1,70,0,0
67288,-166.666666666667,4,2,1,70,0,0
67510,-125,4,2,1,70,0,0
67733,-100,4,2,1,70,0,0
67955,-83.3333333333333,4,2,1,70,0,0
70844,-133.333333333333,4,2,1,70,0,0
78844,-80,4,2,1,70,0,0
85066,-133.333333333333,4,2,1,70,0,0
85955,-66.6666666666667,4,2,1,70,0,1
112177,-100,4,2,1,70,0,1
112621,-83.3333333333333,4,2,1,70,0,0
114399,-100,4,2,1,70,0,0
115288,444.444444444444,4,2,1,70,1,0
130399,-83.3333333333333,4,2,1,70,0,0
131287,-100,4,2,1,70,0,0
132176,-76.9230769230769,4,2,1,70,0,0
133065,-71.4285714285714,4,2,1,70,0,0
136176,-83.3333333333333,4,2,1,70,0,0
136399,-100,4,2,1,70,0,0
136621,-66.6666666666667,4,2,1,70,0,1
162843,-100,4,2,1,70,0,1
163287,-66.6666666666667,4,2,1,70,0,1
164176,-83.3333333333333,4,2,1,70,0,1
165065,-133.333333333333,4,2,1,70,0,0
197399,-100,4,2,1,70,0,0
197732,-80,4,2,1,70,0,0
198065,-66.6666666666667,4,2,1,70,0,0
198399,-57.1428571428571,4,2,1,70,0,0
200621,-66.6666666666667,4,2,1,70,0,1
228621,-100,4,2,1,70,0,1
229065,-133.333333333333,4,2,1,70,0,0
232621,-62.5,4,2,1,70,0,1
258843,-100,4,2,1,70,0,1
259287,-100,4,2,1,70,0,0
262843,-66.6666666666667,4,2,1,70,0,0

[Colours]
Combo1 : 63,0,249
Combo2 : 225,206,206
Combo3 : 223,238,255
Combo4 : 216,252,209
Combo5 : 224,200,253
Combo6 : 255,28,33

[HitObjects]
184,366,622,6,0,L|184:242,1,110,6|0,0:0|0:0,0:0:0:0:
188,258,1288,1,2,0:0:0:0:
266,278,1399,1,2,0:0:0:0:
264,350,1510,2,0,P|225:363|184:366,2,82.5,2|2|2,0:0|0:0|0:0,0:0:0:0:
379,258,2399,6,0,L|379:115,1,131.99999597168,2|0,0:0|0:0,0:0:0:0:
379,126,3065,1,2,0:0:0:0:
305,158,3176,1,2,0:0:0:0:
281,235,3288,2,0,P|327:253|382:253,2,98.9999969787599,2|2|2,0:0|0:0|0:0,0:0:0:0:
71,186,4177,6,0,L|71:11,1,165.000006294251,2|0,0:0|0:0,0:0:0:0:
71,21,4843,1,2,0:0:0:0:
158,69,4955,1,2,0:0:0:0:
190,160,5066,2,0,P|137:179|53:184,2,123.750004720688,2|2|2,0:0|0:0|0:0,0:0:0:0:
390,173,5955,6,0,L|390:350,1,165.000006294251,2|0,0:0|0:0,0:0:0:0:
390,338,6621,1,2,0:0:0:0:
315,261,6733,1,2,0:0:0:0:
390,173,6844,2,0,P|447:166|519:209,1,123.750004720688,2|0,0:0|0:0,0:0:0:0:
315,261,7288,38,0,P|279:197|320:91,1,165,6|0,0:0|0:0,0:0:0:0:
451,265,7733,6,0,L|180:290,1,220,6|0,3:2|3:0,0:0:0:0:
231,285,8399,1,2,0:0:0:0:
164,247,8510,1,2,0:0:0:0:
166,329,8621,2,0,L|166:409,1,55,2|0,3:2|0:0,0:0:0:0:
136,50,8955,2,0,L|136:130,1,55,2|0,0:0|3:0,0:0:0:0:
379,299,9288,2,0,L|379:379,1,55,2|0,0:2|0:0,0:0:0:0:
214,151,9510,6,0,L|485:176,1,220,6|0,3:2|3:0,0:0:0:0:
433,171,10176,1,2,0:0:0:0:
369,216,10288,1,2,0:0:0:0:
440,250,10399,2,0,L|440:318,1,55,2|0,3:2|0:2,0:2:0:0:
460,28,10732,2,0,L|460:96,1,55,2|0,0:0|3:0,0:0:0:0:
25,173,11066,2,0,L|25:242,1,55,2|0,0:0|0:0,0:0:0:0:
139,112,11288,5,6,3:2:0:0:
139,112,11510,2,0,L|193:119,1,55,2|0,0:0|0:0,0:0:0:0:
418,260,11733,1,0,3:0:0:0:
418,260,11955,2,0,L|363:252,1,55,2|0,0:0|0:0,0:0:0:0:
29,232,12177,1,0,3:0:0:0:
29,232,12399,2,0,L|92:223,1,55,2|0,0:0|0:0,0:0:0:0:
477,149,12621,1,0,3:0:0:0:
477,149,12844,2,0,L|414:158,1,55,2|0,0:0|0:0,0:0:0:0:
256,192,13066,37,6,3:2:0:0:
256,192,13955,6,0,P|219:189|177:158,1,55,8|0,0:0|0:0,0:0:0:0:
52,176,14177,1,8,0:0:0:0:
56,256,14288,1,8,0:0:0:0:
124,213,14399,2,0,L|138:123,1,55,0|8,3:0|0:0,0:0:0:0:
124,3,14621,1,8,0:0:0:0:
191,55,14733,1,8,0:0:0:0:
117,84,14844,6,0,L|309:53,1,165,6|2,3:2|0:0,0:0:0:0:
305,51,15121,1,2,0:0:0:0:
305,51,15177,2,0,P|346:98|336:131,1,82.5000031471254,10|0,0:0|3:0,0:0:0:0:
271,222,15399,1,0,0:0:0:0:
440,172,15510,2,0,P|419:231|385:240,1,82.5000031471254,10|0,0:0|0:0,0:0:0:0:
298,384,15733,1,2,3:2:0:0:
383,350,15844,2,0,P|321:362|235:302,1,165.000006294251,8|0,0:0|1:0,0:0:0:0:
200,168,16177,1,2,3:2:0:0:
239,309,16288,1,0,0:0:0:0:
347,192,16399,2,0,P|294:209|257:234,1,82.5000031471254,10|0,0:0|0:0,0:0:0:0:
159,372,16621,6,0,P|152:290|122:213,1,165.000006294251,6|0,3:2|0:0,0:0:0:0:
69,296,16955,1,10,0:0:0:0:
203,172,17066,1,0,3:0:0:0:
203,172,17288,2,0,P|205:129|218:91,1,82.5000031471254,10|0,0:0|0:0,0:0:0:0:
457,175,17510,1,0,3:0:0:0:
469,201,17621,1,8,0:0:0:0:
456,89,17733,1,8,0:0:0:0:
472,65,17844,1,8,0:0:0:0:
381,131,17955,1,0,3:0:0:0:
381,131,18177,2,0,L|278:114,1,82.5000031471254,8|0,0:0|0:0,0:0:0:0:
297,220,18399,38,0,L|459:247,1,165.000006294251,6|2,3:2|0:0,0:0:0:0:
258,384,18733,1,8,0:0:0:0:
382,336,18844,1,2,3:2:0:0:
382,336,19066,2,0,P|334:315|258:320,1,82.5000031471254,10|0,0:0|0:0,0:0:0:0:
194,247,19288,1,2,3:2:0:0:
296,220,19399,2,0,P|222:254|162:354,1,165.000006294251,8|0,0:0|1:0,0:0:0:0:
123,177,19733,1,2,3:2:0:0:
194,247,19844,1,0,0:0:0:0:
218,140,19955,2,0,P|229:100|225:60,1,82.5000031471254,10|0,0:0|0:0,0:0:0:0:
93,274,20177,6,0,P|9:180|6:107,1,165.000006294251,6|2,3:2|0:0,0:0:0:0:
296,220,20510,1,8,0:0:0:0:
123,177,20621,2,0,P|110:109|121:69,1,82.5000031471254,2|0,3:2|0:0,0:0:0:0:
389,225,20844,2,0,P|402:293|391:333,1,82.5000031471254,10|0,0:0|0:0,0:0:0:0:
303,192,21066,1,2,3:2:0:0:
310,165,21177,1,8,0:0:0:0:
210,222,21288,1,10,0:0:0:0:
217,249,21399,1,8,0:0:0:0:
315,141,21510,2,0,L|333:60,1,82.5000031471254,2|0,3:2|0:0,0:0:0:0:
511,157,21733,6,0,B|530:200|530:200|500:295,1,144.375001376867,12|0,0:0|0:0,0:0:0:0:
492,317,21955,6,0,P|451:300|331:285,1,165.000006294251,6|2,3:2|0:0,0:0:0:0:
313,281,22233,1,2,0:0:0:0:
313,281,22288,2,0,P|284:237|309:184,1,82.5000031471254,10|0,0:0|3:0,0:0:0:0:
265,15,22510,1,0,0:0:0:0:
366,72,22621,2,0,P|342:119|283:123,1,82.5000031471254,8|0,0:0|0:0,0:0:0:0:
132,225,22844,1,2,3:2:0:0:
95,97,22955,2,0,P|173:86|231:141,1,165.000006294251,8|0,0:0|1:0,0:0:0:0:
215,345,23288,2,0,P|197:309|199:268,1,82.5000031471254,2|0,3:2|0:0,0:0:0:0:
475,169,23510,2,0,P|493:205|491:246,1,82.5000031471254,10|0,0:0|0:0,0:0:0:0:
286,290,23733,38,0,L|316:127,1,165.000006294251,6|0,3:2|0:0,0:0:0:0:
353,356,24066,1,10,0:0:0:0:
201,231,24177,1,0,3:0:0:0:
201,231,24399,2,0,L|106:242,1,82.5000031471254,10|0,0:0|0:0,0:0:0:0:
154,33,24621,1,0,3:0:0:0:
181,31,24732,1,8,0:0:0:0:
64,77,24844,1,8,0:0:0:0:
62,50,24955,1,8,0:0:0:0:
152,137,25066,1,0,3:0:0:0:
152,137,25288,2,0,L|247:126,1,82.5000031471254,10|0,0:0|0:0,0:0:0:0:
429,231,25510,6,0,P|346:218|320:201,1,82.5000031471254,6|0,3:2|0:0,0:0:0:0:
205,29,25733,2,0,P|288:42|314:59,1,82.5000031471254,2|8,0:0|0:0,0:0:0:0:
499,170,25955,1,2,3:2:0:0:
414,141,26066,1,2,0:0:0:0:
480,86,26177,1,10,0:0:0:0:
499,170,26288,1,2,0:0:0:0:
295,163,26399,1,2,3:2:0:0:
358,75,26510,2,0,L|391:257,1,165.000006294251,8|8,0:0|0:0,0:0:0:0:
403,358,26844,1,0,3:0:0:0:
403,358,27066,2,0,L|304:340,1,82.5000031471254,8|0,0:0|0:0,0:0:0:0:
87,213,27288,70,0,L|72:294,1,82.5000031471254,6|0,3:2|0:0,0:0:0:0:
164,272,27510,2,0,L|149:353,1,82.5000031471254,10|0,0:0|1:0,0:0:0:0:
398,116,27733,6,0,L|412:197,1,68.75,2|0,3:2|0:0,0:0:0:0:
321,175,27955,2,0,L|335:256,1,68.75,10|0,0:0|0:0,0:0:0:0:
95,104,28177,5,2,3:2:0:0:
95,104,28399,2,0,B|124:120|124:120|184:111,1,68.75,8|0,0:0|0:0,0:0:0:0:
292,5,28621,1,0,3:0:0:0:
327,26,28733,1,0,3:0:0:0:
351,59,28844,1,0,3:0:0:0:
353,100,28955,1,0,3:0:0:0:
336,137,29066,6,0,P|302:184|304:275,1,110,6|0,3:2|0:0,0:0:0:0:
379,274,29399,2,0,P|413:227|411:136,1,110,0|0,3:0|0:0,0:0:0:0:
451,104,29733,2,0,L|480:287,1,165,0|0,3:0|0:0,0:0:0:0:
476,266,30177,1,0,3:0:0:0:
153,359,30399,38,0,P|78:294|190:279,1,247.500009441376,8|0,0:0|0:0,0:0:0:0:
240,305,30844,6,0,L|208:169,1,110,4|0,3:2|0:0,0:0:0:0:
284,108,31177,2,0,B|312:180|312:180|301:210,1,110,0|0,3:0|0:0,0:0:0:0:
116,239,31510,2,0,L|159:41,1,165,0|0,3:0|0:0,0:0:0:0:
151,77,31955,1,0,3:0:0:0:
482,102,32177,2,0,P|454:102|428:111,1,55,8|0,0:0|0:0,0:0:0:0:
347,137,32399,1,0,1:0:0:0:
408,197,32510,1,0,1:0:0:0:
428,110,32621,6,0,P|412:32|392:3,1,110,6|0,3:2|0:0,0:0:0:0:
328,221,32955,2,0,L|306:346,1,110,0|0,3:0|0:0,0:0:0:0:
418,312,33288,1,0,3:0:0:0:
418,312,33510,2,0,P|458:306|485:289,1,55,2|0,0:0|0:0,0:0:0:0:
347,137,33733,2,0,P|319:138|294:148,1,55,2|0,3:2|0:0,0:0:0:0:
133,290,33955,2,0,L|205:277,1,55,10|0,0:0|0:0,0:0:0:0:
267,270,34177,1,0,1:0:0:0:
233,347,34288,1,0,1:0:0:0:
187,280,34399,6,0,B|171:202|171:202|191:138,1,110,4|0,3:2|0:0,0:0:0:0:
311,39,34733,2,0,L|291:167,1,110,0|0,3:0|0:0,0:0:0:0:
81,16,35066,2,0,P|161:23|215:83,1,165,0|0,3:0|0:0,0:0:0:0:
181,173,35510,2,0,L|94:159,1,55,2|0,0:0|0:0,0:0:0:0:
315,235,35733,38,0,P|392:176|285:160,1,247.500009441376,8|0,0:0|0:0,0:0:0:0:
216,83,36177,6,0,P|283:62|322:3,1,110,4|0,3:2|0:0,0:0:0:0:
419,74,36510,2,0,P|455:113|468:166,1,110,0|0,3:0|0:0,0:0:0:0:
473,258,36844,2,0,P|398:229|300:239,1,165,0|0,3:0|0:0,0:0:0:0:
314,234,37288,1,0,3:0:0:0:
44,262,37510,2,0,P|77:261|105:269,1,55,8|0,0:0|0:0,0:0:0:0:
177,233,37733,1,0,1:0:0:0:
166,312,37844,1,0,1:0:0:0:
99,267,37955,6,0,B|85:194|85:194|114:145,1,110,6|0,3:2|0:0,0:0:0:0:
249,73,38288,2,0,P|274:139|268:196,1,110,0|0,3:0|0:0,0:0:0:0:
22,128,38621,2,0,L|237:147,1,165,0|0,3:0|0:0,0:0:0:0:
186,142,39066,1,0,3:0:0:0:
475,294,39288,2,0,L|398:286,1,55,8|0,0:0|0:0,0:0:0:0:
343,280,39510,1,0,1:0:0:0:
375,355,39621,1,0,1:0:0:0:
420,288,39733,6,0,B|435:241|435:241|411:164,1,110,4|0,3:2|0:0,0:0:0:0:
183,37,40066,2,0,B|168:84|168:84|192:161,1,110,0|0,3:0|0:0,0:0:0:0:
300,209,40399,2,0,B|289:143|289:143|302:119|302:119|282:22,1,165,0|0,3:0|0:0,0:0:0:0:
287,49,40844,1,0,3:0:0:0:
202,250,41066,2,0,L|181:109,1,110,8|0,0:0|0:0,0:0:0:0:
132,72,41399,1,8,0:0:0:0:
105,156,41510,38,0,P|23:128|-5:95,1,110,6|0,3:2|0:0,0:0:0:0:
272,96,41844,2,0,P|325:106|369:139,1,110,0|0,3:0|0:0,0:0:0:0:
435,237,42177,2,0,P|408:171|482:4,1,220,0|0,3:0|0:0,0:0:0:0:
447,33,42844,6,0,P|395:64|356:62,1,82.5,10|0,0:0|0:0,0:0:0:0:
208,33,43288,70,0,B|184:23|184:23|110:40,1,68.75,6|0,3:2|0:0,0:0:0:0:
50,131,43510,1,2,0:0:0:0:
178,178,43621,2,0,L|185:88,1,68.75,2|8,3:2|0:0,0:0:0:0:
183,109,43955,1,2,3:2:0:0:
50,131,44066,1,2,0:0:0:0:
109,248,44177,2,0,P|29:243|-6:248,1,68.75,2|0,0:0|3:0,0:0:0:0:
73,27,44399,2,0,P|153:32|188:27,1,68.75,10|0,0:0|0:0,0:0:0:0:
198,280,44621,2,0,P|203:200|198:165,1,68.75,2|0,3:2|0:0,0:0:0:0:
400,68,44844,1,10,0:0:0:0:
318,106,44955,1,2,0:0:0:0:
469,133,45066,6,0,B|497:102|497:102|470:-24,1,137.5,6|2,3:2|0:0,0:0:0:0:
381,176,45399,1,2,3:2:0:0:
471,233,45510,2,0,P|487:278|478:340,1,68.75,8|2,0:0|0:0,0:0:0:0:
318,106,45733,2,0,P|302:61|311:-1,1,68.75,2|0,3:2|0:0,0:0:0:0:
469,133,45955,1,2,0:0:0:0:
381,176,46066,1,2,3:2:0:0:
400,68,46177,2,0,L|410:-3,1,68.75,10|0,0:0|0:0,0:0:0:0:
378,283,46399,2,0,L|308:275,1,68.75,2|0,3:2|0:0,0:0:0:0:
140,101,46621,2,0,L|208:110,1,68.75,10|0,0:0|0:0,0:0:0:0:
83,342,46844,6,0,B|74:281|74:281|86:271|86:271|77:209,1,137.5,6|0,3:2|0:0,0:0:0:0:
177,252,47177,1,2,3:2:0:0:
75,188,47288,2,0,L|65:93,1,68.75,8|0,0:0|0:0,0:0:0:0:
436,98,47510,6,0,L|427:180,1,82.5000031471254,2|2,3:2|0:0,0:0:0:0:
330,233,47844,1,0,3:0:0:0:
432,193,47955,38,0,B|445:235|445:235|429:274,1,68.75,8|0,0:0|0:0,0:0:0:0:
239,75,48177,2,0,B|226:33|226:33|242:-6,1,68.75,0|0,3:0|0:0,0:0:0:0:
177,252,48399,2,0,L|196:354,1,68.75,10|0,0:0|0:0,0:0:0:0:
347,145,48621,6,0,B|356:84|356:84|344:74|344:74|352:12,1,137.5,6|0,3:2|0:0,0:0:0:0:
239,75,48955,1,2,3:2:0:0:
369,23,49066,2,0,L|451:15,1,68.75,8|0,0:0|0:0,0:0:0:0:
42,165,49288,6,0,B|27:131|27:131|42:59,1,82.5000031471254,2|0,3:2|0:0,0:0:0:0:
171,168,49621,1,0,3:0:0:0:
156,258,49733,2,0,L|146:326,1,68.75,8|0,0:0|0:0,0:0:0:0:
342,140,49955,6,0,P|380:153|441:153,1,68.75,2|0,3:2|0:0,0:0:0:0:
475,348,50177,2,0,P|436:334|376:335,1,68.75,10|0,0:0|0:0,0:0:0:0:
324,252,50399,2,0,P|420:244|483:198,1,137.5,4|0,3:2|0:0,0:0:0:0:
75,188,50733,1,0,3:0:0:0:
156,258,50844,38,0,P|121:262|89:273,1,68.75,10|0,0:0|0:0,0:0:0:0:
110,65,51066,2,0,P|144:60|176:49,1,68.75,2|0,3:2|0:0,0:0:0:0:
341,144,51288,1,2,0:0:0:0:
324,252,51399,1,0,3:0:0:0:
341,144,51510,2,0,L|353:76,1,68.75,8|0,0:0|0:0,0:0:0:0:
156,257,51733,2,0,L|143:324,1,68.75,2|0,3:2|0:0,0:0:0:0:
416,269,51955,2,0,B|421:236|421:236|403:205,1,68.75,10|0,0:0|0:0,0:0:0:0:
143,154,52177,6,0,B|126:89|126:89|155:25,1,137.5,6|0,3:2|0:0,0:0:0:0:
207,97,52510,1,0,3:0:0:0:
143,18,52621,2,0,L|31:2,1,68.75,10|0,0:0|0:0,0:0:0:0:
353,76,52844,2,0,L|522:56,1,137.5,2|0,3:2|0:0,0:0:0:0:
403,205,53177,1,0,3:0:0:0:
474,158,53288,2,0,P|485:197|480:253,1,68.75,8|0,0:0|0:0,0:0:0:0:
174,336,53510,2,0,P|163:297|168:241,1,68.75,2|0,3:2|0:0,0:0:0:0:
353,76,53733,2,0,P|351:110|341:143,1,68.75,8|0,0:0|0:0,0:0:0:0:
163,37,53955,5,6,3:2:0:0:
163,37,54288,1,0,3:0:0:0:
341,143,54399,1,10,0:0:0:0:
163,37,54621,2,0,L|195:231,1,137.5,2|0,3:2|0:0,0:0:0:0:
163,267,54955,1,0,3:0:0:0:
341,143,55066,1,8,0:0:0:0:
118,188,55288,6,0,L|187:172,1,68.75,2|0,3:2|0:0,0:0:0:0:
405,221,55510,2,0,L|336:237,1,68.75,8|0,0:0|0:0,0:0:0:0:
327,363,55733,38,0,L|295:169,1,137.5,2|0,3:2|0:0,0:0:0:0:
316,90,56066,1,0,3:0:0:0:
184,172,56177,1,8,0:0:0:0:
385,0,56399,2,0,B|410:86|410:86|385:152,1,137.5,2|0,3:2|0:0,0:0:0:0:
119,130,56733,1,0,3:0:0:0:
255,271,56844,2,0,L|255:185,1,68.75,8|0,0:0|0:0,0:0:0:0:
256,25,57066,1,2,3:2:0:0:
256,25,57288,1,8,0:0:0:0:
255,114,57399,1,8,0:0:0:0:
255,202,57510,6,0,L|205:209,1,32.99999899292,6|0,3:2|0:0,0:0:0:0:
63,79,57733,1,0,1:0:0:0:
119,130,57844,1,0,1:0:0:0:
46,154,57955,2,0,L|-14:162,1,38.4999988250733,0|0,3:0|0:0,0:0:0:0:
113,287,58177,1,0,1:0:0:0:
40,258,58288,1,0,1:0:0:0:
102,211,58399,6,0,L|186:201,1,44,2|0,3:2|0:0,0:0:0:0:
320,245,58621,2,0,L|235:256,1,49.4999984893799,2|0,1:2|1:0,0:0:0:0:
237,159,58844,1,2,3:2:0:0:
267,75,58955,1,0,1:0:0:0:
324,146,59066,1,2,1:2:0:0:
237,159,59177,1,0,1:0:0:0:
387,199,59288,6,0,L|364:68,1,131.99999597168,6|0,3:2|1:0,0:0:0:0:
127,77,59621,1,0,1:0:0:0:
134,159,59733,2,0,L|156:289,1,131.99999597168,0|0,3:0|1:0,0:0:0:0:
267,75,60066,1,0,1:0:0:0:
127,77,60177,2,0,L|62:88,1,65.9999979858399,0|0,3:0|0:0,0:0:0:0:
243,280,60399,2,0,L|308:269,1,65.9999979858399,0|0,1:0|1:0,0:0:0:0:
428,167,60621,1,0,3:0:0:0:
398,251,60732,1,0,1:0:0:0:
341,187,60843,1,0,1:0:0:0:
428,167,60954,1,0,1:0:0:0:
254,193,61066,38,0,L|234:31,1,131.99999597168,6|0,3:2|1:0,0:0:0:0:
341,187,61399,1,0,1:0:0:0:
243,280,61510,6,0,L|111:296,1,121.000003692627,0|0,1:0|1:0,0:0:0:0:
330,102,61844,1,0,1:0:0:0:
341,187,61955,6,0,L|360:348,1,110,0|0,1:0|1:0,0:0:0:0:
117,150,62288,1,0,1:0:0:0:
135,147,62399,6,0,L|266:130,1,98.9999969787599,0|0,1:0|0:0,0:0:0:0:
159,59,62733,1,0,1:0:0:0:
187,235,62844,1,6,3:2:0:0:
187,235,63066,37,0,1:0:0:0:
137,300,63177,1,0,1:0:0:0:
103,226,63288,1,0,1:0:0:0:
343,146,63510,5,0,1:0:0:0:
278,230,63621,1,0,1:0:0:0:
233,134,63732,1,0,1:0:0:0:
494,77,63955,5,0,1:0:0:0:
417,199,64066,1,0,1:0:0:0:
354,66,64177,1,0,1:0:0:0:
497,82,64288,1,0,1:0:0:0:
417,199,64399,2,0,L|407:291,1,65.9999979858399,2|0,3:2|3:0,3:0:0:0:
228,324,64621,6,0,B|237:236|237:236|223:225|223:225|236:97,1,197.99999395752,6|0,3:2|0:0,0:0:0:0:
354,125,65066,1,2,1:2:0:0:
114,71,65288,1,2,1:2:0:0:
341,118,65510,38,0,P|309:127|283:126,1,32.99999899292,2|0,1:2|0:0,0:0:0:0:
125,66,65733,2,0,P|173:86|186:101,1,44,2|0,1:2|0:0,0:0:0:0:
279,248,65955,2,0,P|251:202|251:172,1,55,2|0,1:2|0:0,0:0:0:0:
261,0,66177,2,0,P|259:46|228:93,1,65.9999979858399,2|0,1:2|0:0,0:0:0:0:
0,230,66399,6,0,P|28:192|178:172,1,197.99999395752,6|0,3:2|0:0,0:0:0:0:
62,289,66844,1,2,1:2:0:0:
165,81,67066,1,2,1:2:0:0:
74,293,67288,6,0,L|126:284,1,32.99999899292,2|0,1:2|0:0,0:0:0:0:
177,83,67510,2,0,L|229:92,1,44,2|0,1:2|0:0,0:0:0:0:
226,274,67733,2,0,L|286:263,1,55,2|0,1:2|0:0,0:0:0:0:
326,118,67955,2,0,L|394:129,1,65.9999979858399,2|0,1:2|0:0,0:0:0:0:
364,350,68177,5,6,3:2:0:0:
77,192,68399,1,2,1:2:0:0:
364,34,68621,1,2,1:2:0:0:
364,350,68844,1,0,1:0:0:0:
189,101,69066,37,2,1:2:0:0:
361,192,69288,1,0,1:0:0:0:
189,283,69510,1,2,1:2:0:0:
189,101,69733,1,2,1:2:0:0:
256,192,69955,5,6,3:2:0:0:
383,273,70844,2,0,L|405:125,2,123.750004720688,0|0|0,3:0|3:0|3:0,3:0:0:0:
196,336,71733,5,6,3:2:0:0:
0,226,78177,5,2,0:0:0:0:
0,226,78399,2,0,L|142:216,1,123.750004720688,2|0,0:0|0:0,0:0:0:0:
169,288,78844,38,0,P|152:222|180:161,1,137.5,6|0,3:2|0:0,0:0:0:0:
263,145,79177,1,8,0:0:0:0:
128,86,79288,2,0,P|163:71|217:75,1,68.75,0|0,3:0|0:0,0:0:0:0:
319,273,79510,2,0,P|274:246|253:195,1,68.75,10|0,0:0|0:0,0:0:0:0:
337,97,79733,1,0,3:0:0:0:
419,144,79844,5,8,0:0:0:0:
343,185,79955,1,2,1:2:0:0:
419,144,80066,1,0,1:0:0:0:
263,145,80177,2,0,B|249:109|249:109|266:62,1,68.75,10|0,0:0|0:0,0:0:0:0:
501,100,80399,1,2,1:2:0:0:
501,100,80473,1,0,1:0:0:0:
501,100,80547,1,0,1:0:0:0:
501,100,80621,6,0,L|514:256,1,137.5,6|0,3:2|0:0,0:0:0:0:
322,274,80955,1,8,0:0:0:0:
409,236,81066,2,0,B|423:272|423:272|406:319,1,68.75,2|0,3:2|0:0,0:0:0:0:
169,215,81288,2,0,L|237:223,1,68.75,10|0,0:0|0:0,0:0:0:0:
234,338,81510,1,2,3:2:0:0:
158,376,81621,5,8,0:0:0:0:
90,333,81733,1,10,0:0:0:0:
161,297,81844,1,0,1:0:0:0:
13,359,81955,2,0,P|19:301|39:275,1,68.75,10|0,0:0|0:0,0:0:0:0:
180,150,82177,2,0,P|174:208|154:234,1,68.75,2|0,1:2|1:0,0:0:0:0:
53,62,82399,38,0,L|156:48,1,68.75,6|0,3:2|0:0,0:0:0:0:
439,302,82621,2,0,L|336:316,1,68.75,2|8,0:0|0:0,0:0:0:0:
112,141,82844,6,0,L|180:150,1,68.75,2|0,3:2|0:0,0:0:0:0:
407,213,83066,2,0,L|338:203,1,68.75,10|0,0:0|0:0,0:0:0:0:
178,281,83288,5,0,3:0:0:0:
256,109,83399,2,0,B|261:157|261:157|247:197|247:197|256:243,1,137.5,8|0,0:0|0:0,0:0:0:0:
256,253,83733,5,0,1:0:0:0:
256,263,83807,1,0,1:0:0:0:
256,272,83881,1,0,1:0:0:0:
256,281,83955,1,0,1:0:0:0:
256,290,84029,1,0,1:0:0:0:
256,299,84103,1,0,1:0:0:0:
256,308,84177,37,6,3:2:0:0:
251,139,85066,6,0,P|285:101|180:120,1,288.750011014939,2|0,0:0|0:0,0:0:0:0:
251,139,85955,6,0,P|320:118|389:47,1,165.000006294251,6|2,3:2|0:0,0:0:0:0:
267,39,86288,1,8,0:0:0:0:
466,207,86399,1,0,3:0:0:0:
466,207,86621,2,0,P|425:185|372:185,1,82.5000031471254,8|0,0:0|0:0,0:0:0:0:
152,110,86844,5,2,3:2:0:0:
180,285,86955,2,0,B|160:184,1,82.5000031471254,8|2,0:0|0:0,0:0:0:0:
152,110,87177,1,8,0:0:0:0:
351,285,87288,1,2,3:2:0:0:
351,285,87510,2,0,P|305:288|250:305,1,82.5000031471254,10|0,0:0|0:0,0:0:0:0:
63,96,87733,38,0,P|145:91|225:71,1,165.000006294251,6|2,3:2|0:0,0:0:0:0:
225,70,88066,1,8,0:0:0:0:
178,257,88177,2,0,P|182:215|190:175,1,82.5000031471254
342,20,88399,2,0,P|337:61|329:101,1,82.5000031471254,8|0,0:0|0:0,0:0:0:0:
451,314,88621,1,2,3:2:0:0:
420,226,88733,1,8,0:0:0:0:
505,247,88844,1,10,0:0:0:0:
451,314,88955,1,8,0:0:0:0:
484,154,89066,1,2,3:2:0:0:
484,154,89288,2,0,L|374:137,1,82.5000031471254,10|0,0:0|0:0,0:0:0:0:
279,303,89510,6,0,P|350:283|425:218,1,165.000006294251,6|2,3:2|0:0,0:0:0:0:
419,225,89844,1,8,0:0:0:0:
472,378,89955,2,0,P|489:341|489:300,1,82.5000031471254,0|0,3:0|0:0,0:0:0:0:
321,86,90177,2,0,P|303:122|303:163,1,82.5000031471254,8|0,0:0|0:0,0:0:0:0:
279,303,90399,1,2,3:2:0:0:
402,141,90510,2,0,L|384:305,1,165.000006294251,8|8,0:0|0:0,0:0:0:0:
228,77,90844,1,2,3:2:0:0:
228,77,91066,2,0,L|218:172,1,82.5000031471254,10|0,0:0|0:0,0:0:0:0:
106,360,91288,5,6,3:2:0:0:
191,248,91399,1,8,0:0:0:0:
56,286,91510,1,10,0:0:0:0:
189,335,91621,1,8,0:0:0:0:
32,173,91733,1,2,3:2:0:0:
32,173,91955,2,0,P|70:196|124:205,1,82.5000031471254,10|0,0:0|0:0,0:0:0:0:
395,180,92177,5,6,3:2:0:0:
323,275,92288,1,8,0:0:0:0:
437,243,92399,1,10,0:0:0:0:
324,202,92510,1,8,0:0:0:0:
468,341,92622,1,2,3:2:0:0:
468,341,92844,2,0,P|435:321|389:313,1,82.5000031471254,10|0,0:0|0:0,0:0:0:0:
205,330,93066,38,0,P|240:245|220:116,1,165.000006294251,6|2,3:2|0:0,0:0:0:0:
234,54,93399,1,8,0:0:0:0:
386,158,93510,2,0,P|298:205|264:197,1,82.5000031471254,2|0,3:2|0:0,0:0:0:0:
146,106,93733,2,0,P|232:92|354:161,1,165.000006294251,10|0,0:0|3:0,0:0:0:0:
466,191,94066,1,0,0:0:0:0:
332,283,94177,2,0,P|318:222|323:189,1,82.5000031471254,2|8,0:0|0:0,0:0:0:0:
440,19,94399,2,0,P|454:80|449:113,1,82.5000031471254,2|0,3:2|0:0,0:0:0:0:
203,254,94621,6,0,L|232:51,1,165.000006294251,10|0,0:0|3:0,0:0:0:0:
370,75,94955,1,0,0:0:0:0:
233,97,95066,1,10,0:0:0:0:
319,202,95177,1,8,0:0:0:0:
233,97,95288,2,0,L|128:107,1,82.5000031471254,2|0,3:2|0:0,0:0:0:0:
400,237,95510,2,0,B|417:199|417:199|392:154,1,82.5000031471254,10|0,0:0|0:0,0:0:0:0:
192,331,95733,5,2,3:2:0:0:
273,374,95844,1,8,0:0:0:0:
270,277,95955,1,10,0:0:0:0:
192,331,96066,1,8,0:0:0:0:
352,324,96177,2,0,L|457:334,1,82.5000031471254,2|0,3:2|0:0,0:0:0:0:
397,163,96399,2,0,L|292:153,1,82.5000031471254,10|0,0:0|0:0,0:0:0:0:
115,227,96621,6,0,P|100:178|108:107,1,82.5000031471254,6|0,3:2|0:0,0:0:0:0:
410,267,96844,2,0,P|385:299|349:324,1,82.5000031471254,2|8,0:0|0:0,0:0:0:0:
301,8,97066,2,0,P|340:12|376:34,1,82.5000031471254,2|0,3:2|0:0,0:0:0:0:
249,368,97288,2,0,L|225:162,1,165.000006294251,14|0,0:0|3:0,0:0:0:0:
314,155,97621,1,8,0:0:0:0:
410,267,97733,2,8,P|370:256|328:255,1,82.5000031471254,10|8,0:0|0:0,0:0:0:0:
140,104,97955,2,0,P|181:102|221:92,1,82.5000031471254,2|0,3:2|0:0,0:0:0:0:
457,192,98177,38,0,P|483:114|485:32,1,165.000006294251,10|0,0:0|3:0,3:0:0:0:
370,58,98510,1,0,0:0:0:0:
314,155,98621,1,2,0:0:0:0:
370,58,98733,1,8,0:0:0:0:
221,91,98844,2,0,B|207:55|207:55|226:6,1,82.5000031471254,0|0,3:0|0:0,0:0:0:0:
329,254,99066,2,0,L|229:274,1,82.5000031471254,8|0,0:0|0:0,0:0:0:0:
6,72,99288,5,8,0:0:0:0:
101,205,99399,1,8,0:0:0:0:
139,103,99510,1,8,0:0:0:0:
0,185,99621,1,8,0:0:0:0:
66,135,99733,1,8,0:0:0:0:
66,135,99844,2,0,L|47:229,1,82.5000031471254,0|0,3:0|3:0,0:0:0:0:
31,306,100066,1,8,0:0:0:0:
269,181,100177,6,0,P|243:139|86:122,1,165.000006294251,6|2,3:2|0:0,0:0:0:0:
156,222,100510,1,8,0:0:0:0:
337,40,100621,1,0,3:0:0:0:
337,40,100844,2,0,P|336:80|350:119,1,82.5000031471254,8|0,0:0|0:0,0:0:0:0:
282,309,101066,1,2,3:2:0:0:
448,342,101177,2,0,L|352:327,1,82.5000031471254,8|2,0:0|0:0,0:0:0:0:
282,309,101399,1,8,0:0:0:0:
503,176,101510,1,2,3:2:0:0:
503,176,101733,2,0,P|476:191|415:206,1,82.5000031471254,10|0,0:0|0:0,0:0:0:0:
231,384,101955,6,0,P|248:288|211:198,1,165.000006294251,6|2,3:2|0:0,0:0:0:0:
159,314,102288,1,8,0:0:0:0:
368,259,102399,2,0,P|351:313|301:342,1,82.5000031471254,0|0,3:0|0:0,0:0:0:0:
118,384,102621,2,0,P|77:381|42:359,1,82.5000031471254,8|0,0:0|0:0,0:0:0:0:
272,151,102844,1,2,3:2:0:0:
228,225,102956,1,8,0:0:0:0:
225,75,103067,1,10,0:0:0:0:
361,159,103178,1,8,0:0:0:0:
182,153,103289,1,2,3:2:0:0:
182,153,103511,2,0,L|71:171,1,82.5000031471254,10|0,0:0|0:0,0:0:0:0:
332,329,103733,38,0,B|401:317|401:317|417:325|417:325|511:308,1,165.000006294251,6|0,3:2|0:0,0:0:0:0:
492,311,104066,1,8,0:0:0:0:
460,163,104177,2,0,B|438:199|438:199|442:239,1,82.5000031471254,2|0,3:2|0:0,0:0:0:0:
240,364,104399,2,0,L|261:183,1,165.000006294251,8|0,0:0|0:0,0:0:0:0:
255,94,104733,1,0,0:0:0:0:
164,206,104844,2,0,L|152:98,1,82.5000031471254,10|8,0:0|0:0,0:0:0:0:
357,291,105066,2,0,P|357:331|339:368,1,82.5000031471254,0|0,3:0|0:0,0:0:0:0:
76,301,105288,2,0,L|184:289,1,82.5000031471254,8|0,0:0|0:0,0:0:0:0:
397,144,105510,6,0,P|295:136|244:67,1,165.000006294251,0|2,3:0|0:0,0:0:0:0:
456,215,105844,1,8,0:0:0:0:
357,291,105955,2,0,P|324:266|304:230,1,82.5000031471254,2|0,3:2|0:0,0:0:0:0:
512,50,106177,2,0,P|506:90|485:125,1,82.5000031471254,10|0,0:0|0:0,0:0:0:0:
212,178,106399,2,0,L|242:-22,1,165.000006294251,14|0,0:0|0:0,0:0:0:0:
134,250,106733,1,8,0:0:0:0:
99,92,106844,2,0,L|201:81,1,82.5000031471254,0|0,3:0|0:0,0:0:0:0:
319,156,107066,2,0,B|328:198|328:198|284:255,1,82.5000031471254,10|0,0:0|0:0,0:0:0:0:
44,275,107288,6,0,P|125:279|197:319,1,165.000006294251,6|2,3:2|0:0,0:0:0:0:
303,229,107621,1,8,0:0:0:0:
103,94,107733,1,0,3:0:0:0:
103,94,107955,2,0,P|104:135|119:173,1,82.5000031471254,8|0,0:0|0:0,0:0:0:0:
303,229,108177,1,2,3:2:0:0:
231,167,108288,2,0,P|190:237|196:318,1,165.000006294251,8|8,0:0|0:0,0:0:0:0:
453,269,108621,2,0,P|383:226|302:229,1,165.000006294251,0|8,3:0|0:0,0:0:0:0:
196,318,108955,1,8,0:0:0:0:
346,384,109066,6,0,L|365:278,1,82.5000031471254,6|0,3:2|0:0,0:0:0:0:
403,108,109288,2,0,L|265:130,1,82.5000031471254,2|8,0:0|0:0,0:0:0:0:
119,252,109510,1,0,3:0:0:0:
119,252,109733,2,0,B|126:210|126:210|105:176,1,82.5000031471254,8|0,0:0|0:0,0:0:0:0:
13,63,109955,1,2,3:2:0:0:
26,149,110066,1,8,0:0:0:0:
96,93,110177,1,10,0:0:0:0:
13,63,110288,1,8,0:0:0:0:
109,180,110399,1,2,3:2:0:0:
109,180,110621,2,0,L|205:169,1,82.5000031471254,10|0,0:0|0:0,0:0:0:0:
410,276,110844,38,0,P|309:240|188:248,1,165.000006294251,6|0,3:2|0:0,0:0:0:0:
355,158,111177,1,8,0:0:0:0:
270,148,111288,2,0,P|207:163|160:186,1,82.5000031471254,2|0,3:2|0:0,0:0:0:0:
367,65,111510,2,0,P|407:57|446:43,1,82.5000031471254,10|0,0:0|0:0,0:0:0:0:
446,42,111733,1,0,3:0:0:0:
376,236,111844,2,0,P|357:192|360:128,1,82.5000031471254,8|2,0:0|0:0,0:0:0:0:
278,59,112066,1,0,3:0:0:0:
153,251,112177,6,0,L|181:45,1,165,14|0,0:0|0:0,0:0:0:0:
51,192,112621,37,14,0:0:0:0:
461,192,112918,5,10,0:0:0:0:
153,192,113214,69,2,3:2:0:0:
358,192,113510,5,2,3:2:0:0:
204,192,113807,69,10,0:0:0:0:
307,192,114103,5,10,0:0:0:0:
256,192,114399,5,6,3:2:0:0:
256,335,114621,1,0,3:0:0:0:
256,335,114733,2,0,L|256:242,1,55,0|0,3:0|0:0,0:0:0:0:
256,53,114955,1,0,3:0:0:0:
312,118,115066,1,0,3:0:0:0:
200,118,115177,1,0,3:0:0:0:
256,53,115288,5,6,3:2:0:0:
415,369,128621,6,0,L|401:310,1,55,8|0,0:0|0:0,0:0:0:0:
504,230,128844,2,0,L|491:283,1,55,0|0,3:0|0:0,0:0:0:0:
321,338,129066,1,8,0:0:0:0:
339,262,129177,1,0,3:0:0:0:
359,187,129288,1,0,3:0:0:0:
359,187,129510,6,0,P|383:134|380:69,1,110,6|0,3:2|0:0,0:0:0:0:
512,123,129843,2,0,P|454:128|399:163,1,110,0|0,3:0|0:0,0:0:0:0:
449,38,130176,2,0,P|457:80|482:111,1,55,0|0,3:0|0:0,0:0:0:0:
285,331,130399,38,0,B|309:274|309:274|275:195,1,131.99999597168,8|0,0:0|0:0,0:0:0:0:
445,285,130732,2,0,B|386:305|386:305|350:383,1,131.99999597168,8|0,0:0|0:0,0:0:0:0:
359,187,131065,2,0,B|374:218|374:218|404:210,1,65.9999979858399,0|0,3:0|0:0,0:0:0:0:
65,349,131287,6,0,P|33:279|45:224,1,110,6|0,3:2|0:0,0:0:0:0:
224,292,131621,2,0,P|179:354|125:371,1,110,0|0,3:0|0:0,0:0:0:0:
123,188,131954,2,0,P|173:198|197:226,1,55,0|0,3:0|0:0,0:0:0:0:
413,289,132176,6,0,B|310:268|310:268|286:234,1,142.99999345398,8|0,0:0|0:0,0:0:0:0:
245,0,132510,2,0,B|278:96|278:96|261:134,1,142.99999345398,8|0,0:0|0:0,0:0:0:0:
113,229,132843,2,0,B|144:202|144:202|185:198,1,71.4999967269899,8|0,0:0|0:0,0:0:0:0:
496,266,133065,6,0,B|507:305|507:305|482:336,1,76.9999976501466,6|0,3:2|0:0,0:0:0:0:
332,303,133287,2,0,B|321:264|321:264|345:232,1,76.9999976501466,2|0,0:0|3:0,0:0:0:0:
489,19,133510,38,0,B|512:49|512:49|501:88,1,76.9999976501466,2|0,0:0|0:0,0:0:0:0:
225,362,133732,2,0,B|202:332|202:332|213:293,1,76.9999976501466,2|0,3:2|0:0,0:0:0:0:
417,65,133954,6,0,P|358:117|213:106,1,230.99999295044,14|10,0:0|0:0,0:0:0:0:
196,102,134343,1,8,0:0:0:0:
196,102,134399,2,0,P|180:151|156:176,1,76.9999976501466,8|8,0:0|3:0,3:0:0:0:
88,194,134621,1,10,0:0:0:0:
106,118,134732,1,8,0:0:0:0:
146,248,134843,5,0,3:0:0:0:
82,40,134954,1,14,0:0:0:0:
366,248,135176,5,0,3:0:0:0:
430,40,135287,1,14,0:0:0:0:
256,290,135510,37,0,3:0:0:0:
256,161,135621,2,0,L|256:7,1,153.999995300293,14|0,0:0|3:0,0:0:0:0:
281,18,135899,1,0,3:0:0:0:
281,18,135954,2,0,P|316:40|337:106,1,76.9999976501466,2|0,3:2|3:0,0:0:0:0:
366,248,136176,2,0,P|367:206|401:169,1,65.9999979858399,2|0,3:2|3:0,0:0:0:0:
489,175,136399,1,2,3:2:0:0:
440,237,136510,1,0,3:0:0:0:
429,126,136621,6,0,P|344:157|262:157,1,165.000006294251,6|0,3:2|0:0,0:0:0:0:
334,70,136954,1,8,0:0:0:0:
260,266,137065,1,0,3:0:0:0:
260,266,137287,2,0,P|197:234|158:232,1,82.5000031471254,10|0,0:0|0:0,0:0:0:0:
104,258,137510,1,2,3:2:0:0:
353,334,137621,2,0,P|354:292|330:224,1,82.5000031471254,8|2,0:0|0:0,0:0:0:0:
223,116,137843,1,8,0:0:0:0:
172,320,137954,1,2,3:2:0:0:
172,320,138176,2,0,P|108:344|88:360,1,82.5000031471254,10|0,0:0|0:0,0:0:0:0:
139,158,138399,6,0,P|125:75|88:-1,1,165.000006294251,6|0,3:2|0:0,0:0:0:0:
62,182,138732,1,8,0:0:0:0:
194,10,138843,1,0,3:0:0:0:
194,10,139065,2,0,P|234:26|288:23,1,82.5000031471254,10|0,0:0|0:0,0:0:0:0:
471,222,139287,1,2,3:2:0:0:
391,251,139399,1,8,0:0:0:0:
404,165,139510,1,10,0:0:0:0:
471,222,139621,1,8,0:0:0:0:
327,197,139732,1,2,3:2:0:0:
327,197,139954,2,0,L|314:103,1,82.5000031471254,10|0,0:0|0:0,0:0:0:0:
500,330,140176,6,0,B|433:318|433:318|398:333|398:333|308:316,1,165.000006294251,6|0,3:2|0:0,0:0:0:0:
340,322,140510,1,0,0:0:0:0:
470,146,140621,2,0,B|487:179|487:179|470:221,1,82.5000031471254,2|0,3:2|0:0,0:0:0:0:
245,184,140843,2,0,L|347:199,1,82.5000031471254,8|0,0:0|0:0,0:0:0:0:
391,251,141065,1,2,3:2:0:0:
238,267,141176,2,0,P|206:207|219:89,1,165.000006294251,8|0,0:0|0:0,0:0:0:0:
310,45,141510,1,2,3:2:0:0:
310,45,141732,2,0,P|271:43|214:20,1,82.5000031471254,10|0,0:0|0:0,0:0:0:0:
74,93,141954,37,6,3:2:0:0:
208,112,142065,1,8,0:0:0:0:
150,45,142176,1,10,0:0:0:0:
134,160,142287,1,8,0:0:0:0:
328,129,142399,1,2,3:2:0:0:
328,129,142621,2,0,L|315:225,1,82.5000031471254,10|0,0:0|0:0,0:0:0:0:
279,319,142843,5,6,3:2:0:0:
177,307,142954,1,8,0:0:0:0:
221,372,143065,1,10,0:0:0:0:
234,258,143176,1,8,0:0:0:0:
99,341,143288,1,2,3:2:0:0:
99,341,143510,2,0,L|112:245,1,82.5000031471254,10|0,0:0|0:0,0:0:0:0:
98,117,143732,6,0,P|162:166|243:175,1,165.000006294251,6|0,3:2|0:0,0:0:0:0:
380,25,144065,1,8,0:0:0:0:
187,0,144176,2,0,P|203:50|241:86,1,82.5000031471254,0|0,3:0|0:0,0:0:0:0:
310,264,144399,2,0,L|329:89,1,165.000006294251,10|0,0:0|0:0,0:0:0:0:
443,239,144732,1,0,0:0:0:0:
414,155,144843,2,0,B|453:146|453:146|491:163,1,82.5000031471254,2|0,0:0|0:0,0:0:0:0:
365,345,145065,2,0,L|283:358,1,82.5000031471254,2|0,3:2|0:0,0:0:0:0:
81,197,145287,6,0,P|75:115|101:37,1,165.000006294251,8|0,0:0|3:0,0:0:0:0:
192,85,145621,1,0,0:0:0:0:
268,132,145732,1,10,0:0:0:0:
193,173,145843,1,8,0:0:0:0:
267,42,145954,2,0,P|319:49|362:80,1,82.5000031471254,2|0,3:2|0:0,0:0:0:0:
226,275,146176,2,0,P|173:267|130:236,1,82.5000031471254,10|0,0:0|0:0,0:0:0:0:
442,268,146399,2,0,L|458:393,1,82.5000031471254,2|0,3:2|0:0,0:0:0:0:
431,164,146621,1,8,0:0:0:0:
501,207,146732,1,8,0:0:0:0:
366,221,146843,2,0,L|350:96,1,82.5000031471254,2|0,3:2|0:0,0:0:0:0:
148,253,147065,2,0,B|129:291|129:291|164:378,1,82.5000031471254,10|0,0:0|0:0,0:0:0:0:
411,33,147287,38,0,B|384:21|384:21|303:35,1,82.5000031471254,6|0,3:2|0:0,0:0:0:0:
55,131,147510,2,0,B|82:143|82:143|163:129,1,82.5000031471254,2|8,0:0|0:0,0:0:0:0:
483,221,147732,2,0,L|364:208,1,82.5000031471254,2|0,3:2|0:0,0:0:0:0:
11,318,147954,2,0,B|73:309|73:309|101:328|101:328|168:319,1,165.000006294251,8|0,0:0|3:0,0:0:0:0:
377,310,148287,1,0,0:0:0:0:
250,363,148399,2,0,P|268:304|292:267,1,82.5000031471254,2|8,0:0|0:0,0:0:0:0:
275,110,148621,2,0,P|293:146|303:186,1,82.5000031471254,2|0,3:2|0:0,0:0:0:0:
442,365,148843,6,0,P|402:293|400:211,1,165.000006294251,8|0,0:0|3:0,0:0:0:0:
492,1,149176,1,0,0:0:0:0:
413,33,149287,1,8,0:0:0:0:
492,1,149399,1,8,0:0:0:0:
460,129,149510,2,0,P|414:117|330:116,1,82.5000031471254,2|0,3:2|0:0,0:0:0:0:
96,57,149732,2,0,P|136:52|176:41,1,82.5000031471254,10|0,0:0|0:0,0:0:0:0:
404,215,149954,5,10,0:0:0:0:
257,321,150065,1,10,0:0:0:0:
238,148,150176,1,10,0:0:0:0:
404,215,150287,1,10,0:0:0:0:
315,187,150399,1,10,0:0:0:0:
315,187,150510,2,0,L|327:295,1,82.5000031471254,0|2,3:0|3:2,3:0:0:0:
335,355,150732,1,8,0:0:0:0:
188,241,150843,6,0,B|128:233|128:233|91:253|91:253|29:245,1,165.000006294251,6|0,3:2|0:0,0:0:0:0:
146,325,151176,1,8,0:0:0:0:
150,150,151287,2,0,B|108:146|108:146|71:166,1,82.5000031471254,2|0,3:2|0:0,0:0:0:0:
237,384,151510,2,0,L|254:272,1,82.5000031471254,10|0,0:0|0:0,0:0:0:0:
344,86,151732,1,2,3:2:0:0:
336,187,151843,2,0,L|319:299,1,82.5000031471254,8|2,0:0|0:0,0:0:0:0:
245,218,152065,1,8,0:0:0:0:
426,147,152176,1,0,3:0:0:0:
426,147,152399,2,0,P|471:144|515:131,1,82.5000031471254,10|0,0:0|0:0,0:0:0:0:
267,41,152621,38,0,P|155:42|89:124,1,165.000006294251,6|2,3:2|0:0,0:0:0:0:
116,71,152954,1,8,0:0:0:0:
194,219,153065,2,0,P|209:181|208:140,1,82.5000031471254,2|0,3:2|0:0,0:0:0:0:
21,25,153287,2,0,P|5:62|6:103,1,82.5000031471254,10|0,0:0|0:0,0:0:0:0:
78,339,153510,2,0,L|105:134,1,165.000006294251,2|2,3:2|0:0,0:0:0:0:
15,201,153843,1,8,0:0:0:0:
166,306,153954,1,2,3:2:0:0:
166,306,154176,2,0,B|207:310|207:310|262:280,1,82.5000031471254,8|0,0:0|0:0,0:0:0:0:
353,196,154399,6,0,P|242:173|192:111,1,165.000006294251,6|0,3:2|0:0,0:0:0:0:
228,51,154732,1,8,0:0:0:0:
144,198,154843,2,0,P|124:162|122:121,1,82.5000031471254,2|0,3:2|0:0,0:0:0:0:
380,122,155065,2,0,L|357:332,1,165.000006294251,10|0,0:0|3:0,0:0:0:0:
458,63,155399,1,0,0:0:0:0:
263,140,155510,2,8,L|273:52,1,82.5000031471254,10|8,0:0|0:0,0:0:0:0:
472,178,155732,2,0,B|485:219|485:219|461:265,1,82.5000031471254,2|0,3:2|0:0,0:0:0:0:
300,356,155954,6,0,L|116:378,1,165.000006294251,10|0,0:0|3:0,0:0:0:0:
0,236,156287,1,0,0:0:0:0:
10,134,156399,2,8,P|44:156|70:188,1,82.5000031471254
60,348,156621,2,0,P|62:306|76:268,1,82.5000031471254,2|0,3:2|0:0,0:0:0:0:
214,193,156843,2,0,B|185:221|185:221|142:218,1,82.5000031471254,10|0,0:0|0:0,0:0:0:0:
310,110,157065,2,0,P|429:87|511:59,1,165.000006294251,6|0,3:2|0:0,0:0:0:0:
302,197,157399,1,8,0:0:0:0:
417,247,157510,2,0,P|437:209|428:143,1,82.5000031471254,2|0,3:2|0:0,0:0:0:0:
239,28,157732,2,10,P|218:63|217:104,1,82.5000031471254
407,359,157954,6,0,P|334:301|205:300,1,165.000006294251,6|0,3:2|0:0,0:0:0:0:
148,348,158287,1,8,0:0:0:0:
302,197,158399,1,0,3:0:0:0:
301,196,158621,2,0,P|260:199|222:213,1,82.5000031471254,8|0,0:0|0:0,0:0:0:0:
156,266,158843,1,0,0:0:0:0:
145,155,158954,2,0,P|110:177|84:209,1,82.5000031471254,8|2,0:0|0:0,0:0:0:0:
156,266,159176,1,8,0:0:0:0:
225,118,159287,2,8,L|203:-21,1,82.5000031471254,2|8,3:2|0:0,0:0:0:0:
77,292,159510,2,0,B|60:334|60:334|81:397,1,82.5000031471254,10|0,0:0|0:0,0:0:0:0:
221,213,159732,38,0,L|50:193,1,165.000006294251,6|0,3:2|0:0,0:0:0:0:
279,304,160065,1,8,0:0:0:0:
333,212,160176,2,0,B|350:170|350:170|329:107,1,82.5000031471254,2|0,3:2|0:0,0:0:0:0:
147,88,160399,1,8,0:0:0:0:
147,88,160621,1,2,3:2:0:0:
225,118,160732,1,8,0:0:0:0:
212,36,160843,1,8,0:0:0:0:
163,169,160954,1,8,0:0:0:0:
342,138,161065,1,0,3:2:0:0:
342,138,161287,2,0,P|387:149|451:142,1,82.5000031471254,10|0,0:0|0:0,0:0:0:0:
472,276,161510,6,0,P|430:275|391:286,1,82.5000031471254,6|0,3:2|0:0,0:0:0:0:
341,350,161732,1,8,0:0:0:0:
419,362,161843,1,8,0:0:0:0:
174,333,161954,1,2,3:2:0:0:
174,333,162176,2,0,P|129:322|65:329,1,82.5000031471254,10|0,0:0|0:0,0:0:0:0:
44,195,162399,2,0,P|85:195|124:184,1,82.5000031471254,2|0,3:2|0:0,0:0:0:0:
175,121,162621,1,10,0:0:0:0:
97,109,162732,1,8,0:0:0:0:
244,247,162843,6,0,P|263:167|214:17,1,165.000006294251,14|0,0:2|0:0,0:0:0:0:
251,47,163287,6,0,P|251:26|258:7,2,41.2500015735627,0|0|8,3:0|3:0|0:0,0:0:0:0:
175,121,163510,1,8,0:0:0:0:
338,43,163621,1,8,0:0:0:0:
344,228,163732,37,0,3:0:0:0:
278,173,163843,1,2,3:2:0:0:
357,141,163954,1,0,3:2:0:0:
344,228,164065,1,0,3:0:0:0:
278,173,164176,6,0,L|190:194,1,65.9999979858399,2|0,3:2|0:0,0:0:0:0:
187,341,164399,1,0,3:2:0:0:
241,266,164510,1,2,3:2:0:0:
162,260,164621,1,0,3:0:0:0:
162,260,164732,1,0,3:0:0:0:
162,260,164843,1,0,3:0:0:0:
162,260,164954,1,0,3:0:0:0:
162,260,165065,6,0,B|41:244,1,82.5000031471254,6|0,3:2|0:0,0:0:0:0:
292,149,165399,2,0,B|374:160,1,82.5000031471254,0|0,3:2|0:0,0:0:0:0:
401,238,165732,1,0,3:0:0:0:
349,74,165843,1,0,3:0:0:0:
272,236,165954,2,0,L|259:71,1,165.000006294251,12|0,0:0|0:0,0:0:0:0:
259,71,166621,2,0,P|228:61|205:42,1,41.2500015735627
54,172,166843,6,0,P|72:162|92:157,1,41.2500015735627,6|0,3:2|0:2,0:0:0:0:
321,278,167065,2,0,P|244:270|196:231,1,123.750004720688,10|0,0:0|0:0,0:0:0:0:
205,228,167510,1,0,0:0:0:0:
471,189,167732,2,0,B|421:180|421:180|391:191,1,82.5000031471254,10|0,0:0|0:0,0:0:0:0:
481,365,168065,2,0,B|463:317|463:317|439:297,1,82.5000031471254,8|0,0:0|0:0,0:0:0:0:
321,278,168399,2,0,L|308:348,1,41.2500015735627,10|0,0:0|0:0,0:0:0:0:
396,88,168621,38,0,L|328:101,1,41.2500015735627,6|0,3:2|0:0,0:0:0:0:
124,208,168843,2,0,P|190:195|232:152,1,123.750004720688,8|0,0:0|0:0,0:0:0:0:
235,133,169287,1,0,3:0:0:0:
32,286,169510,2,0,P|127:300|170:339,1,123.750004720688,14|8,0:0|0:0,0:0:0:0:
165,327,169899,1,8,0:0:0:0:
165,327,169954,2,0,L|217:316,1,41.2500015735627,8|0,0:0|3:0,0:0:0:0:
289,304,170176,1,0,0:0:0:0:
261,381,170287,1,0,0:0:0:0:
229,235,170399,6,0,P|229:218|238:182,1,41.2500015735627,14|8,0:0|0:0,0:0:0:0:
426,285,170621,1,8,0:0:0:0:
342,373,170732,1,8,0:0:0:0:
354,191,170843,2,0,L|444:179,1,82.5000031471254,6|8,3:2|0:0,0:0:0:0:
497,235,171176,1,8,0:0:0:0:
421,53,171287,1,10,0:0:0:0:
494,94,171399,1,8,0:0:0:0:
354,113,171510,2,0,B|344:99|344:99|346:74,1,41.2500015735627,10|0,0:0|0:0,0:0:0:0:
497,235,171732,2,0,B|506:248|506:248|504:273,1,41.2500015735627,6|0,3:2|0:0,0:0:0:0:
313,329,171954,2,0,L|263:320,1,41.2500015735627,6|0,3:2|0:0,0:0:0:0:
156,174,172176,6,0,B|261:135|242:228|367:186,1,206.250007867813,6|0,3:2|0:0,0:0:0:0:
456,193,172843,1,2,3:2:0:0:
309,102,172954,1,0,3:0:0:0:
367,271,173065,2,0,P|368:175|390:107,1,165.000006294251,14|0,0:0|0:0,0:0:0:0:
389,110,173732,2,0,P|403:72|405:49,1,41.2500015735627,2|0,3:2|0:0,0:0:0:0:
196,251,173954,6,0,P|182:289|180:312,1,41.2500015735627,2|0,3:2|0:0,0:0:0:0:
324,356,174176,2,0,L|306:215,1,123.750004720688,14|0,0:0|0:0,0:0:0:0:
314,211,174621,2,0,L|261:202,1,41.2500015735627,0|0,3:0|0:0,0:0:0:0:
90,180,174843,2,0,B|83:137|83:137|120:75,1,82.5000031471254,8|0,0:0|0:0,0:0:0:0:
316,26,175176,2,0,B|323:69|323:69|286:131,1,82.5000031471254,8|0,0:0|0:0,0:0:0:0:
93,19,175510,2,0,L|146:28,1,41.2500015735627,10|0,0:0|0:0,0:0:0:0:
216,30,175732,38,0,P|215:53|191:83,1,41.2500015735627,6|0,3:2|0:0,0:0:0:0:
1,164,175954,2,0,P|56:114|137:107,1,123.750004720688,8|0,0:0|0:0,0:0:0:0:
122,107,176399,1,0,3:0:0:0:
389,196,176621,2,8,P|344:154|284:139,1,123.750004720688
274,160,177010,1,8,0:0:0:0:
274,160,177065,2,8,L|263:199,1,41.2500015735627,8|8,0:0|3:0,0:0:0:0:
246,285,177287,1,0,3:0:0:0:
329,255,177399,1,0,3:0:0:0:
181,223,177510,2,0,B|158:255|158:255|161:298,1,82.5000031471254,14|0,0:0|0:0,0:0:0:0:
316,347,177843,1,8,0:0:0:0:
150,312,177954,6,0,P|129:302|102:301,1,41.2500015735627,6|0,3:2|0:0,0:0:0:0:
346,172,178176,2,0,P|386:165|424:150,1,82.5000031471254,10|0,0:0|0:0,0:0:0:0:
354,83,178510,1,8,0:0:0:0:
329,255,178621,1,0,3:0:0:0:
329,255,178843,2,0,P|363:270|378:284,1,41.2500015735627,6|0,3:2|0:0,0:0:0:0:
164,75,179065,2,0,P|130:60|115:46,1,41.2500015735627,6|0,3:2|0:0,0:0:0:0:
217,314,179287,6,0,L|253:111,1,206.250007867813,6|0,3:2|0:0,0:0:0:0:
356,191,179954,1,0,3:0:0:0:
234,98,180065,1,0,3:0:0:0:
384,79,180176,2,0,B|330:120|330:120|304:256,1,206.250007867813,14|0,0:0|0:0,0:0:0:0:
311,279,180843,2,0,P|330:286|346:312,1,41.2500015735627,0|0,3:0|0:0,0:0:0:0:
411,374,181065,6,0,P|407:354|422:327,1,41.2500015735627,6|0,3:2|0:0,0:0:0:0:
512,199,181287,2,0,P|466:240|406:254,1,123.750004720688,8|0,0:0|0:0,0:0:0:0:
392,239,181732,1,0,0:0:0:0:
436,66,181954,2,0,B|448:127|448:127|427:160,1,82.5000031471254,8|0,0:0|0:0,0:0:0:0:
263,75,182287,2,0,B|324:63|324:63|357:84,1,82.5000031471254,8|0,0:0|0:0,0:0:0:0:
282,177,182621,2,0,P|254:174|228:153,1,41.2500015735627,8|0,0:0|0:0,0:0:0:0:
152,59,182843,38,0,L|163:99,1,41.2500015735627,6|0,3:2|0:0,0:0:0:0:
59,296,183065,2,0,P|88:270|200:246,1,123.750004720688,10|0,0:0|0:0,0:0:0:0:
186,256,183510,1,0,3:0:0:0:
52,64,183732,2,0,P|90:66|187:128,1,123.750004720688,10|8,0:0|0:0,0:0:0:0:
186,116,184121,1,8,0:0:0:0:
186,116,184176,2,0,P|219:106|234:93,1,41.2500015735627,8|0,0:0|3:0,0:0:0:0:
293,61,184399,1,0,3:0:0:0:
223,20,184510,1,0,3:0:0:0:
394,22,184621,2,0,P|381:37|375:60,1,41.2500015735627,10|10,0:0|0:0,0:0:0:0:
319,228,184843,1,10,0:0:0:0:
293,61,184954,1,8,0:0:0:0:
407,154,185065,6,0,L|298:142,1,82.5000031471254,6|8,3:2|0:0,0:0:0:0:
263,290,185399,1,0,3:0:0:0:
250,178,185510,1,10,0:0:0:0:
319,229,185621,1,8,0:0:0:0:
192,241,185732,2,0,B|167:240|167:240|156:223,1,41.2500015735627,14|0,3:2|0:0,0:0:0:0:
349,320,185954,2,8,B|359:335|359:335|360:357,1,41.2500015735627,6|8,3:2|0:0,0:0:0:0:
257,85,186176,2,0,L|268:15,1,41.2500015735627,6|0,3:2|0:0,0:0:0:0:
436,165,186399,6,0,B|387:131|387:131|306:134|225:194,1,206.250007867813,6|0,3:2|0:0,0:0:0:0:
143,102,187065,1,0,3:0:0:0:
263,44,187176,1,0,3:0:0:0:
162,185,187287,2,0,P|166:121|128:-1,1,165.000006294251,14|0,0:0|0:0,0:0:0:0:
141,23,187954,2,0,L|80:36,1,41.2500015735627,0|0,3:0|0:0,0:0:0:0:
18,185,188176,6,0,L|79:172,1,41.2500015735627,6|0,3:2|0:0,0:0:0:0:
240,134,188399,2,0,B|217:206|217:206|239:249,1,123.750004720688,8|0,0:0|0:0,0:0:0:0:
248,268,188843,1,0,3:0:0:0:
334,117,189065,2,0,L|309:195,1,82.5000031471254,10|0,0:0|0:0,0:0:0:0:
171,83,189398,2,0,L|195:4,1,82.5000031471254,8|0,0:0|0:0,0:0:0:0:
404,182,189732,2,8,B|404:205|404:205|388:232,1,41.2500015735627,10|8,0:0|0:0,0:0:0:0:
137,295,189954,38,0,P|158:297|178:303,1,41.2500015735627,6|0,3:2|0:0,0:0:0:0:
310,196,190176,2,0,P|193:183|176:164,1,123.750004720688,10|0,0:0|0:0,0:0:0:0:
174,168,190621,1,2,3:2:0:0:
360,53,190843,2,0,P|303:113|232:123,1,123.750004720688,10|8,0:0|0:0,0:0:0:0:
248,111,191232,1,8,0:0:0:0:
248,111,191287,2,0,P|235:90|231:56,1,41.2500015735627,8|0,0:0|3:0,0:0:0:0:
207,0,191510,1,0,0:0:0:0:
287,9,191621,1,0,0:0:0:0:
151,63,191732,6,0,P|102:57|58:43,1,82.5000031471254,14|0,0:0|0:0,0:0:0:0:
364,195,192065,2,0,P|401:184|460:180,1,82.5000031471254,8|0,0:0|0:0,0:0:0:0:
131,341,192399,2,0,P|119:309|114:244,1,82.5000031471254,8|0,0:0|0:0,0:0:0:0:
208,290,192732,1,8,0:0:0:0:
55,196,192843,1,0,3:0:0:0:
55,196,193065,2,0,P|57:170|73:129,1,41.2500015735627,6|0,3:2|0:0,0:0:0:0:
291,279,193287,2,0,P|289:305|273:346,1,41.2500015735627,6|0,3:2|0:0,0:0:0:0:
188,170,193510,6,0,P|173:110|172:3,1,165.000006294251,6|0,3:2|0:0,0:0:0:0:
171,7,194176,1,0,3:0:0:0:
422,159,194399,2,0,P|343:130|311:131,1,82.5000031471254,10|0,0:0|0:0,0:0:0:0:
275,43,194732,2,0,P|315:33|351:14,1,82.5000031471254,8|0,0:0|0:0,0:0:0:0:
471,32,195065,2,0,P|452:57|444:97,1,41.2500015735627,0|0,3:0|0:0,0:0:0:0:
384,253,195287,6,0,P|374:234|361:219,1,41.2500015735627,6|0,3:2|0:0,0:0:0:0:
206,112,195510,2,0,L|59:132,1,123.750004720688,8|0,0:0|0:0,0:0:0:0:
64,133,195954,1,2,3:2:0:0:
261,269,196176,2,0,L|408:249,1,123.750004720688,10|8,0:0|0:0,0:0:0:0:
409,253,196565,1,8,0:0:0:0:
409,253,196621,2,0,L|400:312,1,41.2500015735627,8|8,0:0|0:0,0:0:0:0:
380,104,196843,1,8,0:0:0:0:
448,146,196954,1,8,0:0:0:0:
295,142,197065,38,0,P|301:122|298:102,1,41.2500015735627,6|8,3:2|3:0,0:0:0:0:
453,70,197287,1,0,0:0:0:0:
448,146,197399,6,0,P|441:172|441:200,1,55,8|0,0:0|3:0,0:0:0:0:
334,359,197621,1,0,3:0:0:0:
267,262,197732,6,0,P|303:258|345:233,1,68.75,8|0,0:0|3:0,0:0:0:0:
442,200,197954,1,0,3:0:0:0:
415,374,198065,6,0,P|375:362|334:359,1,82.5000031471254,8|0,0:0|3:0,0:0:0:0:
27,289,198287,1,0,3:0:0:0:
171,347,198399,38,0,P|161:299|141:256,1,96.2500009179115,8|0,0:0|3:0,0:0:0:0:
0,150,198621,2,0,P|58:163|189:110,1,192.500001835823,14|0,0:0|0:0,0:0:0:0:
308,16,198954,1,8,0:0:0:0:
308,16,199010,1,8,0:0:0:0:
308,16,199065,2,8,P|260:18|194:59,1,96.2500009179115,10|8,0:0|0:0,0:0:0:0:
310,268,199287,5,0,3:2:0:0:
423,157,199399,1,0,3:2:0:0:
270,116,199510,1,0,3:2:0:0:
310,268,199621,1,2,3:2:0:0:
347,140,199732,5,0,3:2:0:0:
289,192,199843,1,0,3:2:0:0:
364,210,199954,1,0,3:2:0:0:
347,140,200065,1,0,3:2:0:0:
448,292,200176,6,0,B|394:239|305:247|305:247|260:299|182:278,1,288.750002753735,14|0,0:0|0:0,0:0:0:0:
72,226,200621,37,6,3:2:0:0:
256,192,200732,12,8,203732,0:0:0:0:
387,182,203954,5,2,0:0:0:0:
470,152,204065,1,2,0:0:0:0:
450,241,204176,2,0,P|381:196|295:195,1,165.000006294251,6|0,3:2|0:0,0:0:0:0:
427,338,204510,1,0,3:0:0:0:
470,152,204621,1,8,0:0:0:0:
300,193,204732,1,2,0:0:0:0:
369,261,204843,6,0,P|385:212|352:60,1,165.000006294251,2|0,3:2|0:0,0:0:0:0:
142,203,205176,1,0,0:0:0:0:
200,279,205287,2,0,P|277:295|316:279,1,82.5000031471254,0|0,3:0|3:0,3:0:0:0:
291,81,205510,2,0,P|254:94|178:97,1,82.5000031471254,8|0,0:0|0:0,0:0:0:0:
126,119,205732,1,2,0:0:0:0:
233,184,205843,1,2,0:0:0:0:
62,190,205954,6,0,B|29:89|29:89|52:35,1,165.000006294251,6|0,3:2|0:0,0:0:0:0:
233,184,206287,1,0,3:0:0:0:
117,267,206399,2,0,P|61:285|20:312,1,82.5000031471254,8|0,0:0|0:0,0:0:0:0:
211,99,206621,2,0,P|271:88|388:25,1,165.000006294251,2|0,3:2|0:0,0:0:0:0:
346,240,206954,1,0,0:0:0:0:
452,132,207065,2,0,P|446:189|400:231,1,82.5000031471254,0|0,3:0|0:0,0:0:0:0:
258,363,207287,2,0,B|245:318|245:318|275:260,1,82.5000031471254,10|0,0:0|0:0,0:0:0:0:
366,149,207510,1,2,0:0:0:0:
347,320,207621,1,2,0:0:0:0:
211,214,207732,38,0,L|233:36,1,165.000006294251,6|0,3:2|0:0,0:0:0:0:
33,169,208065,1,0,0:0:0:0:
120,53,208176,2,0,B|133:98|133:98|103:156,1,82.5000031471254,10|0,0:0|0:0,0:0:0:0:
32,315,208399,1,2,3:2:0:0:
32,315,208621,2,0,P|89:292|138:296,1,82.5000031471254,2|0,0:0|0:0,0:0:0:0:
345,354,208843,2,0,P|304:348|267:330,1,82.5000031471254,2|0,3:2|0:0,0:0:0:0:
362,152,209065,2,0,P|385:185|389:226,1,82.5000031471254,10|0,0:0|0:0,0:0:0:0:
202,105,209287,1,2,0:0:0:0:
337,65,209399,1,2,0:0:0:0:
295,221,209510,6,0,P|199:213|121:142,1,165.000006294251,6|0,3:2|0:0,0:0:0:0:
202,105,209843,1,0,3:0:0:0:
81,231,209954,2,0,P|54:174|69:125,1,82.5000031471254,10|0,0:0|0:0,0:0:0:0:
90,17,210176,2,0,P|117:74|102:123,1,82.5000031471254,2|0,3:2|0:0,0:0:0:0:
108,357,210399,2,0,P|143:305|193:293,1,82.5000031471254,2|0,0:0|0:0,0:0:0:0:
377,158,210621,2,0,P|314:152|279:115,1,82.5000031471254,2|0,3:2|0:0,0:0:0:0:
10,195,210843,2,0,P|72:200|107:237,1,82.5000031471254,10|0,0:2|3:0,3:0:0:0:
294,341,211065,2,0,P|267:284|282:234,1,82.5000031471254,2|0,3:2|0:0,0:0:0:0:
213,0,211287,6,0,P|223:100|171:192,1,165.000006294251,6|0,3:2|0:0,0:0:0:0:
130,94,211621,1,0,3:0:0:0:
313,65,211732,2,0,B|318:106|318:106|294:153,1,82.5000031471254,8|0,0:0|0:0,0:0:0:0:
209,325,211954,1,2,3:2:0:0:
184,247,212065,1,2,0:0:0:0:
268,266,212176,2,0,P|348:281|462:328,1,165.000006294251,2|0,0:0|3:0,0:0:0:0:
426,309,212621,2,0,P|441:228|469:150,1,165.000006294251,10|0,0:0|0:0,0:0:0:0:
395,113,212954,1,0,0:0:0:0:
362,208,213065,6,0,P|331:159|322:46,1,165.000006294251,2|0,3:2|0:0,0:0:0:0:
461,67,213399,1,0,3:0:0:0:
300,145,213510,2,0,B|234:137|234:137|210:153|210:153|140:143,1,165.000006294251,14|0,0:0|0:0,0:0:0:0:
54,98,213843,1,8,0:0:0:0:
54,98,213899,1,8,0:0:0:0:
54,98,213954,2,0,B|36:135|36:135|50:186,1,82.5000031471254,8|8,0:0|0:0,0:0:0:0:
280,325,214176,2,8,L|264:227,1,82.5000031471254
46,174,214399,1,6,3:2:0:0:
191,286,214510,1,10,0:0:0:0:
140,143,214621,2,8,L|126:224,1,82.5000031471254,10|8,0:0|0:0,0:0:0:0:
363,362,214843,38,0,B|388:247|388:247|342:179,1,165.000006294251,6|0,3:2|0:0,0:0:0:0:
361,207,215176,1,0,3:0:0:0:
246,138,215287,1,10,0:0:0:0:
269,229,215399,1,2,0:0:0:0:
339,117,215510,2,0,P|347:81|365:25,1,82.5000031471254,2|0,3:2|0:0,0:0:0:0:
191,286,215732,2,0,P|183:322|165:378,1,82.5000031471254,2|0,0:0|0:0,0:0:0:0:
84,169,215954,2,0,P|130:165|261:132,1,165.000006294251,2|8,3:2|0:0,0:0:0:0:
87,63,216287,1,2,0:0:0:0:
169,113,216399,2,0,B|188:77|188:77|172:25,1,82.5000031471254,2|0,0:0|0:0,0:0:0:0:
25,251,216621,6,0,B|6:287|6:287|22:339,1,82.5000031471254,2|0,3:2|0:0,0:0:0:0:
287,366,216843,2,0,L|274:284,1,82.5000031471254,0|0,0:0|3:0,0:0:0:0:
106,212,217065,1,10,0:0:0:0:
274,284,217176,1,2,0:0:0:0:
187,276,217287,2,0,L|199:194,1,82.5000031471254,2|0,3:2|0:0,0:0:0:0:
369,53,217510,2,0,P|384:99|366:164,1,82.5000031471254,2|0,0:0|0:0,0:0:0:0:
113,370,217732,2,0,P|95:328|128:178,1,165.000006294251,2|8,3:2|0:0,0:0:0:0:
187,276,218065,1,2,0:0:0:0:
18,186,218176,2,0,B|36:147|36:147|107:109,1,82.5000031471254
312,173,218399,6,0,B|210:186|210:186|148:132,1,165.000006294251,6|0,3:2|0:0,0:0:0:0:
70,128,218732,1,2,3:2:0:0:
233,21,218843,2,0,P|248:62|241:131,1,82.5000031471254,8|0,0:0|0:0,0:0:0:0:
117,330,219065,2,0,P|218:275|290:291,1,165.000006294251,2|0,3:2|0:0,0:0:0:0:
263,280,219510,2,0,B|301:299|301:299|326:330,1,82.5000031471254,2|0,3:2|0:0,0:0:0:0:
422,375,219732,2,0,L|408:264,1,82.5000031471254,8|0,0:0|0:0,0:0:0:0:
271,169,219954,1,2,0:0:0:0:
400,117,220065,1,10,0:0:0:0:
364,205,220176,6,0,L|389:17,1,165.000006294251,6|2,3:2|0:0,0:0:0:0:
181,200,220510,1,0,3:0:0:0:
275,77,220621,2,0,P|230:88|177:138,1,82.5000031471254,10|0,0:0|0:0,0:0:0:0:
254,323,220843,2,0,P|287:225|251:142,2,165.000006294251,2|0|0,3:2|0:0|0:0,0:0:0:0:
254,323,221510,2,0,P|187:291|147:290,1,82.5000031471254,8|0,0:0|0:0,0:0:0:0:
65,153,221732,1,2,0:0:0:0:
112,222,221843,1,10,0:0:0:0:
5,219,221954,38,0,P|98:184|158:134,1,165.000006294251,6|2,3:2|0:0,0:0:0:0:
103,71,222287,1,0,3:0:0:0:
227,196,222399,2,0,B|250:159|250:159|228:92,1,82.5000031471254,10|0,0:0|0:0,0:0:0:0:
30,16,222621,2,0,P|115:56|246:48,1,165.000006294251,2|0,3:2|0:0,0:0:0:0:
148,143,222954,1,0,0:0:0:0:
291,57,223065,2,0,P|313:83|322:138,1,82.5000031471254,0|0,3:0|0:0,0:0:0:0:
171,315,223287,2,0,P|149:289|140:234,1,82.5000031471254,8|0,0:0|0:0,0:0:0:0:
355,227,223510,1,2,0:0:0:0:
310,298,223621,1,8,0:0:0:0:
245,168,223732,6,0,L|436:137,1,165.000006294251,6|2,3:2|0:0,0:0:0:0:
370,357,224065,1,0,3:0:0:0:
355,227,224176,2,0,L|436:242,1,82.5000031471254,10|0,0:0|0:0,0:0:0:0:
501,338,224399,2,0,B|461:290|461:290|496:145,1,165.000006294251,2|0,3:2|0:0,0:0:0:0:
485,190,224843,2,0,P|500:119|480:83,1,82.5000031471254,2|0,3:2|0:0,0:0:0:0:
308,314,225065,2,0,P|306:232|268:159,1,165.000006294251,10|0,0:0|0:0,0:0:0:0:
189,123,225399,1,0,0:0:0:0:
126,223,225510,6,0,B|179:229|179:229|228:190,1,82.5000031471254,6|0,3:2|0:0,0:0:0:0:
273,2,225732,2,0,B|249:54|249:54|266:99,1,82.5000031471254,2|0,0:0|3:0,0:0:0:0:
421,73,225954,2,0,L|310:57,1,82.5000031471254,10|0,0:0|0:0,0:0:0:0:
25,146,226176,2,0,L|206:120,1,165.000006294251,2|0,3:2|0:0,0:0:0:0:
160,32,226510,1,8,0:0:0:0:
126,223,226621,1,2,3:2:0:0:
126,223,226843,2,0,P|175:224|222:243,1,82.5000031471254,10|0,0:0|0:0,0:0:0:0:
452,164,227065,2,0,P|410:164|371:152,1,82.5000031471254,2|0,0:0|0:0,0:0:0:0:
270,119,227287,6,0,B|281:188|281:188|298:192|298:192|311:269,1,165.000006294251,6|0,3:2|0:0,0:0:0:0:
371,152,227621,1,0,3:0:0:0:
226,306,227732,2,0,B|198:271|198:271|206:228,1,82.5000031471254,8|0,0:0|0:0,0:0:0:0:
447,72,227954,1,0,3:0:0:0:
430,248,228065,2,0,L|415:329,1,82.5000031471254,8|0,0:0|0:0,0:0:0:0:
226,306,228287,1,8,0:0:0:0:
270,119,228399,2,0,L|284:37,1,82.5000031471254,0|0,3:0|0:0,0:0:0:0:
332,297,228621,38,0,L|362:116,1,165,14|0,0:0|0:0,0:0:0:0:
460,175,229065,6,0,B|452:225|452:225|421:257,1,82.5000031471254,10|0,0:0|0:0,0:0:0:0:
423,266,229362,2,0,B|473:274|473:274|505:305,1,82.5000031471254,10|0,0:0|0:0,0:0:0:0:
463,383,229658,2,0,B|471:333|471:333|502:301,1,82.5000031471254,10|0,0:0|0:0,0:0:0:0:
332,297,229954,6,0,B|324:247|324:247|293:215,1,82.5000031471254,10|0,0:0|0:0,0:0:0:0:
178,336,230251,2,0,B|228:328|228:328|260:297,1,82.5000031471254,10|0,0:0|0:0,0:0:0:0:
180,149,230547,2,0,B|188:199|188:199|219:231,1,82.5000031471254,10|0,0:0|0:0,0:0:0:0:
250,305,230843,5,14,0:0:0:0:
259,145,230991,37,0,3:0:0:0:
102,216,231139,5,14,0:0:0:0:
301,224,231287,5,0,0:0:0:0:
87,215,231436,5,14,0:0:0:0:
340,383,232621,38,0,P|358:273|418:186,1,176,6|0,3:2|0:0,0:0:0:0:
422,356,232954,1,8,0:0:0:0:
263,268,233065,1,0,3:0:0:0:
263,268,233287,2,0,P|247:228|256:154,1,88,8|0,0:0|0:0,0:0:0:0:
272,88,233510,1,2,0:0:0:0:
87,129,233621,2,0,L|199:106,1,88,8|0,0:0|0:0,0:0:0:0:
272,88,233843,1,8,0:0:0:0:
191,340,233954,1,2,3:2:0:0:
191,340,234176,2,0,P|145:275|144:247,1,88,10|0,0:0|0:0,0:0:0:0:
246,183,234399,6,0,P|117:118|79:36,1,176,6|0,3:2|0:0,0:0:0:0:
344,16,234732,1,8,0:0:0:0:
366,167,234843,1,2,3:2:0:0:
366,167,235065,2,0,P|403:148|428:100,1,88,10|0,0:0|0:0,0:0:0:0:
262,21,235287,1,0,3:0:0:0:
308,94,235399,1,8,0:0:0:0:
344,16,235510,1,10,0:0:0:0:
226,100,235621,1,8,0:0:0:0:
370,171,235732,1,2,3:2:0:0:
370,171,235954,2,0,B|393:208|393:208|384:265,1,88,10|0,0:0|0:0,0:0:0:0:
295,384,236176,6,0,P|264:298|267:188,1,176,6|0,3:2|0:0,0:0:0:0:
262,214,236510,1,8,0:0:0:0:
147,350,236621,2,0,P|148:293|175:248,1,88,0|0,3:2|0:0,0:0:0:0:
383,86,236843,2,0,P|382:143|355:188,1,88,10|0,0:0|0:0,0:0:0:0:
269,220,237065,1,2,3:2:0:0:
295,83,237176,2,0,P|379:60|462:83,1,176,8|8,0:0|0:0,0:0:0:0:
372,362,237510,1,2,3:2:0:0:
372,362,237732,2,0,L|349:272,1,88,10|0,0:0|0:0,0:0:0:0:
226,148,237954,5,6,3:2:0:0:
90,250,238065,1,8,0:0:0:0:
136,87,238176,1,10,0:0:0:0:
195,248,238287,1,8,0:0:0:0:
15,65,238399,1,2,3:2:0:0:
15,65,238621,2,0,B|40:103|40:103|48:144,1,88,10|0,0:0|0:0,0:0:0:0:
314,234,238843,37,6,3:2:0:0:
409,306,238954,1,8,0:0:0:0:
377,192,239065,1,10,0:0:0:0:
336,305,239176,1,8,0:0:0:0:
466,160,239288,1,2,3:2:0:0:
466,160,239510,2,0,B|444:190|444:190|434:240,1,88,10|0,0:0|0:0,0:0:0:0:
212,344,239732,6,0,L|249:126,1,176,6|0,3:2|0:0,0:0:0:0:
229,69,240065,1,8,0:0:0:0:
73,149,240176,2,0,P|142:138|182:108,1,88,2|0,3:2|0:0,0:0:0:0:
336,305,240399,2,0,P|295:278|141:277,1,176,10|0,0:0|3:0,0:0:0:0:
400,130,240732,1,8,0:0:0:0:
317,191,240843,2,0,B|292:151|292:151|304:90,1,88,2|0,0:0|0:0,0:0:0:0:
471,246,241065,2,0,B|481:285|481:285|456:325,1,88,2|0,3:2|0:0,0:0:0:0:
242,219,241287,6,0,L|270:45,1,176,10|0,0:0|3:0,0:0:0:0:
177,108,241621,1,0,0:0:0:0:
277,52,241732,1,10,0:0:0:0:
166,4,241843,1,8,0:0:0:0:
277,52,241954,2,0,P|334:40|378:18,1,88,2|0,3:2|0:0,0:0:0:0:
123,210,242176,2,0,P|79:217|38:233,1,88,10|0,0:0|0:0,0:0:0:0:
353,341,242399,1,2,3:2:0:0:
367,228,242510,1,8,0:0:0:0:
302,276,242621,1,10,0:0:0:0:
414,292,242732,1,8,0:0:0:0:
226,225,242843,2,0,B|211:266|211:266|222:333,1,88,2|0,3:2|0:0,0:0:0:0:
288,139,243065,2,0,L|274:28,1,88,10|0,0:0|0:0,0:0:0:0:
495,263,243287,6,0,P|441:289|392:290,1,88,6|0,3:2|0:0,0:0:0:0:
53,119,243510,2,0,P|91:98|135:93,1,88,2|8,0:0|0:0,0:0:0:0:
451,3,243732,2,0,P|407:8|368:27,1,88,2|0,0:2|0:0,0:0:0:0:
97,384,243954,2,0,P|201:361|285:307,1,176,14|0,0:0|3:0,0:0:0:0:
318,142,244287,1,0,0:0:0:0:
204,247,244399,2,0,P|208:187|259:156,1,88,2|0,0:0|0:0,0:0:0:0:
411,286,244621,2,0,B|415:334|415:334|390:369,1,88,2|0,3:2|0:0,0:0:0:0:
100,303,244843,38,0,L|136:110,1,176,14|0,0:0|3:0,0:0:0:0:
336,40,245176,1,8,0:0:0:0:
318,142,245287,1,8,0:0:0:0:
254,81,245398,1,8,0:0:0:0:
401,103,245510,2,0,P|469:80|502:59,1,88,2|0,3:2|0:0,0:0:0:0:
254,81,245732,2,0,P|214:61|172:50,1,88,10|0,0:0|0:0,0:0:0:0:
32,218,245954,1,10,0:0:0:0:
125,345,246065,1,8,0:0:0:0:
125,188,246176,1,10,0:0:0:0:
32,315,246287,1,8,0:0:0:0:
181,266,246399,1,10,0:0:0:0:
181,266,246510,2,0,L|288:279,1,88,0|0,3:0|3:0,3:0:0:0:
354,289,246732,1,8,0:0:0:0:
238,193,246843,6,0,P|346:160|401:97,1,176,6|0,3:2|0:0,0:0:0:0:
301,44,247176,1,8,0:0:0:0:
484,183,247287,1,0,3:0:0:0:
484,183,247510,2,0,B|505:148|505:148|489:82,1,88,10|0,0:0|0:0,0:0:0:0:
393,6,247732,1,2,3:2:0:0:
388,116,247843,2,0,P|318:129|281:131,1,88,8|2,0:0|0:0,0:0:0:0:
222,89,248065,1,8,0:0:0:0:
299,259,248176,1,2,3:2:0:0:
299,259,248399,2,0,P|229:246|192:244,1,88,10|0,0:0|0:0,0:0:0:0:
181,342,248621,6,0,P|178:254|152:170,1,176,6|0,3:2|0:0,0:0:0:0:
70,255,248954,1,8,0:0:0:0:
183,88,249065,2,0,B|151:78|151:78|90:102,1,88,0|0,3:0|0:0,0:0:0:0:
299,259,249287,2,0,L|312:138,1,88,10|0,0:0|0:0,0:0:0:0:
317,17,249510,1,0,3:0:0:0:
269,91,249621,1,8,0:0:0:0:
355,96,249732,1,8,0:0:0:0:
317,17,249843,1,8,0:0:0:0:
312,175,249954,1,0,3:0:0:0:
312,175,250176,2,0,P|372:186|401:202,1,88,8|0,0:0|0:0,0:0:0:0:
428,26,250399,6,0,P|316:85|217:85,1,176,6|0,3:2|0:0,0:0:0:0:
172,93,250732,1,8,0:0:0:0:
303,258,250843,2,0,B|320:216|320:216|308:160,1,88,0|0,3:0|0:0,0:0:0:0:
61,108,251065,38,0,P|146:125|220:172,1,176,10|0,0:0|3:0,0:0:0:0:
184,3,251399,1,0,0:0:0:0:
311,174,251510,2,0,P|354:149|382:114,1,88,2|0,0:0|0:0,0:0:0:0:
292,7,251732,2,0,P|272:49|269:100,1,88,2|0,3:2|0:0,0:0:0:0:
447,287,251954,2,0,P|420:248|377:220,1,88,10|0,0:0|0:0,0:0:0:0:
196,267,252176,6,0,L|10:235,1,176,2|0,3:2|0:0,0:0:0:0:
166,369,252510,1,8,0:0:0:0:
74,361,252621,2,0,B|63:313|63:313|86:281,1,88,2|0,3:2|0:0,0:0:0:0:
139,65,252843,2,0,P|150:107|152:151,1,88,10|0,0:0|0:0,0:0:0:0:
264,349,253065,2,0,P|247:271|253:163,1,176,2|2,3:2|0:0,0:0:0:0:
229,86,253399,1,8,0:0:0:0:
424,196,253510,2,0,P|367:193|317:171,1,88,2|0,3:2|0:0,0:0:0:0:
86,281,253732,2,0,P|143:284|193:306,1,88,10|0,0:0|0:0,0:0:0:0:
457,288,253954,6,0,B|417:254|417:254|446:133,1,176,6|2,3:2|0:0,0:0:0:0:
512,222,254287,1,8,0:0:0:0:
363,372,254399,1,0,3:0:0:0:
363,372,254621,2,0,P|343:325|346:280,1,88,10|0,0:0|0:0,0:0:0:0:
323,109,254843,1,2,3:2:0:0:
262,216,254954,2,0,P|301:197|345:196,1,88,8|2,0:0|0:0,0:0:0:0:
457,288,255176,1,8,0:0:0:0:
250,322,255288,1,0,3:0:0:0:
255,327,255510,2,0,L|124:309,1,88,8|0,0:0|0:0,0:0:0:0:
43,214,255732,6,0,P|111:190|223:107,1,176,6|0,3:2|0:0,0:0:0:0:
153,63,256065,1,8,0:0:0:0:
264,185,256176,2,0,P|279:146|254:73,1,88,0|0,3:0|0:0,0:0:0:0:
86,10,256399,2,0,P|71:49|96:122,1,88,10|0,0:0|0:0,0:0:0:0:
171,320,256621,1,2,3:2:0:0:
185,230,256732,1,8,0:0:0:0:
107,261,256843,1,10,0:0:0:0:
171,320,256954,1,8,0:0:0:0:
110,182,257065,1,2,3:2:0:0:
110,182,257287,2,0,L|212:170,1,88,10|0,0:0|0:0,0:0:0:0:
363,88,257510,38,0,P|241:69|184:-8,1,176,6|0,3:2|0:0,0:0:0:0:
404,201,257843,1,8,0:0:0:0:
289,197,257954,2,0,P|272:136|289:102,1,88,2|0,3:2|0:0,0:0:0:0:
454,42,258176,2,0,L|437:144,1,88,10|0,0:0|0:0,0:0:0:0:
186,375,258399,1,2,3:2:0:0:
325,284,258510,2,0,L|238:298,1,88,8|0,0:0|0:0,0:0:0:0:
238,298,258732,1,8,0:0:0:0:
289,197,258843,6,0,P|205:208|123:163,1,165,14|0,0:0|0:0,0:0:0:0:
174,76,259287,37,14,0:0:0:0:
424,324,259584,5,10,0:0:0:0:
88,324,259880,69,2,3:2:0:0:
338,76,260176,5,2,3:2:0:0:
256,366,260473,69,2,3:2:0:0:
256,34,260769,5,14,0:0:0:0:
338,76,262399,69,0,3:2:0:0:
338,76,262843,37,6,3:2:0:0:
