osu file format v14

[General]
AudioFilename: audio.mp3
AudioLeadIn: 0
PreviewTime: 194083
Countdown: 0
SampleSet: Soft
StackLeniency: 0.7
Mode: 0
LetterboxInBreaks: 0
WidescreenStoryboard: 1

[Editor]
Bookmarks: 173686,185394,194174,196369,270314
DistanceSpacing: 0.6
BeatDivisor: 4
GridSize: 32
TimelineZoom: 1.6

[Metadata]
Title:Kono Machi ni Hare wa Konai
TitleUnicode:この街に晴れはこない
Artist:Minami
ArtistUnicode:美波
Creator:Mimiliaa
Version:Shady's Insane
Source:
Tags:Mimilie Suzuhara Lulu Hitsukuya Hojo Karen Japanese J-Rock Rock Pop J-pop -[Shady]- みなみ Shady DROP
BeatmapID:3442054
BeatmapSetID:1683871

[Difficulty]
HPDrainRate:5
CircleSize:4
OverallDifficulty:7
ApproachRate:8
SliderMultiplier:1.12
SliderTickRate:1

[Events]
//Background and Video events
Video,-80,"7oHviJg.mp4"
0,0,"minamimi.jpg",0,0
//Break Periods
2,173868,184626
//Storyboard Layer 0 (Background)
//Storyboard Layer 1 (Fail)
//Storyboard Layer 2 (Pass)
//Storyboard Layer 3 (Foreground)
//Storyboard Layer 4 (Overlay)
//Storyboard Sound Samples

[TimingPoints]
986,365.853658536585,4,2,1,30,1,0
986,-166.666666666667,4,2,1,30,0,0
12693,-142.857142857143,4,2,1,30,0,0
22937,-83.3333333333333,4,2,1,50,0,0
23303,-125,4,2,1,50,0,0
23668,-100,4,2,1,50,0,0
24034,-125,4,2,1,70,0,0
24400,-90.9090909090909,4,2,1,70,0,0
47815,-90.9090909090909,4,2,1,40,0,0
48546,-111.111111111111,4,2,1,50,0,0
53668,-111.111111111111,4,2,1,70,0,0
54400,-71.4285714285714,4,2,1,70,0,0
55132,-111.111111111111,4,2,1,70,0,0
59522,-142.857142857143,4,2,1,70,0,0
60254,-111.111111111111,4,2,1,70,0,0
66839,-90.9090909090908,4,2,1,70,0,0
68303,-90.9090909090908,4,2,1,40,0,0
69400,-90.9090909090908,4,2,1,70,0,0
69583,-111.111111111111,4,2,1,70,0,0
69949,-90.9090909090908,4,2,1,70,0,0
70315,-111.111111111111,4,2,1,70,0,0
71229,-66.6666666666667,4,2,1,80,0,1
80742,-55.5555555555556,4,2,1,80,0,1
81107,-66.6666666666667,4,2,1,80,0,1
94644,-100,4,2,1,60,0,0
100498,-111.111111111111,4,2,1,40,0,0
101229,-83.3333333333333,4,2,1,50,0,0
101595,-100,4,2,1,50,0,0
113668,-90.9090909090909,4,2,1,50,0,0
115132,-76.9230769230769,4,2,1,70,0,0
117693,-76.9230769230769,4,2,1,60,0,0
118059,-83.3333333333333,4,2,1,60,0,0
132876,-83.3333333333333,4,2,1,70,0,0
134888,-83.3333333333333,4,2,1,80,0,0
135620,-76.9230769230769,4,2,1,80,0,0
141473,-66.6666666666667,4,2,1,70,0,1
143303,-55.5555555555556,4,2,1,70,0,1
143668,-66.6666666666667,4,2,1,70,0,1
144400,-83.3333333333333,4,2,1,70,0,0
145498,-62.5,4,2,1,70,0,0
145864,-83.3333333333333,4,2,1,70,0,0
147327,-66.6666666666667,4,2,1,70,0,1
152998,-66.6666666666667,4,2,1,70,0,0
153181,-62.5,4,2,1,80,0,1
167083,-71.4285714285714,4,2,1,80,0,1
167815,-76.9230769230769,4,2,1,80,0,0
168181,-71.4285714285714,4,2,1,80,0,0
168546,-66.6666666666667,4,2,1,80,0,0
168912,-62.5,4,2,1,80,0,0
169278,-111.111111111111,4,2,1,60,0,0
170742,-142.857142857143,4,2,1,40,0,0
173668,365.853658536585,4,2,1,40,1,0
184644,-142.857142857143,4,2,1,70,0,0
193425,-125,4,2,1,70,0,0
196168,-125,4,2,1,60,0,0
196351,-100,4,2,1,60,0,0
196534,-83.3333333333333,4,2,1,60,0,0
196717,-71.4285714285714,4,2,1,60,0,0
196900,-62.5,4,2,1,60,0,0
197082,-66.6666666666667,4,2,1,80,0,1
216107,-83.3333333333333,4,2,1,80,0,0
217570,365.853658536585,4,2,1,70,1,0
217570,-76.9230769230769,4,2,1,70,0,0
229277,-83.3333333333333,4,2,1,70,0,0
235862,-58.8235294117647,4,2,1,70,0,0
236227,-83.3333333333333,4,2,1,70,0,0
236595,-100,4,2,1,70,0,0
237327,-125,4,2,1,70,0,0
238059,441.176470588235,4,2,1,50,1,0
238059,-125,4,2,1,50,0,0
246882,365.853658536585,4,2,1,50,1,0
246882,-166.666666666667,4,2,1,50,0,0
248711,-111.111111111111,4,2,1,60,0,0
249442,-142.857142857143,4,2,1,60,0,0
249808,365.853658536585,4,2,1,60,1,0
249808,-125,4,2,1,60,0,0
267368,-166.666666666667,4,2,1,40,0,0
269930,-166.666666666667,4,2,1,30,0,0

[Colours]
Combo1 : 146,152,228
Combo2 : 139,190,233

[HitObjects]
92,277,985,5,2,0:2:0:0:
92,277,2449,1,2,0:0:0:0:
51,201,2815,1,0,0:0:0:0:
206,49,3181,1,4,0:0:0:0:
154,216,3546,1,0,0:0:0:0:
154,216,3912,5,2,0:0:0:0:
154,216,4644,2,0,P|191:192|244:202,1,100.799996923828
275,205,5376,1,2,0:0:0:0:
252,289,5742,1,0,0:0:0:0:
154,216,6107,1,0,0:0:0:0:
343,272,6473,1,0,0:0:0:0:
343,272,6748,5,0,0:0:0:0:
343,272,6839,2,0,P|391:269|408:192,1,134.399995898438,2|0,0:0|0:0,0:0:0:0:
178,44,8303,1,2,0:0:0:0:
142,225,8668,1,0,0:0:0:0:
106,146,9034,1,0,0:0:0:0:
208,161,9400,1,0,0:0:0:0:
208,161,9766,5,2,0:0:0:0:
20,339,11229,1,2,0:0:0:0:
0,254,11595,1,0,0:0:0:0:
186,254,11961,2,0,L|164:257,3,16.7999994873047
129,268,12327,2,0,L|107:271,3,16.7999994873047
80,277,12693,5,2,0:0:0:0:
199,158,13059,2,0,L|204:172,3,12.9499996047974,2|0|0|0,0:0|0:0|0:0|0:0,0:0:0:0:
53,15,14156,5,2,0:0:0:0:
80,91,14522,1,0,0:0:0:0:
304,174,14888,5,0,3:0:0:0:
267,291,15254,1,0,3:0:0:0:
228,277,15437,1,0,3:0:0:0:
228,277,15620,5,2,0:0:0:0:
390,125,16351,2,0,L|424:134,2,26.1333325358073,0|0|0,3:3|3:3|3:3,0:0:0:0:
376,46,16717,2,0,L|347:50,2,26.1333325358073,0|0|0,3:3|3:3|3:3,0:0:0:0:
456,2,17083,5,2,3:2:0:0:
390,125,17449,1,0,0:0:0:0:
351,53,17815,5,0,0:0:0:0:
390,125,18181,1,0,0:0:0:0:
378,163,18364,1,0,0:0:0:0:
378,163,18546,6,0,P|331:147|296:154,1,78.399997607422,2|0,0:0|0:0,0:0:0:0:
370,285,19278,2,0,P|348:240|320:225,1,78.399997607422
156,321,20010,1,2,0:0:0:0:
172,355,20192,1,0,0:0:0:0:
203,378,20375,1,0,0:0:0:0:
241,384,20558,1,0,0:0:0:0:
277,373,20742,2,0,P|293:325|287:296,1,78.399997607422
21,235,21473,5,2,0:0:0:0:
21,235,22327,2,0,L|14:254,8,13.0666662679037
90,270,22937,6,0,L|111:157,1,100.799996923828,10|0,0:0|0:0,0:0:0:0:
62,107,23303,2,0,P|93:94|118:95,1,44.4,2|0,1:2|0:0,0:0:0:0:
225,267,23668,5,2,0:0:0:0:
190,192,23790,1,8,3:0:0:0:
249,130,23912,1,8,3:0:0:0:
317,160,24034,5,8,1:3:0:0:
348,168,24156,1,8,0:3:0:0:
375,161,24278,1,8,0:3:0:0:
431,100,24400,6,0,P|376:103|385:169,1,123.200003759766,6|0,0:0|1:0,0:0:0:0:
463,366,25132,2,0,L|472:261,1,92.4000028198243,8|0,0:0|0:0,0:0:0:0:
457,250,25498,1,2,0:0:0:0:
390,312,25681,1,0,1:0:0:0:
224,266,25864,2,0,B|249:240|273:251|294:300|271:342,1,123.200003759766,2|0,1:2|1:0,0:0:0:0:
98,240,26595,2,0,P|134:247|159:235,1,61.0500018630982,10|0,0:0|0:0,0:0:0:0:
186,309,26961,2,0,P|216:288|225:262,1,61.0500018630982,2|2,0:0|0:0,0:0:0:0:
201,98,27327,6,0,B|140:123|140:123|202:138,1,123.200003759766,2|0,1:2|1:0,0:0:0:0:
413,110,28059,2,0,L|315:119,1,92.4000028198243,10|0,0:0|0:0,0:0:0:0:
281,118,28425,1,0,1:0:0:0:
337,36,28607,1,10,0:0:0:0:
473,175,28790,6,0,L|461:240,1,61.0500018630982,0|0,0:0|0:0,0:0:0:0:
384,276,29156,2,0,L|396:341,1,61.0500018630982,0|0,1:0|0:0,0:0:0:0:
207,253,29522,2,0,P|256:280|307:234,1,123.200003759766,8|2,0:0|0:0,0:0:0:0:
283,116,30071,1,2,0:0:0:0:
283,116,30162,1,2,0:0:0:0:
283,116,30254,6,0,B|197:129|197:129|219:135|230:160,1,123.200003759766,2|0,1:2|0:0,0:0:0:0:
143,306,30986,2,0,P|127:259|169:192,1,123.200003759766,10|2,0:0|1:2,0:0:0:0:
303,39,31534,1,8,0:0:0:0:
223,150,31717,2,0,P|237:104|221:77,1,61.0500018630982,2|0,0:0|0:0,0:0:0:0:
157,47,32083,2,0,L|91:59,1,61.0500018630982,0|0,1:0|0:0,0:0:0:0:
343,170,32449,2,0,L|215:146,1,123.200003759766,10|0,0:0|0:0,0:0:0:0:
422,120,32998,1,2,0:0:0:0:
422,120,33089,1,2,0:0:0:0:
422,120,33181,5,2,1:2:0:0:
343,170,33364,1,2,0:0:0:0:
311,251,33546,2,0,L|327:334,1,61.0500018630982,2|0,0:0|1:0,0:0:0:0:
491,169,33912,1,12,0:0:0:0:
406,269,34095,2,0,L|420:200,1,61.0500018630982,0|0,0:0|1:0,0:0:0:0:
273,73,34461,1,0,0:0:0:0:
343,170,34644,5,10,0:0:0:0:
207,120,34827,1,2,1:2:0:0:
343,170,35010,1,10,0:0:0:0:
102,261,35376,5,10,0:0:0:0:
238,211,35559,1,10,0:0:0:0:
156,195,35742,1,10,0:0:0:0:
102,261,35925,1,10,0:0:0:0:
200,343,36107,6,0,P|211:298|177:336,1,123.200003759766,6|0,0:0|1:0,0:0:0:0:
348,379,36839,2,0,B|336:355|336:355|351:280,1,92.4000028198243,8|0,0:0|0:0,0:0:0:0:
379,259,37205,1,2,0:0:0:0:
468,350,37388,1,0,1:0:0:0:
468,350,37479,1,0,1:0:0:0:
468,350,37571,2,0,P|443:320|449:295,1,61.0500018630982,2|0,0:0|0:0,0:0:0:0:
354,171,37937,2,0,L|430:182,1,61.0500018630982,0|0,1:0|0:0,0:0:0:0:
512,5,38303,2,0,L|378:25,1,123.200003759766,10|2,0:0|0:0,0:0:0:0:
216,62,38851,1,2,0:0:0:0:
216,62,38943,1,2,0:0:0:0:
216,62,39034,6,0,P|252:42|293:105,1,123.200003759766,2|0,1:2|1:0,0:0:0:0:
124,295,39766,2,0,L|113:192,1,92.4000028198243,8|0,0:0|0:0,0:0:0:0:
89,183,40132,1,2,1:2:0:0:
200,259,40315,1,10,0:0:0:0:
255,169,40498,2,0,P|219:181|197:171,1,61.0500018630982
166,334,40864,2,0,P|132:317|123:294,1,61.0500018630982,0|0,1:0|0:0,0:0:0:0:
17,93,41229,2,0,L|142:108,1,123.200003759766,8|2,0:0|0:0,0:0:0:0:
299,82,41778,1,2,0:0:0:0:
299,82,41870,1,2,0:0:0:0:
299,82,41961,6,0,B|279:73|240:95|229:136|262:180,1,123.200003759766,2|0,1:2|1:0,0:0:0:0:
487,76,42693,2,0,B|447:64|412:78|430:100|395:112|359:103,1,123.200003759766,10|2,0:0|0:0,0:0:0:0:
246,103,43242,1,2,1:2:0:0:
246,103,43333,1,0,0:0:0:0:
246,103,43425,2,0,P|239:62|294:84,1,123.200003759766,2|0,1:2|1:0,0:0:0:0:
287,269,44156,2,0,L|186:285,1,92.4000028198243,10|0,0:0|0:0,0:0:0:0:
197,252,44522,2,0,L|300:273,1,92.4000028198243,8|0,0:0|0:0,0:0:0:0:
308,288,44888,5,2,1:2:0:0:
255,356,45071,1,10,0:0:0:0:
171,367,45254,2,0,P|131:355|124:336,1,61.0500018630982,10|2,0:0|1:2,0:0:0:0:
187,130,45620,2,0,L|198:261,1,123.200003759766,12|2,0:0|1:2,0:0:0:0:
71,121,46168,2,0,P|86:151|122:153,1,61.0500018630982,10|0,0:0|1:2,0:0:0:0:
356,20,46534,1,8,0:0:0:0:
275,67,46717,2,0,L|270:131,1,61.0500018630982,0|0,1:0|0:0,0:0:0:0:
116,8,47083,1,8,0:0:0:0:
275,67,47266,1,2,1:2:0:0:
200,32,47449,5,2,1:2:0:0:
200,32,47632,1,2,1:2:0:0:
436,323,48364,1,0,0:0:0:0:
436,323,48455,1,0,0:0:0:0:
436,323,48546,6,0,B|451:214,1,100.799996923828,6|0,0:0|0:0,0:0:0:0:
293,145,49095,1,0,3:0:0:0:
293,145,49187,1,0,3:0:0:0:
293,145,49278,2,0,P|343:178|390:165,1,100.799996923828,2|2,1:2|1:2,0:0:0:0:
441,107,49827,1,2,0:0:0:0:
302,0,50010,1,10,0:0:0:0:
258,62,50193,1,2,0:0:0:0:
288,236,50559,1,0,3:0:0:0:
288,236,50650,1,0,3:0:0:0:
288,236,50742,6,0,P|274:202|293:141,1,100.799996923828,2|2,1:2|0:2,0:0:0:0:
487,311,51473,2,0,P|454:299|433:306,1,49.949998475647,10|0,0:0|0:0,0:0:0:0:
375,263,51839,1,2,0:0:0:0:
375,263,52022,1,0,0:0:0:0:
186,366,52388,5,0,0:0:0:0:
186,366,52571,2,0,L|244:355,1,49.949998475647,2|0,1:2|0:0,0:0:0:0:
107,264,52937,1,10,0:0:0:0:
190,284,53120,1,2,0:0:0:0:
107,264,53303,1,2,0:0:0:0:
165,198,53486,1,0,0:0:0:0:
98,136,53668,6,0,P|82:169|90:190,3,50.3999984619141,2|0|0|0,0:0|0:0|0:0|0:0,0:0:0:0:
165,198,54400,2,0,B|200:135|183:82|142:57|93:55|93:55|120:35|140:33,1,235.199992822266,14|2,0:0|0:0,0:0:0:0:
243,6,55132,2,0,P|215:21|229:39,1,49.949998475647,2|0,1:2|0:0,0:0:0:0:
165,198,55498,2,0,P|193:183|179:165,1,49.949998475647,0|0,1:2|0:0,0:0:0:0:
298,68,55864,5,10,0:0:0:0:
265,132,56138,5,2,0:0:0:0:
292,198,56412,5,2,0:0:0:0:
375,248,56595,6,0,P|385:205|381:181,1,49.949998475647,2|0,1:2|0:0,0:0:0:0:
456,167,56961,2,0,P|429:132|414:127,1,49.949998475647,2|0,0:0|1:0,0:0:0:0:
299,302,57327,2,0,L|312:368,1,49.949998475647,10|2,0:0|0:0,0:0:0:0:
387,335,57693,2,0,L|398:397,1,49.949998475647,2|0,0:0|0:0,0:0:0:0:
375,248,58059,1,2,1:2:0:0:
299,302,58242,1,2,0:0:0:0:
221,255,58425,2,0,P|204:227|207:194,1,49.949998475647,2|0,1:2|0:0,0:0:0:0:
324,53,58790,1,10,0:0:0:0:
281,124,58973,1,2,0:0:0:0:
332,187,59156,1,2,1:2:0:0:
382,117,59339,1,2,1:2:0:0:
324,53,59522,6,0,P|284:44|274:46,1,38.8499988143921,0|0,3:0|3:0,0:0:0:0:
207,20,59888,1,2,0:0:0:0:
207,20,60071,1,2,1:2:0:0:
284,125,60254,2,0,P|222:138|207:173,1,100.799996923828,10|0,0:0|0:0,0:0:0:0:
158,306,60803,1,2,0:0:0:0:
158,306,60894,1,2,0:0:0:0:
158,306,60986,2,0,B|203:316|203:316|211:328|211:328|259:341,1,100.799996923828,0|2,0:0|0:0,0:0:0:0:
207,166,61717,2,0,L|149:174,1,49.949998475647,8|0,0:0|0:0,0:0:0:0:
92,238,62083,1,2,0:0:0:0:
92,238,62266,1,0,0:0:0:0:
24,79,62449,6,0,B|48:45|95:56|109:118|73:165,1,151.199995385742,2|0,1:2|0:0,0:0:0:0:
26,367,63181,5,10,0:0:0:0:
13,290,63364,1,0,0:0:0:0:
4,210,63546,1,0,0:0:0:0:
170,347,63912,5,0,1:0:0:0:
96,315,64095,1,0,0:0:0:0:
96,315,64278,1,0,0:0:0:0:
272,245,64644,6,0,L|162:261,1,100.799996923828,8|0,0:0|1:0,0:0:0:0:
338,301,65193,1,8,0:0:0:0:
201,183,65376,6,0,P|228:226|280:239,1,100.799996923828,0|2,1:2|0:0,0:0:0:0:
344,205,65925,1,0,1:0:0:0:
215,347,66107,2,0,P|247:324|271:327,1,49.949998475647,10|0,0:0|0:0,0:0:0:0:
344,205,66473,2,0,P|382:211|397:230,1,49.949998475647,8|2,0:0|0:0,0:0:0:0:
512,315,66839,1,2,1:2:0:0:
434,330,67022,2,0,B|445:269|445:269|456:260|456:260|468:204,1,123.200003759766,8|0,0:0|0:0,0:0:0:0:
353,18,67571,5,8,0:0:0:0:
369,117,67754,1,8,0:0:0:0:
389,217,67937,1,8,0:0:0:0:
248,44,69400,6,0,L|282:33,1,30.5250009315491,10|0,0:0|0:0,0:0:0:0:
369,117,69583,6,0,L|286:108,1,75.5999976928712,2|0,1:2|0:0,0:0:0:0:
248,44,69949,5,10,0:0:0:0:
323,194,70132,5,10,0:0:0:0:
254,291,70315,5,10,1:2:0:0:
178,303,70498,5,10,1:2:0:0:
161,269,70681,5,10,1:2:0:0:
169,251,70864,5,10,1:2:0:0:
179,259,71046,5,10,1:2:0:0:
179,259,71229,6,0,B|149:195|180:132|213:166|253:104|205:13,1,252.000009613037,6|0,0:0|0:0,0:0:0:0:
69,100,71961,2,0,P|109:76|144:91,1,83.2500031757356,8|0,0:0|0:0,0:0:0:0:
255,215,72327,1,2,0:2:0:0:
206,337,72510,1,2,1:2:0:0:
193,338,72601,1,2,1:2:0:0:
181,333,72693,2,0,P|165:283|183:255,1,83.2500031757356,0|0,1:2|0:0,0:0:0:0:
325,145,73059,2,0,L|415:167,1,83.2500031757356,0|0,1:0|0:0,0:0:0:0:
464,0,73425,2,0,P|400:8|423:92,1,168.000006408692,8|2,0:0|1:2,0:0:0:0:
468,222,73973,1,0,0:0:0:0:
480,219,74065,1,0,0:0:0:0:
492,215,74156,6,0,L|503:121,1,83.2500031757356,2|0,1:2|0:0,0:0:0:0:
324,144,74522,2,0,L|334:227,1,83.2500031757356,2|0,1:2|0:0,0:0:0:0:
462,384,74888,2,0,L|473:290,1,83.2500031757356,10|0,0:0|0:0,0:0:0:0:
324,144,75254,1,2,0:0:0:0:
254,205,75437,1,0,1:2:0:0:
304,376,75620,2,0,P|317:328|247:308,1,126.000004806519,2|0,1:2|0:0,0:0:0:0:
180,315,75986,2,0,P|225:320|261:296,1,83.2500031757356,2|0,1:2|0:0,0:0:0:0:
110,184,76351,2,0,L|120:286,1,83.2500031757356,10|0,0:0|0:0,0:0:0:0:
262,54,76717,2,0,L|252:156,1,83.2500031757356,0|0,3:0|3:0,0:0:0:0:
35,0,77083,6,0,L|49:143,1,126.000004806519,2|0,1:2|0:0,0:0:0:0:
110,184,77449,2,0,P|160:158|194:170,1,83.2500031757356,2|0,0:2|0:0,0:0:0:0:
338,60,77815,2,0,L|328:162,1,83.2500031757356,10|0,0:0|0:0,0:0:0:0:
197,8,78181,1,2,0:0:0:0:
262,54,78364,1,0,1:0:0:0:
183,163,78546,2,0,P|166:119|178:84,1,83.2500031757356,2|0,1:2|0:0,0:0:0:0:
333,213,78912,2,0,P|273:195|252:249,1,126.000004806519,2|0,1:2|0:0,0:0:0:0:
284,312,79278,2,0,P|332:317|346:291,1,83.2500031757356,10|0,0:0|0:0,0:0:0:0:
185,161,79644,1,2,1:2:0:0:
185,161,79827,1,0,1:0:0:0:
29,351,80010,5,2,1:2:0:0:
115,281,80193,1,10,0:0:0:0:
186,321,80376,1,10,0:0:0:0:
114,360,80559,1,0,1:0:0:0:
13,135,80742,6,0,B|31:270|31:270|36:235|71:200,1,201.599993847656,14|2,0:0|1:2,0:0:0:0:
343,351,81473,5,10,0:0:0:0:
257,281,81656,1,10,0:0:0:0:
186,321,81839,1,10,0:0:0:0:
186,321,82205,5,10,0:0:0:0:
257,281,82388,1,10,0:0:0:0:
343,351,82571,5,10,0:0:0:0:
417,315,82754,1,10,0:0:0:0:
417,315,82937,6,0,B|444:247|411:183|411:183|366:207,1,168.000006408692,6|0,1:2|0:0,0:0:0:0:
103,340,83668,2,0,P|169:360|180:305,1,126.000004806519,10|0,0:0|0:0,0:0:0:0:
189,234,84034,1,2,0:2:0:0:
86,187,84217,1,2,1:2:0:0:
74,191,84309,1,2,1:2:0:0:
64,199,84400,2,0,P|48:248|64:284,1,83.2500031757356,0|0,1:2|0:0,0:0:0:0:
249,143,84766,2,0,P|205:154|165:123,1,83.2500031757356,0|0,1:2|0:0,0:0:0:0:
0,42,85132,2,0,B|45:16|93:33|64:64|116:82|170:59,1,168.000006408692,10|2,0:0|0:0,0:0:0:0:
306,65,85681,1,0,0:0:0:0:
309,52,85772,1,0,0:0:0:0:
300,42,85864,6,0,P|251:46|260:150,1,168.000006408692,2|2,1:2|1:2,0:0:0:0:
458,290,86595,2,0,L|440:151,1,126.000004806519,10|0,0:0|0:0,0:0:0:0:
509,126,86961,2,0,P|476:159|429:162,1,83.2500031757356,2|0,0:0|0:0,0:0:0:0:
261,71,87327,1,2,1:2:0:0:
366,195,87510,1,8,0:0:0:0:
307,258,87693,2,0,P|261:224|216:231,1,83.2500031757356,2|0,1:2|0:0,0:0:0:0:
79,292,88059,1,10,0:0:0:0:
218,142,88242,1,8,0:0:0:0:
159,283,88425,2,0,L|152:187,1,83.2500031757356,2|0,3:2|3:2,0:0:0:0:
332,93,88790,6,0,L|307:278,1,168.000006408692,2|0,1:2|0:0,0:0:0:0:
63,33,89522,2,0,P|103:15|147:26,1,83.2500031757356,10|0,0:0|0:0,0:0:0:0:
148,105,89888,2,0,P|107:122|63:111,1,83.2500031757356,2|0,0:0|0:0,0:0:0:0:
1,87,90162,1,0,0:0:0:0:
1,87,90254,1,2,1:2:0:0:
156,202,90437,1,0,1:2:0:0:
91,271,90620,2,0,P|133:245|172:250,1,83.2500031757356,2|0,1:2|0:0,0:0:0:0:
365,194,90986,2,0,L|352:288,1,83.2500031757356,10|0,0:0|0:0,0:0:0:0:
264,77,91351,2,0,L|281:216,1,126.000004806519,2|0,1:2|0:0,0:0:0:0:
280,303,91717,6,0,P|322:275|363:279,1,83.2500031757356,2|0,1:2|0:0,0:0:0:0:
500,341,92083,1,8,0:0:0:0:
416,367,92266,1,0,1:2:0:0:
264,77,92632,1,8,0:0:0:0:
280,158,92815,1,10,0:0:0:0:
348,103,92998,1,0,0:0:0:0:
199,142,93181,5,10,1:2:0:0:
332,26,93364,1,8,1:2:0:0:
359,188,93546,2,0,P|370:242|342:283,1,83.2500031757356,8|8,1:2|1:2,0:0:0:0:
167,334,93912,5,8,1:2:0:0:
145,253,94095,1,8,1:2:0:0:
229,239,94278,1,8,1:2:0:0:
251,322,94461,1,0,0:0:0:0:
145,253,94644,6,0,P|116:214|144:150,1,112,6|0,0:0|0:0,0:0:0:0:
19,56,95376,2,0,L|130:77,1,112,8|2,0:0|1:2,0:0:0:0:
211,39,95925,1,0,1:2:0:0:
211,39,96107,1,0,1:2:0:0:
372,212,96473,2,0,P|339:190|314:189,1,55.5,2|0,1:2|0:0,0:0:0:0:
211,39,96839,2,0,L|199:103,1,55.5,10|0,0:0|0:0,0:0:0:0:
238,170,97205,2,0,L|250:234,1,55.5,2|0,1:2|3:0,0:0:0:0:
350,94,97571,5,2,1:2:0:0:
350,94,97662,2,0,P|320:106|297:59,1,84,2|2,0:0|1:2,0:0:0:0:
356,10,98120,1,2,0:0:0:0:
512,182,98303,1,10,0:0:0:0:
441,142,98486,1,2,0:0:0:0:
369,180,98668,1,0,1:2:0:0:
324,255,98851,2,0,P|362:269|380:266,1,55.5,2|0,1:2|1:2,0:0:0:0:
200,93,99217,1,8,3:0:0:0:
289,182,99400,2,0,P|251:168|233:171,1,55.5,8|0,3:0|3:0,0:0:0:0:
198,190,99675,1,0,3:0:0:0:
198,190,99766,6,0,L|210:265,1,55.5,8|2,3:2|0:0,0:0:0:0:
120,143,100132,1,0,3:0:0:0:
198,190,100315,1,0,3:0:0:0:
59,269,100498,6,0,L|62:285,1,16.7999994873047,2|2,0:0|0:0,0:0:0:0:
59,269,100864,1,2,0:0:0:0:
266,371,101229,6,0,B|249:342|249:342|272:231,1,134.399995898438,6|0,0:0|0:0,0:0:0:0:
429,152,101778,1,8,0:0:0:0:
270,244,101961,1,2,1:2:0:0:
350,199,102144,1,8,0:0:0:0:
428,239,102327,2,0,P|450:279|447:298,1,55.5,0|0,1:2|0:0,0:0:0:0:
267,162,102693,2,0,P|241:110|268:56,1,112,10|2,0:0|1:2,0:0:0:0:
480,48,103242,1,0,1:2:0:0:
429,152,103425,6,0,L|411:75,1,55.5,2|2,0:0|0:0,0:0:0:0:
339,67,103790,2,0,L|357:-10,1,55.5,2|2,0:0|1:2,0:0:0:0:
83,152,104156,6,0,L|101:75,1,55.5,10|2,0:0|0:0,0:0:0:0:
173,67,104522,2,0,L|155:-10,1,55.5,2|2,1:2|1:2,0:0:0:0:
351,204,104888,5,2,1:2:0:0:
256,30,105071,1,10,0:0:0:0:
156,211,105254,2,0,P|194:190|213:194,1,55.5,2|2,0:0|0:0,0:0:0:0:
245,222,105528,1,0,0:0:0:0:
245,222,105620,2,0,L|236:283,1,55.5,10|2,0:0|1:2,0:0:0:0:
120,347,105986,2,0,L|111:286,1,55.5,2|10,1:2|0:0,0:0:0:0:
351,204,106351,6,0,L|339:296,1,84,6|0,0:0|0:0,0:0:0:0:
318,314,106717,2,0,P|351:303|373:312,1,55.5,2|2,1:2|1:2,0:0:0:0:
511,134,107083,2,0,P|471:146|449:142,1,55.5,10|2,0:0|0:0,0:0:0:0:
429,122,107357,1,0,0:0:0:0:
429,122,107449,2,0,L|433:90,3,28,2|2|2|2,1:2|0:0|1:2|0:0,0:0:0:0:
415,53,107815,1,2,1:2:0:0:
242,144,107998,1,2,0:0:0:0:
242,144,108089,1,0,0:0:0:0:
242,144,108181,2,0,P|258:134|274:134,3,28,2|2|2|2,1:2|0:0|1:2|0:0,0:0:0:0:
215,164,108546,2,0,L|232:285,1,112,10|0,0:0|1:2,0:0:0:0:
312,207,109095,1,0,0:0:0:0:
158,101,109278,6,0,P|130:96|96:107,1,55.5,0|0,1:2|3:0,0:0:0:0:
60,129,109553,1,0,3:0:0:0:
60,129,109644,2,0,P|76:168|73:192,1,55.5,2|0,1:2|0:0,0:0:0:0:
182,370,110010,1,10,0:0:0:0:
100,384,110193,1,2,1:2:0:0:
38,336,110376,1,2,0:0:0:0:
61,259,110559,1,2,0:0:0:0:
141,216,110742,6,0,P|153:237|152:252,3,28,2|2|2|2,1:2|0:0|0:0|0:0,0:0:0:0:
185,224,111107,2,0,P|180:247|169:259,3,28,2|2|2|2,1:2|0:0|0:2|0:0,0:0:0:0:
211,260,111473,1,8,0:0:0:0:
42,34,111839,1,8,0:0:0:0:
211,260,112205,5,2,1:2:0:0:
292,231,112388,1,0,0:0:0:0:
373,211,112571,2,0,P|383:170|374:159,1,55.5,0|2,1:2|0:0,0:0:0:0:
197,112,112937,2,0,P|212:144|239:97,1,112,10|2,0:0|1:2,0:0:0:0:
214,30,113486,1,2,1:2:0:0:
127,182,113668,5,0,1:2:0:0:
197,112,113851,1,2,1:2:0:0:
292,232,114034,1,10,0:0:0:0:
292,232,114217,1,0,0:0:0:0:
111,99,114400,5,2,1:2:0:0:
360,286,114583,2,0,P|380:236|350:165,1,123.200003759766,10|2,0:0|1:2,0:0:0:0:
141,342,115132,5,14,0:0:0:0:
292,232,115315,1,2,1:2:0:0:
127,180,115498,1,2,1:2:0:0:
376,56,115681,6,0,B|336:57|314:89|364:185,1,145.599993334961,10|2,0:0|1:2,0:0:0:0:
428,207,116138,1,0,0:0:0:0:
428,207,116229,2,0,P|465:185|474:207,1,72.1499966972353,14|2,0:0|1:2,0:0:0:0:
463,285,116504,1,0,0:0:0:0:
463,285,116595,1,2,1:2:0:0:
394,354,116778,6,0,L|386:313,5,36.3999983337403,10|0|0|0|0|0,1:2|1:2|1:2|1:2|1:2|1:2,0:0:0:0:
309,314,117327,2,0,L|318:270,3,36.3999983337403,10|0|0|0,1:2|1:2|1:2|1:2,0:0:0:0:
234,258,117693,5,2,0:0:0:0:
220,224,117784,1,2,0:0:0:0:
229,188,117876,1,2,0:0:0:0:
255,163,117967,1,2,0:0:0:0:
282,156,118059,6,0,B|209:181|163:167|163:167|148:120|180:90,1,201.599993847656,6|0,0:0|1:2,0:0:0:0:
359,31,118790,2,0,P|344:63|349:99,1,66.5999979675294,8|0,0:0|0:0,0:0:0:0:
392,125,119065,1,2,0:0:0:0:
392,125,119156,1,0,1:0:0:0:
469,91,119339,1,0,1:0:0:0:
377,301,119705,2,0,P|343:280|310:280,1,66.5999979675294,8|0,0:0|0:0,0:0:0:0:
166,239,120071,1,2,1:2:0:0:
225,356,120254,2,0,L|250:210,1,134.399995898438,8|0,0:0|1:2,0:0:0:0:
92,120,120803,1,0,0:0:0:0:
92,120,120894,1,0,0:0:0:0:
92,120,120986,6,0,L|103:199,1,66.5999979675294,2|0,1:2|0:0,0:0:0:0:
167,63,121351,1,0,0:0:0:0:
167,63,121534,1,0,0:0:0:0:
6,272,121717,6,0,L|17:193,1,66.5999979675294,8|0,0:0|3:0,0:0:0:0:
18,182,121992,1,0,3:0:0:0:
18,182,122083,1,0,1:2:0:0:
94,263,122266,1,0,0:0:0:0:
29,359,122449,2,0,P|66:338|89:342,1,66.5999979675294,2|0,0:0|1:2,0:0:0:0:
211,201,122815,5,10,0:0:0:0:
159,370,122998,1,8,0:0:0:0:
240,346,123181,5,8,0:0:0:0:
131,118,123364,1,8,0:0:0:0:
183,287,123547,1,8,0:0:0:0:
211,201,123729,5,0,1:2:0:0:
211,201,123821,1,0,1:0:0:0:
211,201,123912,1,2,0:0:0:0:
322,323,124095,2,0,L|356:315,3,33.5999989746094,10|0|0|0,0:0|0:0|0:0|0:0,0:0:0:0:
385,328,124461,1,2,0:0:0:0:
464,236,124644,2,0,L|427:228,3,33.5999989746094,2|2|2|2,0:0|3:2|3:2|3:2,0:0:0:0:
401,241,125010,5,10,3:2:0:0:
401,241,125101,2,0,L|408:204,1,33.2999989837647,10|2,3:2|3:2,0:0:0:0:
469,150,125284,5,8,0:2:0:0:
469,150,125376,2,0,L|452:61,1,66.5999979675294,10|0,0:2|0:0,0:0:0:0:
388,30,125742,1,0,3:0:0:0:
371,32,125833,1,8,3:2:0:0:
355,35,125924,1,0,3:0:0:0:
338,38,126016,1,0,3:0:0:0:
323,42,126107,2,0,P|298:83|304:111,1,66.5999979675294,0|0,3:0|3:0,0:0:0:0:
270,133,126382,1,0,3:0:0:0:
270,133,126473,2,0,L|339:149,1,66.5999979675294,2|0,3:2|3:0,0:0:0:0:
223,310,126839,5,6,0:0:0:0:
272,218,127022,2,0,L|136:248,1,134.399995898438,2|2,1:2|1:2,0:0:0:0:
299,375,127571,1,8,0:0:0:0:
141,247,127754,1,8,0:0:0:0:
223,310,127937,1,8,0:0:0:0:
299,375,128120,1,8,0:0:0:0:
376,343,128303,6,0,P|380:298|349:243,2,100.799996923828,2|2|2,1:2|0:0|0:0,0:0:0:0:
421,198,129034,1,8,0:0:0:0:
356,250,129217,1,8,0:0:0:0:
342,168,129400,1,8,0:0:0:0:
407,117,129583,1,2,0:0:0:0:
502,274,129766,6,0,P|495:230|407:208,1,134.399995898438,6|0,0:0|1:2,0:0:0:0:
273,228,130315,1,2,1:2:0:0:
348,316,130498,2,0,L|358:228,1,66.5999979675294,10|0,0:0|0:0,0:0:0:0:
197,175,130864,1,12,0:0:0:0:
232,370,131046,1,6,1:2:0:0:
232,370,131412,2,0,P|230:329|157:347,1,134.399995898438,8|2,0:0|1:2,0:0:0:0:
78,305,131961,2,0,L|91:377,1,66.5999979675294,10|0,0:0|1:2,0:0:0:0:
197,175,132327,2,0,P|170:217|115:230,1,100.799996923828,2|0,0:0|0:0,0:0:0:0:
95,210,132693,5,6,1:2:0:0:
33,115,132876,1,2,0:0:0:0:
33,115,132967,1,2,0:0:0:0:
33,115,133059,2,0,P|50:102|67:104,3,33.5999989746094,2|2|2|2,0:0|0:0|0:0|0:0,0:0:0:0:
91,85,133425,1,2,0:0:0:0:
254,204,133607,6,0,P|235:190|220:193,3,33.5999989746094,10|2|2|2,0:0|0:0|1:2|0:0,0:0:0:0:
197,175,133973,1,2,1:2:0:0:
78,305,134156,6,0,L|87:359,1,33.2999989837647,10|2,0:0|0:0,0:0:0:0:
90,309,134339,2,0,L|99:363,1,33.2999989837647,2|2,0:0|0:0,0:0:0:0:
102,313,134522,2,0,L|111:367,1,33.2999989837647,2|2,0:0|0:0,0:0:0:0:
112,320,134705,2,0,L|121:374,1,33.2999989837647,2|2,0:0|0:0,0:0:0:0:
185,366,134888,5,10,0:0:0:0:
227,374,135009,1,8,0:0:0:0:
266,354,135131,1,8,0:0:0:0:
283,314,135253,1,8,0:3:0:0:
309,279,135375,1,8,0:3:0:0:
351,267,135497,1,8,0:3:0:0:
391,283,135620,6,0,L|396:328,4,36.3999983337403,2|2|2|2|2,0:0|0:0|0:0|0:0|0:0,0:0:0:0:
245,206,136168,2,0,L|238:250,4,36.3999983337403,2|2|2|2|2,0:0|0:0|0:0|0:0|0:0,0:0:0:0:
295,139,136626,1,2,0:0:0:0:
295,139,136717,2,0,P|336:123|375:141,1,72.1499966972353,10|10,0:0|0:0,0:0:0:0:
376,113,136992,2,0,P|417:129|456:111,1,72.1499966972353,2|2,1:2|1:2,0:0:0:0:
476,142,137266,2,0,P|489:99|467:60,1,72.1499966972353,10|2,0:0|1:2,0:0:0:0:
451,41,137540,1,2,1:2:0:0:
248,208,137815,2,0,L|240:250,3,36.3999983337403,10|2|2|2,0:0|0:0|0:0|0:0,0:0:0:0:
167,293,138181,2,0,P|209:272|244:279,1,72.1499966972353,10|10,0:0|0:0,0:0:0:0:
402,265,138546,5,10,0:0:0:0:
402,265,138729,1,10,0:0:0:0:
374,349,138912,1,10,0:0:0:0:
374,349,139095,1,10,0:0:0:0:
290,381,139278,5,10,0:0:0:0:
221,347,139461,1,10,0:0:0:0:
402,265,139644,1,10,0:0:0:0:
374,349,139827,1,10,0:0:0:0:
374,349,139918,1,10,0:0:0:0:
374,349,140010,5,10,0:0:0:0:
435,186,140193,1,10,0:0:0:0:
486,42,140376,2,0,P|451:23|386:29,1,72.1499966972353,0|0,1:1|0:0,0:0:0:0:
375,28,140650,1,0,3:0:0:0:
375,28,140742,2,0,L|383:110,1,72.1499966972353,2|0,1:2|1:0,0:0:0:0:
402,264,141107,1,2,1:2:0:0:
316,161,141290,1,2,0:0:0:0:
306,155,141382,1,2,0:2:0:0:
294,151,141473,6,0,B|217:128|166:197|166:197|131:252|62:242,1,252.000009613037,6|0,0:0|1:2,0:0:0:0:
0,3,142205,1,8,0:0:0:0:
146,88,142388,1,0,1:2:0:0:
7,299,142571,2,0,B|-13:226|21:157|54:188|92:129|53:60,1,252.000009613037,4|0,0:0|1:2,0:0:0:0:
57,68,143303,2,0,P|109:97|159:79,1,99.8999969512941,0|0,1:2|1:2,0:0:0:0:
306,39,143668,1,8,0:0:0:0:
227,122,143851,2,0,B|261:93|318:109|322:179|292:230,1,168.000006408692
255,284,144309,1,0,0:0:0:0:
255,284,144400,5,10,0:0:0:0:
157,166,144583,1,8,0:0:0:0:
196,345,144766,5,8,0:0:0:0:
157,166,144949,1,8,0:0:0:0:
111,371,145132,5,8,0:0:0:0:
157,166,145315,1,8,0:0:0:0:
281,368,145498,6,0,B|338:390|391:369|401:313,1,134.4,12|0,0:0|0:0,0:0:0:0:
436,318,145864,6,0,L|424:252,1,44.3999986450196,8|8,3:0|3:0,0:0:0:0:
359,226,146107,1,8,3:0:0:0:
359,226,146229,2,0,L|371:169,2,44.7999986328126,8|8|8,3:0|3:0|3:0,0:0:0:0:
444,196,146595,5,8,3:0:0:0:
441,152,146716,1,8,3:0:0:0:
415,117,146838,1,8,3:0:0:0:
374,101,146960,1,8,3:0:0:0:
331,111,147082,1,8,3:0:0:0:
300,142,147204,1,8,3:0:0:0:
250,203,147327,6,0,B|202:234|156:216|156:216|189:257|190:333|136:364,1,252.000009613037,4|0,0:0|1:0,0:0:0:0:
15,165,148059,1,8,0:0:0:0:
15,165,148425,2,0,B|40:201|78:206|148:132|102:55,1,210.000008010865,4|0,0:0|0:0,0:0:0:0:
31,33,148973,1,8,0:0:0:0:
171,83,149156,2,0,P|115:76|101:51,1,84.0000032043458,0|0,0:0|1:2,0:0:0:0:
322,19,149522,2,0,B|303:41|303:41|321:114,1,83.2500031757356,8|0,0:0|0:0,0:0:0:0:
410,233,149888,1,2,3:2:0:0:
421,215,149979,1,0,3:2:0:0:
426,195,150070,1,0,3:2:0:0:
423,175,150162,1,0,3:2:0:0:
412,157,150254,6,0,L|302:182,1,83.2500031757356,10|0,0:0|1:2,0:0:0:0:
249,163,150528,1,0,0:0:0:0:
249,163,150620,1,14,0:0:0:0:
330,263,150803,1,8,0:0:0:0:
174,352,150986,5,12,0:0:0:0:
249,310,151168,1,8,0:0:0:0:
183,104,151351,1,8,0:0:0:0:
183,104,151717,6,0,P|150:88|136:89,1,41.6250015878678,8|8,0:0|0:0,0:0:0:0:
56,76,151900,1,8,0:0:0:0:
56,76,151992,1,8,0:0:0:0:
56,76,152083,2,0,L|64:122,1,41.6250015878678,8|8,0:0|0:0,0:0:0:0:
129,171,152266,2,0,L|121:217,1,41.6250015878678,8|8,0:0|0:0,0:0:0:0:
43,263,152449,5,10,0:0:0:0:
125,12,152632,1,8,0:0:0:0:
129,171,152815,1,4,1:3:0:0:
63,117,152998,1,8,1:3:0:0:
244,45,153181,6,0,P|309:34|360:134,1,179.2,12|0,0:0|1:2,0:0:0:0:
341,244,153729,1,2,1:2:0:0:
287,110,153912,2,0,P|271:164|294:210,1,88.8,10|0,0:0|1:2,0:0:0:0:
394,378,154278,2,0,P|410:324|387:278,1,88.8,2|0,0:2|1:2,0:0:0:0:
190,114,154644,2,0,B|144:132|144:132|182:152,1,88.8,14|0,0:0|1:2,0:0:0:0:
341,244,155010,1,2,1:2:0:0:
341,244,155193,1,0,1:2:0:0:
434,30,155376,2,0,B|480:48|480:48|442:68,1,88.8,10|0,0:0|1:2,0:0:0:0:
178,150,155742,2,0,B|144:132|144:132|190:114,1,88.8,2|2,0:2|0:0,0:0:0:0:
278,65,156016,1,2,0:0:0:0:
278,65,156107,6,0,L|244:261,1,179.2,14|0,0:0|1:2,0:0:0:0:
241,369,156656,1,0,0:0:0:0:
93,256,156839,2,0,P|150:227|189:241,1,88.8,8|0,0:0|1:2,0:0:0:0:
347,327,157205,2,0,B|327:343|321:365|321:365|321:341|307:318,1,88.8,0|0,1:2|1:2,0:0:0:0:
178,150,157571,5,8,0:0:0:0:
254,245,157754,1,0,1:2:0:0:
254,245,157845,1,0,1:0:0:0:
254,245,157937,2,0,L|278:96,1,134.4,2|0,1:2|0:0,0:0:0:0:
252,75,158303,1,8,0:0:0:0:
347,199,158486,1,8,0:0:0:0:
424,169,158668,1,10,0:0:0:0:
424,169,159034,5,12,0:0:0:0:
254,245,159217,2,0,P|294:285|292:328,1,88.8,2|0,1:2|1:2,0:0:0:0:
347,199,159583,1,2,1:2:0:0:
166,59,159766,2,0,B|40:87|40:87|75:96|96:123,1,179.2,10|2,0:0|0:0,0:0:0:0:
168,177,160315,1,2,1:2:0:0:
312,12,160498,1,8,0:0:0:0:
166,59,160681,2,0,B|292:87|292:87|257:96|233:120,1,179.2,2|2,1:2|1:2,0:0:0:0:
115,288,161229,5,10,0:0:0:0:
91,206,161412,1,2,1:2:0:0:
212,284,161595,5,2,1:2:0:0:
188,366,161778,1,2,1:2:0:0:
26,154,161961,6,0,P|88:123|133:140,1,88.8,10|2,0:0|1:2,0:0:0:0:
299,263,162327,1,2,1:2:0:0:
299,263,162510,1,2,1:2:0:0:
249,108,162693,2,0,L|234:206,1,88.8,10|2,0:0|1:2,0:0:0:0:
380,292,163059,2,0,L|365:390,1,88.8,2|2,1:2|1:2,0:0:0:0:
249,108,163425,6,0,P|313:131|368:92,1,134.4,10|2,0:0|0:0,0:0:0:0:
375,72,163790,1,0,1:0:0:0:
375,72,163973,1,2,1:2:0:0:
455,244,164156,2,0,P|411:213|361:212,1,88.8,8|2,0:0|1:2,0:0:0:0:
249,108,164522,1,2,1:2:0:0:
249,108,164705,1,2,1:2:0:0:
295,353,164888,6,0,B|317:294|311:260|311:260|304:238|304:238|290:198|313:156|313:156|285:192|243:206|201:181,1,313.6,14|0,0:0|3:0,0:0:0:0:
148,240,165620,6,0,P|131:163|168:107,1,134.4,10|0,0:0|0:0,0:0:0:0:
102,53,165986,2,0,P|140:87|179:86,1,88.8,2|2,0:0|3:2,0:0:0:0:
270,14,166351,1,10,0:0:0:0:
270,14,166534,1,2,0:0:0:0:
215,177,166717,1,2,0:0:0:0:
215,177,166900,1,2,1:2:0:0:
27,55,167083,2,0,B|103:62|103:62|120:78|120:78|193:89,1,156.799995214844,10|2,0:0|0:0,0:0:0:0:
165,6,167632,1,0,1:2:0:0:
61,138,167815,6,0,L|69:210,1,72.1499966972353,14|0,0:0|0:0,0:0:0:0:
157,285,168181,2,0,L|147:194,1,77.6999976287843,10|2,0:0|0:0,0:0:0:0:
237,241,168546,2,0,L|246:323,1,83.2500031757356,8|0,0:0|0:0,0:0:0:0:
357,365,168912,2,0,L|343:256,1,88.8,8|0,0:0|0:0,0:0:0:0:
324,255,169187,1,8,0:0:0:0:
324,255,169278,5,10,0:0:0:0:
431,289,169461,5,0,1:2:0:0:
487,211,169644,5,2,1:2:0:0:
475,153,169827,5,0,1:2:0:0:
440,125,170010,5,2,1:2:0:0:
412,133,170193,5,0,1:2:0:0:
398,152,170376,5,2,1:2:0:0:
405,165,170559,5,0,1:2:0:0:
415,166,170742,5,6,1:2:0:0:
117,72,172114,5,2,0:0:0:0:
117,72,172205,1,2,0:0:0:0:
204,251,172571,5,0,3:0:0:0:
206,225,172692,1,0,3:0:0:0:
209,199,172814,1,0,3:0:0:0:
215,172,172937,2,0,P|166:165|142:183,1,78.399997607422,2|2,0:0|0:0,0:0:0:0:
23,359,173668,5,6,1:2:0:0:
134,61,185376,6,0,P|82:37|68:114,1,156.799995214844,6|0,1:2|0:0,0:0:0:0:
228,220,186473,1,2,0:0:0:0:
228,220,186839,2,0,L|238:136,1,78.399997607422,2|0,0:0|0:0,0:0:0:0:
132,269,187571,1,2,0:0:0:0:
132,269,187754,1,0,0:0:0:0:
132,269,187937,1,2,0:0:0:0:
320,109,188303,5,2,0:0:0:0:
320,109,188486,2,0,P|375:91|398:96,1,77.6999976287843,0|0,0:0|0:0,0:0:0:0:
474,79,189034,2,0,L|455:161,1,78.399997607422,2|0,0:0|0:0,0:0:0:0:
426,234,189583,1,0,0:0:0:0:
426,234,189766,2,0,B|397:223|351:241|351:241|379:247|392:258,1,117.599996411133,2|0,0:0|0:0,0:0:0:0:
448,320,190498,1,2,0:0:0:0:
448,320,190681,1,0,0:0:0:0:
448,320,190864,1,0,0:0:0:0:
267,190,191229,5,2,0:0:0:0:
256,192,191321,12,2,194156,0:0:0:0:
421,65,196351,6,0,P|410:82|411:90,1,27.75,10|0,1:2|0:0,0:0:0:0:
336,100,196534,6,0,P|342:124|354:135,1,33.2999989837647,2|0,0:0|0:0,0:0:0:0:
280,173,196717,6,0,P|297:194|313:203,1,38.8499988143921,2|0,0:0|0:0,0:0:0:0:
297,277,196900,6,0,P|324:279|342:271,1,44.4,2|0,0:0|0:0,0:0:0:0:
335,98,197083,6,0,B|266:65|186:90|226:157|155:180|96:157,1,252.000009613037,14|0,0:0|0:0,0:0:0:0:
45,29,197815,2,0,P|83:7|86:45,1,83.2500031757356,8|0,0:0|0:0,0:0:0:0:
210,228,198181,1,2,0:2:0:0:
88,309,198364,1,2,1:2:0:0:
77,314,198455,1,2,1:2:0:0:
65,311,198546,2,0,P|66:261|92:230,1,83.2500031757356,2|0,1:2|0:0,0:0:0:0:
37,172,198912,2,0,P|78:153|126:165,1,83.2500031757356,0|0,1:2|0:0,0:0:0:0:
343,288,199278,2,0,B|240:308|240:308|266:295|288:263,1,168.000006408692,8|2,0:0|0:0,0:0:0:0:
370,132,199827,1,0,3:2:0:0:
381,136,199918,1,0,3:2:0:0:
393,143,200010,6,0,L|408:240,1,83.2500031757356,2|0,1:2|0:0,0:0:0:0:
494,48,200376,2,0,L|479:145,1,83.2500031757356,2|0,0:0|0:0,0:0:0:0:
343,288,200742,2,0,L|328:385,1,83.2500031757356,10|0,0:0|0:0,0:0:0:0:
260,150,201107,1,2,1:2:0:0:
316,206,201290,1,2,1:2:0:0:
401,15,201473,6,0,P|380:23|358:23,3,42.0000016021729,2|2|2|2,0:0|0:0|0:0|0:0,0:0:0:0:
335,97,201839,2,0,P|315:88|298:72,3,42.0000016021729,2|2|2|2,1:2|0:0|0:0|0:0,0:0:0:0:
237,36,202205,1,10,0:0:0:0:
237,36,202296,1,2,0:0:0:0:
237,36,202388,2,0,P|219:20|199:19,1,41.6250015878678,2|2,0:0|0:0,0:0:0:0:
138,110,202571,1,2,0:0:0:0:
138,110,202662,1,2,0:0:0:0:
138,110,202754,2,0,P|156:94|176:93,1,41.6250015878678,2|0,1:2|0:0,0:0:0:0:
260,150,202937,6,0,B|237:271|237:271|226:247|200:238,1,168.000006408692,2|2,1:2|0:0,0:0:0:0:
138,110,203485,1,0,0:0:0:0:
15,294,203668,2,0,B|57:255|113:273|85:312|133:325|182:305,1,168.000006408692,10|2,0:0|0:0,0:0:0:0:
328,207,204217,1,2,1:2:0:0:
245,353,204400,2,0,L|236:257,1,83.2500031757356,0|2,1:2|0:0,0:0:0:0:
426,81,204766,2,0,L|417:177,1,83.2500031757356,0|2,1:2|0:0,0:0:0:0:
223,62,205132,2,0,B|265:106|357:70|347:8,1,168.000006408692,10|2,0:0|0:0,0:0:0:0:
154,16,205680,1,0,3:2:0:0:
146,25,205771,1,0,3:2:0:0:
141,36,205863,5,10,3:2:0:0:
185,201,206046,1,10,0:0:0:0:
265,223,206228,1,2,1:2:0:0:
265,223,206594,2,0,P|265:168|244:139,1,83.2500031757356,14|2,0:0|0:0,0:0:0:0:
8,119,206960,1,2,1:2:0:0:
21,201,207143,1,2,1:2:0:0:
40,319,207327,6,0,P|94:318|36:298,1,168.000006408692,10|2,1:2|3:2,0:0:0:0:
184,366,207876,2,0,P|172:333|178:308,1,41.6250015878678,2|0,3:2|0:0,0:0:0:0:
264,220,208058,5,10,0:0:0:0:
328,282,208241,1,10,0:0:0:0:
180,241,208424,5,10,0:0:0:0:
291,135,208607,1,10,0:0:0:0:
152,43,208789,6,0,B|116:41|97:73|97:73|128:116|212:111|262:45,1,252.000009613037,6|2,1:2|0:0,0:0:0:0:
459,11,209522,2,0,P|408:33|421:51,1,83.2500031757356,10|0,0:0|0:0,0:0:0:0:
292,135,209888,1,2,0:2:0:0:
426,225,210071,1,2,1:2:0:0:
430,213,210162,1,2,1:2:0:0:
422,203,210254,6,0,L|337:218,1,83.2500031757356,2|0,1:2|0:0,0:0:0:0:
244,368,210620,2,0,L|329:383,1,83.2500031757356,0|0,1:2|0:0,0:0:0:0:
205,176,210985,2,0,B|228:219|228:219|203:298|203:298|166:328,1,168.000006408692,10|2,0:0|0:0,0:0:0:0:
52,268,211533,1,0,2:2:0:0:
50,255,211626,1,0,2:2:0:0:
57,244,211716,6,0,P|108:229|137:248,1,83.2500031757356,6|0,1:2|0:0,0:0:0:0:
194,98,212082,2,0,P|212:150|200:183,1,83.2500031757356,2|0,1:2|0:0,0:0:0:0:
38,74,212449,2,0,B|81:47|135:63|109:93|162:112|210:94,1,168.000006408692,10|2,0:0|0:0,0:0:0:0:
331,48,212998,1,2,1:2:0:0:
301,197,213181,5,10,0:0:0:0:
183,22,213364,1,8,0:0:0:0:
301,197,213546,2,0,P|315:151|297:122,1,83.2500031757356,2|0,1:2|0:0,0:0:0:0:
146,322,213912,1,10,0:0:0:0:
299,285,214095,1,0,1:2:0:0:
200,183,214278,2,0,L|217:285,1,83.2500031757356,2|2,0:0|0:0,0:0:0:0:
475,370,214644,6,0,L|495:231,1,124.875004763603,6|0,1:2|0:0,0:0:0:0:
462,173,215010,1,0,0:0:0:0:
462,173,215193,1,2,1:2:0:0:
314,0,215376,2,0,L|334:139,1,124.875004763603,10|0,0:0|0:0,0:0:0:0:
301,197,215742,1,2,1:2:0:0:
301,197,215925,1,0,0:0:0:0:
453,42,216107,5,8,3:2:0:0:
453,42,216229,2,0,P|426:58|402:58,1,44.3999986450196,8|8,3:2|3:2,0:0:0:0:
334,119,216473,5,8,3:2:0:0:
334,119,216595,2,0,P|300:115|280:103,1,44.3999986450196,8|8,3:2|3:2,0:0:0:0:
189,37,216839,5,8,3:2:0:0:
208,76,216960,1,8,3:2:0:0:
209,120,217082,1,8,3:2:0:0:
160,187,217205,5,8,3:2:0:0:
140,226,217326,1,8,3:2:0:0:
139,270,217448,1,8,3:2:0:0:
181,339,217570,6,0,P|235:314|208:238,1,145.599993334961,6|2,0:0|0:2,0:0:0:0:
8,9,218302,2,0,L|15:117,1,109.199995001221,10|0,0:0|0:0,0:0:0:0:
27,144,218667,1,2,0:2:0:0:
94,89,218850,1,0,1:2:0:0:
167,187,219033,6,0,P|131:168|98:178,1,72.1499966972353,2|0,1:2|0:0,0:0:0:0:
237,54,219399,2,0,P|221:99|237:142,1,72.1499966972353,0|0,1:2|0:0,0:0:0:0:
330,252,219765,2,0,B|429:233|429:233|395:221|382:205,1,145.599993334961,10|2,0:0|0:0,0:0:0:0:
428,34,220497,6,0,P|459:70|439:162,1,145.599993334961,2|2,1:2|1:2,0:0:0:0:
243,340,221228,2,0,L|230:216,1,109.199995001221,10|0,0:0|0:0,0:0:0:0:
259,196,221594,1,2,1:2:0:0:
330,252,221777,1,2,1:2:0:0:
158,313,221960,1,2,1:2:0:0:
342,167,222143,1,8,0:0:0:0:
277,112,222326,2,0,P|233:113|200:139,1,72.1499966972353,8|0,0:0|0:0,0:0:0:0:
61,259,222692,2,0,B|74:294|74:294|92:258,1,72.1499966972353,10|0,0:0|0:0,0:0:0:0:
218,39,223058,2,0,B|194:12|194:12|190:49,1,72.1499966972353,2|0,1:2|1:2,0:0:0:0:
34,170,223424,6,0,B|105:179|105:179|119:192|119:192|176:201,1,145.599993334961,6|2,1:2|0:2,0:0:0:0:
405,73,224155,2,0,P|357:78|363:96,1,72.1499966972353,10|0,0:0|0:0,0:0:0:0:
235,244,224521,2,0,L|249:332,1,72.1499966972353,2|2,0:2|1:2,0:0:0:0:
357,82,224887,2,0,L|348:162,1,72.1499966972353,2|0,0:0|0:0,0:0:0:0:
369,200,225161,1,2,0:0:0:0:
369,200,225253,2,0,P|334:185|291:190,1,72.1499966972353,2|0,1:2|0:0,0:0:0:0:
327,338,225619,1,10,0:0:0:0:
407,311,225802,1,0,0:0:0:0:
452,239,225985,1,2,0:0:0:0:
165,54,226350,5,2,1:2:0:0:
153,137,226533,1,2,1:2:0:0:
141,219,226716,2,0,L|58:212,1,72.1499966972353,2|2,0:0|1:2,0:0:0:0:
53,181,226991,1,2,1:2:0:0:
53,181,227082,1,14,0:0:0:0:
242,21,227265,2,0,B|286:5|332:27|296:58|348:78|384:59,1,145.599993334961,8|0,0:0|0:0,0:0:0:0:
508,14,227814,5,10,0:0:0:0:
454,83,227997,1,2,1:2:0:0:
494,161,228180,1,2,1:2:0:0:
429,7,228363,1,10,0:0:0:0:
374,67,228545,5,2,1:2:0:0:
429,7,228728,1,10,0:0:0:0:
454,83,228911,1,10,0:0:0:0:
400,150,229094,1,10,0:0:0:0:
234,83,229277,6,0,L|248:9,1,66.5999979675294,6|2,0:0|0:0,0:0:0:0:
313,245,229642,2,0,L|296:132,1,100.799996923828,2|0,0:0|0:0,0:0:0:0:
313,122,230008,1,10,0:0:0:0:
228,196,230191,2,0,P|220:243|241:276,1,66.5999979675294,2|0,0:0|0:0,0:0:0:0:
283,332,230557,1,2,1:2:0:0:
283,332,230740,1,2,1:2:0:0:
313,245,230923,1,2,0:0:0:0:
383,306,231105,2,0,P|391:353|373:381,1,67.1999979492188,2|2,1:2|0:0,0:0:0:0:
145,179,231471,1,10,0:0:0:0:
230,198,231654,2,0,P|191:189|158:268,1,134.399995898438,2|0,0:0|0:0,0:0:0:0:
313,245,232203,6,0,P|329:207|324:171,1,67.1999979492188,2|2,1:2|0:0,0:0:0:0:
216,35,232569,2,0,B|103:57,1,100.799996923828,2|0,0:2|0:0,0:0:0:0:
84,31,232935,1,10,0:0:0:0:
12,143,233118,2,0,P|46:122|82:130,1,66.5999979675294,2|0,0:0|0:2,0:0:0:0:
145,183,233484,1,2,1:2:0:0:
145,183,233666,2,0,L|138:255,1,67.1999979492188,0|2,1:0|0:0,0:0:0:0:
216,35,234032,2,0,L|227:110,1,67.1999979492188,2|2,1:2|0:0,0:0:0:0:
82,314,234398,1,10,0:0:0:0:
82,314,234581,1,2,0:0:0:0:
235,194,234764,2,0,P|271:180|304:230,1,100.799996923828,2|0,0:0|0:0,0:0:0:0:
348,261,235130,6,0,L|249:288,1,100.799996923828,2|0,1:2|0:0,0:0:0:0:
225,300,235496,2,0,B|215:341|215:341|234:382,1,66.5999979675294,10|2,1:2|1:2,0:0:0:0:
497,229,235862,6,0,B|511:82,1,142.800002723694,14|0,0:0|0:0,0:0:0:0:
496,61,236227,2,0,P|464:92|438:90,1,67.1999979492188,2|2,1:2|1:2,0:0:0:0:
194,46,236593,5,10,1:2:0:0:
257,0,236776,1,10,1:2:0:0:
338,19,236959,1,10,1:2:0:0:
366,98,237142,1,10,1:2:0:0:
299,141,237325,5,10,1:2:0:0:
269,119,237508,1,10,1:2:0:0:
227,125,237691,1,10,1:2:0:0:
252,207,238059,5,6,0:0:0:0:
43,18,238941,2,0,L|56:114,1,89.6,8|2,0:0|0:0,0:0:0:0:
253,207,239823,2,0,L|241:302,2,89.6,2|0|8,1:2|1:2|0:0,0:0:0:0:
204,143,241147,1,2,0:0:0:0:
3,292,241588,6,0,P|50:268|89:281,1,89.6,2|0,1:2|0:0,0:0:0:0:
91,192,242470,2,0,P|141:208|158:245,1,89.6,10|0,0:0|0:0,0:0:0:0:
153,320,243353,1,2,1:2:0:0:
153,320,243794,1,0,1:2:0:0:
297,128,244235,1,8,0:0:0:0:
297,128,244676,1,2,0:0:0:0:
360,196,245117,5,2,1:2:0:0:
238,61,245338,1,10,0:0:0:0:
321,45,245559,1,0,1:2:0:0:
276,212,245779,1,10,0:0:0:0:
297,128,246000,5,8,0:0:0:0:
360,193,246220,1,8,1:3:0:0:
330,278,246441,1,4,1:3:0:0:
330,278,246882,5,2,0:0:0:0:
138,92,248345,1,2,0:0:0:0:
138,92,248711,5,8,0:0:0:0:
253,158,248894,1,10,0:0:0:0:
86,218,249077,5,10,0:0:0:0:
158,178,249260,1,8,0:0:0:0:
86,218,249442,1,10,0:0:0:0:
291,299,249808,6,0,P|284:270|290:238,1,44.4,6|0,1:2|0:0,0:0:0:0:
336,186,250174,1,2,0:0:0:0:
336,186,250357,1,2,0:0:0:0:
452,248,250540,2,0,L|360:262,1,89.6,10|2,0:0|0:2,0:0:0:0:
417,336,251089,1,2,1:2:0:0:
452,248,251272,2,0,P|465:219|451:161,1,89.6,2|2,1:2|1:2,0:0:0:0:
209,39,252003,2,0,L|222:132,1,89.6,10|2,0:0|0:0,0:0:0:0:
177,198,252552,1,2,0:0:0:0:
177,198,252644,1,2,0:0:0:0:
177,198,252735,6,0,P|132:181|124:183,1,44.4,2|0,1:2|0:0,0:0:0:0:
57,207,253101,1,2,0:0:0:0:
57,207,253284,1,2,0:0:0:0:
116,307,253467,1,10,0:0:0:0:
116,307,253650,2,0,L|123:247,1,44.4,2|2,0:0|1:2,0:0:0:0:
63,52,254016,1,8,0:0:0:0:
137,180,254199,2,0,L|129:81,1,89.6,2|2,1:2|1:2,0:0:0:0:
47,351,254930,2,0,P|67:320|122:310,1,89.6,10|2,0:0|0:0,0:0:0:0:
280,254,255479,1,2,0:0:0:0:
193,352,255662,6,0,L|201:256,1,89.6,2|0,1:2|0:0,0:0:0:0:
229,187,256211,1,0,0:0:0:0:
348,272,256394,2,0,P|306:284|280:250,1,89.6,10|2,0:0|0:0,0:0:0:0:
314,172,256942,1,2,0:0:0:0:
314,172,257034,1,2,0:0:0:0:
314,172,257125,1,2,1:2:0:0:
398,150,257308,1,0,0:0:0:0:
487,245,257491,1,2,1:2:0:0:
339,92,257857,2,0,P|333:63|341:46,2,44.8,10|0|2,0:0|0:0|0:0,0:0:0:0:
487,245,258589,6,0,P|438:226|416:237,1,66.6,2|0,1:2|0:0,0:0:0:0:
402,247,258955,2,0,L|410:301,1,44.4,2|2,0:0|1:2,0:0:0:0:
224,176,259321,1,10,0:0:0:0:
310,215,259503,2,0,L|318:269,1,44.4,2|2,0:0|0:0,0:0:0:0:
224,176,259869,1,2,0:0:0:0:
373,111,260052,1,2,1:2:0:0:
301,49,260235,2,0,L|294:145,1,89.6,2|2,0:0|0:0,0:0:0:0:
141,2,260784,1,10,0:0:0:0:
219,32,260967,1,0,0:0:0:0:
141,2,261150,1,0,1:2:0:0:
87,198,261333,1,8,0:0:0:0:
147,89,261516,6,0,P|124:108|106:109,2,44.8,2|0|2,1:2|0:0|0:0,0:0:0:0:
46,63,262064,1,2,1:2:0:0:
136,234,262247,2,0,P|101:199|78:199,1,67.2,10|0,0:0|0:0,0:0:0:0:
54,225,262613,2,0,L|60:250,3,22.4,2|2|2|2,0:0|0:0|0:0|0:0,0:0:0:0:
44,274,262979,6,0,L|55:331,1,44.4,2|2,1:2|0:0,0:0:0:0:
247,190,263345,2,0,L|238:270,1,66.6,2|2,1:2|0:0,0:0:0:0:
232,294,263711,1,10,0:0:0:0:
187,135,263894,2,0,P|197:164|254:187,1,89.6,2|2,0:0|1:2,0:0:0:0:
396,76,264442,5,2,1:2:0:0:
396,76,264625,1,0,0:0:0:0:
396,76,264808,2,0,L|391:22,1,44.4,0|0,1:2|0:0,0:0:0:0:
246,189,265174,1,10,0:0:0:0:
325,135,265357,1,0,0:0:0:0:
329,231,265540,1,2,1:2:0:0:
196,44,265723,1,10,0:0:0:0:
270,7,265906,6,0,P|280:35|275:63,1,44.4,2|0,1:2|0:0,0:0:0:0:
174,251,266272,2,0,P|157:221|160:178,1,66.6,2|0,1:2|0:0,0:0:0:0:
183,158,266638,5,8,0:0:0:0:
329,231,266821,1,8,0:0:0:0:
183,158,267003,5,8,0:0:0:0:
364,58,267186,1,8,0:0:0:0:
424,121,267368,6,0,L|415:191,1,67.1999979492188,2|2,0:0|0:0,0:0:0:0:
498,178,268099,2,0,L|487:247,1,67.1999979492188,2|2,0:0|0:0,0:0:0:0:
256,291,268831,6,0,L|266:359,1,67.1999979492188,2|2,0:0|0:0,0:0:0:0:
330,232,269563,2,0,L|341:288,1,50.3999984619141,2|0,0:0|0:0,0:0:0:0:
371,298,269928,1,2,0:0:0:0:
256,289,270111,1,2,0:0:0:0:
145,278,270294,1,2,0:0:0:0:
