osu file format v14

[General]
AudioFilename: audio.mp3
AudioLeadIn: 0
PreviewTime: 194083
Countdown: 0
SampleSet: Soft
StackLeniency: 0.7
Mode: 0
LetterboxInBreaks: 0
WidescreenStoryboard: 1

[Editor]
Bookmarks: 71247,123930,153199,197101,270314
DistanceSpacing: 0.6
BeatDivisor: 2
GridSize: 4
TimelineZoom: 2.999999

[Metadata]
Title:Kono Machi ni Hare wa Konai
TitleUnicode:この街に晴れはこない
Artist:Minami
ArtistUnicode:美波
Creator:Mimiliaa
Version:Empty Sky
Source:
Tags:Mimilie Suzuhara Lulu Hitsukuya Hojo Karen Japanese J-Rock Rock Pop J-pop -[Shady]- みなみ Shady DROP
BeatmapID:3440621
BeatmapSetID:1683871

[Difficulty]
HPDrainRate:5
CircleSize:4.3
OverallDifficulty:8
ApproachRate:8.7
SliderMultiplier:1.11
SliderTickRate:1

[Events]
//Background and Video events
Video,-80,"7oHviJg.mp4"
0,0,"minamimi.jpg",0,0
//Break Periods
2,194356,195706
//Storyboard Layer 0 (Background)
//Storyboard Layer 1 (Fail)
//Storyboard Layer 2 (Pass)
//Storyboard Layer 3 (Foreground)
//Storyboard Layer 4 (Overlay)
//Storyboard Sound Samples

[TimingPoints]
986,365.853658536585,4,2,1,30,1,0
22937,-58.8235294117647,4,2,1,50,0,0
23211,-58.8235294117647,4,2,1,5,0,0
23303,-76.9230769230769,4,2,1,50,0,0
24034,-66.6666666666667,4,2,1,70,0,0
47815,-111.111111111111,4,2,1,40,0,0
48546,-83.3333333333333,4,2,1,50,0,0
53668,-125,4,2,1,70,0,0
54309,-125,4,2,1,5,0,0
54400,-83.3333333333333,4,2,1,70,0,0
68303,-83.3333333333333,4,2,1,40,0,0
69400,-83.3333333333333,4,2,1,70,0,0
71229,-71.4285714285714,4,2,1,80,0,1
74522,-55.5555555555556,4,2,1,80,0,1
74888,-45.4545454545455,4,2,1,80,0,1
75254,-71.4285714285714,4,2,1,80,0,1
86229,-55.5555555555556,4,2,1,80,0,1
86595,-45.4545454545455,4,2,1,80,0,1
87693,-55.5555555555556,4,2,1,80,0,1
88790,-83.3333333333333,4,2,1,80,0,1
91717,-62.5,4,2,1,80,0,1
94644,-166.666666666667,4,2,1,60,0,0
96473,-125,4,2,1,60,0,0
100498,-500,4,2,1,40,0,0
101229,-100,4,2,1,50,0,0
115132,-100,4,2,1,70,0,0
117693,-100,4,2,1,60,0,0
118059,-100,4,2,1,60,0,0
123912,-100,4,2,1,60,0,0
132876,-100,4,2,1,70,0,0
134888,-66.6666666666667,4,2,1,80,0,1
141473,-76.9230769230769,4,2,1,70,0,0
153181,-58.8235294117647,4,2,1,80,0,1
163425,-50,4,2,1,80,0,1
163973,-58.8235294117647,4,2,1,80,0,1
167815,-58.8235294117647,4,2,1,80,0,1
169278,-58.8235294117647,4,2,1,60,0,1
170742,-142.857142857143,4,2,1,40,0,0
173668,365.853658536585,4,2,1,30,1,0
173668,-142.857142857143,4,2,1,30,0,0
184644,-1000,4,2,1,50,0,0
185376,-111.111111111111,4,2,1,50,0,0
194156,-166.666666666666,4,2,1,70,0,0
194705,-166.666666666666,4,2,1,70,0,0
194888,-90.9090909090908,4,2,1,70,0,0
195437,-90.9090909090908,4,2,1,70,0,0
195620,-62.5,4,2,1,70,0,0
196168,-47.6190476190476,4,2,1,60,0,0
197082,-66.6666666666667,4,2,1,80,0,1
200376,-55.5555555555556,4,2,1,80,0,1
202937,-66.6666666666667,4,2,1,80,0,1
217570,365.853658536585,4,2,1,30,1,0
217570,-66.6666666666667,4,2,1,70,0,0
229277,-76.9230769230769,4,2,1,70,0,0
238059,441.176470588235,4,2,1,70,1,0
238059,-250,4,2,1,50,0,0
246882,365.853658536585,4,2,1,50,1,0
246882,-333.333333333333,4,2,1,50,0,0
248711,-333.333333333333,4,2,1,60,0,0
249808,365.853658536585,4,2,1,30,1,0
249808,-125,4,2,1,60,0,0
251272,-83.3333333333333,4,2,1,60,0,0
267368,-83.3333333333333,4,2,1,40,0,0
269930,-83.3333333333333,4,2,1,30,0,0

[Colours]
Combo1 : 251,197,123
Combo2 : 139,190,233
Combo3 : 146,152,228
Combo4 : 244,172,123

[HitObjects]
85,291,986,5,2,0:0:0:0:
85,291,2449,1,2,0:0:0:0:
160,241,2815,2,0,P|219:229|272:254,2,111,0|4|0,0:0|0:0|0:0,0:0:0:0:
85,291,3912,5,2,0:0:0:0:
88,290,5376,1,2,0:0:0:0:
160,241,5742,2,0,L|172:128,2,111
88,290,6839,37,2,0:0:0:0:
88,290,8303,1,2,0:0:0:0:
160,241,8668,2,0,B|217:252|205:210|273:226,2,111
88,290,9766,5,2,0:0:0:0:
88,290,11229,1,2,0:0:0:0:
160,241,11595,2,0,P|219:229|272:254,2,111
87,288,12693,38,0,B|113:259|107:223|107:223|73:196,1,111,2|0,0:0|0:0,0:0:0:0:
55,186,13150,1,2,0:0:0:0:
55,186,13242,1,2,0:0:0:0:
88,291,14156,1,2,0:0:0:0:
160,241,14522,2,0,L|172:128,1,111,0|0,0:0|3:0,0:0:0:0:
172,251,15254,1,0,3:0:0:0:
159,126,15437,1,0,3:0:0:0:
88,291,15620,5,2,0:0:0:0:
307,289,16351,37,0,3:3:0:0:
336,255,16473,5,0,3:3:0:0:
344,211,16595,37,0,3:3:0:0:
327,169,16717,5,0,3:3:0:0:
291,142,16839,37,0,3:3:0:0:
246,140,16961,5,0,3:3:0:0:
175,164,17083,37,2,3:2:0:0:
266,223,17449,2,0,B|208:209|221:253|160:241,2,111
55,186,18364,1,0,0:0:0:0:
88,291,18546,5,2,0:0:0:0:
159,126,18912,1,0,0:0:0:0:
159,126,19278,1,0,0:0:0:0:
159,126,19644,1,0,0:0:0:0:
88,291,20010,6,0,L|97:353,1,55.5,2|0,0:0|0:0,0:0:0:0:
254,346,20376,2,0,L|261:291,1,55.5,2|0,0:0|0:0,0:0:0:0:
85,272,20742,1,0,0:0:0:0:
245,362,21107,1,0,0:0:0:0:
80,261,21473,5,2,0:0:0:0:
329,67,22327,38,0,L|355:75,8,18.5
308,61,22937,38,0,B|324:19|324:19|386:0|433:31,1,141.525002699375,10|0,0:0|0:0,0:0:0:0:
442,49,23303,2,0,L|423:216,1,144.299993394471,8|2,3:0|0:0,0:0:0:0:
336,289,23790,1,8,3:0:0:0:
272,166,23912,1,8,3:0:0:0:
358,203,24034,38,0,B|431:200|409:254|488:247,1,124.875004763603,4|0,3:0|0:0,0:0:0:0:
501,232,24400,6,0,P|413:228|346:288,2,166.500006351471,6|0|8,0:0|1:0|0:0,0:0:0:0:
193,179,25498,1,2,0:0:0:0:
344,54,25681,1,0,1:0:0:0:
272,166,25864,2,0,B|296:144|291:114|291:114|243:69|180:111,2,166.500006351471,2|0|10,1:2|1:2|0:0,0:0:0:0:
21,295,26961,1,2,0:0:0:0:
18,282,27053,1,2,0:0:0:0:
15,269,27144,1,2,0:0:0:0:
12,256,27236,1,2,0:0:0:0:
8,243,27327,6,0,B|106:220|75:295|175:283,1,166.500006351471,2|0,1:2|1:0,0:0:0:0:
354,187,28059,2,0,P|350:120|257:151,1,166.500006351471,10|0,0:0|1:0,0:0:0:0:
158,205,28607,1,10,0:0:0:0:
354,187,28790,2,0,P|440:158|517:185,2,166.500006351471,0|0|8,0:0|1:2|0:0,0:0:0:0:
481,64,29888,1,2,0:0:0:0:
484,51,29979,1,2,0:0:0:0:
487,38,30071,1,2,0:0:0:0:
490,25,30162,1,2,0:0:0:0:
493,12,30254,6,0,L|509:178,1,166.500006351471,2|0,1:2|0:0,0:0:0:0:
376,298,30986,2,0,B|333:311|333:311|286:295,1,83.2500031757356,10|0,0:0|0:0,0:0:0:0:
332,228,31351,1,2,1:2:0:0:
411,371,31534,1,8,0:0:0:0:
455,304,31717,2,0,B|414:289|414:289|330:310|330:310|296:298,1,166.500006351471,2|0,0:0|1:2,0:0:0:0:
42,112,32449,2,0,B|83:127|83:127|167:106|167:106|201:118,1,166.500006351471,10|0,0:0|0:0,0:0:0:0:
224,127,32906,1,2,0:0:0:0:
224,127,32998,1,2,0:0:0:0:
313,146,33181,37,2,1:2:0:0:
184,219,33364,1,2,0:0:0:0:
287,258,33546,1,2,0:0:0:0:
171,217,33729,1,2,1:2:0:0:
345,61,33912,38,0,B|411:95|402:162|402:162|358:216,1,166.500006351471,12|0,0:0|1:2,0:0:0:0:
294,145,34461,1,0,0:0:0:0:
395,292,34644,37,10,0:0:0:0:
171,217,34827,1,2,1:2:0:0:
287,258,35010,1,10,0:0:0:0:
287,258,35193,1,0,1:2:0:0:
271,139,35376,5,10,0:0:0:0:
192,322,35559,1,10,0:0:0:0:
180,70,35742,37,10,0:0:0:0:
285,270,35925,1,10,0:0:0:0:
279,22,36107,6,0,B|373:4|348:76|437:63,2,166.500006351471,6|0|8,0:0|1:0|0:0,0:0:0:0:
38,85,37205,1,0,1:0:0:0:
174,203,37388,1,0,0:0:0:0:
116,59,37571,2,0,L|91:265,2,166.500006351471,2|0|10,0:0|1:2|0:0,0:0:0:0:
240,148,38668,1,2,0:0:0:0:
243,164,38760,1,2,0:0:0:0:
246,180,38851,1,2,0:0:0:0:
249,196,38943,1,2,0:0:0:0:
251,212,39034,38,0,B|261:272|261:272|244:314|244:314|255:378,2,166.500006351471,2|0|8,1:2|1:2|0:0,0:0:0:0:
37,298,40132,1,2,1:2:0:0:
95,224,40315,1,10,0:0:0:0:
37,298,40498,2,0,P|104:247|200:287,2,166.500006351471,0|0|8,0:0|1:2|0:0,0:0:0:0:
13,66,41595,1,2,0:0:0:0:
29,70,41687,1,2,0:0:0:0:
44,74,41778,1,2,0:0:0:0:
60,78,41870,1,2,0:0:0:0:
74,85,41961,6,0,B|167:103|150:42|231:51,1,166.500006351471,2|0,1:2|1:0,0:0:0:0:
435,164,42693,2,0,P|343:194|283:155,1,166.500006351471,10|2,0:0|0:0,0:0:0:0:
280,145,43150,1,2,0:0:0:0:
280,145,43242,1,2,1:2:0:0:
74,204,43425,2,0,B|116:157|190:168|190:168|216:205,1,166.500006351471,2|0,1:2|1:0,0:0:0:0:
81,286,44156,2,0,L|65:104,1,166.500006351471,10|8,0:0|0:0,0:0:0:0:
432,104,44888,37,2,1:2:0:0:
466,179,45071,1,10,0:0:0:0:
422,249,45254,1,10,0:0:0:0:
339,256,45437,1,2,1:2:0:0:
416,22,45620,2,0,L|432:104,1,83.2500031757356,12|0,0:0|0:0,0:0:0:0:
339,256,45986,5,2,1:2:0:0:
466,179,46168,1,10,0:0:0:0:
422,249,46351,1,0,1:2:0:0:
284,113,46534,1,8,0:0:0:0:
279,195,46717,1,8,3:0:0:0:
73,301,46992,37,0,3:0:0:0:
85,290,47083,1,8,0:0:0:0:
168,344,47266,1,2,1:2:0:0:
259,291,47449,1,2,1:2:0:0:
287,310,47632,1,2,1:2:0:0:
301,296,47815,22,0,P|192:318|146:284,1,149.849995426941,2|0,0:0|0:0,0:0:0:0:
178,227,48546,22,0,B|109:210|117:264|46:254,1,133.199995935059,6|0,0:0|0:0,0:0:0:0:
61,158,49095,1,0,3:0:0:0:
64,145,49187,1,0,3:0:0:0:
67,132,49278,2,0,L|153:124,1,66.5999979675294,2|0,1:2|0:0,0:0:0:0:
304,187,49644,1,2,1:2:0:0:
243,237,49827,2,0,L|159:223,1,66.5999979675294,2|8,0:0|0:0,0:0:0:0:
252,122,50193,2,0,P|322:100|389:150,1,133.199995935059,2|0,0:0|3:0,0:0:0:0:
376,138,50650,1,0,3:0:0:0:
378,151,50742,6,0,P|329:111|331:39,2,133.199995935059,2|2|10,1:2|0:2|0:0,0:0:0:0:
470,57,51839,2,0,L|369:76,2,66.5999979675294,2|0|0,0:0|0:0|0:0,0:0:0:0:
348,268,52571,38,0,L|338:351,1,66.5999979675294,2|0,1:2|0:0,0:0:0:0:
253,150,52937,2,0,L|243:233,1,66.5999979675294,10|2,0:0|0:0,0:0:0:0:
385,84,53303,2,0,L|375:167,1,66.5999979675294,2|0,0:0|0:0,0:0:0:0:
237,154,53668,6,0,B|145:175|171:109|75:130,1,155.4,2|0,0:0|0:0,0:0:0:0:
79,136,54400,38,0,P|157:127|117:27,1,199.799993902588,14|2,0:0|0:0,0:0:0:0:
52,53,55132,2,0,P|54:120|44:186,1,133.199995935059,2|0,1:2|1:2,0:0:0:0:
93,325,55864,5,10,0:0:0:0:
118,338,56138,2,0,L|181:349,1,33.2999989837647,2|0,0:0|0:0,0:0:0:0:
267,263,56412,1,2,0:0:0:0:
324,369,56595,37,2,1:2:0:0:
255,253,56778,1,0,0:0:0:0:
332,380,56961,1,2,0:0:0:0:
167,346,57144,5,0,1:0:0:0:
351,284,57327,1,10,0:0:0:0:
247,384,57510,1,2,0:0:0:0:
196,197,57693,2,0,P|222:178|255:174,1,66.5999979675294,2|0,0:0|0:0,0:0:0:0:
477,229,58059,37,2,1:2:0:0:
341,204,58242,1,2,0:0:0:0:
489,232,58425,1,2,1:2:0:0:
395,114,58607,1,0,0:0:0:0:
412,279,58790,1,10,0:0:0:0:
490,134,58973,1,2,0:0:0:0:
317,205,59156,2,0,L|236:191,1,66.5999979675294,2|2,1:2|1:2,0:0:0:0:
182,38,59522,5,0,3:0:0:0:
182,38,59705,1,0,3:0:0:0:
77,174,59888,1,2,0:0:0:0:
77,174,60071,1,2,1:2:0:0:
228,120,60254,2,0,B|117:144|141:65|30:95,1,199.799993902588,10|2,0:0|0:0,0:0:0:0:
77,174,60986,2,0,L|90:265,1,66.5999979675294,2|0,1:2|1:0,0:0:0:0:
181,215,61351,2,0,L|168:306,1,66.5999979675294,2|2,0:0|1:2,0:0:0:0:
99,321,61717,1,8,0:0:0:0:
191,207,62083,38,0,B|231:192|256:194|256:194|275:211|282:234,1,99.899996951294,2|0,0:0|0:0,0:0:0:0:
276,234,62449,2,0,P|231:159|276:113,1,133.199995935059,2|0,1:2|0:0,0:0:0:0:
451,272,63181,2,0,L|436:355,2,66.5999979675294,10|0|0,0:0|0:0|0:0,0:0:0:0:
477,170,63729,1,0,3:0:0:0:
481,157,63821,1,0,3:0:0:0:
481,143,63912,2,0,P|445:114|358:157,1,133.199995935059,0|0,1:0|0:0,0:0:0:0:
364,150,64370,1,0,3:0:0:0:
362,163,64461,1,2,3:2:0:0:
361,176,64553,1,0,3:0:0:0:
360,189,64644,2,0,L|346:52,1,133.199995935059,8|0,0:0|1:0,0:0:0:0:
127,169,65193,1,8,0:0:0:0:
111,76,65376,6,0,B|196:93,1,66.5999979675294,0|0,1:2|0:0,0:0:0:0:
278,148,65742,2,0,B|193:165,1,66.5999979675294,2|0,0:0|1:0,0:0:0:0:
53,209,66107,2,0,P|40:180|47:138,2,66.5999979675294,10|0|8,0:0|0:0|0:0,0:0:0:0:
190,316,66656,1,2,0:0:0:0:
116,358,66839,38,0,B|104:323|104:323|113:283,1,66.5999979675294,2|8,1:2|0:0,0:0:0:0:
173,210,67205,1,2,1:2:0:0:
173,210,67388,1,0,0:0:0:0:
33,367,67571,5,8,0:0:0:0:
251,265,67754,1,8,0:0:0:0:
37,210,67937,1,8,0:0:0:0:
116,365,68120,37,2,0:0:0:0:
116,358,68303,1,2,0:0:0:0:
116,351,68486,1,2,0:0:0:0:
117,344,68668,1,2,0:0:0:0:
118,337,68851,1,2,0:0:0:0:
119,330,69034,1,2,0:0:0:0:
120,323,69217,1,2,0:0:0:0:
237,233,69400,5,10,0:0:0:0:
144,80,69583,1,2,1:2:0:0:
247,249,69766,1,2,1:2:0:0:
338,123,69949,37,10,0:0:0:0:
108,200,70132,1,10,0:0:0:0:
356,118,70315,5,10,1:2:0:0:
124,74,70498,1,10,1:2:0:0:
372,113,70681,37,10,1:2:0:0:
131,202,70864,1,10,1:2:0:0:
429,282,71046,1,10,1:2:0:0:
209,358,71229,6,0,B|166:304|177:237|225:207|225:207|288:210|294:271,1,271.949991700745,6|0,0:0|0:0,0:0:0:0:
293,265,71961,2,0,B|200:283|225:210|143:226,1,155.399995257569,8|2,0:0|0:2,0:0:0:0:
1,272,72510,1,2,1:2:0:0:
85,175,72693,2,0,B|70:228|70:228|82:269|82:269|65:336,2,155.399995257569,0|0|8,1:2|1:2|0:0,0:0:0:0:
355,1,73790,2,0,P|371:60|338:110,1,116.549996443176,2|0,1:2|0:0,0:0:0:0:
280,127,74156,38,0,L|297:43,1,77.6999976287843,2|0,1:2|0:0,0:0:0:0:
319,198,74522,2,0,L|292:31,1,149.849995426941,2|0,1:2|0:0,0:0:0:0:
415,200,74888,2,0,B|312:173|348:268|229:237,1,183.150005589295,10|0,0:0|0:0,0:0:0:0:
430,198,75254,1,2,0:0:0:0:
233,240,75437,1,0,1:2:0:0:
476,326,75620,6,0,P|404:308|388:267,1,116.549996443176,2|0,1:2|0:0,0:0:0:0:
383,267,75986,2,0,P|393:321|348:353,1,116.549996443176,2|0,1:2|0:0,0:0:0:0:
309,381,76351,2,0,L|297:300,1,77.6999976287843,10|0,0:0|0:0,0:0:0:0:
263,109,76717,1,0,3:0:0:0:
260,97,76809,1,0,3:0:0:0:
256,85,76900,1,0,3:0:0:0:
253,73,76992,1,0,3:0:0:0:
248,62,77083,38,0,B|200:63|170:31|170:31|136:17|92:42,2,155.399995257569,2|2|10,1:2|0:2|0:0,0:0:0:0:
382,119,78181,2,0,L|458:108,1,77.6999976287843,2|0,0:0|1:2,0:0:0:0:
307,244,78546,2,0,L|383:233,1,77.6999976287843,2|0,1:2|0:0,0:0:0:0:
190,145,78912,2,0,L|290:131,1,77.6999976287843,2|0,1:2|0:0,0:0:0:0:
108,326,79278,2,0,L|184:315,1,77.6999976287843,10|0,0:0|0:0,0:0:0:0:
33,200,79644,2,0,L|109:189,1,77.6999976287843,2|0,0:0|0:0,0:0:0:0:
383,233,80010,5,2,1:2:0:0:
193,140,80193,1,10,0:0:0:0:
400,224,80376,1,10,0:0:0:0:
193,306,80559,1,2,1:2:0:0:
437,349,80742,1,14,0:0:0:0:
329,383,80925,1,2,0:0:0:0:
324,370,81107,2,0,L|332:280,1,77.6999976287843,2|0,1:2|0:0,0:0:0:0:
363,55,81473,5,10,0:0:0:0:
502,173,81656,1,10,0:0:0:0:
431,107,81839,2,0,L|425:187,1,77.6999976287843,10|0,0:0|0:0,0:0:0:0:
512,186,82205,37,10,0:0:0:0:
444,26,82388,1,10,0:0:0:0:
338,142,82571,1,10,0:0:0:0:
283,72,82754,1,10,0:0:0:0:
219,214,82937,6,0,B|258:248|311:188|241:121|154:171|178:209|111:234|55:198,1,271.949991700745,6|0,1:2|0:0,0:0:0:0:
59,185,83668,6,0,P|142:218|127:298,1,155.399995257569,10|2,0:0|0:2,0:0:0:0:
56,353,84217,1,2,1:2:0:0:
276,341,84400,2,0,B|238:345|214:318|214:318|185:361|135:353,2,155.399995257569,0|0|10,1:2|1:2|0:0,0:0:0:0:
391,238,85498,2,0,P|345:219|275:254,1,116.549996443176,2|0,0:0|0:0,0:0:0:0:
272,256,85864,6,0,P|321:222|306:145,1,116.549996443176,2|0,1:2|0:0,0:0:0:0:
317,161,86229,2,0,P|313:230|385:261,1,149.849995426941,2|0,1:2|0:0,0:0:0:0:
392,122,86595,2,0,B|352:141|302:135|302:135|287:167|263:186|263:186|221:173|163:196,2,244.200007452393,10|2|2,0:0|0:0|1:2,0:0:0:0:
512,13,87510,1,8,0:0:0:0:
451,178,87693,38,0,P|472:103|421:47,1,149.849995426941,2|0,1:2|0:0,0:0:0:0:
340,55,88059,1,10,0:0:0:0:
468,188,88242,1,8,0:0:0:0:
365,232,88425,1,2,3:2:0:0:
362,246,88516,1,0,3:2:0:0:
359,260,88607,1,0,3:2:0:0:
356,274,88699,1,0,3:2:0:0:
354,283,88790,6,0,B|286:312|244:281|237:227|180:222|131:244,1,233.099992886353,2|0,1:2|0:0,0:0:0:0:
127,253,89522,2,0,P|176:232|166:140,2,133.199995935059,10|2|2,0:0|0:0|1:2,0:0:0:0:
18,85,90437,1,0,1:2:0:0:
85,34,90620,2,0,L|211:49,1,99.899996951294,2|0,1:2|0:0,0:0:0:0:
242,100,90986,2,0,L|368:85,1,99.899996951294,10|0,0:0|0:0,0:0:0:0:
353,76,91351,1,2,1:2:0:0:
443,339,91717,6,0,B|418:294|361:287|361:287|331:320,1,133.2,2|0,1:2|0:0,0:0:0:0:
326,329,92083,1,8,0:0:0:0:
455,345,92266,1,0,1:2:0:0:
311,338,92449,5,2,1:2:0:0:
378,170,92632,1,8,0:0:0:0:
298,345,92815,1,10,0:0:0:0:
288,249,92998,1,0,0:0:0:0:
492,266,93181,37,10,1:2:0:0:
214,305,93364,1,8,1:2:0:0:
384,307,93546,21,8,1:2:0:0:
240,120,93729,1,8,1:2:0:0:
368,297,93912,1,8,1:2:0:0:
390,163,94095,1,8,1:2:0:0:
204,314,94278,1,8,1:2:0:0:
37,65,94553,37,2,0:0:0:0:
43,60,94644,2,0,B|114:46|105:94|176:83,1,133.199995935059,6|8,0:0|0:0,0:0:0:0:
225,29,95559,1,8,0:0:0:0:
300,18,95742,1,2,1:2:0:0:
361,64,95925,1,0,1:2:0:0:
361,140,96107,1,0,1:2:0:0:
171,252,96473,6,0,L|181:158,2,88.8,2|10|2,1:2|0:0|1:2,0:0:0:0:
96,297,97388,1,0,3:0:0:0:
85,304,97479,1,0,3:0:0:0:
73,311,97571,1,2,1:2:0:0:
56,232,97754,1,2,0:0:0:0:
150,353,97937,1,2,1:2:0:0:
4,369,98120,1,2,0:0:0:0:
171,252,98303,37,10,0:0:0:0:
241,214,98486,1,2,0:0:0:0:
318,231,98668,1,0,1:2:0:0:
357,369,98851,1,2,1:2:0:0:
371,290,99034,1,0,1:2:0:0:
251,327,99217,5,8,3:0:0:0:
357,369,99400,1,8,3:0:0:0:
237,323,99583,5,0,3:0:0:0:
223,320,99675,1,0,3:0:0:0:
210,317,99766,1,8,3:2:0:0:
326,221,99949,1,2,0:0:0:0:
231,99,100132,5,0,3:0:0:0:
230,107,100223,1,0,3:0:0:0:
229,115,100315,1,0,3:0:0:0:
228,123,100406,1,0,3:0:0:0:
216,139,100498,2,0,L|210:178,1,38.85,2|0,0:0|0:0,0:0:0:0:
114,186,101229,6,0,B|178:197|178:197|201:234|201:234|270:247,1,166.5,6|8,0:0|0:0,0:0:0:0:
325,196,101870,1,2,0:0:0:0:
325,196,101961,2,0,L|317:126,1,55.5,2|8,1:2|0:0,0:0:0:0:
307,57,102327,1,0,1:2:0:0:
478,313,102693,2,0,P|426:282|369:293,1,111,10|2,0:0|1:2,0:0:0:0:
310,330,103242,1,0,1:2:0:0:
475,163,103425,6,0,L|442:159,1,27.75,2|2,0:0|0:0,0:0:0:0:
315,199,103607,1,2,0:0:0:0:
402,259,103790,1,2,0:0:0:0:
297,192,103973,1,2,1:2:0:0:
418,82,104156,1,10,0:0:0:0:
340,29,104339,1,2,0:0:0:0:
332,121,104522,1,2,1:2:0:0:
431,72,104705,1,2,1:2:0:0:
226,66,104888,37,2,1:2:0:0:
148,68,105071,1,10,0:0:0:0:
102,130,105254,1,2,0:0:0:0:
124,204,105437,1,2,0:0:0:0:
22,342,105620,5,10,0:0:0:0:
100,340,105803,1,2,1:2:0:0:
146,278,105986,1,2,1:2:0:0:
124,204,106169,1,10,0:0:0:0:
43,67,106351,37,6,0:0:0:0:
39,83,106443,1,2,0:0:0:0:
124,204,106717,2,0,L|190:193,2,55.5,2|2|10,1:2|1:2|0:0,0:0:0:0:
48,175,107266,1,2,0:0:0:0:
200,115,107449,1,2,1:2:0:0:
230,127,107540,1,2,0:0:0:0:
251,152,107632,1,2,1:2:0:0:
261,183,107723,1,2,0:0:0:0:
256,216,107815,1,2,1:2:0:0:
119,283,107998,6,0,L|123:307,10,13.875,2|0|0|0|0|0|0|0|0|0|0,0:0|0:0|0:0|0:0|1:2|0:0|0:0|0:0|1:2|0:0|0:0,0:0:0:0:
34,306,108546,38,0,L|201:292,1,166.5,10|0,0:0|0:0,0:0:0:0:
279,318,109278,1,0,1:2:0:0:
389,169,109461,5,0,3:0:0:0:
379,186,109553,1,0,3:0:0:0:
369,202,109644,2,0,P|363:238|390:289,1,83.25,2|0,1:2|0:0,0:0:0:0:
392,295,110010,37,10,0:0:0:0:
281,200,110193,1,2,1:2:0:0:
442,229,110376,1,2,0:0:0:0:
262,196,110559,1,2,0:0:0:0:
401,35,110742,5,2,1:2:0:0:
405,50,110833,1,2,0:0:0:0:
409,66,110925,1,2,0:0:0:0:
304,17,111107,37,2,1:2:0:0:
309,32,111199,1,2,0:0:0:0:
314,47,111290,1,2,1:2:0:0:
319,62,111382,1,2,0:0:0:0:
323,77,111473,6,0,L|313:155,1,55.5,8|0,0:0|0:0,0:0:0:0:
212,90,111839,2,0,L|222:168,1,55.5,8|0,0:0|0:0,0:0:0:0:
243,305,112205,22,0,P|211:278|136:284,1,111,2|0,1:2|1:2,0:0:0:0:
105,308,112662,1,2,0:0:0:0:
101,291,112754,1,2,0:0:0:0:
97,274,112845,1,2,0:0:0:0:
96,257,112937,2,0,L|103:184,1,55.5,10|0,0:0|0:0,0:0:0:0:
39,17,113303,37,2,1:2:0:0:
0,132,113486,1,2,1:2:0:0:
40,0,113668,1,0,1:2:0:0:
119,129,113851,1,2,1:2:0:0:
207,13,114034,1,10,0:0:0:0:
453,301,114400,5,2,1:2:0:0:
340,254,114583,1,10,0:0:0:0:
441,191,114766,1,2,1:2:0:0:
361,153,114949,1,2,1:2:0:0:
190,327,115132,37,14,0:0:0:0:
274,157,115315,1,2,1:2:0:0:
198,313,115498,1,2,1:2:0:0:
119,128,115681,5,10,0:0:0:0:
338,241,115864,1,2,1:2:0:0:
127,277,116046,1,2,1:2:0:0:
258,78,116229,37,14,0:0:0:0:
114,288,116412,1,2,1:2:0:0:
255,232,116595,1,2,1:2:0:0:
184,50,116778,5,10,1:2:0:0:
344,109,116961,1,10,1:2:0:0:
166,191,117144,1,10,1:2:0:0:
359,253,117327,1,10,1:2:0:0:
128,358,117510,1,10,1:2:0:0:
391,174,117693,37,2,0:0:0:0:
420,189,117784,1,2,0:0:0:0:
436,218,117876,1,2,0:0:0:0:
444,250,117967,1,2,0:0:0:0:
432,281,118059,38,0,B|345:304|365:230|273:247,1,166.5,6|0,0:0|1:2,0:0:0:0:
185,165,118790,6,0,B|152:131|200:89|255:135|224:203|193:183|169:236|204:289,1,222,8|0,0:0|0:0,0:0:0:0:
297,345,119705,6,8,P|277:318|284:360,1,111,8|2,0:0|1:2,0:0:0:0:
343,267,120254,38,0,B|369:220|360:179|360:179|326:150|336:96,1,166.5,8|0,0:0|0:0,0:0:0:0:
435,110,120986,37,2,0:0:0:0:
412,111,121077,2,0,P|369:110|332:83,1,83.25,2|0,0:0|0:0,0:0:0:0:
249,74,121443,2,0,P|264:111|258:152,1,83.25,2|8,0:0|0:0,0:0:0:0:
177,218,121900,1,0,3:0:0:0:
173,201,121992,1,0,3:0:0:0:
169,184,122083,2,0,L|177:118,1,55.5,0|0,3:0|0:0,0:0:0:0:
131,54,122449,6,0,B|73:31|76:80|18:57,1,111,2|10,0:0|0:0,0:0:0:0:
152,61,122998,37,8,0:0:0:0:
2,143,123181,1,8,0:0:0:0:
187,231,123364,5,8,0:0:0:0:
47,281,123546,1,8,0:0:0:0:
38,280,123638,1,0,1:0:0:0:
29,279,123729,1,0,1:2:0:0:
22,278,123821,1,0,1:0:0:0:
15,278,123912,5,6,0:0:0:0:
147,352,124095,2,0,P|190:363|230:347,1,83.25,10|0,0:0|0:0,0:0:0:0:
244,329,124461,37,2,0:0:0:0:
276,320,124553,1,2,0:0:0:0:
302,327,124644,1,2,0:0:0:0:
331,289,124736,37,2,3:2:0:0:
361,303,124828,1,2,3:2:0:0:
376,325,124919,1,2,3:2:0:0:
423,314,125010,5,2,3:2:0:0:
437,344,125102,1,2,3:2:0:0:
434,370,125193,1,2,3:2:0:0:
499,359,125284,5,10,3:2:0:0:
499,359,125376,2,0,L|488:235,1,111,10|0,3:2|3:0,0:0:0:0:
485,226,125833,21,0,3:0:0:0:
486,206,125925,1,0,3:0:0:0:
488,190,126016,1,0,3:0:0:0:
490,174,126107,1,0,3:0:0:0:
358,103,126290,37,0,3:0:0:0:
356,119,126382,1,0,3:0:0:0:
354,135,126473,1,2,3:2:0:0:
352,151,126565,1,0,3:0:0:0:
332,168,126656,37,0,3:0:0:0:
330,184,126748,1,0,3:0:0:0:
328,200,126839,2,0,P|285:211|244:200,2,83.25,6|2|2,0:0|0:0|1:2,0:0:0:0:
441,162,127571,37,8,0:0:0:0:
481,43,127754,1,8,0:0:0:0:
439,181,127937,1,8,0:0:0:0:
487,27,128120,2,0,B|429:11|440:53|366:33,1,111,8|0,0:0|1:2,0:0:0:0:
291,26,128668,1,0,1:2:0:0:
248,220,128851,5,8,0:0:0:0:
169,67,129034,1,8,0:0:0:0:
143,277,129217,37,8,0:0:0:0:
251,99,129400,1,8,0:0:0:0:
251,99,129583,2,0,L|252:135,1,27.75,2|0,0:0|0:0,0:0:0:0:
329,277,129766,6,0,B|287:258|287:258|213:282,1,111,6|0,0:0|1:2,0:0:0:0:
59,231,130315,5,2,1:2:0:0:
62,214,130406,1,2,0:0:0:0:
65,197,130498,2,0,B|78:162|78:162|116:150|156:180,1,111,10|12,0:0|0:0,0:0:0:0:
295,165,131046,1,2,1:2:0:0:
251,99,131229,38,0,L|236:219,1,111,2|0,0:0|1:2,0:0:0:0:
398,351,131778,1,0,1:2:0:0:
412,358,131870,1,2,0:0:0:0:
436,350,131961,2,0,B|484:325|476:262|476:262|420:209|361:240,1,222,10|0,0:0|1:2,0:0:0:0:
157,343,132876,37,2,0:0:0:0:
147,336,132967,1,2,0:0:0:0:
142,326,133059,1,2,0:0:0:0:
141,312,133150,1,2,0:0:0:0:
148,297,133242,1,2,0:0:0:0:
163,285,133333,1,2,0:0:0:0:
178,278,133425,1,2,0:0:0:0:
187,260,133516,1,2,0:0:0:0:
183,238,133607,1,10,0:0:0:0:
169,216,133699,1,2,0:0:0:0:
144,202,133790,1,2,1:2:0:0:
116,203,133882,1,2,0:0:0:0:
90,219,133973,1,2,1:2:0:0:
73,247,134065,1,2,0:0:0:0:
38,256,134156,1,10,0:0:0:0:
10,228,134248,1,2,0:0:0:0:
16,187,134339,37,2,0:0:0:0:
49,161,134431,1,2,0:0:0:0:
70,122,134522,1,2,0:0:0:0:
63,75,134614,1,2,0:0:0:0:
28,38,134705,1,2,0:0:0:0:
0,108,134796,5,2,0:0:0:0:
0,108,134888,2,0,B|68:123|68:123|103:109|103:109|178:126,1,166.500006351471,10|8,0:0|0:0,0:0:0:0:
461,357,135528,5,2,0:0:0:0:
458,344,135620,1,2,0:0:0:0:
455,331,135711,1,2,0:0:0:0:
452,318,135803,1,2,0:0:0:0:
270,242,135986,5,2,0:0:0:0:
263,252,136077,1,2,0:0:0:0:
259,262,136168,1,2,0:0:0:0:
264,290,136260,1,2,0:0:0:0:
280,313,136351,1,2,0:0:0:0:
302,331,136443,1,2,0:0:0:0:
330,333,136534,1,2,1:2:0:0:
465,210,136717,5,10,0:0:0:0:
434,224,136809,1,2,0:0:0:0:
400,221,136900,1,10,0:0:0:0:
373,200,136992,1,2,0:0:0:0:
342,186,137083,1,2,0:0:0:0:
309,192,137175,1,2,0:0:0:0:
282,211,137266,5,10,0:0:0:0:
295,180,137357,1,2,0:0:0:0:
293,146,137449,1,2,0:0:0:0:
274,118,137540,1,2,0:0:0:0:
245,100,137632,1,2,0:0:0:0:
106,174,137815,5,10,0:0:0:0:
89,216,137906,1,2,0:0:0:0:
109,257,137998,1,2,0:0:0:0:
82,294,138089,1,2,0:0:0:0:
98,336,138181,1,10,0:0:0:0:
304,306,138364,5,10,0:0:0:0:
304,306,138455,1,2,0:0:0:0:
304,306,138546,1,10,0:0:0:0:
108,161,138729,1,10,0:0:0:0:
98,336,138912,5,10,0:0:0:0:
176,207,139095,1,10,0:0:0:0:
103,346,139278,5,10,0:0:0:0:
45,123,139461,1,10,0:0:0:0:
45,123,139553,1,2,0:0:0:0:
45,123,139644,1,10,0:0:0:0:
252,244,139827,5,10,0:0:0:0:
252,244,139918,1,10,0:0:0:0:
252,244,140010,1,10,0:0:0:0:
20,298,140193,1,10,0:0:0:0:
306,105,140376,6,0,B|299:70|257:57|257:57|192:108|183:191|263:254,1,291.375011115075,2|0,1:2|0:1,0:0:0:0:
272,247,141107,6,0,P|203:224|149:261,1,124.875004763603,8|0,3:0|0:2,0:2:0:0:
89,158,141473,6,0,B|166:175|166:175|198:227|198:227|295:253,1,216.449990091706,6|0,0:0|1:2,0:0:0:0:
427,199,142205,1,8,0:0:0:0:
362,125,142388,1,0,1:2:0:0:
339,286,142571,6,0,B|380:217|312:218|362:130,1,144.299993394471,4|0,0:0|0:0,0:0:0:0:
429,32,143120,1,0,1:2:0:0:
429,32,143211,1,0,1:2:0:0:
429,32,143303,1,0,1:2:0:0:
472,105,143486,1,0,1:2:0:0:
333,50,143668,2,0,L|186:67,1,144.299993394471,8|0,0:0|0:0,0:0:0:0:
124,186,144400,37,10,0:0:0:0:
181,259,144583,1,8,0:0:0:0:
54,282,144766,5,8,0:0:0:0:
265,170,144949,1,8,0:0:0:0:
25,156,145132,5,8,0:0:0:0:
294,284,145315,1,8,0:0:0:0:
36,286,145498,5,12,0:0:0:0:
148,150,145864,5,8,3:0:0:0:
165,135,145986,2,0,P|164:109|150:84,1,48.0999977981568,8|8,3:0|3:0,0:0:0:0:
247,89,146229,5,8,3:0:0:0:
250,66,146351,2,0,P|232:46|205:36,1,48.0999977981568,8|8,3:0|3:0,0:0:0:0:
68,18,146595,37,8,3:0:0:0:
43,40,146717,21,8,3:0:0:0:
80,112,146839,21,8,3:0:0:0:
13,188,146961,21,8,3:0:0:0:
91,274,147083,21,8,3:0:0:0:
8,375,147205,21,8,3:0:0:0:
8,375,147327,38,0,P|80:328|144:363,1,144.299993394471,4|2,0:0|1:2,0:0:0:0:
289,237,147876,1,0,1:0:0:0:
216,178,148059,2,0,B|191:228|191:228|220:300,1,108.224995045853,8|0,0:0|0:0,0:0:0:0:
230,296,148425,6,0,P|161:265|81:285,1,144.299993394471,4|0,0:0|1:2,0:0:0:0:
5,111,148973,37,8,0:0:0:0:
131,154,149156,1,0,0:0:0:0:
2,256,149339,1,0,1:2:0:0:
2,256,149431,1,0,1:2:0:0:
2,256,149522,1,8,0:0:0:0:
191,43,149888,37,2,3:2:0:0:
220,29,149979,1,0,3:2:0:0:
252,29,150071,1,0,3:2:0:0:
282,40,150162,1,0,3:2:0:0:
305,62,150254,2,0,L|297:151,1,72.1499966972353,10|0,0:0|1:2,0:0:0:0:
261,300,150620,5,14,0:0:0:0:
191,131,150803,1,8,0:0:0:0:
146,242,150986,1,12,0:0:0:0:
74,168,151168,1,8,0:0:0:0:
27,252,151351,1,8,0:0:0:0:
31,280,151443,1,0,3:0:0:0:
34,308,151534,1,0,3:0:0:0:
300,208,151717,5,8,0:0:0:0:
274,182,151809,1,8,0:0:0:0:
238,181,151900,1,8,0:0:0:0:
203,192,151992,1,8,0:0:0:0:
181,220,152083,1,8,0:0:0:0:
146,235,152175,1,8,0:0:0:0:
110,229,152266,1,8,0:0:0:0:
84,204,152357,1,8,0:0:0:0:
74,168,152449,5,10,0:0:0:0:
285,64,152632,1,8,0:0:0:0:
243,261,152815,1,0,1:2:0:0:
151,129,152998,1,0,1:2:0:0:
197,333,153181,6,0,B|262:370|309:329|309:303|358:268|417:301,1,235.875004498959,12|0,0:0|0:0,0:0:0:0:
439,311,153729,1,2,0:0:0:0:
455,334,153821,1,2,0:0:0:0:
462,361,153912,2,0,P|397:374|401:213,1,283.05000539875,10|0,0:0|1:2,0:0:0:0:
429,111,154644,2,0,L|412:323,1,188.700003599167,12|0,0:0|1:2,0:0:0:0:
243,339,155193,5,0,1:2:0:0:
72,117,155376,2,0,B|77:80|134:73|134:73|179:120|148:173,1,188.700003599167,8|0,0:0|0:0,0:0:0:0:
67,256,155833,1,2,0:0:0:0:
64,237,155925,1,2,0:0:0:0:
63,218,156016,1,2,0:0:0:0:
62,199,156107,2,0,L|87:8,1,188.700003599167,14|0,0:0|1:2,0:0:0:0:
368,74,156839,5,8,0:0:0:0:
216,140,157022,1,0,1:2:0:0:
385,69,157205,1,0,1:2:0:0:
327,258,157388,1,0,1:2:0:0:
488,107,157571,5,8,0:0:0:0:
290,61,157754,1,0,1:2:0:0:
388,162,157937,1,2,1:2:0:0:
388,162,158120,1,2,1:2:0:0:
211,282,158303,5,8,0:0:0:0:
288,73,158486,1,8,0:0:0:0:
333,338,158668,5,10,0:0:0:0:
222,137,158851,1,8,0:0:0:0:
70,339,159034,37,12,0:0:0:0:
30,268,159217,2,0,P|23:214|82:142,1,141.525002699375,2|0,1:2|0:0,0:0:0:0:
117,130,159583,1,2,0:0:0:0:
117,130,159675,1,2,0:0:0:0:
117,130,159766,2,0,L|102:248,1,94.3500017995835,10|0,0:0|1:2,0:0:0:0:
185,355,160132,5,2,0:0:0:0:
312,179,160315,1,2,1:2:0:0:
106,238,160498,1,8,0:0:0:0:
296,190,160681,1,2,1:2:0:0:
31,20,161046,37,2,1:2:0:0:
292,88,161229,1,10,0:0:0:0:
95,248,161412,1,2,1:2:0:0:
126,106,161595,1,2,1:2:0:0:
229,287,161778,5,2,1:2:0:0:
424,95,161961,1,10,0:0:0:0:
219,301,162144,1,2,1:2:0:0:
296,82,162327,1,2,1:2:0:0:
408,329,162510,1,2,1:2:0:0:
162,108,162693,37,10,0:0:0:0:
431,221,162876,1,2,1:2:0:0:
213,310,163059,1,2,1:2:0:0:
320,371,163242,1,2,1:2:0:0:
352,159,163425,6,0,B|324:134|273:139|273:139|252:172,1,111,10|0,0:0|0:0,0:0:0:0:
240,183,163699,2,0,L|116:191,1,111,2|0,0:0|0:0,0:0:0:0:
108,209,163973,2,0,L|14:197,1,94.3500017995835,2|8,1:2|0:0,0:0:0:0:
1,322,164339,37,2,1:2:0:0:
235,359,164522,1,2,1:2:0:0:
21,320,164705,1,2,1:2:0:0:
252,366,164888,6,0,B|278:265|197:274|252:148,1,188.700003599167,14|0,0:0|1:2,0:0:0:0:
290,52,165437,1,0,3:0:0:0:
296,44,165528,1,0,3:0:0:0:
303,37,165620,2,0,B|376:25|357:85|444:77,1,141.525002699375,10|0,0:0|0:0,0:0:0:0:
441,72,165986,5,2,1:2:0:0:
242,166,166168,1,2,1:2:0:0:
431,237,166351,1,10,0:0:0:0:
353,299,166534,1,2,1:2:0:0:
353,299,166717,1,2,1:2:0:0:
331,124,166900,21,2,0:0:0:0:
331,124,166992,1,2,0:0:0:0:
331,124,167083,2,0,L|344:237,1,94.3500017995835,10|0,0:0|0:0,0:0:0:0:
278,324,167449,1,2,0:0:0:0:
126,128,167632,5,0,3:0:0:0:
128,118,167723,1,0,3:0:0:0:
130,108,167815,2,0,L|27:95,1,94.3500017995835,14|0,0:0|0:0,0:0:0:0:
266,323,168181,2,0,L|163:310,1,94.3500017995835,10|2,0:0|0:0,0:0:0:0:
419,50,168546,2,0,L|316:37,1,94.3500017995835,8|0,0:0|0:0,0:0:0:0:
507,190,168912,2,0,L|404:177,1,94.3500017995835,8|0,0:0|0:0,0:0:0:0:
404,176,169187,1,8,0:0:0:0:
394,174,169278,1,10,0:0:0:0:
190,232,169461,5,0,1:2:0:0:
241,176,169644,1,2,1:2:0:0:
315,185,169827,1,0,1:2:0:0:
356,248,170010,1,2,1:2:0:0:
241,176,170193,5,0,1:2:0:0:
190,232,170376,1,2,1:2:0:0:
115,235,170559,1,0,1:2:0:0:
56,186,170742,1,6,1:2:0:0:
56,186,171473,38,0,L|71:16,2,155.399995257569,0|2|2,0:0|0:0|0:0,0:0:0:0:
57,263,173303,1,2,0:0:0:0:
134,215,173668,6,0,P|170:204|220:213,2,77.6999976287843,6|2|2,1:2|0:0|0:0,0:0:0:0:
57,263,174766,2,0,L|65:344,1,77.6999976287843,2|0,0:0|0:0,0:0:0:0:
281,363,175498,37,2,0:0:0:0:
321,298,175864,1,2,0:0:0:0:
294,225,176229,1,2,0:0:0:0:
337,82,176595,6,0,P|350:117|344:155,2,77.6999976287843,2|2|2,0:0|0:0|0:0,0:0:0:0:
403,18,177693,2,0,L|483:9,1,77.6999976287843,2|0,0:0|0:0,0:0:0:0:
503,85,178242,1,2,0:0:0:0:
504,104,178425,2,0,L|496:150,1,38.8499988143921,2|0,0:0|0:0,0:0:0:0:
437,194,178790,2,0,L|445:240,1,38.8499988143921,2|0,0:0|0:0,0:0:0:0:
378,278,179156,2,0,L|370:324,1,38.8499988143921,2|0,0:0|0:0,0:0:0:0:
299,346,179522,38,0,P|270:321|216:323,2,77.6999976287843,2|2|2,0:0|0:0|0:0,0:0:0:0:
378,278,180620,2,0,P|416:278|456:242,2,77.6999976287843,2|2|2,0:0|0:0|0:0,0:0:0:0:
360,268,181534,1,2,0:0:0:0:
346,254,181717,2,0,L|341:163,1,77.6999976287843,2|0,0:0|0:0,0:0:0:0:
288,70,182449,6,0,P|254:95|208:86,1,77.6999976287843,2|2,0:0|0:0,0:0:0:0:
139,45,183181,38,0,B|221:24|211:93|300:66,1,155.399995257569,2|0,0:0|0:0,0:0:0:0:
139,45,184644,6,0,L|135:65,1,19.425,2|0,0:0|0:0,0:0:0:0:
71,118,185376,6,0,B|131:62|207:107|207:107|216:162,1,199.799993902588,6|0,1:2|0:0,0:0:0:0:
152,249,186473,1,2,0:0:0:0:
152,249,186839,2,0,L|137:330,1,49.949998475647,2|2,0:0|0:0,0:0:0:0:
71,118,187571,5,2,0:0:0:0:
150,106,187937,1,2,0:0:0:0:
211,157,188303,2,0,B|266:175|302:135|288:108|326:73|390:95,2,199.799993902588,2|2|2,0:0|0:0|0:0,0:0:0:0:
211,157,190498,2,0,P|279:144|352:189,1,149.849995426941,2|0,0:0|0:0,0:0:0:0:
391,246,191229,37,2,0:0:0:0:
391,246,191961,5,2,0:0:0:0:
391,246,192693,37,2,0:0:0:0:
391,246,193425,5,2,0:0:0:0:
123,285,194156,21,2,0:0:0:0:
238,94,196351,5,4,3:0:0:0:
272,285,196534,1,2,0:0:0:0:
227,82,196717,1,2,0:0:0:0:
280,302,196900,1,2,0:0:0:0:
43,96,197083,38,0,B|23:56|68:20|68:20|157:46|174:123|123:179,1,291.375011115075,14|0,0:0|0:0,0:0:0:0:
112,174,197815,2,0,P|121:110|229:112,1,166.500006351471,8|2,0:0|0:2,0:0:0:0:
427,243,198364,1,2,1:2:0:0:
280,302,198546,38,0,B|317:268|360:292|360:292|388:329|433:324,2,166.500006351471,2|0|8,1:2|1:2|0:0,0:0:0:0:
129,316,199644,6,0,P|100:252|135:207,1,124.875004763603,2|0,0:0|0:0,0:0:0:0:
160,214,200010,2,0,P|100:240|44:184,1,124.875004763603,2|0,1:2|0:0,0:0:0:0:
110,149,200376,2,0,B|168:164|168:164|190:197|190:197|247:213,1,149.849995426941,2|0,0:0|0:0,0:0:0:0:
257,125,200742,2,0,L|109:148,1,149.849995426941,10|0,0:0|0:0,0:0:0:0:
250,212,201107,1,2,1:2:0:0:
126,69,201290,1,2,1:2:0:0:
182,277,201473,37,2,0:0:0:0:
216,306,201565,1,0,0:0:0:0:
260,311,201656,1,2,0:0:0:0:
300,290,201748,1,0,0:0:0:0:
321,251,201839,1,2,1:2:0:0:
362,233,201931,1,0,0:0:0:0:
406,240,202022,1,2,0:0:0:0:
437,272,202114,1,0,0:0:0:0:
443,316,202205,5,10,0:0:0:0:
388,311,202296,1,0,0:0:0:0:
366,259,202388,1,2,0:0:0:0:
379,205,202479,1,0,0:0:0:0:
423,172,202571,1,2,0:0:0:0:
444,121,202662,1,0,0:0:0:0:
422,69,202754,1,2,1:2:0:0:
380,33,202845,1,2,0:0:0:0:
322,37,202937,38,0,B|235:18|263:95|167:75,1,166.500006351471,2|2,1:2|0:0,0:0:0:0:
53,35,203486,1,2,0:0:0:0:
65,199,203668,2,0,B|103:142|103:142|68:34,1,166.500006351471,10|2,0:0|0:0,0:0:0:0:
13,132,204217,5,2,1:2:0:0:
170,206,204400,1,0,1:2:0:0:
25,293,204583,2,0,L|29:351,2,41.6250015878678,2|0|0,0:0|0:0|1:2,0:0:0:0:
77,210,204949,1,2,0:0:0:0:
239,262,205132,38,0,B|312:239|312:239|354:270,1,124.875004763603,10|0,0:0|0:0,0:0:0:0:
344,285,205498,2,0,L|230:298,1,83.2500031757356,2|0,0:0|0:0,0:0:0:0:
109,289,205864,5,10,0:0:0:0:
223,95,206046,1,10,0:0:0:0:
223,95,206229,1,2,1:2:0:0:
230,357,206412,37,10,0:0:0:0:
118,51,206595,1,14,0:0:0:0:
118,51,206778,1,2,0:0:0:0:
19,238,206961,5,2,1:2:0:0:
246,188,207144,1,2,1:2:0:0:
40,235,207327,1,4,3:0:0:0:
227,348,207510,37,2,3:2:0:0:
224,331,207601,1,2,3:2:0:0:
221,314,207693,1,2,3:2:0:0:
218,297,207784,1,2,3:2:0:0:
215,280,207876,1,2,3:2:0:0:
121,111,208059,5,10,0:0:0:0:
369,177,208242,1,10,0:0:0:0:
141,278,208425,1,10,0:0:0:0:
300,347,208607,1,10,0:0:0:0:
360,79,208790,6,0,B|305:32|239:57|239:57|225:100,1,166.500006351471,6|0,1:2|0:0,0:0:0:0:
228,104,209248,1,2,0:0:0:0:
231,115,209339,1,2,0:0:0:0:
240,123,209431,1,2,0:0:0:0:
251,126,209522,2,0,P|235:44|158:26,1,166.500006351471,10|2,0:0|0:2,0:0:0:0:
72,111,210071,1,2,1:2:0:0:
69,123,210162,1,2,0:0:0:0:
67,135,210254,2,0,B|71:192|71:192|99:226|99:226|103:301,2,166.500006351471,2|0|10,1:2|1:2|0:0,0:0:0:0:
367,90,211351,2,0,P|386:145|336:210,1,124.875004763603,2|0,0:0|0:0,0:0:0:0:
342,200,211717,38,0,P|365:159|438:154,1,124.875004763603,6|0,1:2|0:0,0:0:0:0:
445,169,212083,2,0,L|431:299,1,124.875004763603,2|0,1:2|0:0,0:0:0:0:
376,344,212449,2,0,B|346:320|346:320|360:271,1,83.2500031757356,10|0,0:0|0:0,0:0:0:0:
501,343,212815,1,2,0:0:0:0:
501,343,212906,1,2,0:0:0:0:
501,343,212998,1,2,1:2:0:0:
445,169,213181,37,10,0:0:0:0:
371,350,213364,1,8,0:0:0:0:
452,152,213546,2,0,B|399:134|399:134|368:159|334:155,1,124.875004763603,2|0,1:2|0:0,0:0:0:0:
318,152,213912,1,10,0:0:0:0:
216,51,214095,1,0,1:2:0:0:
352,65,214278,1,2,0:0:0:0:
215,149,214461,5,2,0:0:0:0:
199,143,214553,1,2,0:0:0:0:
183,137,214644,2,0,B|104:122|111:190|21:163,1,166.500006351471,6|0,1:2|0:0,0:0:0:0:
62,83,215193,1,2,1:2:0:0:
165,217,215376,2,0,L|147:325,1,83.2500031757356,10|0,0:0|0:0,0:0:0:0:
56,273,215742,2,0,L|74:381,1,83.2500031757356,2|0,1:2|0:0,0:0:0:0:
277,313,216107,37,8,3:2:0:0:
304,312,216229,5,8,3:2:0:0:
328,300,216351,37,8,3:2:0:0:
278,241,216473,5,8,3:2:0:0:
306,216,216595,37,8,3:2:0:0:
320,182,216717,5,8,3:2:0:0:
244,172,216839,37,8,3:2:0:0:
251,120,216961,5,8,3:2:0:0:
235,71,217083,37,8,3:2:0:0:
171,124,217205,5,8,3:2:0:0:
132,62,217327,37,8,3:2:0:0:
70,24,217449,5,8,3:2:0:0:
11,188,217571,38,0,B|72:198|72:198|106:235|106:235|168:245,1,166.500006351471,6|2,0:0|0:2,0:0:0:0:
278,241,218118,1,2,0:2:0:0:
154,80,218301,2,0,L|146:177,1,83.2500031757356,10|0,0:0|0:0,0:0:0:0:
30,276,218666,1,2,0:2:0:0:
177,251,218849,1,0,1:2:0:0:
11,188,219032,6,0,B|-23:147|-23:147|-19:86|34:53,2,166.500006351471,2|0|10,1:2|1:2|0:0,0:0:0:0:
339,308,220130,1,2,0:0:0:0:
342,287,220221,1,2,0:0:0:0:
345,266,220313,1,2,0:0:0:0:
348,245,220404,1,2,0:0:0:0:
351,224,220496,38,0,B|258:197|270:272|183:253,1,166.500006351471,2|2,1:2|1:2,0:0:0:0:
32,53,221227,2,0,L|204:76,1,166.500006351471,10|2,0:0|1:2,0:0:0:0:
338,95,221776,1,2,1:2:0:0:
255,165,221959,1,2,1:2:0:0:
265,31,222142,5,8,0:0:0:0:
335,198,222325,1,8,0:0:0:0:
107,272,222691,38,0,B|75:214|75:214|122:159,1,124.875004763603,10|0,0:0|0:0,0:0:0:0:
137,157,223057,2,0,L|146:244,1,83.2500031757356,2|0,1:2|1:2,0:0:0:0:
103,353,223423,6,0,B|192:370|162:302|267:313,2,166.500006351471,6|2|10,1:2|0:2|0:0,0:0:0:0:
95,52,224520,37,2,0:2:0:0:
179,151,224703,1,2,1:2:0:0:
82,50,224886,2,0,L|-17:63,1,83.2500031757356,2|0,0:0|0:0,0:0:0:0:
170,162,225252,2,0,L|71:175,1,83.2500031757356,2|0,1:2|0:0,0:0:0:0:
218,46,225618,2,0,B|280:56|280:56|308:96|308:96|369:110,1,166.500006351471,10|2,0:0|0:0,0:0:0:0:
465,64,226166,1,2,3:2:0:0:
470,48,226258,1,2,3:2:0:0:
475,32,226349,5,2,1:2:0:0:
358,27,226532,1,2,1:2:0:0:
442,144,226715,1,2,0:0:0:0:
346,18,226898,1,2,1:2:0:0:
331,10,226990,1,2,1:2:0:0:
316,2,227081,2,0,L|215:19,1,83.2500031757356,14|0,0:0|0:0,0:0:0:0:
245,155,227447,2,0,L|162:141,1,83.2500031757356,2|0,1:2|0:0,0:0:0:0:
13,21,227813,37,10,0:0:0:0:
6,146,227996,1,2,1:2:0:0:
15,35,228179,1,2,1:2:0:0:
112,198,228362,1,10,0:0:0:0:
203,70,228544,5,2,1:2:0:0:
118,208,228727,1,10,0:0:0:0:
123,23,228910,37,10,0:0:0:0:
191,262,229093,1,10,0:0:0:0:
422,91,229277,6,0,B|404:46|361:46|361:46|313:81|300:174|361:230,1,288.599986788941,6|8,0:0|0:0,0:0:0:0:
462,311,230374,1,2,0:0:0:0:
372,363,230557,1,2,1:2:0:0:
357,360,230648,1,2,0:0:0:0:
342,359,230740,2,0,B|284:347|284:347|187:376,2,144.299993394471,2|2|10,1:2|1:2|0:0,0:0:0:0:
302,157,231837,38,0,P|259:129|193:148,1,108.224995045853,2|0,0:0|0:0,0:0:0:0:
193,151,232203,2,0,P|242:119|223:33,2,144.299993394471,2|2|10,1:2|0:2|0:0,0:0:0:0:
31,176,233301,1,2,0:2:0:0:
83,102,233484,1,2,1:2:0:0:
119,187,233666,2,0,B|106:235|106:235|118:272|118:272|103:340,2,144.299993394471,0|0|10,1:2|1:2|0:0,0:0:0:0:
232,41,234764,6,0,B|271:24|271:24|350:60,1,108.224995045853,2|0,0:0|0:0,0:0:0:0:
342,64,235130,2,0,L|351:165,1,72.1499966972353,2|0,1:2|0:0,0:0:0:0:
215,288,235496,1,10,1:2:0:0:
239,129,235679,1,2,1:2:0:0:
363,206,235862,37,14,0:0:0:0:
360,220,236044,1,2,0:0:0:0:
357,234,236227,1,2,1:2:0:0:
354,248,236410,1,2,1:2:0:0:
197,309,236593,5,10,1:2:0:0:
431,306,236776,1,10,1:2:0:0:
269,224,236959,1,10,1:2:0:0:
456,175,237142,5,10,1:2:0:0:
456,175,237234,1,10,1:2:0:0:
456,175,237325,1,10,1:2:0:0:
178,121,237508,1,10,1:2:0:0:
350,46,237691,1,10,1:2:0:0:
260,15,237874,1,10,1:2:0:0:
260,15,238059,38,0,L|165:27,1,88.8,6|8,0:0|0:0,0:0:0:0:
171,26,239382,1,2,0:0:0:0:
78,86,239823,2,0,P|65:103|62:131,2,44.4,2|0|8,1:2|1:2|0:0,0:0:0:0:
138,126,241147,1,2,0:0:0:0:
197,178,241367,1,2,0:0:0:0:
175,250,241588,2,0,L|183:294,1,44.4,2|0,1:2|0:0,0:0:0:0:
103,300,242470,2,0,L|95:344,1,44.4,10|0,0:0|0:0,0:0:0:0:
172,373,243132,1,2,0:0:0:0:
242,320,243353,2,0,P|268:310|286:316,2,44.4,2|0|8,1:2|1:2|0:0,0:0:0:0:
242,320,244676,1,2,0:0:0:0:
181,268,244897,37,2,0:0:0:0:
182,258,245007,1,2,0:0:0:0:
183,248,245117,1,2,1:2:0:0:
229,189,245338,1,10,0:0:0:0:
309,195,245559,1,0,1:2:0:0:
329,330,245779,1,10,0:0:0:0:
357,258,246000,1,8,0:0:0:0:
309,195,246220,1,8,0:3:0:0:
229,189,246441,1,4,0:3:0:0:
229,189,246882,38,0,L|177:197,1,49.949998475647,2|2,0:0|0:0,0:0:0:0:
93,224,247613,1,2,0:0:0:0:
50,54,247979,37,2,0:0:0:0:
69,61,248162,1,2,0:0:0:0:
85,66,248345,1,2,0:0:0:0:
93,224,248711,37,8,0:0:0:0:
255,127,248894,1,10,0:0:0:0:
26,148,249077,37,10,0:0:0:0:
267,228,249260,1,8,0:0:0:0:
78,236,249442,5,10,0:0:0:0:
159,170,249625,1,8,0:0:0:0:
177,276,249808,38,0,L|169:368,1,88.8,6|2,1:2|0:0,0:0:0:0:
179,260,250357,1,2,0:0:0:0:
350,207,250540,6,0,L|342:299,1,88.8,10|2,0:0|0:2,0:0:0:0:
352,191,251089,1,2,1:2:0:0:
164,85,251272,38,0,B|193:63|231:78|231:78|252:103|289:105,2,133.199995935059,2|2|10,1:2|1:2|0:0,0:0:0:0:
36,197,252369,1,2,0:0:0:0:
25,221,252461,1,2,0:0:0:0:
23,247,252552,1,2,0:0:0:0:
29,272,252644,1,2,0:0:0:0:
46,291,252735,6,0,L|193:316,1,133.199995935059,2|2,1:2|0:0,0:0:0:0:
338,272,253284,1,2,0:0:0:0:
276,198,253467,2,0,L|199:205,1,66.5999979675294,10|2,0:0|0:0,0:0:0:0:
243,282,253833,37,2,1:2:0:0:
371,184,254016,1,8,0:0:0:0:
504,369,254199,6,0,B|435:390|441:321|373:338,2,133.199995935059,2|2|10,1:2|1:2|0:0,0:0:0:0:
497,94,255296,1,2,0:0:0:0:
479,83,255388,1,2,0:0:0:0:
461,73,255479,1,2,0:0:0:0:
443,62,255571,1,2,0:0:0:0:
424,54,255662,2,0,B|378:37|378:37|294:65,2,133.199995935059,2|0|10,1:2|0:0|0:0,0:0:0:0:
263,212,256760,1,2,0:0:0:0:
243,213,256851,1,2,0:0:0:0:
225,204,256942,1,2,0:0:0:0:
210,190,257034,1,2,0:0:0:0:
204,170,257125,38,0,L|219:24,2,133.199995935059,2|2|10,1:2|1:2|0:0,0:0:0:0:
94,319,258223,2,0,P|55:305|53:245,1,99.899996951294,2|0,0:0|0:0,0:0:0:0:
59,230,258589,5,2,1:2:0:0:
119,177,258772,1,2,0:0:0:0:
124,97,258955,1,2,0:0:0:0:
64,43,259138,1,2,1:2:0:0:
119,177,259321,37,10,0:0:0:0:
161,243,259503,1,2,0:0:0:0:
240,254,259686,1,2,0:0:0:0:
313,221,259869,1,2,0:0:0:0:
428,174,260052,6,0,B|356:182|374:123|292:139,2,133.199995935059,2|2|10,1:2|1:2|0:0,0:0:0:0:
499,50,261150,1,0,1:2:0:0:
424,22,261333,1,8,0:0:0:0:
428,174,261516,37,2,1:2:0:0:
502,146,261699,1,0,0:0:0:0:
373,96,261882,1,2,0:0:0:0:
373,96,262064,1,2,1:2:0:0:
373,96,262247,2,0,L|265:112,1,99.899996951294,10|0,0:0|0:0,0:0:0:0:
244,115,262613,1,2,0:0:0:0:
214,110,262705,1,2,0:0:0:0:
184,105,262796,1,2,0:0:0:0:
154,100,262888,1,2,0:0:0:0:
124,95,262979,1,2,1:2:0:0:
56,26,263162,5,2,0:0:0:0:
26,120,263345,1,2,1:2:0:0:
7,143,263436,1,2,0:0:0:0:
8,173,263528,1,2,0:0:0:0:
26,196,263619,1,2,0:0:0:0:
52,209,263711,2,0,P|82:265|46:338,1,133.199995935059,10|0,0:0|0:0,0:0:0:0:
2,276,264260,1,2,1:2:0:0:
137,190,264442,6,0,B|159:175|202:182|202:182|222:214|275:217,2,133.199995935059,2|0|10,1:2|1:2|0:0,0:0:0:0:
80,38,265540,1,2,1:2:0:0:
167,76,265723,1,10,0:0:0:0:
66,28,265906,5,2,1:2:0:0:
81,138,266089,1,0,0:0:0:0:
178,64,266272,2,0,P|225:45|287:79,1,99.899996951294,2|0,1:2|0:0,0:0:0:0:
293,78,266638,5,8,0:0:0:0:
446,146,266821,1,8,0:0:0:0:
311,213,267003,1,8,0:0:0:0:
415,262,267186,1,8,0:0:0:0:
337,315,267368,5,2,0:0:0:0:
261,339,267733,1,2,0:0:0:0:
191,300,268099,1,2,0:0:0:0:
114,324,268465,1,2,0:0:0:0:
337,315,268831,37,2,0:0:0:0:
261,339,269197,1,2,0:0:0:0:
191,300,269563,1,2,0:0:0:0:
266,166,269928,37,2,0:0:0:0:
266,159,270111,1,2,0:0:0:0:
266,150,270294,1,0,0:0:0:0:
