osu file format v14

[General]
AudioFilename: audio.mp3
AudioLeadIn: 0
PreviewTime: 55218
Countdown: 0
SampleSet: Soft
StackLeniency: 0.2
Mode: 0
LetterboxInBreaks: 0
WidescreenStoryboard: 0

[Editor]
Bookmarks: 1580,14985,22426,37310,52194,59636,74519,85682,100566,115450,130333,145217,156380,171264,178705,193589,204752,219636,234519,248751
DistanceSpacing: 1.67
BeatDivisor: 4
GridSize: 32
TimelineZoom: 1.6

[Metadata]
Title:Kawaki wo Ameku
TitleUnicode:カワキヲアメク
Artist:Minami
ArtistUnicode:美波
Creator:winber1
Version:Overcast
Source:
Tags:
BeatmapID:1938211
BeatmapSetID:927959

[Difficulty]
HPDrainRate:5.4
CircleSize:4.7
OverallDifficulty:8.2
ApproachRate:9.3
SliderMultiplier:1.4
SliderTickRate:1

[Events]
//Background and Video events
0,0,"um.png",0,0
//Break Periods
//Storyboard Layer 0 (Background)
//Storyboard Layer 1 (Fail)
//Storyboard Layer 2 (Pass)
//Storyboard Layer 3 (Foreground)
//Storyboard Sound Samples

[TimingPoints]
1580,437.956204379562,4,2,1,20,1,0
1580,-200,4,2,1,20,0,0
2455,-250,4,2,1,20,0,0
7711,-100,4,2,1,20,0,0
9463,-117.647058823529,4,2,1,20,0,0
10339,-250,4,2,1,20,0,0
10448,-250,4,2,1,20,0,0
13125,465.116279069767,4,2,1,30,1,0
13125,-166.666666666667,4,2,1,30,0,0
14985,-40,4,2,1,60,0,1
15101,-40,4,2,1,60,0,0
16380,-50,4,2,1,60,0,0
16845,-40,4,2,1,60,0,1
16962,-40,4,2,1,60,0,0
17194,-50,4,2,1,60,0,0
18706,-40,4,2,1,60,0,1
18822,-40,4,2,1,60,0,0
19055,-66.6666666666667,4,2,1,60,0,0
20101,-50,4,2,1,60,0,0
20566,-33.3333333333333,4,2,1,60,0,1
20683,-33.3333333333333,4,2,1,60,0,0
20799,-66.6666666666667,4,2,1,60,0,0
21845,-100,4,2,1,60,0,0
22427,-133.333333333333,4,2,1,45,0,0
22776,-50,4,2,1,45,0,0
24055,-100,4,2,1,45,0,0
24287,-133.333333333333,4,2,1,45,0,0
24636,-50,4,2,1,45,0,0
26148,-83.3333333333333,4,2,1,45,0,0
28124,-133.333333333333,4,2,1,45,0,0
28938,-83.3333333333333,4,2,1,45,0,0
29171,-133.333333333333,4,2,1,45,0,0
30566,-100,4,2,1,50,0,0
31962,-83.3333333333333,4,2,1,50,0,0
33590,-83.3333333333333,4,2,1,50,0,0
34055,-133.333333333333,4,2,1,50,0,0
35218,-100,4,2,1,50,0,0
35450,-133.333333333333,4,2,1,50,0,0
35799,-50,4,2,1,50,0,0
36613,-100,4,2,1,50,0,0
36845,-50,4,2,1,50,0,0
37078,-66.6666666666667,4,2,1,50,0,0
37311,-66.6666666666667,4,2,2,70,0,0
45450,-100,4,2,2,70,0,0
46613,-66.6666666666667,4,2,2,70,0,0
51729,-100,4,2,2,70,0,0
52194,-55.5555555555556,4,2,2,70,0,0
55218,-50,4,2,3,70,0,0
55683,-44.4444444444445,4,2,3,70,0,0
55915,-40,4,2,3,70,0,1
56148,-33.3333333333333,4,2,3,70,0,1
56380,-28.5714285714286,4,2,3,70,0,1
56613,-25,4,2,3,70,0,1
56845,-22.2222222222222,4,2,3,70,0,1
57078,-20,4,2,3,70,0,1
57311,-18.1818181818182,4,2,3,70,0,1
57543,-20,4,2,3,70,0,1
58473,-133.333333333333,4,2,3,70,0,1
58706,-500,4,2,3,70,0,0
59055,-500,4,2,3,5,0,0
59171,-500,4,2,3,70,0,0
59520,-500,4,2,3,5,0,0
59636,-28.5714285714286,4,2,3,70,0,1
60101,-36.3636363636364,4,2,3,70,0,1
60450,-50,4,2,3,70,0,1
61148,-222.222222222222,4,2,3,70,0,1
61497,-28.5714285714286,4,2,3,70,0,1
61962,-36.3636363636364,4,2,3,70,0,1
62427,-50,4,2,3,70,0,1
63008,-222.222222222222,4,2,3,70,0,1
63357,-40,4,2,3,70,0,1
64287,-100,4,2,3,70,0,1
66264,-66.6666666666667,4,2,3,70,0,1
66845,-33.3333333333333,4,2,3,70,0,1
67078,-33.3333333333333,4,2,2,70,0,1
67194,-33.3333333333333,4,2,3,70,0,1
67543,-100,4,2,3,70,0,1
67776,-50,4,2,3,70,0,1
68008,-100,4,2,3,70,0,1
68241,-50,4,2,3,70,0,1
68706,-100,4,2,3,70,0,1
68938,-50,4,2,3,70,0,1
69171,-100,4,2,3,70,0,1
69869,-50,4,2,3,70,0,1
70101,-100,4,2,3,70,0,1
70334,-50,4,2,3,70,0,1
70799,-44.4444444444445,4,2,3,70,0,1
71031,-40,4,2,3,70,0,1
71264,-33.3333333333333,4,2,3,70,0,1
71496,-28.5714285714286,4,2,3,70,0,1
71729,-25,4,2,3,70,0,1
71961,-22.2222222222222,4,2,3,70,0,1
72194,-20,4,2,3,70,0,1
72427,-18.1818181818182,4,2,3,70,0,1
73357,-133.333333333333,4,2,3,70,0,1
73590,-133.333333333333,4,2,3,70,0,0
73706,-133.333333333333,4,2,3,40,0,0
73938,-133.333333333333,4,2,3,70,0,0
74055,-133.333333333333,4,2,3,40,0,0
74520,-28.5714285714286,4,2,3,70,0,1
74985,-36.3636363636364,4,2,3,70,0,1
75218,-50,4,2,3,70,0,1
75683,-166.666666666667,4,2,3,70,0,1
76380,-28.5714285714286,4,2,3,70,0,1
76845,-36.3636363636364,4,2,3,70,0,1
77078,-50,4,2,3,70,0,1
77427,-166.666666666667,4,2,3,70,0,1
78008,-33.3333333333333,4,2,3,70,0,1
78241,-100,4,2,3,70,0,1
78473,-33.3333333333333,4,2,3,70,0,1
79171,-100,4,2,3,70,0,1
79404,-33.3333333333333,4,2,3,70,0,1
79636,-100,4,2,3,70,0,1
80101,-40,4,2,3,70,0,1
80334,-100,4,2,3,70,0,1
80566,-50,4,2,3,70,0,1
81031,-100,4,2,3,70,0,1
81031,-100,4,2,3,70,0,1
81962,-50,4,2,2,70,0,1
82078,-50,4,2,3,70,0,1
83008,-100,4,2,3,40,0,1
83357,-100,4,2,3,70,0,1
83822,-100,4,2,2,50,0,0
85218,-166.666666666667,4,2,1,50,0,0
85683,-100,4,2,2,50,0,0
85799,-100,4,2,1,50,0,0
93124,-66.6666666666667,4,2,2,50,0,0
96380,-50,4,2,2,50,0,0
96845,-133.333333333333,4,2,2,50,0,0
97311,-66.6666666666667,4,2,2,50,0,0
97776,-40,4,2,2,50,0,0
98473,-66.6666666666667,4,2,2,50,0,0
100566,-250,4,2,2,60,0,0
101031,-50,4,2,2,60,0,0
101729,-100,4,2,2,60,0,0
102892,-66.6666666666667,4,2,2,60,0,0
103241,-133.333333333333,4,2,2,60,0,0
103590,-66.6666666666667,4,2,2,60,0,0
104287,-250,4,2,2,60,0,0
104752,-50,4,2,2,60,0,0
105101,-66.6666666666667,4,2,2,60,0,0
105450,-100,4,2,2,60,0,0
107311,-50,4,2,2,60,0,0
107659,-66.6666666666667,4,2,2,60,0,0
108008,-66.6666666666667,4,2,2,60,0,0
108706,-100,4,2,2,60,0,0
109636,-133.333333333333,4,2,2,60,0,0
110101,-66.6666666666667,4,2,2,60,0,0
110334,-50,4,2,2,60,0,0
110683,-100,4,2,2,60,0,0
111729,-50,4,2,2,60,0,0
111962,-100,4,2,2,60,0,0
112194,-66.6666666666667,4,2,2,60,0,0
112543,-100,4,2,2,60,0,0
114055,-66.6666666666667,4,2,2,60,0,0
114404,-133.333333333333,4,2,2,60,0,0
114752,-66.6666666666667,4,2,2,60,0,0
115450,-60.6060606060606,4,2,2,60,0,0
118706,-100,4,2,2,60,0,0
119171,-60.6060606060606,4,2,2,60,0,0
122892,-58.8235294117647,4,2,2,60,0,0
126613,-40,4,2,3,70,0,1
126846,-33.3333333333333,4,2,3,70,0,1
127078,-28.5714285714286,4,2,3,70,0,1
127311,-25,4,2,3,70,0,1
127543,-22.2222222222222,4,2,3,70,0,1
127776,-20,4,2,3,70,0,1
128009,-18.1818181818182,4,2,3,70,0,1
128241,-20,4,2,3,70,0,1
129171,-133.333333333333,4,2,3,70,0,1
129404,-66.6666666666667,4,2,3,40,0,0
130334,-28.5714285714286,4,2,3,75,0,1
130799,-33.3333333333333,4,2,3,75,0,1
131264,-50,4,2,3,75,0,1
131497,-100,4,2,3,75,0,1
132194,-28.5714285714286,4,2,3,75,0,1
132659,-33.3333333333333,4,2,3,75,0,1
133124,-50,4,2,3,75,0,1
133357,-100,4,2,3,75,0,1
133822,-200,4,2,3,75,0,1
135450,-200,4,2,3,75,0,1
136845,-66.6666666666667,4,2,3,75,0,1
137311,-40,4,2,3,75,0,1
137776,-33.3333333333333,4,2,3,75,0,1
138008,-100,4,2,3,75,0,1
138473,-33.3333333333333,4,2,3,75,0,1
138706,-100,4,2,3,75,0,1
138938,-33.3333333333333,4,2,3,75,0,1
139636,-100,4,2,3,75,0,1
139869,-33.3333333333333,4,2,3,75,0,1
140566,-100,4,2,3,75,0,1
140799,-33.3333333333333,4,2,3,75,0,1
141031,-100,4,2,3,75,0,1
141497,-44.4444444444445,4,2,3,75,0,1
141729,-40,4,2,3,75,0,1
141962,-33.3333333333333,4,2,3,75,0,1
142194,-28.5714285714286,4,2,3,75,0,1
142427,-25,4,2,3,75,0,1
142659,-22.2222222222222,4,2,3,75,0,1
142892,-20,4,2,3,75,0,1
143125,-18.1818181818182,4,2,3,75,0,1
144055,-133.333333333333,4,2,3,75,0,1
144287,-133.333333333333,4,2,3,75,0,0
144404,-133.333333333333,4,2,3,40,0,0
144636,-133.333333333333,4,2,3,75,0,0
144752,-133.333333333333,4,2,3,40,0,0
145218,-28.5714285714286,4,2,3,75,0,1
145683,-33.3333333333333,4,2,3,75,0,1
146148,-50,4,2,3,75,0,1
146380,-250,4,2,3,75,0,1
147078,-50,4,2,3,75,0,1
147311,-250,4,2,3,75,0,1
148008,-50,4,2,3,75,0,1
148241,-250,4,2,3,75,0,1
148938,-50,4,2,3,75,0,1
150799,-40,4,2,3,75,0,1
151031,-133.333333333333,4,2,3,75,0,1
151264,-40,4,2,3,75,0,1
151497,-133.333333333333,4,2,3,75,0,1
151729,-50,4,2,3,75,0,1
153008,-50,4,2,3,75,0,1
153706,-100,4,2,3,40,0,1
154055,-100,4,2,3,75,0,1
154520,-66.6666666666667,4,2,2,50,0,0
154869,-66.6666666666667,4,2,1,5,0,0
154985,-66.6666666666667,4,2,2,50,0,0
155799,-66.6666666666667,4,2,1,5,0,0
155915,-250,4,2,1,50,0,0
156380,-100,4,2,2,50,0,0
159636,-133.333333333333,4,2,2,50,0,0
160101,-100,4,2,2,50,0,0
167078,-133.333333333333,4,2,2,50,0,0
167776,-100,4,2,2,50,0,0
170566,-66.6666666666667,4,2,2,50,0,0
171264,-57.1428571428571,4,2,2,70,0,0
176845,-25,4,2,3,70,0,1
177776,-500,4,2,3,70,0,0
178124,-500,4,2,3,40,0,0
178241,-500,4,2,3,70,0,0
178590,-500,4,2,3,40,0,0
178706,-25,4,2,3,75,0,1
179171,-33.3333333333333,4,2,3,75,0,1
179636,-50,4,2,3,75,0,1
179869,-100,4,2,3,75,0,1
180218,-250,4,2,3,75,0,1
180566,-25,4,2,3,75,0,1
181031,-33.3333333333333,4,2,3,75,0,1
181497,-50,4,2,3,75,0,1
181845,-100,4,2,3,75,0,1
182078,-250,4,2,3,75,0,1
182892,-33.3333333333333,4,2,3,75,0,1
183357,-100,4,2,3,75,0,1
183822,-50,4,2,3,75,0,1
185915,-33.3333333333333,4,2,3,75,0,1
186148,-33.3333333333333,4,2,2,75,0,1
186264,-33.3333333333333,4,2,3,75,0,1
186613,-100,4,2,3,75,0,1
186845,-33.3333333333333,4,2,3,75,0,1
187078,-100,4,2,3,75,0,1
187311,-33.3333333333333,4,2,3,75,0,1
187776,-100,4,2,3,75,0,1
188008,-33.3333333333333,4,2,3,75,0,1
188241,-100,4,2,3,75,0,1
188938,-33.3333333333333,4,2,3,75,0,1
189171,-100,4,2,3,75,0,1
189636,-50,4,2,3,75,0,1
189869,-44.4444444444445,4,2,3,75,0,1
190101,-40,4,2,3,75,0,1
190334,-33.3333333333333,4,2,3,75,0,1
190566,-28.5714285714286,4,2,3,75,0,1
190799,-25,4,2,3,75,0,1
191031,-22.2222222222222,4,2,3,75,0,1
191264,-20,4,2,3,75,0,1
191497,-18.1818181818182,4,2,3,75,0,1
192427,-133.333333333333,4,2,3,75,0,1
192659,-133.333333333333,4,2,3,75,0,0
192776,-133.333333333333,4,2,3,40,0,0
193008,-133.333333333333,4,2,3,75,0,0
193124,-133.333333333333,4,2,3,40,0,0
193590,-25,4,2,3,75,0,1
194055,-33.3333333333333,4,2,3,75,0,1
194287,-50,4,2,3,75,0,1
194752,-166.666666666667,4,2,3,75,0,1
195450,-25,4,2,3,75,0,1
195915,-33.3333333333333,4,2,3,75,0,1
196380,-100,4,2,3,75,0,1
196845,-40,4,2,3,75,0,1
197078,-33.3333333333333,4,2,3,75,0,1
197311,-100,4,2,3,75,0,1
197543,-33.3333333333333,4,2,3,75,0,1
198241,-100,4,2,3,75,0,1
198473,-33.3333333333333,4,2,3,75,0,1
198706,-100,4,2,3,75,0,1
199171,-40,4,2,3,75,0,1
199404,-100,4,2,3,75,0,1
199636,-40,4,2,3,75,0,1
199869,-100,4,2,3,75,0,1
200799,-50,4,2,3,75,0,1
202078,-100,4,2,3,40,0,1
202427,-100,4,2,3,75,0,1
202892,-100,4,2,2,50,0,0
204287,-40,4,2,1,50,0,0
204636,-40,4,2,1,5,0,0
204752,-44.4444444444445,4,2,3,75,0,1
206613,-40,4,2,3,75,0,1
206845,-44.4444444444445,4,2,3,75,0,1
208473,-40,4,2,3,75,0,1
208822,-44.4444444444445,4,2,3,75,0,1
212194,-40,4,2,2,75,0,1
212427,-44.4444444444445,4,2,3,75,0,1
215915,-40,4,2,3,75,0,1
216148,-44.4444444444445,4,2,3,75,0,1
218706,-44.4444444444445,4,2,3,75,0,0
218822,-44.4444444444445,4,2,3,40,0,0
219055,-44.4444444444445,4,2,3,75,0,0
219287,-44.4444444444445,4,2,3,40,0,0
219520,-44.4444444444445,4,2,3,75,0,0
219636,-40,4,2,3,75,0,1
220101,-40,4,2,3,75,0,1
223822,-33.3333333333333,4,2,3,75,0,1
224752,-28.5714285714286,4,2,3,75,0,1
225450,-33.3333333333333,4,2,3,75,0,1
225915,-40,4,2,3,75,0,1
232776,-100,4,2,3,40,0,1
233008,-100,4,2,3,75,0,1
233124,-100,4,2,3,40,0,1
234404,-100,4,2,3,75,0,0
234520,-90.9090909090909,4,2,2,75,0,1
234636,-90.9090909090909,4,2,1,5,0,0
238241,437.956204379562,4,2,1,5,1,0
238241,-250,4,2,1,20,0,0

[Colours]
Combo1 : 92,30,149
Combo2 : 250,248,248
Combo3 : 193,203,219
Combo4 : 193,162,253
Combo5 : 119,184,249
Combo6 : 158,67,192
Combo7 : 24,106,197
Combo8 : 168,9,13

[HitObjects]
10,348,1580,6,0,L|15:380,2,29.1666666666667
53,286,2456,2,0,L|44:350,1,56
14,376,3331,6,0,L|9:345,1,28
82,350,3769,2,0,L|141:339,1,56
173,311,4353,2,0,L|167:340,1,18.6666666666667
236,342,4645,1,0,0:0:0:0:
16,360,5083,102,0,L|13:382,2,14
139,377,5521,2,0,L|75:386,2,56
76,315,6835,1,0,0:0:0:0:
473,374,7711,22,0,P|498:327|503:275,1,105,0|0,0:0|3:0,0:0:0:0:
404,351,8148,2,0,P|409:299|434:253,1,105,0|0,0:0|3:0,0:0:0:0:
503,276,8587,1,0,0:0:0:0:
255,288,9463,6,0,B|359:276|342:349|455:336,1,208.250003972054,0|0,0:0|3:0,0:0:0:0:
503,276,10339,2,0,P|508:245|513:218,1,56
512,220,11543,70,0,P|498:174|441:239,1,182
439,237,13125,6,0,P|410:219|362:222,2,83.9999974365235
439,237,14520,1,4,0:0:0:0:
30,15,14985,69,6,0:0:0:0:
4,137,15101,2,0,P|32:168|80:161,1,87.5,0|0,0:0|3:0,0:0:0:0:
393,97,15334,5,0,0:0:0:0:
364,107,15566,1,0,0:0:0:0:
429,66,15799,101,0,0:0:0:0:
439,95,16031,1,0,0:0:0:0:
364,107,16264,5,0,0:1:0:0:
468,68,16380,2,0,P|406:98|418:161,1,140
482,369,16845,101,6,0:0:0:0:
508,247,16962,2,0,L|421:270,1,87.5,0|0,0:0|3:0,0:0:0:0:
130,341,17194,5,0,0:0:0:0:
159,331,17426,1,0,0:0:0:0:
94,372,17659,101,0,0:0:0:0:
84,343,17891,1,0,0:0:0:0:
159,331,18124,5,0,0:1:0:0:
55,370,18240,2,0,L|77:228,1,140
482,15,18706,101,6,0:0:0:0:
508,137,18823,2,0,L|421:114,1,87.5,0|0,0:0|3:0,0:0:0:0:
60,51,19055,6,0,L|68:102,1,52.5000020027161,0|0,0:0|3:0,0:0:0:0:
68,102,19287,2,0,L|121:115,1,52.5000020027161,0|0,0:0|3:0,0:0:0:0:
195,130,19520,102,0,L|187:181,1,52.5000020027161,0|0,0:0|3:0,0:0:0:0:
186,181,19752,2,0,L|133:193,1,52.5000020027161,0|0,0:0|3:0,0:0:0:0:
49,208,19985,5,0,0:0:0:0:
31,340,20101,2,0,L|171:361,1,140
477,249,20566,102,0,L|458:359,1,105.000004005432,6|0,0:0|0:0,0:0:0:0:
459,352,20799,22,0,P|433:308|437:252,1,105.000004005432
458,177,21148,2,0,P|432:221|382:246,1,105.000004005432
306,262,21497,2,0,L|311:224,3,35.0000013351441
306,262,21846,2,0,P|357:261|403:292,1,105.000004005432
107,359,22427,22,0,L|102:302,1,52.5000020027161,2|0,0:0|0:0,0:0:0:0:
101,237,22776,2,0,L|86:383,1,140,2|0,0:0|0:0,0:0:0:0:
17,299,23124,1,2,0:0:0:0:
484,219,23590,5,0,0:0:0:0:
482,232,23706,1,0,0:0:0:0:
480,245,23822,1,8,0:0:0:0:
478,258,23938,1,0,0:0:0:0:
407,221,24055,2,0,L|371:214,1,35,0|8,0:0|0:0,0:0:0:0:
306,271,24287,102,0,L|300:216,1,52.5000020027161,2|0,0:0|0:0,0:0:0:0:
333,149,24636,2,0,L|325:301,1,140,2|0,0:0|0:0,0:0:0:0:
407,221,24985,1,2,0:0:0:0:
251,215,25450,1,0,0:0:0:0:
129,164,25683,5,8,0:0:0:0:
145,176,25799,1,0,0:0:0:0:
153,195,25915,1,0,0:0:0:0:
83,224,26148,102,0,L|78:266,1,41.9999987182618,2|0,0:0|0:0,0:0:0:0:
35,170,26380,2,0,L|40:212,1,41.9999987182618,0|2,0:0|0:0,0:0:0:0:
78,110,26613,1,0,0:0:0:0:
149,344,26845,5,2,0:0:0:0:
149,344,26962,1,0,0:0:0:0:
204,285,27078,101,0,0:0:0:0:
229,285,27194,1,0,0:0:0:0:
249,299,27311,1,0,0:0:0:0:
259,321,27427,1,0,0:0:0:0:
259,321,27659,5,0,0:0:0:0:
283,313,27776,2,0,L|290:269,1,41.9999987182618
139,237,28008,101,2,0:0:0:0:
71,247,28124,2,0,L|61:184,1,52.5000020027161,0|2,0:0|0:0,0:0:0:0:
92,128,28473,5,0,0:0:0:0:
119,146,28590,1,0,0:0:0:0:
161,66,28706,101,2,0:0:0:0:
175,95,28823,1,0,0:0:0:0:
250,111,28938,2,0,L|295:122,1,41.9999987182618
435,24,29171,6,0,L|499:16,2,52.5000020027161,2|8|0,0:0|0:0|0:0,0:0:0:0:
358,32,29869,1,2,0:0:0:0:
374,232,30101,1,0,0:0:0:0:
403,101,30334,1,0,0:0:0:0:
308,281,30566,102,0,P|364:249|435:264,1,140,2|0,0:0|0:0,0:0:0:0:
432,281,31148,1,0,0:0:0:0:
414,278,31264,1,8,0:0:0:0:
396,275,31380,1,0,0:0:0:0:
378,272,31497,1,0,0:0:0:0:
296,262,31729,1,2,0:0:0:0:
147,311,31962,6,0,L|140:262,1,41.9999987182618,0|2,0:0|0:0,0:0:0:0:
74,283,32194,2,0,L|81:332,1,41.9999987182618
147,311,32427,102,0,L|140:262,1,41.9999987182618,2|0,0:0|0:0,0:0:0:0:
74,283,32659,2,0,L|81:332,1,41.9999987182618
79,324,32892,6,0,L|88:241,1,83.9999974365235,0|8,0:0|0:0,0:0:0:0:
96,170,33241,1,0,0:0:0:0:
96,170,33357,1,0,0:0:0:0:
20,18,33590,102,0,L|29:65,1,41.9999987182618,2|0,0:0|0:0,0:0:0:0:
35,91,33822,1,0,0:0:0:0:
95,41,34055,2,0,L|147:51,1,52.5000020027161,0|2,0:0|0:0,0:0:0:0:
460,86,34752,5,0,0:0:0:0:
462,98,34868,1,0,0:0:0:0:
464,110,34985,1,8,0:0:0:0:
466,122,35101,1,0,0:0:0:0:
389,116,35218,2,0,L|348:124,1,35,0|8,0:0|0:0,0:0:0:0:
384,194,35450,102,0,L|394:248,1,52.5000020027161,2|0,0:0|0:0,0:0:0:0:
408,315,35799,2,0,L|419:174,1,140,2|0,0:0|0:0,0:0:0:0:
490,252,36148,1,2,0:0:0:0:
88,353,36613,6,0,L|97:309,1,35,2|2,0:0|0:0,0:0:0:0:
20,275,36845,5,8,0:0:0:0:
16,252,36962,1,0,0:0:0:0:
95,318,37078,2,0,P|116:295|125:263,1,52.5000020027161,0|8,0:0|0:0,0:0:0:0:
56,36,37311,6,0,B|133:26|128:81|207:69,1,157.500006008148,6|2,0:0|0:0,0:0:0:0:
232,60,37776,2,0,P|221:88|220:118,1,52.5000020027161,8|0,0:0|0:0,0:0:0:0:
233,179,38008,1,2,0:0:0:0:
372,263,38241,2,0,P|383:235|384:205,1,52.5000020027161
384,212,38473,2,0,P|336:211|292:251,1,105.000004005432,2|8,0:0|0:0,0:0:0:0:
315,341,38822,1,0,0:0:0:0:
245,366,38938,2,0,P|224:352|195:350,1,52.5000020027161
197,349,39171,101,2,0:0:0:0:
51,366,39404,1,0,0:0:0:0:
73,296,39520,1,2,0:0:0:0:
36,232,39636,2,0,L|30:180,1,52.5000020027161,8|0,0:0|0:0,0:0:0:0:
48,326,39869,5,2,0:0:0:0:
123,266,39985,2,0,P|178:267|215:303,1,105.000004005432
213,299,40334,2,0,P|208:266|204:232,1,52.5000020027161,2|0,0:0|0:0,0:0:0:0:
311,207,40566,2,0,P|307:233|304:259,1,52.5000020027161,8|0,0:0|0:0,0:0:0:0:
381,324,40799,2,0,P|390:299|400:275,1,52.5000020027161
400,275,41031,101,2,0:0:0:0:
379,157,41264,5,0,0:0:0:0:
450,144,41380,1,2,0:0:0:0:
395,140,41497,1,8,0:0:0:0:
464,114,41613,1,0,0:0:0:0:
399,121,41729,1,2,0:0:0:0:
462,84,41845,2,0,P|409:70|381:27,1,105.000004005432
382,29,42194,2,0,P|383:56|375:85,1,52.5000020027161,2|0,0:0|0:0,0:0:0:0:
308,182,42427,101,8,0:0:0:0:
69,225,42659,1,0,0:0:0:0:
69,225,42776,1,0,0:0:0:0:
44,294,42892,5,2,0:0:0:0:
82,356,43008,2,0,L|75:301,1,52.5000020027161
138,261,43241,101,2,0:0:0:0:
100,323,43357,2,0,L|107:268,1,52.5000020027161,8|0,0:0|0:0,0:0:0:0:
123,141,43590,1,0,0:0:0:0:
123,141,43706,1,0,0:0:0:0:
96,114,43822,5,0,0:0:0:0:
179,137,43938,1,0,0:0:0:0:
247,85,44055,1,2,0:0:0:0:
222,286,44287,1,8,0:0:0:0:
341,363,44520,102,0,P|335:331|329:304,1,52.5000020027161
455,324,44752,2,0,P|462:269|470:218,2,105.000004005432,6|0|8,0:0|0:0|0:0,0:0:0:0:
485,106,45450,2,0,P|452:107|417:92,1,70,2|0,0:0|0:0,0:0:0:0:
418,91,45915,2,0,P|435:117|439:155,1,70,2|8,0:0|0:0,0:0:0:0:
439,154,46380,1,0,0:0:0:0:
400,347,46613,5,2,0:0:0:0:
333,279,46845,1,0,0:0:0:0:
290,300,46962,1,2,0:0:0:0:
243,290,47078,2,0,P|239:321|234:344,1,52.5000020027161,8|0,0:0|0:0,0:0:0:0:
234,341,47311,1,2,0:0:0:0:
144,368,47543,1,0,0:0:0:0:
101,347,47660,1,0,0:0:0:0:
54,357,47776,2,0,P|50:326|45:303,1,52.5000020027161,2|0,0:0|0:0,0:0:0:0:
30,234,48008,1,8,0:0:0:0:
237,139,48241,1,0,0:0:0:0:
456,185,48473,101,2,0:0:0:0:
389,248,48706,1,0,0:0:0:0:
372,202,48822,1,2,0:0:0:0:
439,139,48938,1,8,0:0:0:0:
200,15,49171,5,8,0:0:0:0:
121,43,49287,1,8,0:0:0:0:
166,114,49404,5,8,0:0:0:0:
138,193,49520,1,8,0:0:0:0:
104,203,49636,5,2,0:0:0:0:
104,203,49752,1,2,0:0:0:0:
142,275,49869,1,0,0:0:0:0:
28,365,50101,38,0,B|156:357|109:296|217:288,1,210.000008010865,6|2,0:0|0:0,0:0:0:0:
398,347,50799,2,0,B|422:366|422:366|400:239,1,157.500006008148,8|0,0:0|0:0,0:0:0:0:
501,275,51264,6,0,L|495:329,1,52.5000020027161,2|0,0:0|0:0,0:0:0:0:
395,216,51497,1,8,0:0:0:0:
382,116,51729,2,0,L|377:81,2,35,8|2|2,0:0|0:0|0:0,0:0:0:0:
135,25,52194,54,0,P|82:52|71:114,1,125.999996154785,6|0,0:0|0:0,0:0:0:0:
129,162,52543,1,2,0:0:0:0:
204,156,52659,2,0,L|190:292,1,125.999996154785,8|0,0:0|0:0,0:0:0:0:
191,281,53124,69,0,0:0:0:0:
261,252,53241,1,0,0:0:0:0:
317,302,53357,2,0,L|321:364,1,62.9999980773926,2|0,0:0|0:0,0:0:0:0:
471,334,53590,38,0,P|508:288|502:214,1,125.999996154785,8|0,0:0|0:0,0:0:0:0:
449,93,53938,1,0,0:0:0:0:
449,93,54055,2,0,L|453:155,1,62.9999980773926,2|0,0:0|0:0,0:0:0:0:
380,160,54287,2,0,L|376:98,1,62.9999980773926,0|2,0:0|0:0,0:0:0:0:
473,69,54520,38,0,L|345:77,1,125.999996154785,8|2,0:0|0:0,0:0:0:0:
199,117,54869,1,2,0:0:0:0:
166,49,54985,1,2,0:0:0:0:
56,209,55218,54,0,L|135:223,1,70,2|0,0:0|0:0,0:0:0:0:
124,221,55450,5,8,0:0:0:0:
149,320,55566,1,8,0:0:0:0:
221,299,55683,2,0,P|189:327|186:370,1,78.7500030040742,2|0,0:0|0:0,0:0:0:0:
323,280,55915,102,0,L|234:266,1,87.5,10|0,0:0|0:0,0:0:0:0:
398,296,56148,2,0,L|287:311,1,105.000004005432,10|0,0:0|0:0,0:0:0:0:
383,141,56380,6,0,L|365:266,1,122.500001168251,10|0,0:0|0:0,0:0:0:0:
399,66,56613,2,0,L|422:214,1,140,10|0,0:0|0:0,0:0:0:0:
169,61,56845,102,0,L|327:89,1,157.500006008148,10|0,0:0|0:0,0:0:0:0:
94,45,57078,2,0,L|278:28,1,175,10|0,0:0|0:0,0:0:0:0:
77,314,57311,6,0,L|117:123,1,192.500001835823,10|0,0:0|0:0,0:0:0:0:
45,110,57543,102,0,B|14:8|14:8|79:-18|159:6|203:85|186:157|186:157|190:173|190:173|180:182|180:182|184:196|184:196|174:210|174:210|180:226|180:226|168:236|168:236|237:276|191:327|241:357|241:357|284:350|299:315,1,700,14|2,0:0|0:0,0:0:0:0:
332,166,58124,1,2,0:0:0:0:
438,276,58241,5,8,0:0:0:0:
419,259,58357,1,2,0:0:0:0:
425,298,58473,2,0,L|432:331,1,26.2500010013581,2|0,0:0|0:0,0:0:0:0:
494,370,58706,6,0,L|498:345,1,21
237,295,59171,2,0,L|241:320,1,21
435,51,59636,70,0,B|451:3|516:-8|555:62|512:144|415:135,1,245.000002336502,4|0,0:0|0:0,0:0:0:0:
305,36,59985,1,2,0:0:0:0:
402,204,60101,2,0,P|413:154|424:107,1,96.2500009179115,8|0,0:0|0:0,0:0:0:0:
423,110,60334,5,2,0:0:0:0:
466,292,60450,1,0,0:0:0:0:
393,304,60566,2,0,P|384:261|378:232,1,70
362,166,60799,1,2,0:0:0:0:
362,166,60915,101,0,0:0:0:0:
345,241,61148,2,0,L|313:250,1,31.4999990386963
13,69,61497,6,0,B|37:8|37:8|107:31|116:105|76:157,1,245.000002336502,2|0,0:0|0:0,0:0:0:0:
142,319,61846,1,0,0:0:0:0:
131,199,61962,2,0,P|80:194|47:155,1,96.2500009179115,8|0,0:0|0:0,0:0:0:0:
50,162,62194,101,2,0:0:0:0:
61,282,62311,1,0,0:0:0:0:
221,207,62427,2,0,P|183:208|159:226,1,70
93,185,62659,1,2,0:0:0:0:
93,185,62776,5,0,0:0:0:0:
72,259,63008,2,0,L|103:268,1,31.4999990386963
426,51,63357,101,2,0:0:0:0:
442,161,63474,1,0,0:0:0:0:
372,200,63590,5,0,0:0:0:0:
358,239,63706,1,2,0:0:0:0:
286,251,63822,2,0,P|244:233|196:238,1,87.5,8|0,0:0|0:0,0:0:0:0:
63,326,64055,101,2,0:0:0:0:
141,345,64171,1,0,0:0:0:0:
203,235,64287,6,0,L|196:195,1,35
136,269,64520,2,0,L|170:262,1,35,2|0,0:0|0:0,0:0:0:0:
229,324,64752,2,0,P|264:330|296:344,1,70,8|0,0:0|0:0,0:0:0:0:
59,48,65218,101,2,0:0:0:0:
138,137,65334,1,0,0:0:0:0:
94,58,65450,5,0,0:0:0:0:
193,123,65566,1,2,0:0:0:0:
128,55,65683,101,8,0:0:0:0:
240,17,65799,1,0,0:0:0:0:
351,72,65915,5,2,0:0:0:0:
351,72,66031,1,0,0:0:0:0:
419,33,66148,101,0,0:0:0:0:
488,151,66264,2,0,P|463:147|437:143,1,52.5000020027161,2|0,0:0|0:0,0:0:0:0:
329,50,66497,5,2,0:0:0:0:
312,155,66613,1,8,0:0:0:0:
53,75,66845,102,0,L|101:180,1,105.000004005432
45,298,67078,6,0,B|13:353|13:353|163:317,1,210.000008010865,6|0,0:0|0:0,0:0:0:0:
155,318,67427,1,2,0:0:0:0:
257,265,67543,2,0,L|263:301,1,35,8|0,0:0|0:0,0:0:0:0:
262,299,67776,2,0,P|269:260|285:219,1,70
410,309,68008,2,0,L|386:337,1,35
388,335,68241,2,0,P|401:297|408:254,1,70,2|0,0:0|0:0,0:0:0:0:
309,372,68473,101,8,0:0:0:0:
343,70,68706,6,0,L|348:23,1,35
347,35,68938,2,0,P|375:52|414:57,1,70,2|0,0:0|0:0,0:0:0:0:
458,112,69171,2,0,P|478:109|495:102,1,35,2|0,0:0|0:0,0:0:0:0:
512,37,69404,101,8,0:0:0:0:
195,82,69636,6,0,L|190:129,1,35,2|0,0:0|0:0,0:0:0:0:
191,117,69869,2,0,P|162:99|123:94,1,70
81,40,70102,2,0,P|61:43|44:50,1,35,2|0,0:0|0:0,0:0:0:0:
47,48,70334,2,0,P|43:90|38:138,1,70,8|0,0:0|0:0,0:0:0:0:
17,350,70566,1,0,0:0:0:0:
115,330,70799,6,0,L|38:318,1,78.7500030040742,10|0,0:0|0:0,0:0:0:0:
191,348,71031,2,0,L|106:366,1,87.5,10|0,0:0|0:0,0:0:0:0:
348,266,71264,102,0,L|460:250,1,105.000004005432,10|0,0:0|0:0,0:0:0:0:
272,284,71496,2,0,L|400:308,1,122.500001168251,10|0,0:0|0:0,0:0:0:0:
153,162,71729,6,0,L|-1:141,1,140,10|0,0:0|0:0,0:0:0:0:
229,180,71961,2,0,L|61:207,1,157.500006008148,10|0,0:0|0:0,0:0:0:0:
297,41,72194,102,0,L|480:11,1,175,10|0,0:0|0:0,0:0:0:0:
221,59,72427,2,0,L|419:86,1,192.500001835823,10|0,0:0|0:0,0:0:0:0:
143,11,72659,6,0,P|132:100|33:128,1,192.500001835823,14|0,0:0|0:0,0:0:0:0:
15,100,72892,101,2,0:0:0:0:
127,129,73008,1,2,0:0:0:0:
156,250,73124,5,8,0:0:0:0:
185,240,73241,1,2,0:0:0:0:
179,274,73357,2,0,L|171:313,1,26.2500010013581,2|0,0:0|0:0,0:0:0:0:
276,248,73590,5,2,0:0:0:0:
373,201,73706,2,8,L|370:178,2,13.125000500679
482,229,73938,1,2,0:0:0:0:
385,283,74055,5,8,0:0:0:0:
379,264,74113,1,8,0:0:0:0:
367,249,74171,1,8,0:0:0:0:
352,237,74229,1,8,0:0:0:0:
334,232,74287,2,8,L|311:229,2,13.125000500679
70,362,74520,54,0,B|18:348|-19:282|26:206|26:206|80:220,1,245.000002336502,6|0,0:0|0:0,0:0:0:0:
123,288,74869,1,2,0:0:0:0:
149,123,74985,2,0,P|200:119|239:99,1,96.2500009179115,8|0,0:0|0:0,0:0:0:0:
239,98,75218,2,0,P|224:134|225:167,1,70,2|0,0:0|0:0,0:0:0:0:
381,348,75450,5,0,0:0:0:0:
405,277,75566,1,0,0:0:0:0:
335,290,75683,2,0,P|332:266|322:247,1,41.9999987182618,2|8,0:0|0:0,0:0:0:0:
324,250,76031,101,0,0:0:0:0:
324,250,76148,2,0,L|297:246,1,20.9999993591309
25,115,76380,6,0,P|122:110|42:44,1,245.000002336502,2|0,0:0|0:0,0:0:0:0:
54,37,76729,1,2,0:0:0:0:
151,193,76845,2,0,P|201:194|238:223,1,96.2500009179115,8|0,0:0|0:0,0:0:0:0:
236,221,77078,2,0,P|225:190|232:149,1,70,2|0,0:0|0:0,0:0:0:0:
380,43,77311,101,0,0:0:0:0:
444,90,77427,2,0,P|441:116|440:135,1,41.9999987182618,2|2,0:0|0:0,0:0:0:0:
428,272,77776,5,8,0:0:0:0:
229,153,78008,2,0,P|264:111|314:99,1,105.000004005432
311,98,78241,2,0,L|299:147,1,35,2|0,0:0|0:0,0:0:0:0:
364,201,78473,2,0,P|413:187|446:146,1,105.000004005432
446,146,78706,1,8,0:0:0:0:
205,287,78938,102,0,P|150:288|109:257,1,105.000004005432,2|0,0:0|0:0,0:0:0:0:
111,259,79171,2,0,L|106:217,1,35
155,153,79404,2,0,P|112:123|60:124,1,105.000004005432,2|0,0:0|0:0,0:0:0:0:
61,123,79636,2,0,L|66:165,1,35,8|0,0:0|0:0,0:0:0:0:
16,342,79869,5,0,0:0:0:0:
231,103,80101,2,0,P|244:140|236:197,1,87.5,2|0,0:0|0:0,0:0:0:0:
239,187,80334,2,0,P|249:169|262:155,1,35,0|2,0:0|0:0,0:0:0:0:
161,224,80566,2,0,P|107:193|33:207,1,140,8|2,0:0|0:0,0:0:0:0:
34,207,80915,1,0,0:0:0:0:
16,342,81031,102,0,P|70:373|144:359,1,140,0|8,0:0|0:0,0:0:0:0:
406,322,81729,5,0,0:0:0:0:
453,311,81845,1,0,0:0:0:0:
494,334,81962,2,0,P|487:286|474:195,1,140,6|0,0:0|0:0,0:0:0:0:
474,195,82311,1,2,0:0:0:0:
367,72,82427,2,0,L|358:154,1,70,8|0,0:0|0:0,0:0:0:0:
359,141,82659,102,0,B|284:130|306:170|221:158,1,140,2|0,0:0|0:0,0:0:0:0:
144,39,83008,2,8,L|140:9,4,17.5
14,19,83357,37,2,0:0:0:0:
61,144,83512,5,2,0:0:0:0:
144,39,83667,101,2,0:0:0:0:
73,69,83822,37,4,0:0:0:0:
73,69,85218,2,0,P|108:64|132:45,1,62.9999980773926
128,131,85683,102,0,P|137:150|140:176,1,35,6|0,0:0|0:0,0:0:0:0:
256,139,85915,2,0,P|254:159|243:183,1,35
366,205,86148,1,4,0:0:0:0:
366,205,86264,2,0,P|354:222|333:237,1,35
448,187,86497,1,0,0:0:0:0:
448,187,86613,2,0,P|446:207|435:231,1,35
464,155,86845,1,0,0:0:0:0:
464,155,86962,2,0,P|472:173|475:199,1,35,0|4,0:0|0:0,0:0:0:0:
457,116,87194,1,0,0:0:0:0:
457,116,87311,2,0,P|473:128|489:149,1,35
295,32,87543,6,0,P|314:34|339:44,1,35
202,106,87776,2,0,P|220:98|246:94,1,35
163,221,88008,1,4,0:0:0:0:
163,221,88124,2,0,P|174:205|196:189,1,35
130,305,88357,1,0,0:0:0:0:
130,305,88473,2,0,P|147:296|174:293,1,35
93,321,88706,1,0,0:0:0:0:
93,321,88822,2,0,P|112:322|137:333,1,35,0|4,0:0|0:0,0:0:0:0:
56,318,89055,1,0,0:0:0:0:
56,318,89171,2,0,P|71:329|88:351,1,35
73,186,89404,102,0,P|80:203|84:230,1,35
188,104,89636,2,0,P|185:122|175:148,1,35
313,93,89869,1,4,0:0:0:0:
313,93,89985,2,0,P|302:108|280:125,1,35
394,124,90218,1,0,0:0:0:0:
394,124,90334,2,0,P|392:143|381:169,1,35
429,118,90566,1,0,0:0:0:0:
429,118,90682,2,0,P|437:135|441:163,1,35,0|4,0:0|0:0,0:0:0:0:
456,96,90915,1,0,0:0:0:0:
456,96,91032,2,0,P|471:106|488:128,1,35
345,23,91264,6,0,P|363:24|389:35,1,35
297,187,91497,2,0,P|314:179|341:174,1,35
376,323,91729,1,4,0:0:0:0:
376,323,91845,2,0,P|386:307|408:290,1,35
380,228,92078,1,0,0:0:0:0:
380,228,92194,2,0,P|397:220|425:216,1,35
390,194,92427,1,0,2:0:0:0:
390,194,92543,2,0,P|408:195|434:206,1,35,0|4,2:0|2:0,2:0:0:0:
412,161,92776,1,0,2:0:0:0:
412,161,92892,2,0,P|427:171|444:193,1,35,0|0,2:0|2:0,2:0:0:0:
438,183,93124,6,0,P|383:238|306:230,1,157.500006008148,6|0,0:0|0:0,0:0:0:0:
250,179,93590,2,0,L|241:114,1,52.5000020027161,8|0,0:0|0:0,0:0:0:0:
238,101,93822,1,0,0:0:0:0:
104,291,94055,1,2,0:0:0:0:
143,265,94171,1,0,0:0:0:0:
189,274,94287,2,0,P|214:273|236:258,1,52.5000020027161
238,101,94520,2,0,P|263:102|285:117,1,52.5000020027161,8|0,0:0|0:0,0:0:0:0:
285,117,94752,1,0,0:0:0:0:
445,24,94985,6,0,P|373:44|380:121,1,157.500006008148,2|0,0:0|0:0,0:0:0:0:
489,165,95450,2,0,P|469:151|434:148,1,52.5000020027161,8|0,0:0|0:0,0:0:0:0:
382,188,95683,1,0,0:0:0:0:
296,351,95915,101,2,0:0:0:0:
254,373,96031,1,0,0:0:0:0:
207,363,96148,2,0,P|202:331|196:306,1,52.5000020027161
295,201,96380,6,0,P|292:238|265:270,1,70,8|0,0:0|0:0,0:0:0:0:
130,214,96613,2,0,P|133:177|160:145,1,70
151,151,96845,102,0,P|147:192|166:227,1,78.7500030040742,6|0,0:0|0:0,0:0:0:0:
192,298,97311,2,0,P|215:309|242:312,1,52.5000020027161,2|0,0:0|0:0,0:0:0:0:
309,358,97543,2,0,P|334:356|359:345,1,52.5000020027161,2|0,0:0|0:0,0:0:0:0:
358,345,97776,6,0,P|315:328|317:289,1,87.5,2|0,0:0|0:0,0:0:0:0:
398,72,98008,1,8,0:0:0:0:
454,290,98473,102,0,B|404:270|363:293|358:324|315:347|258:323,1,210.000008010865,6|0,0:0|0:0,0:0:0:0:
207,114,99171,2,0,P|256:170|236:258,1,157.500006008148
98,316,99636,1,0,0:0:0:0:
137,289,99752,1,0,0:0:0:0:
184,294,99869,1,0,0:0:0:0:
36,187,100101,2,0,P|30:217|24:240,1,52.5000020027161,2|0,0:0|0:0,0:0:0:0:
17,261,100334,1,2,0:0:0:0:
70,71,100566,102,0,L|83:23,1,42,2|0,0:0|0:0,0:0:0:0:
120,137,101031,2,0,L|97:69,1,70,8|0,0:0|0:0,0:0:0:0:
97,70,101264,1,0,0:0:0:0:
110,66,101380,1,0,0:0:0:0:
123,62,101497,1,0,0:0:0:0:
136,58,101613,1,0,0:0:0:0:
149,55,101729,2,0,L|70:48,1,70,2|0,0:0|0:0,0:0:0:0:
403,29,102194,6,0,L|324:36,1,70,8|0,0:0|0:0,0:0:0:0:
259,40,102543,1,0,0:0:0:0:
260,53,102659,1,2,0:0:0:0:
433,38,102892,2,0,L|486:32,1,52.5000020027161,8|0,0:0|0:0,0:0:0:0:
260,53,103124,101,2,0:0:0:0:
338,87,103241,2,0,L|333:32,1,52.5000020027161,8|0,0:0|0:0,0:0:0:0:
417,82,103590,6,0,L|362:87,1,52.5000020027161,2|0,0:0|0:0,0:0:0:0:
429,308,103822,1,8,0:0:0:0:
424,233,104055,101,0,0:0:0:0:
364,349,104287,2,0,L|318:338,1,42,2|0,0:0|0:0,0:0:0:0:
376,258,104752,2,0,L|358:333,1,70,8|0,0:0|0:0,0:0:0:0:
359,326,104985,1,0,0:0:0:0:
289,352,105101,2,0,L|279:301,1,52.5000020027161,8|0,0:0|0:0,0:0:0:0:
261,218,105334,5,0,0:0:0:0:
298,290,105450,2,0,L|315:219,1,70,2|0,0:0|0:0,0:0:0:0:
41,366,105915,102,0,L|24:295,1,70,8|0,0:0|0:0,0:0:0:0:
4,224,106264,1,8,0:0:0:0:
21,219,106380,1,0,0:0:0:0:
202,25,106613,6,0,L|185:96,1,70,8|0,0:0|0:0,0:0:0:0:
165,167,106962,1,8,0:0:0:0:
182,172,107078,1,0,0:0:0:0:
495,332,107311,102,0,L|478:261,1,70,8|0,0:0|0:0,0:0:0:0:
458,191,107543,1,8,0:0:0:0:
443,278,107659,2,0,L|454:218,2,52.5000020027161,8|2|0,0:0|0:0|0:0,0:0:0:0:
365,322,108008,6,0,L|469:300,1,105.000004005432,6|0,0:0|0:0,0:0:0:0:
299,275,108357,1,2,0:0:0:0:
275,262,108473,2,0,L|291:324,1,52.5000020027161,8|0,0:0|0:0,0:0:0:0:
288,312,108706,102,0,L|299:226,1,70,2|0,0:0|0:0,0:0:0:0:
195,220,109171,2,0,L|164:157,1,70,2|0,0:0|0:0,0:0:0:0:
198,97,109636,2,0,L|185:184,1,78.7500030040742,8|0,0:0|0:0,0:0:0:0:
171,251,110101,2,0,L|118:242,1,52.5000020027161,2|0,0:0|0:0,0:0:0:0:
35,185,110334,6,0,L|22:264,1,70,8|0,0:0|0:0,0:0:0:0:
23,254,110566,1,2,0:0:0:0:
23,254,110683,2,0,L|68:263,1,35,8|0,0:0|0:0,0:0:0:0:
179,274,110915,101,0,0:0:0:0:
179,274,111031,2,0,L|185:320,1,35,2|0,0:0|0:0,0:0:0:0:
187,336,111264,1,8,0:0:0:0:
259,295,111380,2,0,L|298:307,2,35,8|2|0,0:0|0:0|0:0,0:0:0:0:
346,249,111729,6,0,L|423:224,1,70,2|0,0:0|0:0,0:0:0:0:
432,222,111962,2,0,L|421:188,1,35,0|2,0:0|0:0,0:0:0:0:
354,150,112194,2,0,L|362:96,1,52.5000020027161,8|0,0:0|0:0,0:0:0:0:
376,29,112427,101,0,0:0:0:0:
325,116,112543,2,0,L|308:49,1,70,8|0,0:0|0:0,0:0:0:0:
199,86,112892,6,0,L|114:78,1,70,2|0,0:0|0:0,0:0:0:0:
404,227,113357,2,0,L|319:235,1,70,8|0,0:0|0:0,0:0:0:0:
262,239,113706,1,0,0:0:0:0:
261,222,113822,1,2,0:0:0:0:
478,220,114055,2,0,L|484:276,1,52.5000020027161,8|0,0:0|0:0,0:0:0:0:
262,239,114287,101,2,0:0:0:0:
334,233,114404,2,0,L|328:177,1,52.5000020027161,8|0,0:0|0:0,0:0:0:0:
412,203,114752,2,0,L|347:210,1,52.5000020027161,2|0,0:0|0:0,0:0:0:0:
324,141,114985,53,8,0:0:0:0:
284,131,115101,1,8,0:0:0:0:
262,239,115218,1,2,0:0:0:0:
74,354,115450,70,0,P|33:324|31:258,1,115.500001101494,6|0,0:0|0:0,0:0:0:0:
129,164,115799,1,2,0:0:0:0:
129,164,115915,2,0,P|170:194|172:260,1,115.500001101494,8|0,0:0|0:0,0:0:0:0:
25,94,116380,2,0,L|34:37,1,57.7500005507469
38,20,116613,1,2,0:0:0:0:
220,64,116845,37,8,0:0:0:0:
322,20,117078,2,0,B|398:31|401:92|405:149|490:160,1,231.000002202988
489,159,117659,1,2,0:0:0:0:
413,204,117776,2,0,P|378:254|393:310,1,115.500001101494,8|0,0:0|0:0,0:0:0:0:
388,304,118124,1,2,0:0:0:0:
388,304,118241,70,0,P|364:294|329:292,1,57.7500005507469
288,227,118473,2,0,P|262:230|231:246,1,57.7500005507469,2|0,0:0|0:0,0:0:0:0:
224,323,118706,2,0,P|211:338|203:353,2,35,8|0|0,0:0|0:0|0:0,0:0:0:0:
385,369,119171,38,0,B|301:377|315:314|223:323,1,173.250001652241,2|2,0:0|0:0,0:0:0:0:
152,372,119636,2,0,P|146:338|136:312,1,57.7500005507469,8|0,0:0|0:0,0:0:0:0:
204,199,119869,1,2,0:0:0:0:
204,199,119985,1,8,0:0:0:0:
204,199,120101,2,0,P|198:232|188:258,1,57.7500005507469
64,294,120334,1,2,0:0:0:0:
4,130,120566,2,0,P|34:136|61:151,1,57.7500005507469,8|0,0:0|0:0,0:0:0:0:
57,148,120799,70,0,P|39:97|52:32,1,115.500001101494,0|2,0:0|0:0,0:0:0:0:
109,210,121264,1,2,0:0:0:0:
136,140,121380,1,2,0:0:0:0:
209,122,121497,2,0,P|177:118|147:107,1,57.7500005507469,8|0,0:0|0:0,0:0:0:0:
310,166,121729,2,0,P|280:178|248:184,1,57.7500005507469,2|0,0:0|0:0,0:0:0:0:
354,65,121962,5,8,0:0:0:0:
412,185,122117,5,8,0:0:0:0:
399,71,122272,5,8,0:0:0:0:
365,162,122427,85,2,0:0:0:0:
380,34,122582,5,2,0:0:0:0:
423,104,122737,5,2,0:0:0:0:
267,31,122892,54,0,P|259:73|228:85,1,79.3333348464966,6|0,0:0|0:0,0:0:0:0:
226,173,123124,2,0,P|193:145|198:112,1,79.3333348464966
127,71,123357,2,0,P|167:56|193:77,1,79.3333348464966
193,77,123590,1,0,0:0:0:0:
298,52,123745,21,0,0:0:0:0:
310,30,123822,2,0,P|342:57|337:90,1,79.3333348464966
409,126,124055,2,0,P|396:164|324:177,1,119.000002269745
342,258,124404,85,8,0:0:0:0:
206,357,124636,1,8,0:0:0:0:
206,357,124752,2,0,P|173:329|178:296,1,79.3333348464966
73,277,124985,2,0,P|105:249|100:216,1,79.3333348464966
205,203,125218,2,0,P|172:175|177:142,1,79.3333348464966
190,127,125450,1,0,0:0:0:0:
79,41,125605,21,0,0:0:0:0:
56,35,125683,2,0,P|53:73|86:98,1,79.3333348464966
152,56,125915,1,0,0:0:0:0:
245,28,126070,1,0,0:0:0:0:
255,8,126148,2,0,P|259:40|265:83,1,59.5000011348725,0|8,0:0|0:0,0:0:0:0:
304,211,126380,2,0,P|308:179|314:136,1,59.5000011348725
439,54,126613,6,0,L|341:70,1,87.5,2|0,0:0|0:0,0:0:0:0:
353,69,126845,5,10,0:0:0:0:
339,217,126962,1,2,0:0:0:0:
205,264,127078,102,0,L|185:144,1,122.500001168251,8|0,0:0|0:0,0:0:0:0:
226,347,127311,2,0,L|241:204,1,140
47,111,127543,6,0,L|24:275,1,157.500006008148,10|0,0:0|0:0,0:0:0:0:
63,27,127776,2,0,L|90:209,1,175,10|0,0:0|0:0,0:0:0:0:
349,265,128008,102,0,L|322:93,1,175,10|0,0:0|0:0,0:0:0:0:
433,45,128241,6,0,B|468:32|503:4|503:4|539:67|507:154|445:193|445:193|454:205|454:205|444:218|444:218|453:231|453:231|442:242|442:242|451:254|451:254|441:263|441:263|404:294|429:352|356:368|356:368|309:310|284:343|245:340|205:306,1,700,14|2,0:0|0:0,0:0:0:0:
152,138,128822,1,2,0:0:0:0:
29,352,128938,101,8,0:0:0:0:
74,361,129055,1,2,0:0:0:0:
58,331,129171,2,0,L|63:304,1,26.2500010013581,2|0,0:0|0:0,0:0:0:0:
14,106,129404,21,8,0:0:0:0:
68,51,129481,1,8,0:0:0:0:
93,97,129559,1,8,0:0:0:0:
82,147,129636,1,8,0:0:0:0:
70,180,129714,1,8,0:0:0:0:
85,211,129791,1,8,0:0:0:0:
161,198,129869,5,8,0:0:0:0:
215,253,129946,1,8,0:0:0:0:
200,303,130024,1,8,0:0:0:0:
223,349,130101,1,2,0:0:0:0:
258,350,130179,1,2,0:0:0:0:
285,371,130256,1,2,0:0:0:0:
358,342,130334,54,0,P|396:298|391:232,1,122.500001168251,6|0,0:0|0:0,0:0:0:0:
327,58,130566,1,0,0:0:0:0:
490,159,130683,1,2,0:0:0:0:
301,186,130799,2,0,P|316:235|367:261,1,105.000004005432,8|0,0:0|0:0,0:0:0:0:
512,111,131031,5,2,0:0:0:0:
349,130,131148,1,0,0:0:0:0:
502,207,131264,2,0,P|494:169|488:139,1,70
487,138,131497,2,0,L|445:146,1,35,2|0,0:0|0:0,0:0:0:0:
381,154,131729,101,8,0:0:0:0:
454,166,131845,1,0,0:0:0:0:
428,95,131962,1,0,0:0:0:0:
381,154,132078,1,0,0:0:0:0:
311,345,132194,6,0,P|248:350|201:311,1,122.500001168251,2|0,0:0|0:0,0:0:0:0:
62,216,132427,1,0,0:0:0:0:
147,377,132543,1,2,0:0:0:0:
208,204,132659,2,0,P|242:242|237:301,1,105.000004005432,8|0,0:0|0:0,0:0:0:0:
82,323,132892,101,2,0:0:0:0:
138,240,133008,1,0,0:0:0:0:
203,315,133124,2,0,L|216:229,1,70
138,240,133357,2,0,L|130:206,1,35,2|0,0:0|0:0,0:0:0:0:
126,187,133590,5,8,0:0:0:0:
206,143,133706,1,0,0:0:0:0:
206,143,133822,2,0,L|209:119,1,17.5
459,326,134055,101,2,0:0:0:0:
361,346,134171,1,0,0:0:0:0:
428,310,134287,5,0,0:0:0:0:
328,303,134403,1,2,0:0:0:0:
410,284,134520,101,8,0:0:0:0:
315,251,134636,1,0,0:0:0:0:
389,188,134752,1,2,0:0:0:0:
389,188,134869,1,0,0:0:0:0:
349,258,134985,5,0,0:0:0:0:
327,133,135101,1,0,0:0:0:0:
389,188,135218,1,2,0:0:0:0:
287,205,135334,1,0,0:0:0:0:
191,320,135450,102,0,L|184:285,1,35,8|0,0:0|0:0,0:0:0:0:
53,58,135915,5,2,0:0:0:0:
151,38,136031,1,0,0:0:0:0:
84,74,136147,101,0,0:0:0:0:
184,81,136263,1,0,0:0:0:0:
102,100,136380,5,8,0:0:0:0:
197,133,136496,1,0,0:0:0:0:
123,196,136612,1,2,0:0:0:0:
123,196,136729,1,0,0:0:0:0:
152,232,136845,102,0,P|148:257|144:284,1,52.5000020027161
224,295,137078,2,0,P|233:318|243:344,1,52.5000020027161,2|0,0:0|0:0,0:0:0:0:
243,343,137311,6,0,P|218:299|178:287,1,87.5,8|0,0:0|0:0,0:0:0:0:
172,207,137543,2,0,P|120:206|90:234,1,87.5
448,303,137776,102,0,P|439:256|470:205,1,105.000004005432,6|0,0:0|0:0,0:0:0:0:
466,208,138008,2,0,L|426:217,1,35,0|2,0:0|0:0,0:0:0:0:
448,303,138241,1,8,0:0:0:0:
105,339,138473,6,0,P|114:292|83:241,1,105.000004005432,2|0,0:0|0:0,0:0:0:0:
87,244,138706,2,0,L|127:253,1,35
22,199,138939,2,0,P|13:152|44:101,1,105.000004005432,2|0,0:0|0:0,0:0:0:0:
40,104,139171,1,8,0:0:0:0:
367,34,139404,102,0,P|320:25|269:56,1,105.000004005432
272,52,139637,2,0,L|281:12,1,35,2|0,0:0|0:0,0:0:0:0:
227,117,139870,2,0,P|180:126|129:95,1,105.000004005432,0|2,0:0|0:0,0:0:0:0:
132,98,140101,1,8,0:0:0:0:
331,362,140334,6,0,P|315:316|262:288,1,105.000004005432,2|0,0:0|0:0,0:0:0:0:
267,288,140567,2,0,L|306:275,1,35
189,282,140800,2,0,P|157:245|159:186,1,105.000004005432,2|0,0:0|0:0,0:0:0:0:
156,191,141032,2,0,L|207:202,1,35,8|0,0:0|0:0,0:0:0:0:
332,177,141264,2,0,L|343:227,1,35
481,296,141497,6,0,L|466:387,1,78.7500030040742,10|0,0:0|0:0,0:0:0:0:
466,221,141729,102,0,L|477:322,1,87.5,10|0,0:0|0:0,0:0:0:0:
422,149,141962,6,0,L|462:255,1,105.000004005432,10|0,0:0|0:0,0:0:0:0:
355,94,142194,102,0,L|430:192,1,122.500001168251,10|0,0:0|0:0,0:0:0:0:
269,57,142427,6,0,L|382:143,1,140,10|0,0:0|0:0,0:0:0:0:
180,45,142659,102,0,L|323:108,1,157.500006008148,10|0,0:0|0:0,0:0:0:0:
82,66,142892,6,0,L|254:89,1,175,10|0,0:0|0:0,0:0:0:0:
4,133,143124,102,0,L|185:116,1,175,10|0,0:0|0:0,0:0:0:0:
461,67,143357,6,0,B|429:31|429:31|386:70|392:138|429:167,1,192.500001835823,14|0,0:0|0:0,0:0:0:0:
503,198,143590,101,2,0:0:0:0:
392,180,143706,1,2,0:0:0:0:
318,299,143822,5,8,0:0:0:0:
299,321,143938,1,2,0:0:0:0:
341,316,144055,2,0,L|339:344,1,26.2500010013581,2|0,0:0|0:0,0:0:0:0:
166,337,144287,5,2,0:0:0:0:
51,298,144404,2,8,L|54:317,2,13.125000500679
166,337,144636,1,2,0:0:0:0:
134,225,144752,1,8,0:0:0:0:
132,206,144811,1,8,0:0:0:0:
136,188,144869,1,8,0:0:0:0:
145,172,144927,1,8,0:0:0:0:
158,160,144985,2,2,L|170:165,2,13.125000500679
419,109,145218,70,0,B|386:61|299:36|240:61|240:61|257:122,1,245.000002336502,6|0,0:0|0:0,0:0:0:0:
287,296,145566,1,2,0:0:0:0:
182,370,145683,2,0,P|177:318|140:284,1,105.000004005432,8|0,0:0|0:0,0:0:0:0:
404,347,145915,5,2,0:0:0:0:
289,260,146031,1,0,0:0:0:0:
139,283,146148,2,0,L|70:294,1,70
69,294,146380,2,0,L|74:322,1,28,2|8,0:0|0:0,0:0:0:0:
60,55,146729,101,0,0:0:0:0:
86,176,146845,1,0,0:0:0:0:
203,148,146962,1,0,0:0:0:0:
313,195,147078,2,0,P|340:173|376:169,1,70,2|0,0:0|0:0,0:0:0:0:
375,168,147311,2,0,L|383:134,1,28,0|8,0:0|0:0,0:0:0:0:
341,361,147659,5,0,0:0:0:0:
461,328,147775,1,2,0:0:0:0:
433,211,147892,1,0,0:0:0:0:
480,101,148008,2,0,P|458:74|454:38,1,70
453,39,148241,2,0,L|419:31,1,28,2|8,0:0|0:0,0:0:0:0:
341,361,148590,101,0,0:0:0:0:
308,241,148706,1,0,0:0:0:0:
191,269,148823,1,0,0:0:0:0:
81,222,148939,2,0,P|54:244|18:248,1,70,2|0,0:0|0:0,0:0:0:0:
19,248,149171,2,0,P|55:265|73:294,1,70,0|2,0:0|0:0,0:0:0:0:
71,290,149404,1,8,0:0:0:0:
109,99,149636,5,2,0:0:0:0:
184,84,149752,1,0,0:0:0:0:
246,129,149869,2,0,P|250:170|255:202,1,70
222,275,150101,2,0,P|245:308|266:333,1,70,2|0,0:0|0:0,0:0:0:0:
346,314,150334,1,8,0:0:0:0:
346,314,150566,101,0,0:0:0:0:
439,87,150799,2,0,P|468:128|465:171,1,87.5,2|0,0:0|0:0,0:0:0:0:
467,163,151031,2,0,P|477:150|493:139,1,26.2500010013581,0|2,0:0|0:0,0:0:0:0:
346,314,151264,2,0,P|317:273|320:230,1,87.5,8|0,0:0|0:0,0:0:0:0:
318,238,151497,2,0,P|308:251|292:262,1,26.2500010013581,2|0,0:0|0:0,0:0:0:0:
512,270,151729,6,0,B|420:277|397:210|375:139|275:150,1,280,0|8,0:0|0:0,0:0:0:0:
32,358,152427,101,8,0:0:0:0:
76,337,152543,1,8,0:0:0:0:
123,350,152659,2,0,P|132:274|143:209,1,140,6|0,0:0|0:0,0:0:0:0:
142,211,153008,1,2,0:0:0:0:
33,94,153124,2,0,P|38:123|43:164,1,70,8|0,0:0|0:0,0:0:0:0:
42,163,153357,6,0,B|116:156|102:190|186:181,1,140,2|0,0:0|0:0,0:0:0:0:
263,63,153706,2,8,L|267:36,4,17.5
248,139,154055,21,2,0:0:0:0:
378,105,154210,5,2,0:0:0:0:
343,241,154365,101,2,0:0:0:0:
325,165,154520,38,0,B|351:157|368:138|368:138|355:184|342:242,1,157.500006008148,6|0,0:0|0:0,0:0:0:0:
343,241,154985,1,0,0:0:0:0:
374,325,155450,86,0,P|378:271|307:296,1,157.500006008148,8|0,0:0|0:0,0:0:0:0:
307,295,155915,2,0,P|286:296|270:308,1,42,2|0,0:0|0:0,0:0:0:0:
50,260,156381,5,4,0:0:0:0:
125,363,156613,86,0,P|110:327|113:295,1,70
199,346,157078,2,0,P|200:311|186:279,2,70,2|8|0,0:0|0:0|0:0,0:0:0:0:
50,260,158008,6,0,B|126:250|112:291|186:279,1,140,0|2,0:0|0:0,0:0:0:0:
185,279,158706,2,0,L|193:238,1,35,0|2,0:0|0:0,0:0:0:0:
236,185,158938,2,0,L|228:143,2,35,0|0|8,0:0|0:0|0:0,0:0:0:0:
185,279,159404,1,0,0:0:0:0:
145,357,159636,2,0,L|93:365,1,52.5000020027161
462,260,160101,5,2,0:0:0:0:
387,363,160333,86,0,P|402:327|399:295,1,70
313,346,160799,1,2,0:0:0:0:
313,346,160915,1,2,0:0:0:0:
313,346,161031,2,0,P|311:311|325:279,1,70,8|0,0:0|0:0,0:0:0:0:
462,260,161729,21,0,0:0:0:0:
377,228,161962,86,0,P|371:189|353:163,1,70,0|2,0:0|0:0,0:0:0:0:
313,151,162543,1,2,0:0:0:0:
277,171,162892,2,0,L|286:129,2,35,8|0|0,0:0|0:0|0:0,0:0:0:0:
277,171,163357,1,0,0:0:0:0:
50,124,163822,21,6,0:0:0:0:
125,21,164054,86,0,P|110:57|113:89,1,70
199,38,164520,1,2,0:0:0:0:
199,38,164636,1,2,0:0:0:0:
199,38,164752,2,0,P|200:73|186:105,1,70,8|0,0:0|0:0,0:0:0:0:
50,124,165450,5,0,0:0:0:0:
135,156,165683,2,0,P|141:195|159:221,1,70,0|2,0:0|0:0,0:0:0:0:
157,219,166148,2,0,L|198:209,1,35,0|2,0:0|0:0,0:0:0:0:
242,152,166380,2,0,L|282:162,2,35,0|0|8,0:0|0:0|0:0,0:0:0:0:
157,219,166845,1,0,0:0:0:0:
87,277,167078,2,0,L|77:333,1,52.5000020027161
35,45,167543,5,2,0:0:0:0:
55,128,167776,86,0,P|85:110|125:109,1,70
77,206,168241,1,2,0:0:0:0:
77,206,168357,1,2,0:0:0:0:
77,206,168473,2,0,P|111:203|141:185,1,70,8|0,0:0|0:0,0:0:0:0:
141,184,169404,22,0,P|111:202|77:206,1,70,0|2,0:0|0:0,0:0:0:0:
55,130,169868,85,0,0:0:0:0:
55,130,169985,2,0,P|85:112|125:111,1,70,2|0,0:0|0:0,0:0:0:0:
191,127,170334,1,8,0:0:0:0:
219,295,170566,53,2,0:0:0:0:
254,274,170683,1,0,0:0:0:0:
294,284,170799,5,8,0:0:0:0:
323,175,170915,1,8,0:0:0:0:
395,195,171031,2,0,P|412:220|409:242,1,52.5000020027161,2|0,0:0|0:0,0:0:0:0:
426,358,171264,70,0,L|353:346,1,61.2500005841255,2|0,0:0|0:0,0:0:0:0:
426,358,171497,2,0,L|353:346,1,61.2500005841255,0|2,0:0|0:0,0:0:0:0:
254,274,171729,2,0,L|181:286,1,61.2500005841255,8|0,0:0|0:0,0:0:0:0:
254,274,171962,2,0,L|181:286,1,61.2500005841255
395,336,172194,70,0,L|322:348,1,61.2500005841255
395,336,172427,2,0,L|322:348,1,61.2500005841255,2|0,0:0|0:0,0:0:0:0:
222,296,172659,2,0,L|149:284,1,61.2500005841255,8|0,0:0|0:0,0:0:0:0:
222,296,172892,2,0,L|149:284,1,61.2500005841255
358,364,173124,38,0,L|285:352,1,61.2500005841255,2|0,0:0|0:0,0:0:0:0:
358,364,173357,2,0,L|285:352,1,61.2500005841255,0|2,0:0|0:0,0:0:0:0:
186,280,173589,2,0,L|113:292,1,61.2500005841255,8|0,0:0|0:0,0:0:0:0:
186,280,173822,2,0,L|113:292,1,61.2500005841255
325,346,174055,70,0,L|252:358,1,61.2500005841255
325,346,174288,2,0,L|252:358,1,61.2500005841255,2|0,0:0|0:0,0:0:0:0:
152,306,174520,2,0,L|79:294,1,61.2500005841255,8|0,0:0|0:0,0:0:0:0:
91,296,174752,5,0,0:0:0:0:
91,296,174869,1,0,0:0:0:0:
5,279,174985,85,8,0:0:0:0:
74,176,175101,1,8,0:0:0:0:
43,55,175218,1,0,0:0:0:0:
460,12,175683,5,8,0:0:0:0:
460,12,175800,1,8,0:0:0:0:
374,29,175916,101,0,0:0:0:0:
443,132,176032,1,0,0:0:0:0:
412,253,176149,1,0,0:0:0:0:
412,253,176613,5,0,0:0:0:0:
412,253,176729,1,0,0:0:0:0:
382,346,176845,2,0,B|368:373|368:373|311:347|326:283,1,140
188,47,177078,2,0,B|202:20|202:20|259:46|244:110,1,140
134,344,177311,2,0,P|63:334|8:379,1,140,8|0,0:0|0:0,0:0:0:0:
35,123,177543,2,0,P|79:66|67:-3,1,140
11,373,177776,6,0,L|7:348,1,21
478,250,178241,2,0,L|482:225,1,21
86,69,178706,70,0,B|112:6|45:-22|-17:-3|-30:97|22:153|84:150,1,280,6|0,0:0|0:0,0:0:0:0:
328,134,179055,1,2,0:0:0:0:
89,231,179171,2,0,L|66:129,1,105.000004005432,8|0,0:0|0:0,0:0:0:0:
218,68,179404,5,2,0:0:0:0:
168,267,179520,1,0,0:0:0:0:
152,130,179636,2,0,P|136:166|102:183,1,70
41,152,179869,101,2,0:0:0:0:
41,152,179985,2,0,L|82:159,1,35,0|8,0:0|0:0,0:0:0:0:
20,67,180218,6,0,L|14:39,1,28
470,261,180566,102,0,P|472:371|393:292,1,280,2|0,0:0|0:0,0:0:0:0:
438,133,180915,1,2,0:0:0:0:
311,347,181031,2,0,P|354:319|413:332,1,105.000004005432,8|0,0:0|0:0,0:0:0:0:
467,365,181264,5,2,0:0:0:0:
500,196,181380,1,0,0:0:0:0:
299,244,181497,2,0,L|320:321,1,70
391,331,181729,101,2,0:0:0:0:
391,331,181845,2,0,L|401:286,1,35,0|8,0:0|0:0,0:0:0:0:
467,333,182078,6,0,L|497:341,1,28
416,32,182427,101,2,0:0:0:0:
434,137,182543,1,0,0:0:0:0:
312,16,182659,5,0,0:0:0:0:
264,111,182775,1,2,0:0:0:0:
339,190,182892,2,0,P|386:170|445:179,1,105.000004005432,8|0,0:0|0:0,0:0:0:0:
488,344,183124,101,2,0:0:0:0:
500,239,183241,1,0,0:0:0:0:
438,176,183357,2,0,L|433:133,1,35
375,220,183590,2,0,L|418:215,1,35,2|0,0:0|0:0,0:0:0:0:
281,126,183822,6,0,P|264:161|268:206,1,70,8|0,0:0|0:0,0:0:0:0:
353,145,184055,2,0,P|351:179|335:210,1,70
60,369,184287,101,2,0:0:0:0:
36,262,184404,1,0,0:0:0:0:
143,240,184520,1,0,0:0:0:0:
185,138,184636,1,2,0:0:0:0:
321,256,184752,5,8,0:0:0:0:
214,280,184869,1,0,0:0:0:0:
192,173,184985,1,2,0:0:0:0:
90,131,185101,1,0,0:0:0:0:
177,60,185218,101,0,0:0:0:0:
160,163,185334,1,0,0:0:0:0:
208,43,185450,5,2,0:0:0:0:
244,140,185566,1,0,0:0:0:0:
317,186,185683,2,0,P|349:172|386:177,1,70,8|0,0:0|0:0,0:0:0:0:
383,175,185915,102,0,P|344:155|276:168,1,105.000004005432
51,331,186148,2,0,B|101:367|101:367|77:220,1,210.000008010865,6|0,0:0|0:0,0:0:0:0:
77,220,186497,1,2,0:0:0:0:
90,132,186613,2,0,L|98:92,1,35,8|0,0:0|0:0,0:0:0:0:
96,97,186845,2,0,P|103:149|68:190,1,105.000004005432,2|0,0:0|0:0,0:0:0:0:
390,101,187078,2,0,L|382:141,1,35
384,136,187311,2,0,P|376:83|411:42,1,105.000004005432,2|0,0:0|0:0,0:0:0:0:
484,22,187543,5,8,0:0:0:0:
166,55,187776,102,0,P|173:73|176:96,1,35
175,88,188008,2,0,P|226:66|278:72,1,105.000004005432,2|0,0:0|0:0,0:0:0:0:
317,139,188241,2,0,P|337:148|350:160,1,35,0|2,0:0|0:0,0:0:0:0:
421,130,188473,1,8,0:0:0:0:
39,335,188706,6,0,P|58:337|79:346,1,35
71,343,188938,2,0,P|77:287|108:245,1,105.000004005432
186,246,189171,2,0,P|203:233|220:227,1,35,2|0,0:0|0:0,0:0:0:0:
230,151,189403,1,8,0:0:0:0:
455,333,189636,102,0,L|465:259,1,70
466,340,189869,6,0,L|477:260,1,78.7500030040742,10|0,0:0|0:0,0:0:0:0:
394,369,190101,2,0,L|377:273,1,87.5,10|0,0:0|0:0,0:0:0:0:
46,340,190334,6,0,L|29:231,1,105.000004005432,10|0,0:0|0:0,0:0:0:0:
118,369,190566,2,0,L|144:242,1,122.500001168251,10|0,0:0|0:0,0:0:0:0:
466,44,190799,102,0,L|485:185,1,140,10|0,0:0|0:0,0:0:0:0:
394,15,191031,2,0,L|366:176,1,157.500006008148,10|0,0:0|0:0,0:0:0:0:
46,44,191264,6,0,L|17:225,1,175,10|0,0:0|0:0,0:0:0:0:
46,340,191497,102,0,B|112:373|112:373|162:308|134:218|89:196|89:196|133:142|109:77|109:77|130:80|130:80|126:63|126:63|144:68|144:68|143:51|143:51|160:58|160:58|159:40|159:40|223:69|259:1|315:36|315:36|324:94|284:140,1,770.000007343292,6|2,0:0|0:0,0:0:0:0:
383,324,192078,1,2,0:0:0:0:
443,129,192194,5,8,0:0:0:0:
488,143,192311,1,2,0:0:0:0:
459,155,192427,2,0,L|466:193,1,26.2500010013581,2|0,0:0|0:0,0:0:0:0:
476,294,192659,5,0,0:0:0:0:
319,244,192776,2,8,L|315:226,2,13.125000500679
476,294,193008,1,0,0:0:0:0:
330,367,193124,1,8,0:0:0:0:
314,356,193183,1,8,0:0:0:0:
296,349,193241,1,8,0:0:0:0:
277,347,193299,1,8,0:0:0:0:
258,350,193357,2,2,L|262:326,2,13.125000500679
26,74,193590,70,0,B|64:23|167:11|216:58|216:58|182:124,1,280,6|0,0:0|0:0,0:0:0:0:
18,327,193938,1,2,0:0:0:0:
201,302,194055,2,0,P|147:301|111:269,1,105.000004005432,8|0,0:0|0:0,0:0:0:0:
110,268,194287,2,0,P|122:299|117:344,1,70,2|0,0:0|0:0,0:0:0:0:
50,52,194520,5,0,0:0:0:0:
100,104,194636,1,0,0:0:0:0:
170,86,194752,2,0,L|214:90,1,41.9999987182618,2|8,0:0|0:0,0:0:0:0:
80,81,195101,101,0,0:0:0:0:
80,81,195218,2,0,L|77:109,1,20.9999993591309
431,79,195450,6,0,B|465:58|490:28|490:28|448:232,1,280,2|0,0:0|0:0,0:0:0:0:
422,333,195799,1,2,0:0:0:0:
341,115,195915,2,0,P|396:112|438:151,1,105.000004005432,8|0,0:0|0:0,0:0:0:0:
433,141,196148,1,2,0:0:0:0:
444,255,196264,1,0,0:0:0:0:
340,303,196380,101,0,0:0:0:0:
340,303,196497,2,0,L|331:268,1,35,0|2,0:0|0:0,0:0:0:0:
410,152,196729,1,0,0:0:0:0:
469,101,196845,6,0,L|384:120,1,87.5,8|0,0:0|0:0,0:0:0:0:
149,159,197078,102,0,P|97:160|51:132,1,105.000004005432
47,60,197311,2,0,P|33:44|26:25,1,35,2|0,0:0|0:0,0:0:0:0:
174,62,197543,2,0,P|175:114|147:160,1,105.000004005432,0|2,0:0|0:0,0:0:0:0:
75,164,197776,1,8,0:0:0:0:
451,243,198008,6,0,P|452:295|424:341,1,105.000004005432,2|0,0:0|0:0,0:0:0:0:
352,345,198241,2,0,P|336:359|317:366,1,35
354,217,198474,2,0,P|406:216|452:244,1,105.000004005432,2|0,0:0|0:0,0:0:0:0:
456,316,198706,2,0,P|470:332|477:351,1,35,8|0,0:0|0:0,0:0:0:0:
475,344,198938,101,0,0:0:0:0:
494,86,199171,2,0,P|449:84|411:108,1,87.5,2|0,0:0|0:0,0:0:0:0:
413,105,199404,2,0,P|417:83|418:58,1,35,0|2,0:0|0:0,0:0:0:0:
354,217,199636,2,0,P|333:177|293:156,1,87.5,8|0,0:0|0:0,0:0:0:0:
297,156,199869,2,0,P|317:149|339:137,1,35
85,350,200101,6,0,P|48:308|58:226,1,140,2|8,0:0|0:0,0:0:0:0:
223,184,200799,101,0,0:0:0:0:
223,184,200915,1,0,0:0:0:0:
223,184,201031,2,0,P|260:226|250:308,1,140,6|0,0:0|0:0,0:0:0:0:
251,305,201380,1,0,0:0:0:0:
74,325,201497,2,0,P|112:326|141:345,1,70
138,342,201729,6,0,P|198:313|271:336,1,140,2|0,0:0|0:0,0:0:0:0:
382,241,202078,2,8,L|389:212,4,17.5
365,316,202427,21,2,0:0:0:0:
315,149,202582,5,2,0:0:0:0:
482,194,202737,101,2,0:0:0:0:
386,223,202892,37,6,0:0:0:0:
386,223,204288,6,0,B|408:190|459:195|479:251|430:317|361:264|387:211|312:210|263:240,1,262.5
275,233,204752,6,0,P|266:190|246:154,1,78.7500030040742,6|0,0:0|0:0,0:0:0:0:
171,151,204985,1,0,0:0:0:0:
171,151,205101,1,2,0:0:0:0:
171,151,205217,2,0,P|141:118|106:97,1,78.7500030040742,8|0,0:0|0:0,0:0:0:0:
393,37,205450,21,2,0:0:0:0:
411,118,205566,2,0,P|368:104|327:103,1,78.7500030040742
246,115,205799,1,0,0:0:0:0:
302,176,205915,2,0,P|258:185|222:205,1,78.7500030040742,2|0,0:0|0:0,0:0:0:0:
162,264,206148,86,0,L|151:348,1,78.7500030040742,8|0,0:0|0:0,0:0:0:0:
83,271,206380,2,0,L|72:187,1,78.7500030040742
328,313,206613,22,0,B|342:267|342:267|300:259|257:282|239:323,1,175,2|0,0:0|0:0,0:0:0:0:
465,350,206962,1,2,0:0:0:0:
465,350,207078,2,0,P|461:307|457:272,1,78.7500030040742,8|0,0:0|0:0,0:0:0:0:
490,194,207311,85,2,0:0:0:0:
490,194,207427,2,0,P|447:198|412:202,1,78.7500030040742,2|0,0:0|0:0,0:0:0:0:
276,115,207659,1,0,0:0:0:0:
276,115,207775,2,0,P|272:158|268:193,1,78.7500030040742,2|0,0:0|0:0,0:0:0:0:
301,271,208008,2,0,P|258:267|223:263,1,78.7500030040742,8|0,0:0|0:0,0:0:0:0:
96,231,208240,21,0,0:0:0:0:
108,303,208357,1,0,0:0:0:0:
48,354,208473,2,0,P|-1:295|23:206,1,175,2|0,0:0|0:0,0:0:0:0:
267,211,208822,1,2,0:0:0:0:
267,211,208938,2,0,P|314:149|293:78,1,157.500006008148,8|2,0:0|0:0,0:0:0:0:
223,61,209287,1,0,0:0:0:0:
162,99,209404,2,0,P|180:139|175:173,1,78.7500030040742
197,239,209636,2,0,P|181:280|153:300,1,78.7500030040742,2|0,0:0|0:0,0:0:0:0:
62,294,209869,86,0,L|222:279,1,157.500006008148,8|0,0:0|0:0,0:0:0:0:
352,352,210218,1,0,0:0:0:0:
352,352,210334,2,0,L|512:367,1,157.500006008148,2|0,0:0|0:0,0:0:0:0:
407,255,210683,1,2,0:0:0:0:
407,255,210799,2,0,L|498:245,1,78.7500030040742,8|0,0:0|0:0,0:0:0:0:
396,186,211031,2,0,L|487:176,1,78.7500030040742,2|2,0:0|0:0,0:0:0:0:
474,177,211264,1,0,0:0:0:0:
311,37,211497,2,0,P|312:77|294:114,1,78.7500030040742,2|0,0:0|0:0,0:0:0:0:
14,78,211729,21,8,0:0:0:0:
56,20,211845,1,0,0:0:0:0:
127,11,211961,1,0,0:0:0:0:
180,101,212078,1,0,0:0:0:0:
251,109,212194,86,0,P|306:69|412:69,1,175,6|0,0:0|0:0,0:0:0:0:
462,219,212543,1,2,0:0:0:0:
462,219,212659,2,0,L|471:141,1,78.7500030040742,8|0,0:0|0:0,0:0:0:0:
330,264,212892,2,0,P|376:263|403:278,1,78.7500030040742,2|0,0:0|0:0,0:0:0:0:
390,351,213124,1,0,0:0:0:0:
390,351,213241,1,0,0:0:0:0:
390,351,213357,2,0,P|344:352|317:337,1,78.7500030040742,2|0,0:0|0:0,0:0:0:0:
256,290,213590,21,8,0:0:0:0:
256,215,213706,1,0,0:0:0:0:
220,281,213822,1,0,0:0:0:0:
145,275,213938,1,0,0:0:0:0:
78,310,214055,2,0,B|45:327|45:327|59:202,1,157.500006008148,2|0,0:0|0:0,0:0:0:0:
58,207,214404,1,2,0:0:0:0:
21,66,214520,86,0,L|104:54,1,78.7500030040742,8|0,0:0|0:0,0:0:0:0:
172,41,214752,1,2,0:0:0:0:
163,115,214869,2,0,P|203:119|246:127,1,78.7500030040742
314,137,215101,1,0,0:0:0:0:
268,196,215218,2,0,P|300:219|333:247,1,78.7500030040742,2|0,0:0|0:0,0:0:0:0:
446,221,215450,21,8,0:0:0:0:
457,294,215566,1,2,0:0:0:0:
383,309,215683,2,0,P|350:332|317:360,1,78.7500030040742
233,335,215915,86,0,P|149:341|54:346,1,175,2|0,0:0|0:0,0:0:0:0:
58,345,216264,1,2,0:0:0:0:
27,203,216380,2,0,P|69:208|101:230,1,78.7500030040742,8|0,0:0|0:0,0:0:0:0:
249,232,216613,2,0,P|207:237|175:259,1,78.7500030040742
177,256,216845,2,0,P|181:210|183:175,1,78.7500030040742
188,103,217078,21,2,0:0:0:0:
458,53,217311,2,0,P|436:89|407:109,1,78.7500030040742,8|0,0:0|0:0,0:0:0:0:
388,211,217543,1,0,0:0:0:0:
388,211,217659,1,0,0:0:0:0:
388,211,217776,86,0,P|354:192|311:196,1,78.7500030040742,2|0,0:0|0:0,0:0:0:0:
258,134,218008,2,0,P|220:144|192:177,1,78.7500030040742,0|2,0:0|0:0,0:0:0:0:
150,295,218241,2,0,L|143:255,2,39.3750015020371,8|0|0,0:0|0:0|0:0,0:0:0:0:
75,329,218473,2,0,L|157:338,1,78.7500030040742
235,346,218706,37,2,0:0:0:0:
288,282,218822,1,8,0:0:0:0:
288,282,218880,1,8,0:0:0:0:
288,282,218938,1,8,0:0:0:0:
357,321,219055,5,2,0:0:0:0:
439,341,219171,1,2,0:0:0:0:
421,263,219287,1,8,0:0:0:0:
421,263,219345,1,8,0:0:0:0:
421,263,219404,1,8,0:0:0:0:
471,201,219520,1,0,0:0:0:0:
440,127,219636,54,0,B|346:109|376:169|269:150,1,175,6|0,0:0|0:0,0:0:0:0:
225,95,219985,1,2,0:0:0:0:
53,153,220101,2,0,P|109:221|97:301,1,175,8|2,0:0|0:0,0:0:0:0:
96,301,220450,1,0,0:0:0:0:
207,325,220566,2,0,L|113:338,1,87.5
316,304,220799,2,0,L|222:291,1,87.5,2|0,0:0|0:0,0:0:0:0:
369,246,221031,21,8,0:0:0:0:
422,313,221148,2,0,P|408:272|414:230,1,87.5,2|0,0:0|0:0,0:0:0:0:
477,184,221380,1,0,0:0:0:0:
383,160,221496,86,0,P|402:121|436:95,2,87.5,2|0|0,0:0|0:0|0:0,0:0:0:0:
383,160,221845,1,2,0:0:0:0:
380,29,221962,2,0,P|344:53|301:58,1,87.5,8|0,0:0|0:0,0:0:0:0:
229,43,222194,2,0,L|238:130,1,87.5,2|0,0:0|0:0,0:0:0:0:
41,169,222427,1,0,0:0:0:0:
41,169,222543,1,0,0:0:0:0:
41,169,222659,2,0,L|32:82,1,87.5,2|0,0:0|0:0,0:0:0:0:
103,236,222892,22,0,L|94:324,1,87.5,8|2,0:0|0:0,0:0:0:0:
14,358,223124,2,0,B|106:341|100:390|186:373,1,175,0|2,0:0|0:0,0:0:0:0:
242,317,223473,1,0,0:0:0:0:
242,317,223590,2,0,L|233:229,1,87.5,0|2,0:0|0:0,0:0:0:0:
405,159,223822,86,0,L|418:54,1,105.000004005432,8|0,0:0|0:0,0:0:0:0:
508,35,224054,2,0,B|392:57|410:-4|296:20,1,210.000008010865,2|0,0:0|0:0,0:0:0:0:
230,75,224404,1,0,0:0:0:0:
230,75,224521,2,0,P|174:75|131:50,1,105.000004005432,2|0,0:0|0:0,0:0:0:0:
14,226,224752,22,0,L|32:349,1,122.500001168251,8|2,0:0|0:0,0:0:0:0:
123,381,224985,2,0,B|270:361|211:303|345:281,1,245.000002336502,0|2,0:0|0:0,0:0:0:0:
429,341,225334,1,0,0:0:0:0:
488,143,225450,86,0,B|498:92|498:92|397:90|372:176,1,210.000008010865,0|8,0:0|0:0,0:0:0:0:
48,161,225799,1,0,0:0:0:0:
33,235,225915,22,0,P|124:248|181:194,1,175,2|0,0:0|0:0,0:0:0:0:
265,215,226264,1,0,0:0:0:0:
180,195,226380,2,0,P|185:240|190:282,1,87.5,2|0,0:0|0:0,0:0:0:0:
265,215,226613,2,0,L|241:38,1,175,8|0,0:0|0:0,0:0:0:0:
489,327,227078,85,2,0:0:0:0:
454,310,227156,1,0,0:0:0:0:
415,313,227234,1,0,0:0:0:0:
383,333,227311,1,0,0:0:0:0:
349,351,227389,1,0,0:0:0:0:
310,355,227466,1,0,0:0:0:0:
273,344,227543,2,0,P|294:303|286:260,1,87.5,8|0,0:0|0:0,0:0:0:0:
216,250,227776,2,0,P|195:291|203:334,1,87.5,2|0,0:0|0:0,0:0:0:0:
115,20,228008,21,0,0:0:0:0:
98,55,228086,1,0,0:0:0:0:
101,94,228164,1,0,0:0:0:0:
121,126,228241,1,2,0:0:0:0:
139,160,228319,1,0,0:0:0:0:
143,199,228396,1,0,0:0:0:0:
132,236,228473,2,0,P|91:215|48:223,1,87.5,8|0,0:0|0:0,0:0:0:0:
38,293,228706,2,0,P|79:314|122:306,1,87.5
233,68,228938,85,2,0:0:0:0:
265,47,229016,1,0,0:0:0:0:
303,37,229094,1,0,0:0:0:0:
342,39,229172,1,0,0:0:0:0:
378,51,229249,1,0,0:0:0:0:
410,74,229327,1,0,0:0:0:0:
433,105,229404,2,0,P|414:59|437:9,1,87.5,8|0,0:0|0:0,0:0:0:0:
324,137,229636,2,0,P|343:183|320:233,1,87.5,2|0,0:0|0:0,0:0:0:0:
90,358,229869,21,0,0:0:0:0:
69,325,229947,1,0,0:0:0:0:
59,287,230025,1,0,0:0:0:0:
61,248,230102,1,2,0:0:0:0:
73,212,230180,1,0,0:0:0:0:
96,180,230257,1,0,0:0:0:0:
127,157,230335,2,0,P|80:176|30:153,1,87.5,8|0,0:0|0:0,0:0:0:0:
159,267,230567,2,0,P|205:247|255:270,1,87.5
404,358,230799,85,2,0:0:0:0:
480,325,230915,2,0,L|491:227,1,87.5,2|0,0:0|0:0,0:0:0:0:
315,78,231148,21,2,0:0:0:0:
391,111,231264,2,0,L|402:209,1,87.5,8|0,0:0|0:0,0:0:0:0:
414,276,231497,85,8,0:0:0:0:
414,276,231613,1,8,0:0:0:0:
285,245,231729,21,2,0:0:0:0:
297,334,231845,1,8,0:0:0:0:
173,304,231962,1,2,0:0:0:0:
173,304,232078,1,0,0:0:0:0:
104,347,232194,86,0,P|98:304|68:271,1,87.5,8|0,0:0|0:0,0:0:0:0:
191,226,232427,1,8,0:0:0:0:
210,150,232543,1,8,0:0:0:0:
164,83,232659,5,2,0:0:0:0:
258,54,232776,2,8,L|265:27,2,17.5
333,125,233008,1,2,0:0:0:0:
418,108,233125,5,2,0:0:0:0:
388,101,233202,1,2,0:0:0:0:
358,107,233280,1,2,0:0:0:0:
333,125,233357,1,2,0:0:0:0:
316,150,233435,1,2,0:0:0:0:
316,180,233512,1,2,0:0:0:0:
331,206,233590,85,2,0:0:0:0:
296,189,233668,1,2,0:0:0:0:
257,192,233745,1,2,0:0:0:0:
225,212,233823,1,2,0:0:0:0:
191,230,233900,1,2,0:0:0:0:
152,234,233978,1,2,0:0:0:0:
114,223,234055,5,2,0:0:0:0:
135,192,234132,1,2,0:0:0:0:
139,152,234210,1,2,0:0:0:0:
127,115,234287,1,2,0:0:0:0:
97,89,234365,1,2,0:0:0:0:
59,77,234442,1,2,0:0:0:0:
20,85,234520,70,0,B|42:51|46:9|46:9|83:93|75:179|75:179|69:236|62:305|99:372|159:399|253:389|332:330|312:262|269:89|244:180|183:156|131:54|131:54|144:105|150:173|142:247|51:324,1,1193.50003642273,6|0,0:0|0:0,0:0:0:0:
52,323,238241,70,0,L|45:288,1,28
120,296,238678,2,0,L|174:285,1,56
142,271,239554,1,0,0:0:0:0:
88,349,239992,6,0,L|81:315,1,28
82,321,240430,2,0,L|138:330,1,56
167,296,241015,2,0,L|171:322,1,18.6666666666667
231,346,241306,102,0,L|227:376,1,28
259,265,241744,2,0,L|270:327,1,56
227,373,242401,2,0,L|238:311,1,56
301,357,243058,1,0,0:0:0:0:
313,284,243496,2,0,L|368:293,1,56
368,293,244372,6,0,L|309:282,1,56
426,345,245248,1,0,0:0:0:0:
493,15,246124,1,0,0:0:0:0:
459,286,247000,102,0,L|466:341,1,56
497,375,248313,2,0,L|502:348,1,28,0|0,0:0|3:0,0:0:0:0:
