osu file format v14

[General]
AudioFilename: audio.mp3
AudioLeadIn: 0
PreviewTime: 58481
Countdown: 0
SampleSet: Soft
StackLeniency: 0.3
Mode: 0
LetterboxInBreaks: 0
WidescreenStoryboard: 1

[Editor]
DistanceSpacing: 1.4
BeatDivisor: 4
GridSize: 32
TimelineZoom: 1.8

[Metadata]
Title:Kawaki wo Ameku (TV Size)
TitleUnicode:カワキヲアメク (TV Size)
Artist:Minami
ArtistUnicode:美波
Creator:Ayla
Version:Normal
Source:ドメスティックな彼女
Tags:anime japanese opening pop ドメカノ Domestic Girlfriend Dome x Kano Domekano Diomedea FraktureHawkens Senseabel synderes frostwich
BeatmapID:2606519
BeatmapSetID:1020243

[Difficulty]
HPDrainRate:3
CircleSize:3
OverallDifficulty:4
ApproachRate:5
SliderMultiplier:1.4
SliderTickRate:1

[Events]
//Background and Video events
0,0,"paint_canvas_stains_122766_1920x1080.jpg",0,0
//Break Periods
//Storyboard Layer 0 (Background)
//Storyboard Layer 1 (Fail)
//Storyboard Layer 2 (Pass)
//Storyboard Layer 3 (Foreground)
//Storyboard Layer 4 (Overlay)
//Storyboard Sound Samples

[TimingPoints]
1360,431.654676258993,4,2,3,35,1,0
3949,465.116279069767,4,2,3,35,1,0
4414,458.015267175573,4,2,3,35,1,0
4872,434.782608695652,4,2,3,35,1,0
7480,444.444444444444,4,2,3,35,1,0
8368,444.444444444444,4,2,3,35,1,0
10591,487.80487804878,4,2,3,35,1,0
11322,526.315789473684,4,2,3,35,1,0
12915,465.116279069767,4,2,3,45,1,0
13845,-100,4,2,3,35,0,0
14775,-100,4,2,3,55,0,0
22217,-111.111111111111,4,2,3,55,0,0
37101,-100,4,2,3,65,0,0
51985,-100,4,2,3,75,0,0
59426,-90.9090909090909,4,2,3,90,0,1
70589,-90.9090909090909,4,2,3,70,0,1
70821,-90.9090909090909,4,2,3,75,0,1
71055,-90.9090909090909,4,2,3,80,0,1
71287,-90.9090909090909,4,2,3,85,0,1
71520,-90.9090909090909,4,2,3,90,0,1
85473,-90.9090909090909,4,2,3,50,0,0

[Colours]
Combo1 : 94,232,204
Combo2 : 189,234,231
Combo3 : 241,188,188
Combo4 : 210,200,203

[HitObjects]
256,192,11322,12,0,13845,2:0:0:0:
91,37,14776,6,0,P|127:69|192:64,1,105,6|2,3:0|2:0,2:0:0:0:
247,140,15357,1,2,2:0:0:0:
247,140,15589,2,0,P|227:192|229:231,1,70,2|2,2:0|2:0,2:0:0:0:
264,337,16171,2,0,P|296:325|355:332,1,70,2|2,2:0|2:0,2:0:0:0:
420,345,16636,6,0,P|435:309|427:226,1,105,6|2,3:0|2:0,2:0:0:0:
385,173,17217,1,2,2:0:0:0:
385,173,17450,2,0,P|418:159|477:162,1,70,2|2,2:0|2:0,2:0:0:0:
410,26,18031,2,0,P|375:10|332:15,1,70,2|2,2:0|2:0,2:0:0:0:
272,67,18497,6,0,P|224:78|144:70,1,105,6|2,3:0|2:0,2:0:0:0:
85,121,19078,1,2,2:0:0:0:
85,121,19310,2,0,P|64:151|65:192,1,70,2|2,2:0|2:0,2:0:0:0:
136,285,19892,2,0,P|171:272|230:290,1,70,2|0,2:0|2:0,2:0:0:0:
280,308,20357,1,6,3:0:0:0:
129,314,22218,6,0,P|126:260|116:213,1,94.499997116089,12|8,3:0|3:0,2:0:0:0:
92,109,22915,1,0,3:0:0:0:
225,180,23380,2,0,P|286:200|353:190,1,125.999996154785,2|2,2:0|2:0,2:0:0:0:
424,151,24078,2,0,B|394:202|418:246,1,94.499997116089,12|8,3:0|3:0,2:0:0:0:
476,336,24775,1,8,3:0:0:0:
329,297,25241,2,0,P|261:290|203:306,1,125.999996154785,2|2,2:0|2:0,2:0:0:0:
125,269,25939,6,0,P|127:215|109:166,1,94.499997116089,12|8,3:0|3:0,2:0:0:0:
125,63,26636,1,8,3:0:0:0:
275,80,27101,2,0,P|244:157|239:218,1,125.999996154785,2|2,2:0|2:0,2:0:0:0:
261,284,27799,6,0,P|303:317|362:305,1,94.499997116089,12|8,3:0|3:0,2:0:0:0:
430,244,28496,1,8,3:0:0:0:
450,108,28962,1,8,3:0:0:0:
450,108,29194,1,4,3:0:0:0:
284,45,29660,6,0,P|297:100|283:152,1,94.499997116089,12|8,3:0|3:0,2:0:0:0:
243,240,30357,2,0,P|188:266|106:234,2,125.999996154785,8|2|0,3:0|2:0|2:0,2:0:0:0:
329,222,31520,6,0,P|372:186|428:186,1,94.499997116089,12|8,3:0|3:0,2:0:0:0:
493,257,32217,1,8,3:0:0:0:
417,264,32449,1,0,0:0:0:0:
372,325,32682,2,0,P|386:352|393:383,2,62.9999980773926,2|10|2,2:0|2:0|2:0,2:0:0:0:
296,357,33380,6,0,P|246:335|182:349,1,94.499997116089,12|8,3:0|3:0,2:0:0:0:
102,366,34078,1,8,3:0:0:0:
56,221,34543,1,0,2:0:0:0:
95,156,34776,2,0,P|130:154|173:172,1,62.9999980773926,8|0,2:0|2:0,2:0:0:0:
225,217,35241,2,0,P|206:253|198:335,1,94.499997116089,12|8,3:0|3:0,2:0:0:0:
306,378,35938,1,8,3:0:0:0:
379,238,36403,1,4,3:0:0:0:
345,156,36636,2,0,P|345:116|333:75,1,62.9999980773926,8|8,1:3|1:3,2:0:0:0:
257,146,37101,6,0,P|213:143|144:104,1,105,4|2,3:1|3:2,2:0:0:0:
41,16,37799,2,0,P|20:40|19:89,1,70,2|0,3:2|2:0,2:0:0:0:
46,162,38264,2,0,P|69:227|70:297,1,140,6|6,3:2|2:0,2:0:0:0:
150,341,38962,2,0,P|181:359|226:353,1,70,2|2,3:2|2:0,2:0:0:0:
257,277,39427,1,8,3:1:0:0:
348,376,39776,2,0,P|355:324|351:271,1,105,2|2,2:0|3:2,2:0:0:0:
338,182,40357,1,8,3:1:0:0:
179,92,40822,6,0,P|141:72|129:38,1,70,2|2,3:2|2:0,2:0:0:0:
211,5,41287,2,0,P|260:6|327:24,1,105,8|2,3:1|2:0,2:0:0:0:
377,84,41868,1,2,2:0:0:0:
377,84,42101,1,2,2:0:0:0:
453,216,42450,1,6,2:0:0:0:
453,216,42682,2,0,P|468:255|461:310,1,70,2|0,3:2|2:0,2:0:0:0:
419,368,43148,2,0,P|380:353|326:358,1,70,8|2,3:1|3:2,2:0:0:0:
270,312,43613,2,0,P|284:248|246:183,1,140,2|8,2:0|3:1,2:0:0:0:
89,293,44543,6,0,P|128:286|176:287,1,70,2|0,3:2|2:0,2:0:0:0:
154,198,45008,1,8,3:1:0:0:
154,198,45241,2,0,B|147:166|147:166|175:117|143:51,2,140,2|6|6,3:2|3:2|2:0,2:0:0:0:
63,208,46403,2,0,P|18:202|-10:173,1,70,0|0,3:0|2:0,2:0:0:0:
17,97,46869,1,8,3:1:0:0:
17,97,47101,1,2,3:2:0:0:
82,40,47334,2,0,P|113:55|174:62,1,70,2|2,2:0|3:2,2:0:0:0:
210,127,47799,2,0,P|252:135|294:109,1,70,8|2,3:1|2:0,2:0:0:0:
352,74,48264,6,0,P|329:125|341:221,1,140,2|12,3:2|3:1,2:0:0:0:
423,261,48962,1,8,3:1:0:0:
425,262,49194,2,0,B|348:231|285:268|285:268|292:311|262:338,1,210,8|0,3:1|3:0,2:0:0:0:
114,361,50357,2,0,P|75:360|39:347,1,70,0|12,3:0|3:1,2:0:0:0:
198,280,51055,2,0,P|190:242|187:207,1,70,0|8,3:0|3:1,2:0:0:0:
197,127,51520,1,2,3:2:0:0:
370,78,51985,6,0,P|406:18|501:13,2,140,4|8|2,3:1|3:1|2:0,2:0:0:0:
383,172,53148,1,2,3:2:0:0:
383,172,53380,2,0,P|348:163|306:156,1,70,8|2,3:1|2:0,2:0:0:0:
265,80,53845,2,0,P|231:77|188:61,1,70,2|2,2:0|2:0,2:0:0:0:
123,11,54310,2,0,P|73:41|88:136,1,140,8|0,3:1|2:0,2:0:0:0:
29,294,55241,2,0,P|59:281|105:281,1,70,8|8,3:1|3:1,2:0:0:0:
156,211,55706,6,0,P|225:252|304:226,1,140,2|2,3:1|3:1,2:0:0:0:
353,305,56403,1,2,3:2:0:0:
353,305,56636,2,0,P|332:245|352:160,1,140,2|2,3:1|3:2,2:0:0:0:
404,101,57334,1,2,3:1:0:0:
450,281,57799,1,0,3:0:0:0:
450,281,58031,2,0,B|455:318|455:318|442:348,1,70,8|8,3:1|3:1,2:0:0:0:
38,300,59427,6,0,B|144:322|144:322|192:290,1,154.000004699707,14|10,1:3|3:1,3:0:0:0:
254,227,60124,1,0,3:0:0:0:
155,208,60357,2,0,P|149:159|141:120,1,77.0000023498536,2|2,3:2|1:2,3:0:0:0:
131,32,60822,1,8,3:1:0:0:
328,1,61287,6,0,P|301:73|295:159,1,154.000004699707,6|10,1:3|3:1,3:0:0:0:
365,220,61985,1,0,1:0:0:0:
438,152,62217,2,0,P|420:107|425:65,1,77.0000023498536,2|2,3:2|1:2,2:0:0:0:
492,8,62682,1,8,3:1:0:0:
291,0,63148,6,0,P|309:85|309:161,1,154.000004699707,6|10,1:3|3:1,3:0:0:0:
234,217,63845,1,2,1:2:0:0:
280,305,64078,2,0,B|318:313|318:313|367:287,1,77.0000023498536,2|2,3:2|1:2,3:0:0:0:
391,202,64543,1,10,3:1:0:0:
209,117,65008,6,0,P|155:82|63:97,1,154.000004699707,6|10,1:3|3:1,3:0:0:0:
3,168,65706,1,2,1:2:0:0:
69,242,65938,2,0,P|86:283|85:325,1,77.0000023498536,2|0,3:2|1:0,2:0:0:0:
14,383,66403,1,10,3:1:0:0:
214,371,66869,6,0,P|220:285|237:213,1,154.000004699707,6|10,1:3|3:1,3:0:0:0:
339,218,67566,1,2,1:2:0:0:
339,218,67799,2,0,P|319:175|312:140,1,77.0000023498536,2|2,3:2|1:2,3:0:0:0:
410,165,68263,1,10,3:1:0:0:
387,337,68729,6,0,P|317:360|257:307,1,154.000004699707,6|8,1:3|3:1,3:0:0:0:
204,236,69427,1,2,1:2:0:0:
204,236,69659,2,0,B|233:215|233:215|283:222,1,77.0000023498536,2|2,3:2|1:0,3:0:0:0:
372,235,70124,1,10,3:1:0:0:
457,54,70589,6,0,P|413:35|364:47,1,77.0000023498536,6|2,1:3|3:2,3:0:0:0:
307,101,71055,2,0,P|270:122|216:108,1,77.0000023498536,10|2,3:1|3:2,3:0:0:0:
148,72,71520,2,0,P|196:127|195:205,1,154.000004699707,6|10,1:3|3:1,3:0:0:0:
121,271,72217,1,2,1:2:0:0:
121,271,72450,2,2,B|150:301|149:338|149:338|172:306|222:301,2,154.000004699707,6|10|12,1:3|3:1|1:3,3:1:0:0:
437,378,74310,6,0,P|413:315|427:221,1,154.000004699707,6|10,1:3|3:1,3:0:0:0:
471,142,75008,1,2,3:2:0:0:
403,68,75241,2,0,P|367:66|317:90,1,77.0000023498536,2|2,3:2|1:2,2:0:0:0:
300,176,75706,1,8,3:1:0:0:
418,337,76171,6,0,P|422:280|386:190,1,154.000004699707,6|10,1:3|3:1,3:0:0:0:
345,99,76869,1,2,1:0:0:0:
278,173,77101,2,0,B|244:195|244:195|190:183,1,77.0000023498536,2|0,3:2|1:0,2:0:0:0:
226,88,77566,1,10,3:1:0:0:
41,9,78031,6,0,P|44:44|27:89,1,77.0000023498536,6|2,1:3|3:2,3:0:0:0:
39,183,78496,2,2,P|85:193|111:218,1,77.0000023498536,10|2,3:1|1:2,3:1:0:0:
58,300,78962,2,0,P|108:316|190:265,1,154.000004699707,2|8,3:2|3:1,2:0:0:0:
374,343,79892,2,0,P|343:362|284:351,1,77.0000023498536,6|2,1:3|3:2,3:0:0:0:
300,260,80357,2,0,P|310:226|294:174,1,77.0000023498536,10|2,3:1|1:2,3:0:0:0:
396,153,80822,2,0,B|400:93|420:48|420:48|390:4,2,154.000004699707,2|10|6,3:1|3:1|1:3,3:0:0:0:
132,19,82450,5,2,3:2:0:0:
132,19,82682,2,0,P|113:58|124:98,1,77.0000023498536,6|2,3:0|3:2,2:0:0:0:
209,133,83147,2,0,P|233:173|220:213,1,77.0000023498536,14|0,3:0|3:0,2:0:0:0:
161,276,83613,1,2,3:1:0:0:
256,192,83845,12,2,85473,2:1:0:0:
