osu file format v14

[General]
AudioFilename: audio.mp3
AudioLeadIn: 0
PreviewTime: 58660
Countdown: 0
SampleSet: Soft
StackLeniency: 0.7
Mode: 3
LetterboxInBreaks: 0
SpecialStyle: 0
WidescreenStoryboard: 1

[Editor]
DistanceSpacing: 1.5
BeatDivisor: 12
GridSize: 4
TimelineZoom: 2.3

[Metadata]
Title:Kawaki wo Ameku
TitleUnicode:カワキヲアメク
Artist:Minami
ArtistUnicode:美波
Creator:Reihynn
Version:Where will I go?
Source:ドメスティックな彼女
Tags:Crying for Rain Domestic Girlfriend na Kanojo flying DOG dome kano domekano OP opening full ver. version size opening japanese pop jpop j-pop anime female vocals vocalist stream dump
BeatmapID:3998473
BeatmapSetID:1934859

[Difficulty]
HPDrainRate:8
CircleSize:4
OverallDifficulty:8
ApproachRate:5
SliderMultiplier:1.4
SliderTickRate:1

[Events]
//Background and Video events
0,0,"eepy.jpg",0,0
//Break Periods
//Storyboard Layer 0 (Background)
//Storyboard Layer 1 (Fail)
//Storyboard Layer 2 (Pass)
//Storyboard Layer 3 (Foreground)
//Storyboard Layer 4 (Overlay)
//Storyboard Sound Samples

[TimingPoints]
1511,441.176483154297,4,2,1,75,1,0
1511,-105.426361083984,4,2,1,75,0,0
13067,468.75,4,2,1,75,1,0
13067,-99.2248077392578,4,2,1,75,0,0
14940,465.116271972656,4,2,1,75,1,0
59591,-100,4,2,1,75,0,1
83777,-100,4,2,1,75,0,0
130288,-100,4,2,1,75,0,1
154474,-100,4,2,1,75,0,0
178660,-100,4,2,1,75,0,1
202846,-100,4,2,1,75,0,0
238196,441.176483154297,4,2,1,75,1,0
238196,-105.426361083984,4,2,1,75,0,0

[HitObjects]
192,192,1511,5,0,0:0:0:0:
64,192,1952,1,0,0:0:0:0:
448,192,2393,1,0,0:0:0:0:
64,192,2834,1,0,0:0:0:0:
192,192,3275,1,0,0:0:0:0:
448,192,3275,1,0,0:0:0:0:
64,192,3716,1,0,0:0:0:0:
320,192,4158,1,0,0:0:0:0:
448,192,4268,1,0,0:0:0:0:
192,192,4378,1,0,0:0:0:0:
64,192,4599,1,0,0:0:0:0:
192,192,5040,1,0,0:0:0:0:
448,192,5040,1,0,0:0:0:0:
64,192,5481,1,0,0:0:0:0:
320,192,5922,1,0,0:0:0:0:
192,192,6363,1,0,0:0:0:0:
64,192,6805,1,0,0:0:0:0:
448,192,6805,1,0,0:0:0:0:
320,192,7246,1,0,0:0:0:0:
192,192,7687,1,0,0:0:0:0:
448,192,7687,128,0,8128:0:0:0:0:
64,192,8128,128,0,8569:0:0:0:0:
320,192,8569,128,0,8900:0:0:0:0:
448,192,8569,1,0,0:0:0:0:
448,192,9452,128,0,9783:0:0:0:0:
192,192,10334,128,0,10775:0:0:0:0:
448,192,10334,1,0,0:0:0:0:
64,192,10775,128,0,11492:0:0:0:0:
320,192,11492,128,0,14940:0:0:0:0:
64,192,13067,1,0,0:0:0:0:
64,192,13535,1,0,0:0:0:0:
64,192,14004,1,0,0:0:0:0:
64,192,14473,1,0,0:0:0:0:
448,192,14473,1,0,0:0:0:0:
192,192,14940,1,0,0:0:0:0:
64,192,14940,1,0,0:0:0:0:
448,192,14940,1,0,0:0:0:0:
192,192,15056,128,0,15172:0:0:0:0:
64,192,15056,128,0,15172:0:0:0:0:
448,192,15056,128,0,15172:0:0:0:0:
448,192,15288,128,0,15405:0:0:0:0:
320,192,15288,128,0,15405:0:0:0:0:
320,192,15521,128,0,15637:0:0:0:0:
192,192,15521,128,0,15637:0:0:0:0:
192,192,15753,128,0,15870:0:0:0:0:
64,192,15753,128,0,15870:0:0:0:0:
64,192,15986,128,0,16102:0:0:0:0:
448,192,15986,128,0,16102:0:0:0:0:
448,192,16219,1,0,0:0:0:0:
320,192,16219,1,0,0:0:0:0:
64,192,16335,128,0,16567:0:0:0:0:
320,192,16335,128,0,16451:0:0:0:0:
448,192,16567,128,0,16800:0:0:0:0:
192,192,16567,128,0,16684:0:0:0:0:
64,192,16800,1,0,0:0:0:0:
192,192,16800,1,0,0:0:0:0:
320,192,16800,1,0,0:0:0:0:
320,192,16916,128,0,17033:0:0:0:0:
192,192,16916,128,0,17033:0:0:0:0:
64,192,16916,128,0,17033:0:0:0:0:
448,192,17149,128,0,17265:0:0:0:0:
320,192,17149,128,0,17265:0:0:0:0:
192,192,17381,128,0,17498:0:0:0:0:
320,192,17381,128,0,17498:0:0:0:0:
192,192,17614,128,0,17730:0:0:0:0:
64,192,17614,128,0,17730:0:0:0:0:
64,192,17846,128,0,17963:0:0:0:0:
448,192,17846,128,0,17963:0:0:0:0:
64,192,18079,1,0,0:0:0:0:
320,192,18079,1,0,0:0:0:0:
448,192,18195,128,0,18428:0:0:0:0:
320,192,18195,128,0,18312:0:0:0:0:
64,192,18428,128,0,18660:0:0:0:0:
192,192,18428,128,0,18544:0:0:0:0:
192,192,18660,1,0,0:0:0:0:
320,192,18660,1,0,0:0:0:0:
448,192,18660,1,0,0:0:0:0:
448,192,18777,128,0,18893:0:0:0:0:
320,192,18777,128,0,18893:0:0:0:0:
192,192,18777,128,0,18893:0:0:0:0:
64,192,19009,128,0,19126:0:0:0:0:
448,192,19009,128,0,19126:0:0:0:0:
448,192,19242,128,0,19358:0:0:0:0:
192,192,19242,128,0,19358:0:0:0:0:
64,192,19474,128,0,19591:0:0:0:0:
320,192,19474,128,0,19591:0:0:0:0:
64,192,19707,128,0,19823:0:0:0:0:
192,192,19707,128,0,19823:0:0:0:0:
192,192,19939,1,0,0:0:0:0:
448,192,19939,1,0,0:0:0:0:
320,192,20056,128,0,20288:0:0:0:0:
448,192,20056,128,0,20172:0:0:0:0:
192,192,20288,128,0,20521:0:0:0:0:
64,192,20288,128,0,20405:0:0:0:0:
64,192,20521,1,0,0:0:0:0:
448,192,20521,1,0,0:0:0:0:
320,192,20521,1,0,0:0:0:0:
64,192,20753,1,0,0:0:0:0:
320,192,20870,1,0,0:0:0:0:
192,192,20986,1,0,0:0:0:0:
448,192,21102,1,0,0:0:0:0:
192,192,21102,1,0,0:0:0:0:
320,192,21335,1,0,0:0:0:0:
320,192,21451,1,0,0:0:0:0:
64,192,21451,1,0,0:0:0:0:
448,192,21509,1,0,0:0:0:0:
192,192,21567,1,0,0:0:0:0:
448,192,21684,1,0,0:0:0:0:
320,192,21800,1,0,0:0:0:0:
448,192,21800,1,0,0:0:0:0:
192,192,21916,1,0,0:0:0:0:
64,192,21916,1,0,0:0:0:0:
192,192,22149,128,0,22381:0:0:0:0:
64,192,22381,1,0,0:0:0:0:
320,192,22381,128,0,22498:0:0:0:0:
448,192,22381,128,0,22498:0:0:0:0:
448,192,22730,128,0,22846:0:0:0:0:
320,192,22730,128,0,22846:0:0:0:0:
64,192,23079,128,0,23195:0:0:0:0:
320,192,23079,128,0,23195:0:0:0:0:
320,192,23544,1,0,0:0:0:0:
64,192,23660,1,0,0:0:0:0:
192,192,23777,1,0,0:0:0:0:
448,192,23777,1,0,0:0:0:0:
320,192,23835,1,0,0:0:0:0:
64,192,23893,1,0,0:0:0:0:
192,192,24009,1,0,0:0:0:0:
320,192,24126,1,0,0:0:0:0:
64,192,24126,1,0,0:0:0:0:
64,192,24242,128,0,24358:0:0:0:0:
320,192,24242,128,0,24358:0:0:0:0:
192,192,24591,128,0,24707:0:0:0:0:
448,192,24591,128,0,24707:0:0:0:0:
320,192,24939,128,0,25056:0:0:0:0:
448,192,24939,128,0,25056:0:0:0:0:
192,192,25405,1,0,0:0:0:0:
64,192,25637,1,0,0:0:0:0:
448,192,25637,1,0,0:0:0:0:
320,192,25753,1,0,0:0:0:0:
192,192,25870,1,0,0:0:0:0:
64,192,25986,1,0,0:0:0:0:
448,192,25986,1,0,0:0:0:0:
192,192,26102,128,0,26219:0:0:0:0:
448,192,26102,128,0,26219:0:0:0:0:
64,192,26335,1,0,0:0:0:0:
448,192,26451,128,0,26567:0:0:0:0:
192,192,26451,128,0,26567:0:0:0:0:
320,192,26567,1,0,0:0:0:0:
64,192,26800,128,0,26916:0:0:0:0:
448,192,26800,128,0,26916:0:0:0:0:
320,192,26916,1,0,0:0:0:0:
192,192,27033,1,0,0:0:0:0:
448,192,27149,1,0,0:0:0:0:
64,192,27265,1,0,0:0:0:0:
320,192,27381,1,0,0:0:0:0:
448,192,27498,1,0,0:0:0:0:
192,192,27498,1,0,0:0:0:0:
64,192,27614,1,0,0:0:0:0:
448,192,27730,1,0,0:0:0:0:
192,192,27846,1,0,0:0:0:0:
64,192,27846,1,0,0:0:0:0:
448,192,27963,128,0,28079:0:0:0:0:
64,192,27963,128,0,28079:0:0:0:0:
320,192,28079,1,0,0:0:0:0:
192,192,28312,128,0,28428:0:0:0:0:
64,192,28312,128,0,28428:0:0:0:0:
448,192,28428,1,0,0:0:0:0:
192,192,28544,1,0,0:0:0:0:
320,192,28660,128,0,28777:0:0:0:0:
448,192,28660,128,0,28777:0:0:0:0:
192,192,28777,1,0,0:0:0:0:
64,192,28893,1,0,0:0:0:0:
320,192,29009,1,0,0:0:0:0:
64,192,29126,1,0,0:0:0:0:
448,192,29126,1,0,0:0:0:0:
192,192,29203,1,0,0:0:0:0:
448,192,29281,1,0,0:0:0:0:
64,192,29358,1,0,0:0:0:0:
192,192,29358,1,0,0:0:0:0:
320,192,29591,1,0,0:0:0:0:
320,192,29823,128,0,29939:0:0:0:0:
192,192,29823,128,0,29939:0:0:0:0:
64,192,30056,1,0,0:0:0:0:
320,192,30172,128,0,30288:0:0:0:0:
448,192,30172,128,0,30288:0:0:0:0:
192,192,30288,1,0,0:0:0:0:
64,192,30521,128,0,30637:0:0:0:0:
320,192,30521,128,0,30637:0:0:0:0:
192,192,30986,1,0,0:0:0:0:
320,192,31102,1,0,0:0:0:0:
64,192,31219,1,0,0:0:0:0:
192,192,31219,1,0,0:0:0:0:
448,192,31335,1,0,0:0:0:0:
320,192,31451,1,0,0:0:0:0:
192,192,31567,1,0,0:0:0:0:
448,192,31567,1,0,0:0:0:0:
192,192,31684,128,0,31800:0:0:0:0:
64,192,31684,128,0,31800:0:0:0:0:
448,192,31916,1,0,0:0:0:0:
192,192,32033,128,0,32149:0:0:0:0:
320,192,32033,128,0,32149:0:0:0:0:
64,192,32149,1,0,0:0:0:0:
320,192,32381,128,0,32498:0:0:0:0:
448,192,32381,128,0,32498:0:0:0:0:
64,192,32614,1,0,0:0:0:0:
320,192,32846,1,0,0:0:0:0:
192,192,32963,1,0,0:0:0:0:
64,192,33079,1,0,0:0:0:0:
448,192,33079,1,0,0:0:0:0:
320,192,33195,1,0,0:0:0:0:
448,192,33312,1,0,0:0:0:0:
192,192,33428,1,0,0:0:0:0:
64,192,33428,1,0,0:0:0:0:
448,192,33544,128,0,33660:0:0:0:0:
192,192,33544,128,0,33660:0:0:0:0:
320,192,33777,1,0,0:0:0:0:
448,192,33893,128,0,34009:0:0:0:0:
64,192,33893,128,0,34009:0:0:0:0:
192,192,34009,1,0,0:0:0:0:
192,192,34242,128,0,34358:0:0:0:0:
64,192,34242,128,0,34358:0:0:0:0:
192,192,34707,1,0,0:0:0:0:
64,192,34823,1,0,0:0:0:0:
320,192,34939,1,0,0:0:0:0:
448,192,34939,1,0,0:0:0:0:
64,192,35056,1,0,0:0:0:0:
320,192,35172,1,0,0:0:0:0:
192,192,35288,1,0,0:0:0:0:
448,192,35405,128,0,35521:0:0:0:0:
64,192,35405,128,0,35521:0:0:0:0:
192,192,35753,128,0,35870:0:0:0:0:
448,192,35753,128,0,35870:0:0:0:0:
320,192,36102,128,0,36219:0:0:0:0:
448,192,36102,128,0,36219:0:0:0:0:
320,192,36567,1,0,0:0:0:0:
448,192,36684,1,0,0:0:0:0:
192,192,36800,1,0,0:0:0:0:
64,192,36800,1,0,0:0:0:0:
64,192,36916,1,0,0:0:0:0:
192,192,36916,1,0,0:0:0:0:
320,192,37033,1,0,0:0:0:0:
448,192,37033,1,0,0:0:0:0:
320,192,37149,1,0,0:0:0:0:
192,192,37149,1,0,0:0:0:0:
192,192,37265,1,0,0:0:0:0:
448,192,37265,1,0,0:0:0:0:
64,192,37265,1,0,0:0:0:0:
320,192,37323,1,0,0:0:0:0:
192,192,37381,1,0,0:0:0:0:
320,192,37498,1,0,0:0:0:0:
64,192,37614,1,0,0:0:0:0:
448,192,37614,1,0,0:0:0:0:
192,192,37672,1,0,0:0:0:0:
320,192,37730,1,0,0:0:0:0:
448,192,37730,1,0,0:0:0:0:
192,192,37846,1,0,0:0:0:0:
320,192,37963,1,0,0:0:0:0:
64,192,37963,1,0,0:0:0:0:
448,192,38040,1,0,0:0:0:0:
192,192,38118,1,0,0:0:0:0:
320,192,38195,1,0,0:0:0:0:
192,192,38312,1,0,0:0:0:0:
448,192,38428,1,0,0:0:0:0:
64,192,38428,1,0,0:0:0:0:
320,192,38505,1,0,0:0:0:0:
192,192,38583,1,0,0:0:0:0:
320,192,38660,1,0,0:0:0:0:
448,192,38660,1,0,0:0:0:0:
64,192,38738,1,0,0:0:0:0:
448,192,38815,1,0,0:0:0:0:
192,192,38893,1,0,0:0:0:0:
64,192,38893,1,0,0:0:0:0:
320,192,39009,1,0,0:0:0:0:
64,192,39126,1,0,0:0:0:0:
448,192,39126,1,0,0:0:0:0:
192,192,39203,1,0,0:0:0:0:
448,192,39281,1,0,0:0:0:0:
320,192,39358,1,0,0:0:0:0:
64,192,39358,1,0,0:0:0:0:
192,192,39474,1,0,0:0:0:0:
64,192,39474,1,0,0:0:0:0:
320,192,39591,1,0,0:0:0:0:
64,192,39591,1,0,0:0:0:0:
448,192,39591,1,0,0:0:0:0:
192,192,39707,1,0,0:0:0:0:
448,192,39823,1,0,0:0:0:0:
64,192,39823,1,0,0:0:0:0:
320,192,39939,1,0,0:0:0:0:
448,192,39939,1,0,0:0:0:0:
64,192,40017,1,0,0:0:0:0:
192,192,40095,1,0,0:0:0:0:
448,192,40172,1,0,0:0:0:0:
320,192,40288,1,0,0:0:0:0:
64,192,40288,1,0,0:0:0:0:
192,192,40366,1,0,0:0:0:0:
320,192,40443,1,0,0:0:0:0:
64,192,40521,1,0,0:0:0:0:
192,192,40521,1,0,0:0:0:0:
448,192,40521,1,0,0:0:0:0:
320,192,40637,1,0,0:0:0:0:
192,192,40753,1,0,0:0:0:0:
64,192,40753,1,0,0:0:0:0:
320,192,40831,1,0,0:0:0:0:
64,192,40908,1,0,0:0:0:0:
320,192,40986,1,0,0:0:0:0:
448,192,40986,1,0,0:0:0:0:
192,192,41064,1,0,0:0:0:0:
448,192,41141,1,0,0:0:0:0:
64,192,41219,1,0,0:0:0:0:
320,192,41219,1,0,0:0:0:0:
192,192,41335,1,0,0:0:0:0:
64,192,41335,1,0,0:0:0:0:
192,192,41451,1,0,0:0:0:0:
448,192,41451,1,0,0:0:0:0:
320,192,41567,1,0,0:0:0:0:
448,192,41567,1,0,0:0:0:0:
192,192,41684,1,0,0:0:0:0:
320,192,41684,1,0,0:0:0:0:
64,192,41800,1,0,0:0:0:0:
192,192,41800,1,0,0:0:0:0:
320,192,41858,1,0,0:0:0:0:
64,192,42033,1,0,0:0:0:0:
448,192,42033,1,0,0:0:0:0:
192,192,42149,1,0,0:0:0:0:
64,192,42149,1,0,0:0:0:0:
448,192,42265,1,0,0:0:0:0:
320,192,42265,1,0,0:0:0:0:
64,192,42381,1,0,0:0:0:0:
448,192,42381,1,0,0:0:0:0:
192,192,42498,1,0,0:0:0:0:
320,192,42614,1,0,0:0:0:0:
448,192,42614,1,0,0:0:0:0:
448,192,42730,1,0,0:0:0:0:
192,192,42730,1,0,0:0:0:0:
64,192,42846,1,0,0:0:0:0:
192,192,42846,1,0,0:0:0:0:
64,192,42963,1,0,0:0:0:0:
320,192,42963,1,0,0:0:0:0:
448,192,43040,1,0,0:0:0:0:
192,192,43118,1,0,0:0:0:0:
320,192,43195,1,0,0:0:0:0:
448,192,43195,1,0,0:0:0:0:
448,192,43312,1,0,0:0:0:0:
64,192,43312,1,0,0:0:0:0:
192,192,43428,1,0,0:0:0:0:
64,192,43428,1,0,0:0:0:0:
192,192,43544,1,0,0:0:0:0:
448,192,43544,1,0,0:0:0:0:
320,192,43660,1,0,0:0:0:0:
448,192,43660,1,0,0:0:0:0:
192,192,43777,1,0,0:0:0:0:
320,192,43777,1,0,0:0:0:0:
192,192,43893,1,0,0:0:0:0:
64,192,43893,1,0,0:0:0:0:
320,192,44009,1,0,0:0:0:0:
448,192,44009,1,0,0:0:0:0:
192,192,44087,1,0,0:0:0:0:
320,192,44164,1,0,0:0:0:0:
448,192,44242,1,0,0:0:0:0:
64,192,44242,1,0,0:0:0:0:
192,192,44358,1,0,0:0:0:0:
320,192,44474,1,0,0:0:0:0:
448,192,44474,1,0,0:0:0:0:
64,192,44552,1,0,0:0:0:0:
192,192,44629,1,0,0:0:0:0:
64,192,44707,1,0,0:0:0:0:
448,192,44707,1,0,0:0:0:0:
320,192,44707,1,0,0:0:0:0:
320,192,44823,1,0,0:0:0:0:
64,192,44939,1,0,0:0:0:0:
448,192,44939,1,0,0:0:0:0:
64,192,45056,1,0,0:0:0:0:
320,192,45172,1,0,0:0:0:0:
192,192,45172,1,0,0:0:0:0:
320,192,45288,1,0,0:0:0:0:
64,192,45405,1,0,0:0:0:0:
448,192,45405,1,0,0:0:0:0:
192,192,45482,1,0,0:0:0:0:
320,192,45560,1,0,0:0:0:0:
448,192,45637,1,0,0:0:0:0:
64,192,45637,1,0,0:0:0:0:
192,192,45753,1,0,0:0:0:0:
64,192,45870,1,0,0:0:0:0:
448,192,45870,1,0,0:0:0:0:
320,192,45947,1,0,0:0:0:0:
192,192,46025,1,0,0:0:0:0:
448,192,46102,1,0,0:0:0:0:
64,192,46102,1,0,0:0:0:0:
320,192,46219,1,0,0:0:0:0:
64,192,46335,1,0,0:0:0:0:
448,192,46335,1,0,0:0:0:0:
192,192,46412,1,0,0:0:0:0:
448,192,46490,1,0,0:0:0:0:
64,192,46567,1,0,0:0:0:0:
320,192,46567,1,0,0:0:0:0:
192,192,46684,1,0,0:0:0:0:
64,192,46800,1,0,0:0:0:0:
448,192,46800,1,0,0:0:0:0:
448,192,46916,1,0,0:0:0:0:
192,192,47033,1,0,0:0:0:0:
64,192,47033,1,0,0:0:0:0:
448,192,47149,1,0,0:0:0:0:
192,192,47265,1,0,0:0:0:0:
320,192,47265,1,0,0:0:0:0:
192,192,47381,1,0,0:0:0:0:
64,192,47498,1,0,0:0:0:0:
448,192,47498,1,0,0:0:0:0:
192,192,47614,1,0,0:0:0:0:
64,192,47730,1,0,0:0:0:0:
320,192,47730,1,0,0:0:0:0:
320,192,47846,1,0,0:0:0:0:
448,192,47963,1,0,0:0:0:0:
64,192,47963,1,0,0:0:0:0:
192,192,48079,1,0,0:0:0:0:
448,192,48195,1,0,0:0:0:0:
320,192,48195,1,0,0:0:0:0:
192,192,48312,1,0,0:0:0:0:
64,192,48428,1,0,0:0:0:0:
320,192,48428,1,0,0:0:0:0:
192,192,48544,1,0,0:0:0:0:
320,192,48660,1,0,0:0:0:0:
448,192,48660,1,0,0:0:0:0:
64,192,48777,1,0,0:0:0:0:
192,192,48777,1,0,0:0:0:0:
64,192,48893,1,0,0:0:0:0:
192,192,48893,1,0,0:0:0:0:
448,192,48893,1,0,0:0:0:0:
320,192,49126,1,0,0:0:0:0:
448,192,49126,1,0,0:0:0:0:
320,192,49242,1,0,0:0:0:0:
64,192,49242,1,0,0:0:0:0:
192,192,49358,1,0,0:0:0:0:
448,192,49358,1,0,0:0:0:0:
192,192,49474,1,0,0:0:0:0:
64,192,49474,1,0,0:0:0:0:
320,192,49591,1,0,0:0:0:0:
448,192,49591,1,0,0:0:0:0:
64,192,49707,1,0,0:0:0:0:
192,192,49707,1,0,0:0:0:0:
320,192,49823,128,0,49978:0:0:0:0:
448,192,49823,128,0,49978:0:0:0:0:
448,192,50056,1,0,0:0:0:0:
320,192,50056,1,0,0:0:0:0:
64,192,50056,1,0,0:0:0:0:
64,192,50521,1,0,0:0:0:0:
320,192,50521,1,0,0:0:0:0:
192,192,50753,1,0,0:0:0:0:
320,192,50753,1,0,0:0:0:0:
448,192,50753,1,0,0:0:0:0:
320,192,50986,1,0,0:0:0:0:
64,192,51219,1,0,0:0:0:0:
448,192,51219,1,0,0:0:0:0:
192,192,51451,1,0,0:0:0:0:
448,192,51451,1,0,0:0:0:0:
64,192,51451,1,0,0:0:0:0:
64,192,51684,1,0,0:0:0:0:
192,192,51684,1,0,0:0:0:0:
448,192,51684,1,0,0:0:0:0:
320,192,51761,1,0,0:0:0:0:
192,192,51839,1,0,0:0:0:0:
64,192,51916,1,0,0:0:0:0:
320,192,51994,1,0,0:0:0:0:
448,192,52071,1,0,0:0:0:0:
64,192,52149,1,0,0:0:0:0:
192,192,52149,1,0,0:0:0:0:
320,192,52207,1,0,0:0:0:0:
448,192,52265,1,0,0:0:0:0:
192,192,52323,1,0,0:0:0:0:
64,192,52381,1,0,0:0:0:0:
320,192,52439,1,0,0:0:0:0:
192,192,52498,1,0,0:0:0:0:
448,192,52556,1,0,0:0:0:0:
320,192,52614,1,0,0:0:0:0:
64,192,52614,1,0,0:0:0:0:
192,192,52691,1,0,0:0:0:0:
320,192,52769,1,0,0:0:0:0:
64,192,52846,1,0,0:0:0:0:
448,192,52924,1,0,0:0:0:0:
320,192,53002,1,0,0:0:0:0:
192,192,53079,1,0,0:0:0:0:
64,192,53079,1,0,0:0:0:0:
192,192,53195,1,0,0:0:0:0:
64,192,53195,1,0,0:0:0:0:
448,192,53312,1,0,0:0:0:0:
64,192,53312,1,0,0:0:0:0:
192,192,53428,1,0,0:0:0:0:
448,192,53428,1,0,0:0:0:0:
320,192,53544,1,0,0:0:0:0:
64,192,53544,1,0,0:0:0:0:
192,192,53544,1,0,0:0:0:0:
64,192,53660,1,0,0:0:0:0:
448,192,53660,1,0,0:0:0:0:
192,192,53777,1,0,0:0:0:0:
320,192,53777,1,0,0:0:0:0:
64,192,53893,1,0,0:0:0:0:
448,192,54009,1,0,0:0:0:0:
320,192,54009,1,0,0:0:0:0:
320,192,54126,1,0,0:0:0:0:
448,192,54126,1,0,0:0:0:0:
192,192,54242,1,0,0:0:0:0:
64,192,54242,1,0,0:0:0:0:
64,192,54358,1,0,0:0:0:0:
192,192,54358,1,0,0:0:0:0:
64,192,54474,1,0,0:0:0:0:
320,192,54474,1,0,0:0:0:0:
448,192,54474,1,0,0:0:0:0:
192,192,54552,1,0,0:0:0:0:
320,192,54629,1,0,0:0:0:0:
192,192,54707,1,0,0:0:0:0:
448,192,54784,1,0,0:0:0:0:
192,192,54881,1,0,0:0:0:0:
448,192,54939,1,0,0:0:0:0:
64,192,54939,1,0,0:0:0:0:
320,192,54998,1,0,0:0:0:0:
192,192,55056,1,0,0:0:0:0:
320,192,55172,1,0,0:0:0:0:
448,192,55172,1,0,0:0:0:0:
64,192,55230,1,0,0:0:0:0:
192,192,55288,1,0,0:0:0:0:
448,192,55405,1,0,0:0:0:0:
320,192,55405,1,0,0:0:0:0:
320,192,55521,1,0,0:0:0:0:
448,192,55521,1,0,0:0:0:0:
64,192,55637,1,0,0:0:0:0:
192,192,55637,1,0,0:0:0:0:
448,192,55715,1,0,0:0:0:0:
192,192,55792,1,0,0:0:0:0:
448,192,55870,1,0,0:0:0:0:
64,192,55870,1,0,0:0:0:0:
320,192,55870,1,0,0:0:0:0:
192,192,55986,1,0,0:0:0:0:
192,192,56102,1,0,0:0:0:0:
64,192,56102,1,0,0:0:0:0:
448,192,56102,1,0,0:0:0:0:
320,192,56219,1,0,0:0:0:0:
64,192,56335,1,0,0:0:0:0:
320,192,56335,1,0,0:0:0:0:
448,192,56335,1,0,0:0:0:0:
192,192,56451,1,0,0:0:0:0:
64,192,56567,1,0,0:0:0:0:
192,192,56567,1,0,0:0:0:0:
320,192,56567,1,0,0:0:0:0:
448,192,56684,1,0,0:0:0:0:
448,192,56800,1,0,0:0:0:0:
320,192,56800,1,0,0:0:0:0:
192,192,56800,1,0,0:0:0:0:
64,192,56916,1,0,0:0:0:0:
192,192,57033,1,0,0:0:0:0:
64,192,57033,1,0,0:0:0:0:
320,192,57033,1,0,0:0:0:0:
448,192,57091,1,0,0:0:0:0:
192,192,57149,1,0,0:0:0:0:
448,192,57265,1,0,0:0:0:0:
320,192,57265,1,0,0:0:0:0:
64,192,57265,1,0,0:0:0:0:
192,192,57498,1,0,0:0:0:0:
448,192,57498,1,0,0:0:0:0:
64,192,57498,1,0,0:0:0:0:
320,192,57556,1,0,0:0:0:0:
64,192,57614,1,0,0:0:0:0:
192,192,57672,1,0,0:0:0:0:
320,192,57730,1,0,0:0:0:0:
448,192,57788,1,0,0:0:0:0:
192,192,57846,1,0,0:0:0:0:
64,192,57905,1,0,0:0:0:0:
320,192,57963,1,0,0:0:0:0:
448,192,57963,1,0,0:0:0:0:
192,192,58021,1,0,0:0:0:0:
320,192,58079,1,0,0:0:0:0:
448,192,58079,1,0,0:0:0:0:
192,192,58137,1,0,0:0:0:0:
448,192,58195,1,0,0:0:0:0:
64,192,58195,1,0,0:0:0:0:
320,192,58253,1,0,0:0:0:0:
192,192,58312,1,0,0:0:0:0:
64,192,58312,1,0,0:0:0:0:
320,192,58370,1,0,0:0:0:0:
64,192,58428,1,0,0:0:0:0:
192,192,58428,1,0,0:0:0:0:
448,192,58486,1,0,0:0:0:0:
192,192,58544,1,0,0:0:0:0:
320,192,58602,1,0,0:0:0:0:
448,192,58660,1,0,0:0:0:0:
64,192,58660,128,0,58893:0:0:0:0:
192,192,58893,1,0,0:0:0:0:
192,192,59126,128,0,59358:0:0:0:0:
320,192,59358,1,0,0:0:0:0:
64,192,59474,1,0,0:0:0:0:
64,192,59591,1,0,0:0:0:0:
320,192,59591,1,0,0:0:0:0:
192,192,59591,1,0,0:0:0:0:
448,192,59649,1,0,0:0:0:0:
192,192,59707,1,0,0:0:0:0:
64,192,59765,1,0,0:0:0:0:
320,192,59823,1,0,0:0:0:0:
448,192,59823,1,0,0:0:0:0:
192,192,59939,1,0,0:0:0:0:
64,192,59939,1,0,0:0:0:0:
448,192,60056,1,0,0:0:0:0:
320,192,60056,1,0,0:0:0:0:
192,192,60056,1,0,0:0:0:0:
64,192,60133,1,0,0:0:0:0:
320,192,60211,1,0,0:0:0:0:
64,192,60288,1,0,0:0:0:0:
192,192,60288,1,0,0:0:0:0:
192,192,60405,1,0,0:0:0:0:
320,192,60405,1,0,0:0:0:0:
448,192,60521,1,0,0:0:0:0:
320,192,60521,1,0,0:0:0:0:
64,192,60598,1,0,0:0:0:0:
320,192,60676,1,0,0:0:0:0:
64,192,60753,1,0,0:0:0:0:
448,192,60753,1,0,0:0:0:0:
448,192,60870,1,0,0:0:0:0:
192,192,60870,1,0,0:0:0:0:
320,192,60947,1,0,0:0:0:0:
192,192,61025,1,0,0:0:0:0:
448,192,61102,1,0,0:0:0:0:
64,192,61102,1,0,0:0:0:0:
320,192,61219,1,0,0:0:0:0:
448,192,61257,1,0,0:0:0:0:
192,192,61296,1,0,0:0:0:0:
320,192,61335,1,0,0:0:0:0:
448,192,61451,1,0,0:0:0:0:
64,192,61451,1,0,0:0:0:0:
320,192,61509,1,0,0:0:0:0:
192,192,61567,1,0,0:0:0:0:
64,192,61626,1,0,0:0:0:0:
448,192,61684,1,0,0:0:0:0:
320,192,61684,1,0,0:0:0:0:
64,192,61800,1,0,0:0:0:0:
448,192,61800,1,0,0:0:0:0:
320,192,61916,1,0,0:0:0:0:
64,192,61916,1,0,0:0:0:0:
448,192,61916,1,0,0:0:0:0:
192,192,61994,1,0,0:0:0:0:
320,192,62071,1,0,0:0:0:0:
64,192,62149,1,0,0:0:0:0:
192,192,62149,1,0,0:0:0:0:
64,192,62265,1,0,0:0:0:0:
320,192,62265,1,0,0:0:0:0:
64,192,62381,1,0,0:0:0:0:
320,192,62381,1,0,0:0:0:0:
448,192,62498,1,0,0:0:0:0:
192,192,62498,1,0,0:0:0:0:
320,192,62614,1,0,0:0:0:0:
448,192,62614,1,0,0:0:0:0:
448,192,62730,1,0,0:0:0:0:
192,192,62730,1,0,0:0:0:0:
64,192,62808,1,0,0:0:0:0:
320,192,62885,1,0,0:0:0:0:
64,192,62963,1,0,0:0:0:0:
192,192,62963,1,0,0:0:0:0:
320,192,63079,1,0,0:0:0:0:
192,192,63118,1,0,0:0:0:0:
448,192,63157,1,0,0:0:0:0:
320,192,63195,1,0,0:0:0:0:
64,192,63312,1,0,0:0:0:0:
448,192,63312,1,0,0:0:0:0:
64,192,63428,1,0,0:0:0:0:
320,192,63428,1,0,0:0:0:0:
192,192,63544,1,0,0:0:0:0:
320,192,63544,1,0,0:0:0:0:
192,192,63660,1,0,0:0:0:0:
448,192,63660,1,0,0:0:0:0:
64,192,63777,1,0,0:0:0:0:
320,192,63777,1,0,0:0:0:0:
448,192,63777,1,0,0:0:0:0:
192,192,63854,1,0,0:0:0:0:
320,192,63932,1,0,0:0:0:0:
448,192,64009,1,0,0:0:0:0:
64,192,64009,1,0,0:0:0:0:
192,192,64126,1,0,0:0:0:0:
64,192,64126,1,0,0:0:0:0:
192,192,64242,1,0,0:0:0:0:
448,192,64242,1,0,0:0:0:0:
320,192,64319,1,0,0:0:0:0:
192,192,64397,1,0,0:0:0:0:
64,192,64474,1,0,0:0:0:0:
448,192,64474,1,0,0:0:0:0:
192,192,64552,1,0,0:0:0:0:
320,192,64629,1,0,0:0:0:0:
192,192,64707,1,0,0:0:0:0:
64,192,64707,1,0,0:0:0:0:
448,192,64707,1,0,0:0:0:0:
320,192,64784,1,0,0:0:0:0:
448,192,64862,1,0,0:0:0:0:
192,192,64939,1,0,0:0:0:0:
320,192,64978,1,0,0:0:0:0:
64,192,65017,1,0,0:0:0:0:
192,192,65056,1,0,0:0:0:0:
64,192,65172,1,0,0:0:0:0:
448,192,65172,1,0,0:0:0:0:
320,192,65230,1,0,0:0:0:0:
192,192,65288,1,0,0:0:0:0:
448,192,65346,1,0,0:0:0:0:
64,192,65405,1,0,0:0:0:0:
320,192,65405,1,0,0:0:0:0:
192,192,65463,1,0,0:0:0:0:
320,192,65521,1,0,0:0:0:0:
64,192,65579,1,0,0:0:0:0:
192,192,65637,1,0,0:0:0:0:
448,192,65637,1,0,0:0:0:0:
320,192,65695,1,0,0:0:0:0:
64,192,65753,1,0,0:0:0:0:
192,192,65812,1,0,0:0:0:0:
448,192,65870,1,0,0:0:0:0:
64,192,65870,1,0,0:0:0:0:
320,192,65928,1,0,0:0:0:0:
448,192,65986,1,0,0:0:0:0:
192,192,66044,1,0,0:0:0:0:
64,192,66102,1,0,0:0:0:0:
320,192,66102,1,0,0:0:0:0:
64,192,66219,1,0,0:0:0:0:
320,192,66219,1,0,0:0:0:0:
448,192,66335,1,0,0:0:0:0:
192,192,66335,1,0,0:0:0:0:
192,192,66451,1,0,0:0:0:0:
448,192,66451,1,0,0:0:0:0:
448,192,66567,1,0,0:0:0:0:
320,192,66567,1,0,0:0:0:0:
64,192,66567,1,0,0:0:0:0:
192,192,66684,1,0,0:0:0:0:
320,192,66800,1,0,0:0:0:0:
64,192,66800,1,0,0:0:0:0:
448,192,66858,1,0,0:0:0:0:
192,192,66916,1,0,0:0:0:0:
320,192,66974,1,0,0:0:0:0:
448,192,67033,1,0,0:0:0:0:
64,192,67033,1,0,0:0:0:0:
192,192,67110,1,0,0:0:0:0:
320,192,67188,1,0,0:0:0:0:
192,192,67265,1,0,0:0:0:0:
64,192,67265,1,0,0:0:0:0:
320,192,67381,1,0,0:0:0:0:
448,192,67381,1,0,0:0:0:0:
448,192,67498,1,0,0:0:0:0:
320,192,67498,1,0,0:0:0:0:
64,192,67498,1,0,0:0:0:0:
192,192,67614,1,0,0:0:0:0:
448,192,67730,1,0,0:0:0:0:
64,192,67730,1,0,0:0:0:0:
320,192,67808,1,0,0:0:0:0:
192,192,67885,1,0,0:0:0:0:
320,192,67963,1,0,0:0:0:0:
64,192,67963,1,0,0:0:0:0:
448,192,68040,1,0,0:0:0:0:
192,192,68118,1,0,0:0:0:0:
320,192,68195,1,0,0:0:0:0:
448,192,68195,1,0,0:0:0:0:
64,192,68312,1,0,0:0:0:0:
320,192,68428,1,0,0:0:0:0:
448,192,68467,1,0,0:0:0:0:
192,192,68505,1,0,0:0:0:0:
320,192,68544,1,0,0:0:0:0:
64,192,68660,1,0,0:0:0:0:
192,192,68660,1,0,0:0:0:0:
448,192,68738,1,0,0:0:0:0:
320,192,68815,1,0,0:0:0:0:
192,192,68893,1,0,0:0:0:0:
448,192,68893,1,0,0:0:0:0:
64,192,68971,1,0,0:0:0:0:
320,192,69048,1,0,0:0:0:0:
448,192,69126,1,0,0:0:0:0:
64,192,69126,1,0,0:0:0:0:
320,192,69242,1,0,0:0:0:0:
192,192,69358,1,0,0:0:0:0:
64,192,69397,1,0,0:0:0:0:
320,192,69436,1,0,0:0:0:0:
448,192,69474,1,0,0:0:0:0:
64,192,69591,1,0,0:0:0:0:
192,192,69591,1,0,0:0:0:0:
448,192,69668,1,0,0:0:0:0:
192,192,69746,1,0,0:0:0:0:
320,192,69823,1,0,0:0:0:0:
448,192,69823,1,0,0:0:0:0:
64,192,69901,1,0,0:0:0:0:
320,192,69978,1,0,0:0:0:0:
192,192,70056,1,0,0:0:0:0:
64,192,70056,1,0,0:0:0:0:
448,192,70172,1,0,0:0:0:0:
320,192,70288,1,0,0:0:0:0:
64,192,70288,1,0,0:0:0:0:
192,192,70288,1,0,0:0:0:0:
448,192,70405,1,0,0:0:0:0:
320,192,70521,1,0,0:0:0:0:
64,192,70521,1,0,0:0:0:0:
192,192,70598,1,0,0:0:0:0:
320,192,70676,1,0,0:0:0:0:
192,192,70753,1,0,0:0:0:0:
64,192,70753,1,0,0:0:0:0:
448,192,70753,1,0,0:0:0:0:
320,192,70870,1,0,0:0:0:0:
64,192,70870,1,0,0:0:0:0:
192,192,70986,1,0,0:0:0:0:
320,192,70986,1,0,0:0:0:0:
448,192,70986,1,0,0:0:0:0:
320,192,71102,1,0,0:0:0:0:
448,192,71102,1,0,0:0:0:0:
448,192,71219,1,0,0:0:0:0:
192,192,71219,1,0,0:0:0:0:
64,192,71219,1,0,0:0:0:0:
64,192,71335,1,0,0:0:0:0:
192,192,71335,1,0,0:0:0:0:
64,192,71451,1,0,0:0:0:0:
320,192,71451,1,0,0:0:0:0:
448,192,71451,1,0,0:0:0:0:
192,192,71567,1,0,0:0:0:0:
448,192,71567,1,0,0:0:0:0:
320,192,71684,1,0,0:0:0:0:
192,192,71684,1,0,0:0:0:0:
64,192,71684,1,0,0:0:0:0:
64,192,71800,1,0,0:0:0:0:
448,192,71800,1,0,0:0:0:0:
192,192,71916,1,0,0:0:0:0:
320,192,71916,1,0,0:0:0:0:
448,192,71916,1,0,0:0:0:0:
448,192,72033,1,0,0:0:0:0:
64,192,72033,1,0,0:0:0:0:
320,192,72033,1,0,0:0:0:0:
320,192,72149,1,0,0:0:0:0:
192,192,72149,1,0,0:0:0:0:
64,192,72149,1,0,0:0:0:0:
448,192,72265,1,0,0:0:0:0:
192,192,72265,1,0,0:0:0:0:
192,192,72381,1,0,0:0:0:0:
448,192,72381,1,0,0:0:0:0:
320,192,72381,1,0,0:0:0:0:
64,192,72459,1,0,0:0:0:0:
192,192,72536,1,0,0:0:0:0:
320,192,72614,1,0,0:0:0:0:
64,192,72614,1,0,0:0:0:0:
448,192,72672,1,0,0:0:0:0:
192,192,72730,1,0,0:0:0:0:
320,192,72788,1,0,0:0:0:0:
64,192,72846,1,0,0:0:0:0:
448,192,72846,1,0,0:0:0:0:
192,192,72905,1,0,0:0:0:0:
320,192,72963,1,0,0:0:0:0:
448,192,72963,1,0,0:0:0:0:
64,192,73021,1,0,0:0:0:0:
192,192,73079,1,0,0:0:0:0:
448,192,73079,1,0,0:0:0:0:
320,192,73137,1,0,0:0:0:0:
192,192,73195,1,0,0:0:0:0:
64,192,73195,1,0,0:0:0:0:
320,192,73273,1,0,0:0:0:0:
448,192,73312,1,0,0:0:0:0:
192,192,73350,1,0,0:0:0:0:
320,192,73389,1,0,0:0:0:0:
64,192,73428,1,0,0:0:0:0:
192,192,73486,1,0,0:0:0:0:
320,192,73544,1,0,0:0:0:0:
448,192,73544,1,0,0:0:0:0:
192,192,73660,1,0,0:0:0:0:
64,192,73660,1,0,0:0:0:0:
320,192,73719,1,0,0:0:0:0:
448,192,73719,1,0,0:0:0:0:
64,192,73777,1,0,0:0:0:0:
192,192,73777,1,0,0:0:0:0:
192,192,73893,1,0,0:0:0:0:
448,192,73893,1,0,0:0:0:0:
64,192,74009,1,0,0:0:0:0:
320,192,74009,1,0,0:0:0:0:
320,192,74126,1,0,0:0:0:0:
448,192,74126,1,0,0:0:0:0:
192,192,74184,1,0,0:0:0:0:
64,192,74184,1,0,0:0:0:0:
320,192,74242,1,0,0:0:0:0:
448,192,74242,1,0,0:0:0:0:
192,192,74358,1,0,0:0:0:0:
64,192,74358,1,0,0:0:0:0:
448,192,74474,1,0,0:0:0:0:
64,192,74474,1,0,0:0:0:0:
192,192,74474,1,0,0:0:0:0:
320,192,74533,1,0,0:0:0:0:
448,192,74591,1,0,0:0:0:0:
192,192,74649,1,0,0:0:0:0:
320,192,74707,1,0,0:0:0:0:
64,192,74707,1,0,0:0:0:0:
192,192,74823,1,0,0:0:0:0:
448,192,74823,1,0,0:0:0:0:
448,192,74939,1,0,0:0:0:0:
320,192,74939,1,0,0:0:0:0:
64,192,74939,1,0,0:0:0:0:
192,192,75017,1,0,0:0:0:0:
320,192,75095,1,0,0:0:0:0:
64,192,75172,1,0,0:0:0:0:
448,192,75172,1,0,0:0:0:0:
320,192,75250,1,0,0:0:0:0:
192,192,75327,1,0,0:0:0:0:
64,192,75405,1,0,0:0:0:0:
448,192,75405,1,0,0:0:0:0:
320,192,75521,1,0,0:0:0:0:
448,192,75521,1,0,0:0:0:0:
320,192,75637,1,0,0:0:0:0:
64,192,75637,1,0,0:0:0:0:
448,192,75715,1,0,0:0:0:0:
192,192,75792,1,0,0:0:0:0:
320,192,75870,1,0,0:0:0:0:
448,192,75870,1,0,0:0:0:0:
64,192,75870,1,0,0:0:0:0:
320,192,75986,1,0,0:0:0:0:
192,192,75986,1,0,0:0:0:0:
64,192,76102,1,0,0:0:0:0:
192,192,76102,1,0,0:0:0:0:
448,192,76219,1,0,0:0:0:0:
320,192,76335,1,0,0:0:0:0:
64,192,76335,1,0,0:0:0:0:
448,192,76393,1,0,0:0:0:0:
64,192,76451,1,0,0:0:0:0:
192,192,76509,1,0,0:0:0:0:
320,192,76567,1,0,0:0:0:0:
448,192,76567,1,0,0:0:0:0:
64,192,76684,1,0,0:0:0:0:
192,192,76684,1,0,0:0:0:0:
448,192,76800,1,0,0:0:0:0:
192,192,76800,1,0,0:0:0:0:
320,192,76800,1,0,0:0:0:0:
64,192,76877,1,0,0:0:0:0:
320,192,76955,1,0,0:0:0:0:
64,192,77033,1,0,0:0:0:0:
192,192,77033,1,0,0:0:0:0:
64,192,77149,1,0,0:0:0:0:
448,192,77149,1,0,0:0:0:0:
448,192,77265,1,0,0:0:0:0:
320,192,77265,1,0,0:0:0:0:
192,192,77381,1,0,0:0:0:0:
64,192,77381,1,0,0:0:0:0:
448,192,77459,1,0,0:0:0:0:
192,192,77536,1,0,0:0:0:0:
320,192,77614,1,0,0:0:0:0:
64,192,77614,1,0,0:0:0:0:
192,192,77730,1,0,0:0:0:0:
320,192,77730,1,0,0:0:0:0:
448,192,77730,1,0,0:0:0:0:
64,192,77788,1,0,0:0:0:0:
320,192,77846,1,0,0:0:0:0:
448,192,77905,1,0,0:0:0:0:
192,192,77963,1,0,0:0:0:0:
64,192,77963,1,0,0:0:0:0:
320,192,78040,1,0,0:0:0:0:
64,192,78118,1,0,0:0:0:0:
192,192,78195,1,0,0:0:0:0:
448,192,78195,1,0,0:0:0:0:
320,192,78273,1,0,0:0:0:0:
192,192,78350,1,0,0:0:0:0:
64,192,78428,1,0,0:0:0:0:
448,192,78428,1,0,0:0:0:0:
192,192,78544,1,0,0:0:0:0:
64,192,78544,1,0,0:0:0:0:
320,192,78660,1,0,0:0:0:0:
192,192,78699,1,0,0:0:0:0:
448,192,78738,1,0,0:0:0:0:
320,192,78777,1,0,0:0:0:0:
64,192,78893,1,0,0:0:0:0:
192,192,78893,1,0,0:0:0:0:
448,192,78971,1,0,0:0:0:0:
192,192,79048,1,0,0:0:0:0:
64,192,79126,1,0,0:0:0:0:
448,192,79126,1,0,0:0:0:0:
320,192,79203,1,0,0:0:0:0:
64,192,79281,1,0,0:0:0:0:
192,192,79358,1,0,0:0:0:0:
448,192,79358,1,0,0:0:0:0:
64,192,79474,1,0,0:0:0:0:
320,192,79591,1,0,0:0:0:0:
448,192,79629,1,0,0:0:0:0:
192,192,79668,1,0,0:0:0:0:
64,192,79707,1,0,0:0:0:0:
320,192,79823,1,0,0:0:0:0:
448,192,79823,1,0,0:0:0:0:
64,192,79901,1,0,0:0:0:0:
192,192,79978,1,0,0:0:0:0:
64,192,80056,1,0,0:0:0:0:
320,192,80056,1,0,0:0:0:0:
448,192,80133,1,0,0:0:0:0:
192,192,80211,1,0,0:0:0:0:
320,192,80288,1,0,0:0:0:0:
448,192,80288,1,0,0:0:0:0:
320,192,80405,1,0,0:0:0:0:
64,192,80405,1,0,0:0:0:0:
64,192,80521,1,0,0:0:0:0:
192,192,80521,1,0,0:0:0:0:
448,192,80521,1,0,0:0:0:0:
320,192,80598,1,0,0:0:0:0:
192,192,80676,1,0,0:0:0:0:
64,192,80753,1,0,0:0:0:0:
320,192,80753,1,0,0:0:0:0:
320,192,80870,1,0,0:0:0:0:
64,192,80870,1,0,0:0:0:0:
192,192,80986,1,0,0:0:0:0:
448,192,80986,1,0,0:0:0:0:
320,192,81044,1,0,0:0:0:0:
64,192,81102,1,0,0:0:0:0:
192,192,81160,1,0,0:0:0:0:
320,192,81219,1,0,0:0:0:0:
448,192,81277,1,0,0:0:0:0:
192,192,81335,1,0,0:0:0:0:
64,192,81393,1,0,0:0:0:0:
320,192,81451,1,0,0:0:0:0:
448,192,81451,1,0,0:0:0:0:
192,192,81529,1,0,0:0:0:0:
320,192,81606,1,0,0:0:0:0:
448,192,81684,1,0,0:0:0:0:
64,192,81684,1,0,0:0:0:0:
192,192,81800,1,0,0:0:0:0:
64,192,81800,1,0,0:0:0:0:
320,192,81916,1,0,0:0:0:0:
448,192,81916,1,0,0:0:0:0:
64,192,81916,1,0,0:0:0:0:
192,192,81994,1,0,0:0:0:0:
64,192,82071,1,0,0:0:0:0:
320,192,82149,1,0,0:0:0:0:
448,192,82149,1,0,0:0:0:0:
320,192,82265,1,0,0:0:0:0:
192,192,82265,1,0,0:0:0:0:
64,192,82381,1,0,0:0:0:0:
448,192,82420,1,0,0:0:0:0:
320,192,82459,1,0,0:0:0:0:
192,192,82498,1,0,0:0:0:0:
320,192,82614,1,0,0:0:0:0:
448,192,82614,1,0,0:0:0:0:
192,192,82691,1,0,0:0:0:0:
320,192,82769,1,0,0:0:0:0:
448,192,82846,1,0,0:0:0:0:
64,192,82846,1,0,0:0:0:0:
192,192,82924,1,0,0:0:0:0:
320,192,83002,1,0,0:0:0:0:
192,192,83079,1,0,0:0:0:0:
64,192,83079,1,0,0:0:0:0:
320,192,83157,1,0,0:0:0:0:
448,192,83157,1,0,0:0:0:0:
192,192,83234,1,0,0:0:0:0:
64,192,83234,1,0,0:0:0:0:
320,192,83312,1,0,0:0:0:0:
448,192,83312,1,0,0:0:0:0:
64,192,83389,1,0,0:0:0:0:
320,192,83467,1,0,0:0:0:0:
192,192,83467,1,0,0:0:0:0:
448,192,83544,1,0,0:0:0:0:
64,192,83622,1,0,0:0:0:0:
192,192,83622,1,0,0:0:0:0:
448,192,83699,1,0,0:0:0:0:
320,192,83777,128,0,84009:0:0:0:0:
64,192,83777,1,0,0:0:0:0:
64,192,84009,128,0,84242:0:0:0:0:
320,192,84242,128,0,84474:0:0:0:0:
192,192,84474,128,0,84707:0:0:0:0:
448,192,84707,128,0,84881:0:0:0:0:
320,192,85172,128,0,85346:0:0:0:0:
192,192,85637,1,0,0:0:0:0:
64,192,85637,1,0,0:0:0:0:
448,192,85637,1,0,0:0:0:0:
320,192,85715,1,0,0:0:0:0:
64,192,85792,1,0,0:0:0:0:
448,192,85870,1,0,0:0:0:0:
320,192,85870,1,0,0:0:0:0:
192,192,85947,1,0,0:0:0:0:
448,192,86025,1,0,0:0:0:0:
64,192,86102,1,0,0:0:0:0:
320,192,86102,1,0,0:0:0:0:
192,192,86219,1,0,0:0:0:0:
64,192,86335,1,0,0:0:0:0:
320,192,86451,1,0,0:0:0:0:
448,192,86567,1,0,0:0:0:0:
320,192,86567,1,0,0:0:0:0:
192,192,86800,1,0,0:0:0:0:
320,192,86800,1,0,0:0:0:0:
192,192,86916,1,0,0:0:0:0:
320,192,87033,1,0,0:0:0:0:
448,192,87033,1,0,0:0:0:0:
64,192,87149,1,0,0:0:0:0:
448,192,87265,1,0,0:0:0:0:
64,192,87265,1,0,0:0:0:0:
320,192,87381,1,0,0:0:0:0:
192,192,87498,1,0,0:0:0:0:
448,192,87498,1,0,0:0:0:0:
448,192,87614,1,0,0:0:0:0:
320,192,87730,1,0,0:0:0:0:
64,192,87730,1,0,0:0:0:0:
64,192,87846,1,0,0:0:0:0:
192,192,87963,1,0,0:0:0:0:
320,192,87963,1,0,0:0:0:0:
192,192,88079,1,0,0:0:0:0:
64,192,88195,1,0,0:0:0:0:
320,192,88195,1,0,0:0:0:0:
448,192,88312,1,0,0:0:0:0:
320,192,88428,1,0,0:0:0:0:
448,192,88428,1,0,0:0:0:0:
320,192,88660,1,0,0:0:0:0:
64,192,88660,1,0,0:0:0:0:
320,192,88777,1,0,0:0:0:0:
64,192,88893,1,0,0:0:0:0:
192,192,88893,1,0,0:0:0:0:
448,192,89009,1,0,0:0:0:0:
320,192,89126,1,0,0:0:0:0:
448,192,89126,1,0,0:0:0:0:
192,192,89242,1,0,0:0:0:0:
448,192,89358,1,0,0:0:0:0:
64,192,89358,1,0,0:0:0:0:
64,192,89474,1,0,0:0:0:0:
192,192,89591,1,0,0:0:0:0:
448,192,89591,1,0,0:0:0:0:
320,192,89707,1,0,0:0:0:0:
320,192,89823,1,0,0:0:0:0:
64,192,89823,1,0,0:0:0:0:
64,192,89939,1,0,0:0:0:0:
448,192,90056,1,0,0:0:0:0:
320,192,90172,1,0,0:0:0:0:
320,192,90288,1,0,0:0:0:0:
192,192,90288,1,0,0:0:0:0:
64,192,90521,1,0,0:0:0:0:
320,192,90521,1,0,0:0:0:0:
64,192,90637,1,0,0:0:0:0:
192,192,90753,1,0,0:0:0:0:
448,192,90753,1,0,0:0:0:0:
320,192,90870,1,0,0:0:0:0:
320,192,90986,1,0,0:0:0:0:
448,192,90986,1,0,0:0:0:0:
64,192,91102,1,0,0:0:0:0:
192,192,91219,1,0,0:0:0:0:
320,192,91219,1,0,0:0:0:0:
192,192,91335,1,0,0:0:0:0:
320,192,91451,1,0,0:0:0:0:
448,192,91451,1,0,0:0:0:0:
64,192,91567,1,0,0:0:0:0:
192,192,91684,1,0,0:0:0:0:
64,192,91684,1,0,0:0:0:0:
192,192,91800,1,0,0:0:0:0:
448,192,91916,1,0,0:0:0:0:
320,192,92033,1,0,0:0:0:0:
192,192,92149,1,0,0:0:0:0:
320,192,92149,1,0,0:0:0:0:
192,192,92381,1,0,0:0:0:0:
448,192,92381,1,0,0:0:0:0:
448,192,92498,1,0,0:0:0:0:
320,192,92614,1,0,0:0:0:0:
64,192,92614,1,0,0:0:0:0:
192,192,92730,1,0,0:0:0:0:
192,192,92846,1,0,0:0:0:0:
448,192,92846,1,0,0:0:0:0:
320,192,92963,1,0,0:0:0:0:
192,192,93079,1,0,0:0:0:0:
64,192,93079,1,0,0:0:0:0:
448,192,93079,1,0,0:0:0:0:
448,192,93195,1,0,0:0:0:0:
320,192,93312,1,0,0:0:0:0:
64,192,93312,1,0,0:0:0:0:
192,192,93428,1,0,0:0:0:0:
320,192,93544,1,0,0:0:0:0:
448,192,93544,1,0,0:0:0:0:
320,192,93660,1,0,0:0:0:0:
64,192,93777,1,0,0:0:0:0:
192,192,93893,1,0,0:0:0:0:
192,192,94009,1,0,0:0:0:0:
448,192,94009,1,0,0:0:0:0:
320,192,94242,1,0,0:0:0:0:
64,192,94242,1,0,0:0:0:0:
64,192,94358,1,0,0:0:0:0:
320,192,94474,1,0,0:0:0:0:
448,192,94474,1,0,0:0:0:0:
192,192,94591,1,0,0:0:0:0:
192,192,94707,1,0,0:0:0:0:
64,192,94707,1,0,0:0:0:0:
320,192,94823,1,0,0:0:0:0:
448,192,94939,1,0,0:0:0:0:
192,192,94939,1,0,0:0:0:0:
448,192,95056,1,0,0:0:0:0:
192,192,95172,1,0,0:0:0:0:
64,192,95172,1,0,0:0:0:0:
448,192,95288,1,0,0:0:0:0:
320,192,95405,1,0,0:0:0:0:
64,192,95405,1,0,0:0:0:0:
320,192,95521,1,0,0:0:0:0:
192,192,95637,1,0,0:0:0:0:
448,192,95637,1,0,0:0:0:0:
64,192,95753,1,0,0:0:0:0:
64,192,95870,1,0,0:0:0:0:
320,192,95870,1,0,0:0:0:0:
192,192,96102,1,0,0:0:0:0:
64,192,96102,1,0,0:0:0:0:
192,192,96219,1,0,0:0:0:0:
64,192,96335,1,0,0:0:0:0:
320,192,96335,1,0,0:0:0:0:
448,192,96451,1,0,0:0:0:0:
448,192,96567,1,0,0:0:0:0:
192,192,96567,1,0,0:0:0:0:
320,192,96684,1,0,0:0:0:0:
64,192,96800,1,0,0:0:0:0:
448,192,96800,1,0,0:0:0:0:
192,192,96877,1,0,0:0:0:0:
320,192,96955,1,0,0:0:0:0:
64,192,97033,1,0,0:0:0:0:
192,192,97110,1,0,0:0:0:0:
448,192,97188,1,0,0:0:0:0:
320,192,97265,1,0,0:0:0:0:
64,192,97265,1,0,0:0:0:0:
64,192,97381,1,0,0:0:0:0:
320,192,97498,1,0,0:0:0:0:
448,192,97498,1,0,0:0:0:0:
448,192,97614,1,0,0:0:0:0:
64,192,97730,1,0,0:0:0:0:
192,192,97730,1,0,0:0:0:0:
320,192,97808,1,0,0:0:0:0:
192,192,97885,1,0,0:0:0:0:
448,192,97963,1,0,0:0:0:0:
64,192,97963,1,0,0:0:0:0:
192,192,98428,1,0,0:0:0:0:
448,192,98428,1,0,0:0:0:0:
64,192,98544,1,0,0:0:0:0:
320,192,98660,1,0,0:0:0:0:
448,192,98777,1,0,0:0:0:0:
192,192,98893,1,0,0:0:0:0:
64,192,98893,1,0,0:0:0:0:
448,192,99009,1,0,0:0:0:0:
64,192,99126,1,0,0:0:0:0:
320,192,99126,1,0,0:0:0:0:
448,192,99358,1,0,0:0:0:0:
320,192,99474,1,0,0:0:0:0:
64,192,99474,1,0,0:0:0:0:
64,192,99707,1,0,0:0:0:0:
448,192,99823,1,0,0:0:0:0:
192,192,99823,1,0,0:0:0:0:
192,192,100056,1,0,0:0:0:0:
64,192,100056,1,0,0:0:0:0:
64,192,100288,1,0,0:0:0:0:
448,192,100288,1,0,0:0:0:0:
320,192,100405,1,0,0:0:0:0:
192,192,100521,1,0,0:0:0:0:
448,192,100521,1,0,0:0:0:0:
64,192,100598,1,0,0:0:0:0:
320,192,100676,1,0,0:0:0:0:
192,192,100753,1,0,0:0:0:0:
448,192,100870,1,0,0:0:0:0:
64,192,100986,1,0,0:0:0:0:
320,192,100986,1,0,0:0:0:0:
192,192,101219,1,0,0:0:0:0:
448,192,101451,1,0,0:0:0:0:
64,192,101684,1,0,0:0:0:0:
320,192,101684,1,0,0:0:0:0:
448,192,101761,1,0,0:0:0:0:
192,192,101839,1,0,0:0:0:0:
448,192,102149,1,0,0:0:0:0:
64,192,102149,1,0,0:0:0:0:
320,192,102226,1,0,0:0:0:0:
448,192,102304,1,0,0:0:0:0:
192,192,102381,1,0,0:0:0:0:
448,192,102498,1,0,0:0:0:0:
64,192,102614,1,0,0:0:0:0:
192,192,102614,1,0,0:0:0:0:
320,192,102691,1,0,0:0:0:0:
192,192,102769,1,0,0:0:0:0:
64,192,102846,1,0,0:0:0:0:
448,192,102846,1,0,0:0:0:0:
192,192,103079,1,0,0:0:0:0:
64,192,103195,1,0,0:0:0:0:
448,192,103195,1,0,0:0:0:0:
192,192,103312,1,0,0:0:0:0:
448,192,103544,1,0,0:0:0:0:
320,192,103544,1,0,0:0:0:0:
192,192,103777,1,0,0:0:0:0:
320,192,103777,1,0,0:0:0:0:
64,192,104009,1,0,0:0:0:0:
320,192,104087,1,0,0:0:0:0:
192,192,104164,1,0,0:0:0:0:
320,192,104242,1,0,0:0:0:0:
448,192,104242,1,0,0:0:0:0:
64,192,104319,1,0,0:0:0:0:
448,192,104397,1,0,0:0:0:0:
192,192,104474,1,0,0:0:0:0:
320,192,104591,1,0,0:0:0:0:
64,192,104707,1,0,0:0:0:0:
448,192,104707,1,0,0:0:0:0:
320,192,104939,1,0,0:0:0:0:
64,192,105056,1,0,0:0:0:0:
192,192,105056,1,0,0:0:0:0:
448,192,105172,1,0,0:0:0:0:
192,192,105405,1,0,0:0:0:0:
64,192,105405,1,0,0:0:0:0:
320,192,105482,1,0,0:0:0:0:
64,192,105560,1,0,0:0:0:0:
192,192,105637,1,0,0:0:0:0:
448,192,105715,1,0,0:0:0:0:
320,192,105792,1,0,0:0:0:0:
64,192,105870,1,0,0:0:0:0:
448,192,105870,1,0,0:0:0:0:
192,192,105947,1,0,0:0:0:0:
320,192,106025,1,0,0:0:0:0:
448,192,106102,1,0,0:0:0:0:
64,192,106219,1,0,0:0:0:0:
192,192,106219,1,0,0:0:0:0:
320,192,106335,1,0,0:0:0:0:
192,192,106412,1,0,0:0:0:0:
64,192,106490,1,0,0:0:0:0:
320,192,106567,1,0,0:0:0:0:
448,192,106567,1,0,0:0:0:0:
448,192,106800,1,0,0:0:0:0:
320,192,106916,1,0,0:0:0:0:
64,192,106916,1,0,0:0:0:0:
192,192,107033,1,0,0:0:0:0:
320,192,107265,1,0,0:0:0:0:
448,192,107265,1,0,0:0:0:0:
64,192,107498,1,0,0:0:0:0:
320,192,107498,1,0,0:0:0:0:
192,192,107614,1,0,0:0:0:0:
64,192,107614,1,0,0:0:0:0:
448,192,107730,1,0,0:0:0:0:
192,192,107846,1,0,0:0:0:0:
320,192,107963,1,0,0:0:0:0:
448,192,107963,1,0,0:0:0:0:
64,192,108040,1,0,0:0:0:0:
192,192,108118,1,0,0:0:0:0:
448,192,108195,1,0,0:0:0:0:
192,192,108312,1,0,0:0:0:0:
64,192,108312,1,0,0:0:0:0:
64,192,108428,1,0,0:0:0:0:
448,192,108428,1,0,0:0:0:0:
192,192,108544,1,0,0:0:0:0:
320,192,108660,1,0,0:0:0:0:
64,192,108738,1,0,0:0:0:0:
448,192,108815,1,0,0:0:0:0:
320,192,108893,1,0,0:0:0:0:
64,192,109126,1,0,0:0:0:0:
448,192,109126,1,0,0:0:0:0:
192,192,109203,1,0,0:0:0:0:
320,192,109281,1,0,0:0:0:0:
448,192,109358,1,0,0:0:0:0:
192,192,109436,1,0,0:0:0:0:
64,192,109513,1,0,0:0:0:0:
320,192,109591,1,0,0:0:0:0:
448,192,109591,1,0,0:0:0:0:
192,192,109707,1,0,0:0:0:0:
64,192,109823,1,0,0:0:0:0:
192,192,110056,1,0,0:0:0:0:
448,192,110056,1,0,0:0:0:0:
64,192,110133,1,0,0:0:0:0:
320,192,110288,1,0,0:0:0:0:
448,192,110288,1,0,0:0:0:0:
192,192,110366,1,0,0:0:0:0:
64,192,110521,1,0,0:0:0:0:
320,192,110521,1,0,0:0:0:0:
448,192,110637,1,0,0:0:0:0:
192,192,110753,1,0,0:0:0:0:
320,192,110986,1,0,0:0:0:0:
448,192,110986,1,0,0:0:0:0:
192,192,111102,1,0,0:0:0:0:
448,192,111219,1,0,0:0:0:0:
64,192,111219,1,0,0:0:0:0:
64,192,111335,1,0,0:0:0:0:
192,192,111335,1,0,0:0:0:0:
448,192,111451,1,0,0:0:0:0:
320,192,111567,1,0,0:0:0:0:
192,192,111684,1,0,0:0:0:0:
448,192,111684,1,0,0:0:0:0:
64,192,111761,1,0,0:0:0:0:
320,192,111839,1,0,0:0:0:0:
192,192,111916,1,0,0:0:0:0:
320,192,112033,1,0,0:0:0:0:
448,192,112033,1,0,0:0:0:0:
320,192,112149,1,0,0:0:0:0:
64,192,112149,1,0,0:0:0:0:
448,192,112265,1,0,0:0:0:0:
192,192,112381,1,0,0:0:0:0:
320,192,112498,1,0,0:0:0:0:
448,192,112498,1,0,0:0:0:0:
64,192,112614,1,0,0:0:0:0:
192,192,112846,1,0,0:0:0:0:
448,192,112846,1,0,0:0:0:0:
64,192,112924,1,0,0:0:0:0:
320,192,113002,1,0,0:0:0:0:
448,192,113079,1,0,0:0:0:0:
64,192,113312,1,0,0:0:0:0:
320,192,113312,1,0,0:0:0:0:
448,192,113428,1,0,0:0:0:0:
192,192,113544,1,0,0:0:0:0:
320,192,113660,1,0,0:0:0:0:
64,192,113777,1,0,0:0:0:0:
192,192,113777,1,0,0:0:0:0:
448,192,113893,1,0,0:0:0:0:
320,192,114009,1,0,0:0:0:0:
64,192,114009,1,0,0:0:0:0:
192,192,114126,1,0,0:0:0:0:
448,192,114242,1,0,0:0:0:0:
320,192,114242,1,0,0:0:0:0:
64,192,114358,1,0,0:0:0:0:
320,192,114358,1,0,0:0:0:0:
64,192,114474,1,0,0:0:0:0:
192,192,114474,1,0,0:0:0:0:
320,192,114591,1,0,0:0:0:0:
192,192,114707,1,0,0:0:0:0:
448,192,114707,1,0,0:0:0:0:
320,192,114823,1,0,0:0:0:0:
64,192,114939,1,0,0:0:0:0:
192,192,114939,1,0,0:0:0:0:
448,192,114939,1,0,0:0:0:0:
64,192,115056,1,0,0:0:0:0:
192,192,115056,1,0,0:0:0:0:
64,192,115172,1,0,0:0:0:0:
448,192,115172,1,0,0:0:0:0:
192,192,115250,1,0,0:0:0:0:
320,192,115327,1,0,0:0:0:0:
64,192,115405,1,0,0:0:0:0:
192,192,115405,1,0,0:0:0:0:
320,192,115463,1,0,0:0:0:0:
448,192,115521,1,0,0:0:0:0:
192,192,115579,1,0,0:0:0:0:
64,192,115637,1,0,0:0:0:0:
320,192,115695,1,0,0:0:0:0:
192,192,115753,1,0,0:0:0:0:
448,192,115812,1,0,0:0:0:0:
320,192,115870,1,0,0:0:0:0:
64,192,115870,1,0,0:0:0:0:
192,192,115928,1,0,0:0:0:0:
448,192,115986,1,0,0:0:0:0:
64,192,116044,1,0,0:0:0:0:
320,192,116102,1,0,0:0:0:0:
448,192,116180,1,0,0:0:0:0:
192,192,116257,1,0,0:0:0:0:
64,192,116335,1,0,0:0:0:0:
448,192,116412,1,0,0:0:0:0:
192,192,116490,1,0,0:0:0:0:
320,192,116567,1,0,0:0:0:0:
448,192,116567,1,0,0:0:0:0:
192,192,116684,1,0,0:0:0:0:
64,192,116800,1,0,0:0:0:0:
320,192,116800,1,0,0:0:0:0:
448,192,116800,1,0,0:0:0:0:
192,192,116858,1,0,0:0:0:0:
448,192,116916,1,0,0:0:0:0:
64,192,117033,1,0,0:0:0:0:
320,192,117033,1,0,0:0:0:0:
448,192,117110,1,0,0:0:0:0:
192,192,117188,1,0,0:0:0:0:
448,192,117265,1,0,0:0:0:0:
320,192,117265,1,0,0:0:0:0:
64,192,117343,1,0,0:0:0:0:
320,192,117420,1,0,0:0:0:0:
448,192,117498,1,0,0:0:0:0:
192,192,117614,1,0,0:0:0:0:
64,192,117614,1,0,0:0:0:0:
64,192,117730,1,0,0:0:0:0:
448,192,117730,1,0,0:0:0:0:
320,192,117730,1,0,0:0:0:0:
192,192,117808,1,0,0:0:0:0:
320,192,117885,1,0,0:0:0:0:
64,192,117963,1,0,0:0:0:0:
448,192,118040,1,0,0:0:0:0:
320,192,118118,1,0,0:0:0:0:
64,192,118195,1,0,0:0:0:0:
192,192,118312,1,0,0:0:0:0:
320,192,118428,1,0,0:0:0:0:
448,192,118428,1,0,0:0:0:0:
64,192,118505,1,0,0:0:0:0:
320,192,118583,1,0,0:0:0:0:
64,192,118660,1,0,0:0:0:0:
448,192,118660,1,0,0:0:0:0:
192,192,118738,1,0,0:0:0:0:
448,192,118815,1,0,0:0:0:0:
320,192,118893,1,0,0:0:0:0:
64,192,118893,1,0,0:0:0:0:
192,192,119009,1,0,0:0:0:0:
320,192,119126,1,0,0:0:0:0:
448,192,119126,1,0,0:0:0:0:
64,192,119203,1,0,0:0:0:0:
192,192,119281,1,0,0:0:0:0:
448,192,119358,1,0,0:0:0:0:
64,192,119474,1,0,0:0:0:0:
192,192,119474,1,0,0:0:0:0:
448,192,119591,1,0,0:0:0:0:
320,192,119591,1,0,0:0:0:0:
192,192,119591,1,0,0:0:0:0:
64,192,119668,1,0,0:0:0:0:
320,192,119746,1,0,0:0:0:0:
192,192,119823,1,0,0:0:0:0:
64,192,119823,1,0,0:0:0:0:
448,192,119901,1,0,0:0:0:0:
320,192,119978,1,0,0:0:0:0:
448,192,120056,1,0,0:0:0:0:
192,192,120133,1,0,0:0:0:0:
320,192,120211,1,0,0:0:0:0:
64,192,120288,1,0,0:0:0:0:
192,192,120288,1,0,0:0:0:0:
448,192,120366,1,0,0:0:0:0:
64,192,120443,1,0,0:0:0:0:
320,192,120521,1,0,0:0:0:0:
448,192,120521,1,0,0:0:0:0:
192,192,120521,1,0,0:0:0:0:
64,192,120637,1,0,0:0:0:0:
192,192,120753,1,0,0:0:0:0:
448,192,120753,1,0,0:0:0:0:
64,192,120831,1,0,0:0:0:0:
320,192,120908,1,0,0:0:0:0:
448,192,120986,1,0,0:0:0:0:
192,192,120986,1,0,0:0:0:0:
64,192,121064,1,0,0:0:0:0:
320,192,121141,1,0,0:0:0:0:
192,192,121219,1,0,0:0:0:0:
64,192,121219,1,0,0:0:0:0:
320,192,121335,1,0,0:0:0:0:
448,192,121335,1,0,0:0:0:0:
64,192,121451,1,0,0:0:0:0:
448,192,121451,1,0,0:0:0:0:
320,192,121451,1,0,0:0:0:0:
192,192,121529,1,0,0:0:0:0:
64,192,121606,1,0,0:0:0:0:
448,192,121684,1,0,0:0:0:0:
320,192,121684,1,0,0:0:0:0:
448,192,121800,1,0,0:0:0:0:
64,192,121800,1,0,0:0:0:0:
320,192,121916,1,0,0:0:0:0:
64,192,121916,1,0,0:0:0:0:
64,192,122071,1,0,0:0:0:0:
320,192,122071,1,0,0:0:0:0:
192,192,122226,1,0,0:0:0:0:
448,192,122226,1,0,0:0:0:0:
448,192,122381,1,0,0:0:0:0:
320,192,122381,1,0,0:0:0:0:
448,192,122536,1,0,0:0:0:0:
192,192,122536,1,0,0:0:0:0:
320,192,122691,1,0,0:0:0:0:
64,192,122691,1,0,0:0:0:0:
192,192,122846,1,0,0:0:0:0:
64,192,122846,1,0,0:0:0:0:
448,192,122846,1,0,0:0:0:0:
320,192,122963,1,0,0:0:0:0:
448,192,123079,1,0,0:0:0:0:
192,192,123195,1,0,0:0:0:0:
64,192,123312,1,0,0:0:0:0:
320,192,123544,1,0,0:0:0:0:
448,192,123777,1,0,0:0:0:0:
192,192,124009,1,0,0:0:0:0:
320,192,124242,1,0,0:0:0:0:
192,192,124358,1,0,0:0:0:0:
64,192,124358,1,0,0:0:0:0:
192,192,124591,1,0,0:0:0:0:
320,192,124707,1,0,0:0:0:0:
448,192,124707,1,0,0:0:0:0:
64,192,124823,1,0,0:0:0:0:
448,192,124939,1,0,0:0:0:0:
320,192,125056,1,0,0:0:0:0:
192,192,125172,1,0,0:0:0:0:
320,192,125250,1,0,0:0:0:0:
448,192,125327,1,0,0:0:0:0:
64,192,125405,1,0,0:0:0:0:
192,192,125482,1,0,0:0:0:0:
448,192,125637,1,0,0:0:0:0:
192,192,125870,1,0,0:0:0:0:
64,192,125928,1,0,0:0:0:0:
320,192,126025,1,0,0:0:0:0:
192,192,126102,1,0,0:0:0:0:
320,192,126219,1,0,0:0:0:0:
64,192,126219,1,0,0:0:0:0:
448,192,126219,1,0,0:0:0:0:
192,192,126335,1,0,0:0:0:0:
320,192,126393,1,0,0:0:0:0:
448,192,126490,1,0,0:0:0:0:
320,192,126567,1,0,0:0:0:0:
64,192,126567,1,0,0:0:0:0:
192,192,126567,1,0,0:0:0:0:
448,192,126684,1,0,0:0:0:0:
448,192,126800,1,0,0:0:0:0:
320,192,126800,1,0,0:0:0:0:
192,192,126800,1,0,0:0:0:0:
320,192,126916,1,0,0:0:0:0:
64,192,126916,1,0,0:0:0:0:
192,192,127033,1,0,0:0:0:0:
64,192,127033,1,0,0:0:0:0:
448,192,127033,1,0,0:0:0:0:
320,192,127149,1,0,0:0:0:0:
192,192,127265,1,0,0:0:0:0:
320,192,127265,1,0,0:0:0:0:
448,192,127265,1,0,0:0:0:0:
64,192,127381,1,0,0:0:0:0:
64,192,127498,1,0,0:0:0:0:
320,192,127498,1,0,0:0:0:0:
448,192,127498,1,0,0:0:0:0:
192,192,127614,1,0,0:0:0:0:
192,192,127730,1,0,0:0:0:0:
320,192,127730,1,0,0:0:0:0:
448,192,127730,1,0,0:0:0:0:
64,192,127808,1,0,0:0:0:0:
320,192,127885,1,0,0:0:0:0:
64,192,127963,1,0,0:0:0:0:
192,192,127963,1,0,0:0:0:0:
448,192,127963,1,0,0:0:0:0:
320,192,128195,1,0,0:0:0:0:
64,192,128195,1,0,0:0:0:0:
192,192,128195,1,0,0:0:0:0:
448,192,128253,1,0,0:0:0:0:
192,192,128312,1,0,0:0:0:0:
64,192,128370,1,0,0:0:0:0:
320,192,128428,1,0,0:0:0:0:
448,192,128486,1,0,0:0:0:0:
192,192,128544,1,0,0:0:0:0:
320,192,128602,1,0,0:0:0:0:
448,192,128660,1,0,0:0:0:0:
64,192,128660,1,0,0:0:0:0:
192,192,128719,1,0,0:0:0:0:
320,192,128777,1,0,0:0:0:0:
192,192,128835,1,0,0:0:0:0:
64,192,128893,1,0,0:0:0:0:
448,192,128893,1,0,0:0:0:0:
320,192,128951,1,0,0:0:0:0:
192,192,129009,1,0,0:0:0:0:
320,192,129067,1,0,0:0:0:0:
64,192,129126,1,0,0:0:0:0:
448,192,129126,1,0,0:0:0:0:
192,192,129242,1,0,0:0:0:0:
448,192,129242,1,0,0:0:0:0:
64,192,129358,1,0,0:0:0:0:
192,192,129358,1,0,0:0:0:0:
448,192,129436,1,0,0:0:0:0:
320,192,129436,1,0,0:0:0:0:
192,192,129513,1,0,0:0:0:0:
64,192,129513,1,0,0:0:0:0:
320,192,129591,1,0,0:0:0:0:
448,192,129591,1,0,0:0:0:0:
64,192,129668,1,0,0:0:0:0:
192,192,129668,1,0,0:0:0:0:
320,192,129746,1,0,0:0:0:0:
448,192,129746,1,0,0:0:0:0:
192,192,129823,1,0,0:0:0:0:
64,192,129823,1,0,0:0:0:0:
448,192,129901,1,0,0:0:0:0:
320,192,129901,1,0,0:0:0:0:
64,192,129978,1,0,0:0:0:0:
448,192,130056,1,0,0:0:0:0:
64,192,130172,1,0,0:0:0:0:
192,192,130172,1,0,0:0:0:0:
192,192,130288,1,0,0:0:0:0:
64,192,130288,1,0,0:0:0:0:
448,192,130288,1,0,0:0:0:0:
320,192,130346,1,0,0:0:0:0:
192,192,130405,1,0,0:0:0:0:
320,192,130463,1,0,0:0:0:0:
64,192,130521,1,0,0:0:0:0:
448,192,130521,1,0,0:0:0:0:
448,192,130637,1,0,0:0:0:0:
192,192,130637,1,0,0:0:0:0:
64,192,130753,1,0,0:0:0:0:
320,192,130753,1,0,0:0:0:0:
448,192,130753,1,0,0:0:0:0:
192,192,130831,1,0,0:0:0:0:
320,192,130908,1,0,0:0:0:0:
448,192,130986,1,0,0:0:0:0:
64,192,130986,1,0,0:0:0:0:
64,192,131102,1,0,0:0:0:0:
320,192,131102,1,0,0:0:0:0:
192,192,131219,1,0,0:0:0:0:
448,192,131219,1,0,0:0:0:0:
64,192,131296,1,0,0:0:0:0:
320,192,131374,1,0,0:0:0:0:
192,192,131451,1,0,0:0:0:0:
448,192,131451,1,0,0:0:0:0:
320,192,131567,1,0,0:0:0:0:
64,192,131567,1,0,0:0:0:0:
192,192,131684,1,0,0:0:0:0:
448,192,131684,1,0,0:0:0:0:
320,192,131684,1,0,0:0:0:0:
448,192,131800,1,0,0:0:0:0:
192,192,131800,1,0,0:0:0:0:
64,192,131916,1,0,0:0:0:0:
320,192,131916,1,0,0:0:0:0:
192,192,132033,1,0,0:0:0:0:
64,192,132033,1,0,0:0:0:0:
192,192,132149,1,0,0:0:0:0:
448,192,132149,1,0,0:0:0:0:
64,192,132207,1,0,0:0:0:0:
320,192,132265,1,0,0:0:0:0:
448,192,132323,1,0,0:0:0:0:
64,192,132381,1,0,0:0:0:0:
192,192,132381,1,0,0:0:0:0:
64,192,132498,1,0,0:0:0:0:
448,192,132498,1,0,0:0:0:0:
320,192,132614,1,0,0:0:0:0:
64,192,132614,1,0,0:0:0:0:
448,192,132614,1,0,0:0:0:0:
192,192,132691,1,0,0:0:0:0:
448,192,132769,1,0,0:0:0:0:
320,192,132846,1,0,0:0:0:0:
64,192,132846,1,0,0:0:0:0:
64,192,132963,1,0,0:0:0:0:
448,192,132963,1,0,0:0:0:0:
320,192,133079,1,0,0:0:0:0:
448,192,133079,1,0,0:0:0:0:
192,192,133157,1,0,0:0:0:0:
448,192,133234,1,0,0:0:0:0:
64,192,133312,1,0,0:0:0:0:
192,192,133312,1,0,0:0:0:0:
320,192,133389,1,0,0:0:0:0:
64,192,133467,1,0,0:0:0:0:
192,192,133544,1,0,0:0:0:0:
448,192,133544,1,0,0:0:0:0:
320,192,133544,1,0,0:0:0:0:
320,192,133660,1,0,0:0:0:0:
448,192,133660,1,0,0:0:0:0:
64,192,133777,1,0,0:0:0:0:
448,192,133777,1,0,0:0:0:0:
192,192,133893,1,0,0:0:0:0:
448,192,134009,1,0,0:0:0:0:
320,192,134009,1,0,0:0:0:0:
64,192,134067,1,0,0:0:0:0:
192,192,134126,1,0,0:0:0:0:
320,192,134184,1,0,0:0:0:0:
192,192,134242,1,0,0:0:0:0:
64,192,134242,1,0,0:0:0:0:
448,192,134300,1,0,0:0:0:0:
320,192,134358,1,0,0:0:0:0:
192,192,134416,1,0,0:0:0:0:
320,192,134474,1,0,0:0:0:0:
448,192,134474,1,0,0:0:0:0:
64,192,134474,1,0,0:0:0:0:
448,192,134591,1,0,0:0:0:0:
320,192,134591,1,0,0:0:0:0:
192,192,134707,1,0,0:0:0:0:
64,192,134707,1,0,0:0:0:0:
192,192,134823,1,0,0:0:0:0:
320,192,134823,1,0,0:0:0:0:
64,192,134939,1,0,0:0:0:0:
448,192,134939,1,0,0:0:0:0:
192,192,135056,1,0,0:0:0:0:
320,192,135056,1,0,0:0:0:0:
320,192,135172,1,0,0:0:0:0:
448,192,135172,1,0,0:0:0:0:
192,192,135288,1,0,0:0:0:0:
64,192,135288,1,0,0:0:0:0:
64,192,135405,1,0,0:0:0:0:
192,192,135405,1,0,0:0:0:0:
320,192,135405,1,0,0:0:0:0:
448,192,135521,1,0,0:0:0:0:
192,192,135637,1,0,0:0:0:0:
320,192,135676,1,0,0:0:0:0:
64,192,135715,1,0,0:0:0:0:
192,192,135753,1,0,0:0:0:0:
320,192,135870,1,0,0:0:0:0:
448,192,135870,1,0,0:0:0:0:
64,192,135986,1,0,0:0:0:0:
320,192,135986,1,0,0:0:0:0:
64,192,136102,1,0,0:0:0:0:
448,192,136102,1,0,0:0:0:0:
192,192,136160,1,0,0:0:0:0:
320,192,136219,1,0,0:0:0:0:
192,192,136277,1,0,0:0:0:0:
64,192,136335,1,0,0:0:0:0:
448,192,136335,1,0,0:0:0:0:
320,192,136335,1,0,0:0:0:0:
320,192,136451,1,0,0:0:0:0:
448,192,136451,1,0,0:0:0:0:
320,192,136567,1,0,0:0:0:0:
64,192,136567,1,0,0:0:0:0:
64,192,136684,1,0,0:0:0:0:
192,192,136684,1,0,0:0:0:0:
64,192,136800,1,0,0:0:0:0:
448,192,136800,1,0,0:0:0:0:
320,192,136877,1,0,0:0:0:0:
192,192,136955,1,0,0:0:0:0:
448,192,137033,1,0,0:0:0:0:
64,192,137033,1,0,0:0:0:0:
192,192,137110,1,0,0:0:0:0:
320,192,137188,1,0,0:0:0:0:
448,192,137265,1,0,0:0:0:0:
64,192,137265,1,0,0:0:0:0:
320,192,137343,1,0,0:0:0:0:
192,192,137420,1,0,0:0:0:0:
64,192,137498,1,0,0:0:0:0:
320,192,137498,1,0,0:0:0:0:
448,192,137556,1,0,0:0:0:0:
192,192,137614,1,0,0:0:0:0:
320,192,137672,1,0,0:0:0:0:
192,192,137730,1,0,0:0:0:0:
448,192,137730,1,0,0:0:0:0:
64,192,137730,1,0,0:0:0:0:
320,192,137808,1,0,0:0:0:0:
192,192,137885,1,0,0:0:0:0:
64,192,137963,1,0,0:0:0:0:
448,192,137963,1,0,0:0:0:0:
320,192,138079,1,0,0:0:0:0:
448,192,138079,1,0,0:0:0:0:
192,192,138195,1,0,0:0:0:0:
64,192,138234,1,0,0:0:0:0:
320,192,138273,1,0,0:0:0:0:
192,192,138312,1,0,0:0:0:0:
320,192,138428,1,0,0:0:0:0:
448,192,138428,1,0,0:0:0:0:
192,192,138505,1,0,0:0:0:0:
64,192,138583,1,0,0:0:0:0:
320,192,138660,1,0,0:0:0:0:
448,192,138660,1,0,0:0:0:0:
192,192,138738,1,0,0:0:0:0:
448,192,138815,1,0,0:0:0:0:
320,192,138893,1,0,0:0:0:0:
64,192,138893,1,0,0:0:0:0:
192,192,139009,1,0,0:0:0:0:
320,192,139126,1,0,0:0:0:0:
448,192,139164,1,0,0:0:0:0:
192,192,139203,1,0,0:0:0:0:
320,192,139242,1,0,0:0:0:0:
448,192,139358,1,0,0:0:0:0:
64,192,139358,1,0,0:0:0:0:
192,192,139436,1,0,0:0:0:0:
448,192,139513,1,0,0:0:0:0:
64,192,139591,1,0,0:0:0:0:
320,192,139591,1,0,0:0:0:0:
192,192,139668,1,0,0:0:0:0:
448,192,139746,1,0,0:0:0:0:
64,192,139823,1,0,0:0:0:0:
320,192,139823,1,0,0:0:0:0:
448,192,139939,1,0,0:0:0:0:
192,192,139939,1,0,0:0:0:0:
320,192,140056,1,0,0:0:0:0:
448,192,140095,1,0,0:0:0:0:
192,192,140133,1,0,0:0:0:0:
64,192,140172,1,0,0:0:0:0:
320,192,140288,1,0,0:0:0:0:
448,192,140288,1,0,0:0:0:0:
64,192,140366,1,0,0:0:0:0:
320,192,140443,1,0,0:0:0:0:
448,192,140521,1,0,0:0:0:0:
192,192,140521,1,0,0:0:0:0:
64,192,140598,1,0,0:0:0:0:
320,192,140676,1,0,0:0:0:0:
448,192,140753,1,0,0:0:0:0:
64,192,140753,1,0,0:0:0:0:
192,192,140831,1,0,0:0:0:0:
320,192,140908,1,0,0:0:0:0:
448,192,140986,1,0,0:0:0:0:
192,192,140986,1,0,0:0:0:0:
64,192,140986,1,0,0:0:0:0:
192,192,141102,1,0,0:0:0:0:
448,192,141219,1,0,0:0:0:0:
320,192,141219,1,0,0:0:0:0:
448,192,141335,1,0,0:0:0:0:
192,192,141335,1,0,0:0:0:0:
64,192,141451,1,0,0:0:0:0:
320,192,141451,1,0,0:0:0:0:
192,192,141451,1,0,0:0:0:0:
192,192,141567,1,0,0:0:0:0:
64,192,141567,1,0,0:0:0:0:
320,192,141684,1,0,0:0:0:0:
64,192,141684,1,0,0:0:0:0:
448,192,141684,1,0,0:0:0:0:
192,192,141800,1,0,0:0:0:0:
448,192,141800,1,0,0:0:0:0:
192,192,141916,1,0,0:0:0:0:
320,192,141916,1,0,0:0:0:0:
64,192,141916,1,0,0:0:0:0:
64,192,142033,1,0,0:0:0:0:
448,192,142033,1,0,0:0:0:0:
192,192,142149,1,0,0:0:0:0:
448,192,142149,1,0,0:0:0:0:
320,192,142149,1,0,0:0:0:0:
320,192,142265,1,0,0:0:0:0:
448,192,142265,1,0,0:0:0:0:
64,192,142381,1,0,0:0:0:0:
320,192,142381,1,0,0:0:0:0:
192,192,142381,1,0,0:0:0:0:
192,192,142498,1,0,0:0:0:0:
448,192,142498,1,0,0:0:0:0:
64,192,142614,1,0,0:0:0:0:
320,192,142614,1,0,0:0:0:0:
448,192,142614,1,0,0:0:0:0:
320,192,142730,1,0,0:0:0:0:
192,192,142730,1,0,0:0:0:0:
192,192,142846,1,0,0:0:0:0:
448,192,142846,1,0,0:0:0:0:
64,192,142846,1,0,0:0:0:0:
320,192,142963,1,0,0:0:0:0:
448,192,142963,1,0,0:0:0:0:
64,192,143079,1,0,0:0:0:0:
448,192,143079,1,0,0:0:0:0:
192,192,143079,1,0,0:0:0:0:
320,192,143079,1,0,0:0:0:0:
192,192,143195,1,0,0:0:0:0:
64,192,143195,1,0,0:0:0:0:
320,192,143273,1,0,0:0:0:0:
448,192,143312,1,0,0:0:0:0:
192,192,143350,1,0,0:0:0:0:
320,192,143389,1,0,0:0:0:0:
64,192,143428,1,0,0:0:0:0:
192,192,143486,1,0,0:0:0:0:
320,192,143544,1,0,0:0:0:0:
448,192,143544,1,0,0:0:0:0:
192,192,143602,1,0,0:0:0:0:
64,192,143660,1,0,0:0:0:0:
448,192,143660,1,0,0:0:0:0:
320,192,143719,1,0,0:0:0:0:
192,192,143777,1,0,0:0:0:0:
64,192,143777,1,0,0:0:0:0:
448,192,143835,1,0,0:0:0:0:
320,192,143893,1,0,0:0:0:0:
64,192,143893,1,0,0:0:0:0:
192,192,143951,1,0,0:0:0:0:
64,192,144009,1,0,0:0:0:0:
320,192,144067,1,0,0:0:0:0:
448,192,144126,1,0,0:0:0:0:
192,192,144126,1,0,0:0:0:0:
320,192,144184,1,0,0:0:0:0:
192,192,144242,1,0,0:0:0:0:
64,192,144242,1,0,0:0:0:0:
320,192,144358,1,0,0:0:0:0:
448,192,144358,1,0,0:0:0:0:
192,192,144416,1,0,0:0:0:0:
64,192,144416,1,0,0:0:0:0:
448,192,144474,1,0,0:0:0:0:
320,192,144474,1,0,0:0:0:0:
64,192,144591,1,0,0:0:0:0:
448,192,144591,1,0,0:0:0:0:
64,192,144707,1,0,0:0:0:0:
320,192,144707,1,0,0:0:0:0:
192,192,144823,1,0,0:0:0:0:
64,192,144823,1,0,0:0:0:0:
320,192,144881,1,0,0:0:0:0:
448,192,144881,1,0,0:0:0:0:
192,192,144939,1,0,0:0:0:0:
64,192,144939,1,0,0:0:0:0:
320,192,145056,1,0,0:0:0:0:
448,192,145056,1,0,0:0:0:0:
64,192,145172,1,0,0:0:0:0:
448,192,145172,1,0,0:0:0:0:
320,192,145172,1,0,0:0:0:0:
192,192,145230,1,0,0:0:0:0:
320,192,145288,1,0,0:0:0:0:
192,192,145346,1,0,0:0:0:0:
448,192,145405,1,0,0:0:0:0:
64,192,145405,1,0,0:0:0:0:
192,192,145521,1,0,0:0:0:0:
64,192,145521,1,0,0:0:0:0:
64,192,145637,1,0,0:0:0:0:
192,192,145637,1,0,0:0:0:0:
448,192,145637,1,0,0:0:0:0:
320,192,145753,1,0,0:0:0:0:
448,192,145753,1,0,0:0:0:0:
64,192,145870,1,0,0:0:0:0:
192,192,145870,1,0,0:0:0:0:
64,192,145986,1,0,0:0:0:0:
192,192,145986,1,0,0:0:0:0:
64,192,146102,1,0,0:0:0:0:
448,192,146102,1,0,0:0:0:0:
320,192,146180,1,0,0:0:0:0:
192,192,146257,1,0,0:0:0:0:
64,192,146335,1,0,0:0:0:0:
448,192,146335,1,0,0:0:0:0:
320,192,146412,1,0,0:0:0:0:
192,192,146490,1,0,0:0:0:0:
64,192,146567,1,0,0:0:0:0:
320,192,146567,1,0,0:0:0:0:
448,192,146606,1,0,0:0:0:0:
64,192,146684,1,0,0:0:0:0:
192,192,146684,1,0,0:0:0:0:
320,192,146800,1,0,0:0:0:0:
448,192,146800,1,0,0:0:0:0:
320,192,146916,1,0,0:0:0:0:
448,192,146916,1,0,0:0:0:0:
64,192,147033,1,0,0:0:0:0:
448,192,147033,1,0,0:0:0:0:
192,192,147110,1,0,0:0:0:0:
320,192,147188,1,0,0:0:0:0:
448,192,147265,1,0,0:0:0:0:
64,192,147265,1,0,0:0:0:0:
192,192,147343,1,0,0:0:0:0:
320,192,147420,1,0,0:0:0:0:
448,192,147498,1,0,0:0:0:0:
64,192,147498,1,0,0:0:0:0:
192,192,147536,1,0,0:0:0:0:
320,192,147614,1,0,0:0:0:0:
64,192,147614,1,0,0:0:0:0:
192,192,147730,1,0,0:0:0:0:
320,192,147730,1,0,0:0:0:0:
320,192,147846,1,0,0:0:0:0:
192,192,147846,1,0,0:0:0:0:
64,192,147963,1,0,0:0:0:0:
448,192,147963,1,0,0:0:0:0:
192,192,148040,1,0,0:0:0:0:
64,192,148118,1,0,0:0:0:0:
448,192,148195,1,0,0:0:0:0:
320,192,148195,1,0,0:0:0:0:
192,192,148273,1,0,0:0:0:0:
448,192,148350,1,0,0:0:0:0:
64,192,148428,1,0,0:0:0:0:
192,192,148428,1,0,0:0:0:0:
320,192,148467,1,0,0:0:0:0:
64,192,148544,1,0,0:0:0:0:
448,192,148544,1,0,0:0:0:0:
448,192,148660,1,0,0:0:0:0:
192,192,148660,1,0,0:0:0:0:
448,192,148777,1,0,0:0:0:0:
192,192,148777,1,0,0:0:0:0:
320,192,148893,1,0,0:0:0:0:
64,192,148893,1,0,0:0:0:0:
448,192,148971,1,0,0:0:0:0:
192,192,149048,1,0,0:0:0:0:
448,192,149126,1,0,0:0:0:0:
64,192,149126,1,0,0:0:0:0:
320,192,149203,1,0,0:0:0:0:
192,192,149281,1,0,0:0:0:0:
320,192,149358,1,0,0:0:0:0:
448,192,149358,1,0,0:0:0:0:
64,192,149358,1,0,0:0:0:0:
192,192,149436,1,0,0:0:0:0:
320,192,149474,1,0,0:0:0:0:
448,192,149513,1,0,0:0:0:0:
64,192,149591,1,0,0:0:0:0:
192,192,149591,1,0,0:0:0:0:
320,192,149707,1,0,0:0:0:0:
64,192,149707,1,0,0:0:0:0:
192,192,149823,1,0,0:0:0:0:
448,192,149823,1,0,0:0:0:0:
64,192,149901,1,0,0:0:0:0:
320,192,149978,1,0,0:0:0:0:
64,192,150056,1,0,0:0:0:0:
448,192,150056,1,0,0:0:0:0:
192,192,150133,1,0,0:0:0:0:
320,192,150211,1,0,0:0:0:0:
192,192,150288,1,0,0:0:0:0:
64,192,150288,1,0,0:0:0:0:
448,192,150288,1,0,0:0:0:0:
320,192,150366,1,0,0:0:0:0:
192,192,150405,1,0,0:0:0:0:
64,192,150443,1,0,0:0:0:0:
320,192,150521,1,0,0:0:0:0:
448,192,150521,1,0,0:0:0:0:
192,192,150598,1,0,0:0:0:0:
320,192,150676,1,0,0:0:0:0:
448,192,150753,1,0,0:0:0:0:
64,192,150753,1,0,0:0:0:0:
192,192,150831,1,0,0:0:0:0:
320,192,150908,1,0,0:0:0:0:
64,192,150986,1,0,0:0:0:0:
192,192,150986,1,0,0:0:0:0:
448,192,151064,1,0,0:0:0:0:
192,192,151141,1,0,0:0:0:0:
320,192,151219,1,0,0:0:0:0:
448,192,151219,1,0,0:0:0:0:
64,192,151296,1,0,0:0:0:0:
320,192,151374,1,0,0:0:0:0:
192,192,151451,1,0,0:0:0:0:
448,192,151451,1,0,0:0:0:0:
320,192,151529,1,0,0:0:0:0:
192,192,151606,1,0,0:0:0:0:
64,192,151684,1,0,0:0:0:0:
448,192,151684,1,0,0:0:0:0:
320,192,151742,1,0,0:0:0:0:
192,192,151800,1,0,0:0:0:0:
64,192,151858,1,0,0:0:0:0:
320,192,151916,1,0,0:0:0:0:
448,192,151916,1,0,0:0:0:0:
64,192,151974,1,0,0:0:0:0:
192,192,152033,1,0,0:0:0:0:
320,192,152091,1,0,0:0:0:0:
448,192,152149,1,0,0:0:0:0:
64,192,152149,1,0,0:0:0:0:
192,192,152149,1,0,0:0:0:0:
320,192,152226,1,0,0:0:0:0:
64,192,152304,1,0,0:0:0:0:
448,192,152381,1,0,0:0:0:0:
192,192,152381,1,0,0:0:0:0:
320,192,152498,1,0,0:0:0:0:
448,192,152498,1,0,0:0:0:0:
320,192,152614,1,0,0:0:0:0:
64,192,152614,1,0,0:0:0:0:
448,192,152614,1,0,0:0:0:0:
192,192,152691,1,0,0:0:0:0:
320,192,152769,1,0,0:0:0:0:
192,192,152846,1,0,0:0:0:0:
64,192,152846,1,0,0:0:0:0:
320,192,152963,1,0,0:0:0:0:
64,192,152963,1,0,0:0:0:0:
192,192,153079,1,0,0:0:0:0:
448,192,153118,1,0,0:0:0:0:
64,192,153157,1,0,0:0:0:0:
192,192,153195,1,0,0:0:0:0:
448,192,153312,1,0,0:0:0:0:
320,192,153312,1,0,0:0:0:0:
64,192,153370,1,0,0:0:0:0:
192,192,153428,1,0,0:0:0:0:
320,192,153486,1,0,0:0:0:0:
448,192,153544,1,0,0:0:0:0:
192,192,153544,1,0,0:0:0:0:
64,192,153622,1,0,0:0:0:0:
320,192,153699,1,0,0:0:0:0:
64,192,153777,1,0,0:0:0:0:
192,192,153777,1,0,0:0:0:0:
448,192,153854,1,0,0:0:0:0:
320,192,153854,1,0,0:0:0:0:
192,192,153932,1,0,0:0:0:0:
64,192,153932,1,0,0:0:0:0:
448,192,154009,1,0,0:0:0:0:
320,192,154009,1,0,0:0:0:0:
192,192,154087,1,0,0:0:0:0:
448,192,154164,1,0,0:0:0:0:
64,192,154242,1,0,0:0:0:0:
192,192,154242,1,0,0:0:0:0:
320,192,154319,1,0,0:0:0:0:
64,192,154397,1,0,0:0:0:0:
320,192,154474,1,0,0:0:0:0:
448,192,154474,1,0,0:0:0:0:
192,192,154474,128,0,154939:0:0:0:0:
320,192,154939,128,0,155405:0:0:0:0:
64,192,155405,1,0,0:0:0:0:
448,192,155405,1,0,0:0:0:0:
192,192,155463,1,0,0:0:0:0:
320,192,155521,1,0,0:0:0:0:
448,192,155579,1,0,0:0:0:0:
64,192,155637,1,0,0:0:0:0:
320,192,155715,1,0,0:0:0:0:
192,192,155792,1,0,0:0:0:0:
64,192,155870,1,0,0:0:0:0:
320,192,155947,1,0,0:0:0:0:
192,192,156025,1,0,0:0:0:0:
448,192,156102,1,0,0:0:0:0:
320,192,156180,1,0,0:0:0:0:
192,192,156257,1,0,0:0:0:0:
64,192,156335,1,0,0:0:0:0:
320,192,156374,1,0,0:0:0:0:
448,192,156412,1,0,0:0:0:0:
192,192,156490,1,0,0:0:0:0:
64,192,156529,1,0,0:0:0:0:
448,192,156567,1,0,0:0:0:0:
192,192,156645,1,0,0:0:0:0:
320,192,156722,1,0,0:0:0:0:
64,192,156800,1,0,0:0:0:0:
192,192,156877,1,0,0:0:0:0:
320,192,156955,1,0,0:0:0:0:
448,192,157033,1,0,0:0:0:0:
64,192,157033,1,0,0:0:0:0:
192,192,157149,1,0,0:0:0:0:
64,192,157265,1,0,0:0:0:0:
448,192,157265,1,0,0:0:0:0:
320,192,157265,1,0,0:0:0:0:
192,192,157381,1,0,0:0:0:0:
448,192,157498,1,0,0:0:0:0:
320,192,157614,1,0,0:0:0:0:
64,192,157730,1,0,0:0:0:0:
192,192,157963,1,0,0:0:0:0:
448,192,158079,1,0,0:0:0:0:
320,192,158195,1,0,0:0:0:0:
64,192,158312,1,0,0:0:0:0:
192,192,158428,1,0,0:0:0:0:
448,192,158428,1,0,0:0:0:0:
64,192,158660,1,0,0:0:0:0:
192,192,158777,1,0,0:0:0:0:
448,192,158777,1,0,0:0:0:0:
320,192,158893,1,0,0:0:0:0:
448,192,159009,1,0,0:0:0:0:
192,192,159126,128,0,159358:0:0:0:0:
320,192,159126,1,0,0:0:0:0:
64,192,159126,1,0,0:0:0:0:
448,192,159358,128,0,159591:0:0:0:0:
64,192,159591,128,0,159823:0:0:0:0:
192,192,159823,1,0,0:0:0:0:
448,192,160056,1,0,0:0:0:0:
320,192,160095,1,0,0:0:0:0:
64,192,160133,1,0,0:0:0:0:
448,192,160211,1,0,0:0:0:0:
192,192,160288,1,0,0:0:0:0:
64,192,160366,1,0,0:0:0:0:
448,192,160405,1,0,0:0:0:0:
320,192,160443,1,0,0:0:0:0:
192,192,160521,1,0,0:0:0:0:
64,192,160598,1,0,0:0:0:0:
320,192,160676,1,0,0:0:0:0:
448,192,160753,1,0,0:0:0:0:
192,192,160753,1,0,0:0:0:0:
448,192,160870,1,0,0:0:0:0:
64,192,160870,1,0,0:0:0:0:
64,192,160986,1,0,0:0:0:0:
192,192,160986,1,0,0:0:0:0:
320,192,160986,1,0,0:0:0:0:
448,192,161102,1,0,0:0:0:0:
192,192,161219,1,0,0:0:0:0:
320,192,161335,1,0,0:0:0:0:
448,192,161451,1,0,0:0:0:0:
192,192,161684,1,0,0:0:0:0:
64,192,161761,1,0,0:0:0:0:
320,192,161916,1,0,0:0:0:0:
448,192,161974,1,0,0:0:0:0:
192,192,162033,1,0,0:0:0:0:
320,192,162091,1,0,0:0:0:0:
64,192,162149,1,0,0:0:0:0:
448,192,162149,1,0,0:0:0:0:
192,192,162226,1,0,0:0:0:0:
448,192,162304,1,0,0:0:0:0:
64,192,162381,1,0,0:0:0:0:
320,192,162381,1,0,0:0:0:0:
192,192,162459,1,0,0:0:0:0:
448,192,162536,1,0,0:0:0:0:
320,192,162614,1,0,0:0:0:0:
192,192,162730,1,0,0:0:0:0:
64,192,162846,1,0,0:0:0:0:
448,192,162846,1,0,0:0:0:0:
320,192,162846,1,0,0:0:0:0:
64,192,162963,1,0,0:0:0:0:
192,192,162963,1,0,0:0:0:0:
448,192,163079,1,0,0:0:0:0:
320,192,163079,1,0,0:0:0:0:
192,192,163195,1,0,0:0:0:0:
64,192,163312,1,0,0:0:0:0:
448,192,163312,1,0,0:0:0:0:
64,192,163544,1,0,0:0:0:0:
320,192,163573,1,0,0:0:0:0:
64,192,163660,1,0,0:0:0:0:
320,192,163689,1,0,0:0:0:0:
192,192,163777,1,0,0:0:0:0:
448,192,163835,1,0,0:0:0:0:
64,192,163893,1,0,0:0:0:0:
192,192,164009,1,0,0:0:0:0:
320,192,164087,1,0,0:0:0:0:
64,192,164164,1,0,0:0:0:0:
192,192,164242,1,0,0:0:0:0:
448,192,164242,1,0,0:0:0:0:
320,192,164358,1,0,0:0:0:0:
192,192,164474,1,0,0:0:0:0:
64,192,164474,1,0,0:0:0:0:
64,192,164591,1,0,0:0:0:0:
192,192,164591,1,0,0:0:0:0:
64,192,164707,1,0,0:0:0:0:
320,192,164707,1,0,0:0:0:0:
448,192,164707,1,0,0:0:0:0:
192,192,164823,1,0,0:0:0:0:
320,192,164939,1,0,0:0:0:0:
64,192,165056,1,0,0:0:0:0:
192,192,165172,1,0,0:0:0:0:
320,192,165405,1,0,0:0:0:0:
192,192,165521,1,0,0:0:0:0:
448,192,165637,1,0,0:0:0:0:
320,192,165753,1,0,0:0:0:0:
64,192,165870,1,0,0:0:0:0:
448,192,165870,1,0,0:0:0:0:
192,192,166102,1,0,0:0:0:0:
320,192,166219,1,0,0:0:0:0:
448,192,166219,1,0,0:0:0:0:
64,192,166335,1,0,0:0:0:0:
320,192,166451,1,0,0:0:0:0:
64,192,166567,1,0,0:0:0:0:
192,192,166567,1,0,0:0:0:0:
448,192,166567,128,0,166800:0:0:0:0:
320,192,166800,128,0,167033:0:0:0:0:
192,192,167033,128,0,167265:0:0:0:0:
448,192,167265,1,0,0:0:0:0:
448,192,167498,1,0,0:0:0:0:
320,192,167536,1,0,0:0:0:0:
64,192,167575,1,0,0:0:0:0:
192,192,167653,1,0,0:0:0:0:
320,192,167730,1,0,0:0:0:0:
448,192,167769,1,0,0:0:0:0:
192,192,167808,1,0,0:0:0:0:
64,192,167885,1,0,0:0:0:0:
448,192,167963,1,0,0:0:0:0:
320,192,168040,1,0,0:0:0:0:
64,192,168118,1,0,0:0:0:0:
192,192,168195,1,0,0:0:0:0:
448,192,168195,1,0,0:0:0:0:
320,192,168312,1,0,0:0:0:0:
448,192,168312,1,0,0:0:0:0:
320,192,168428,1,0,0:0:0:0:
64,192,168428,1,0,0:0:0:0:
448,192,168428,1,0,0:0:0:0:
192,192,168544,1,0,0:0:0:0:
320,192,168660,1,0,0:0:0:0:
64,192,168777,1,0,0:0:0:0:
192,192,168893,1,0,0:0:0:0:
64,192,169126,1,0,0:0:0:0:
320,192,169242,1,0,0:0:0:0:
192,192,169358,1,0,0:0:0:0:
64,192,169416,1,0,0:0:0:0:
320,192,169474,1,0,0:0:0:0:
448,192,169533,1,0,0:0:0:0:
192,192,169591,1,0,0:0:0:0:
64,192,169591,1,0,0:0:0:0:
320,192,169668,1,0,0:0:0:0:
64,192,169746,1,0,0:0:0:0:
320,192,169823,1,0,0:0:0:0:
448,192,169939,1,0,0:0:0:0:
192,192,169939,1,0,0:0:0:0:
64,192,170056,1,0,0:0:0:0:
320,192,170172,1,0,0:0:0:0:
64,192,170288,1,0,0:0:0:0:
320,192,170288,1,0,0:0:0:0:
448,192,170288,1,0,0:0:0:0:
64,192,170521,1,0,0:0:0:0:
320,192,170579,1,0,0:0:0:0:
192,192,170637,1,0,0:0:0:0:
448,192,170695,1,0,0:0:0:0:
320,192,170753,1,0,0:0:0:0:
64,192,170753,1,0,0:0:0:0:
192,192,170870,1,0,0:0:0:0:
64,192,170870,1,0,0:0:0:0:
448,192,170986,1,0,0:0:0:0:
320,192,170986,1,0,0:0:0:0:
64,192,171044,1,0,0:0:0:0:
192,192,171102,1,0,0:0:0:0:
320,192,171160,1,0,0:0:0:0:
448,192,171219,1,0,0:0:0:0:
64,192,171219,1,0,0:0:0:0:
192,192,171296,1,0,0:0:0:0:
320,192,171374,1,0,0:0:0:0:
64,192,171451,1,0,0:0:0:0:
192,192,171529,1,0,0:0:0:0:
64,192,171606,1,0,0:0:0:0:
320,192,171684,1,0,0:0:0:0:
448,192,171684,1,0,0:0:0:0:
192,192,171761,1,0,0:0:0:0:
448,192,171839,1,0,0:0:0:0:
320,192,171916,1,0,0:0:0:0:
64,192,171994,1,0,0:0:0:0:
192,192,172071,1,0,0:0:0:0:
64,192,172149,1,0,0:0:0:0:
448,192,172149,1,0,0:0:0:0:
320,192,172226,1,0,0:0:0:0:
192,192,172304,1,0,0:0:0:0:
320,192,172381,1,0,0:0:0:0:
448,192,172459,1,0,0:0:0:0:
192,192,172536,1,0,0:0:0:0:
320,192,172614,1,0,0:0:0:0:
448,192,172614,1,0,0:0:0:0:
64,192,172691,1,0,0:0:0:0:
192,192,172769,1,0,0:0:0:0:
64,192,172846,1,0,0:0:0:0:
320,192,172924,1,0,0:0:0:0:
192,192,173002,1,0,0:0:0:0:
64,192,173079,1,0,0:0:0:0:
448,192,173079,1,0,0:0:0:0:
320,192,173195,1,0,0:0:0:0:
192,192,173312,1,0,0:0:0:0:
64,192,173428,1,0,0:0:0:0:
448,192,173428,1,0,0:0:0:0:
320,192,173544,1,0,0:0:0:0:
448,192,173544,1,0,0:0:0:0:
192,192,173544,1,0,0:0:0:0:
64,192,173660,1,0,0:0:0:0:
448,192,173777,1,0,0:0:0:0:
320,192,173777,1,0,0:0:0:0:
64,192,173893,1,0,0:0:0:0:
320,192,173893,1,0,0:0:0:0:
448,192,174009,1,0,0:0:0:0:
192,192,174009,1,0,0:0:0:0:
320,192,174126,1,0,0:0:0:0:
192,192,174242,1,0,0:0:0:0:
64,192,174242,1,0,0:0:0:0:
448,192,174358,1,0,0:0:0:0:
64,192,174474,1,0,0:0:0:0:
320,192,174474,1,0,0:0:0:0:
448,192,174474,1,0,0:0:0:0:
192,192,174591,1,0,0:0:0:0:
320,192,174707,1,0,0:0:0:0:
64,192,174784,1,0,0:0:0:0:
320,192,174862,1,0,0:0:0:0:
64,192,174939,1,0,0:0:0:0:
192,192,174939,1,0,0:0:0:0:
448,192,174939,1,0,0:0:0:0:
448,192,175056,1,0,0:0:0:0:
64,192,175056,1,0,0:0:0:0:
320,192,175056,1,0,0:0:0:0:
192,192,175172,128,0,175405:0:0:0:0:
320,192,175172,128,0,175288:0:0:0:0:
448,192,175637,1,0,0:0:0:0:
320,192,175637,1,0,0:0:0:0:
64,192,175637,1,0,0:0:0:0:
192,192,175753,1,0,0:0:0:0:
320,192,175753,1,0,0:0:0:0:
448,192,175753,1,0,0:0:0:0:
192,192,175870,1,0,0:0:0:0:
64,192,175870,128,0,176102:0:0:0:0:
320,192,175986,1,0,0:0:0:0:
192,192,175986,128,0,176102:0:0:0:0:
320,192,176102,128,0,176219:0:0:0:0:
448,192,176102,128,0,176335:0:0:0:0:
192,192,176567,1,0,0:0:0:0:
64,192,176567,1,0,0:0:0:0:
192,192,176684,1,0,0:0:0:0:
64,192,176684,1,0,0:0:0:0:
64,192,176800,1,0,0:0:0:0:
320,192,176800,1,0,0:0:0:0:
448,192,176800,1,0,0:0:0:0:
192,192,176955,1,0,0:0:0:0:
448,192,176955,1,0,0:0:0:0:
64,192,176955,1,0,0:0:0:0:
64,192,177110,1,0,0:0:0:0:
448,192,177110,1,0,0:0:0:0:
320,192,177110,1,0,0:0:0:0:
320,192,177265,1,0,0:0:0:0:
448,192,177265,1,0,0:0:0:0:
192,192,177265,1,0,0:0:0:0:
64,192,177420,1,0,0:0:0:0:
320,192,177420,1,0,0:0:0:0:
192,192,177420,1,0,0:0:0:0:
192,192,177575,1,0,0:0:0:0:
448,192,177575,1,0,0:0:0:0:
64,192,177575,1,0,0:0:0:0:
64,192,177730,128,0,178195:0:0:0:0:
192,192,178195,128,0,178660:0:0:0:0:
448,192,178660,1,0,0:0:0:0:
320,192,178660,1,0,0:0:0:0:
64,192,178660,1,0,0:0:0:0:
192,192,178719,1,0,0:0:0:0:
320,192,178777,1,0,0:0:0:0:
64,192,178835,1,0,0:0:0:0:
192,192,178893,1,0,0:0:0:0:
448,192,178893,1,0,0:0:0:0:
320,192,179009,1,0,0:0:0:0:
64,192,179009,1,0,0:0:0:0:
448,192,179126,1,0,0:0:0:0:
192,192,179126,1,0,0:0:0:0:
64,192,179126,1,0,0:0:0:0:
320,192,179203,1,0,0:0:0:0:
192,192,179281,1,0,0:0:0:0:
320,192,179358,1,0,0:0:0:0:
64,192,179358,1,0,0:0:0:0:
192,192,179474,1,0,0:0:0:0:
448,192,179474,1,0,0:0:0:0:
448,192,179591,1,0,0:0:0:0:
320,192,179591,1,0,0:0:0:0:
192,192,179668,1,0,0:0:0:0:
64,192,179746,1,0,0:0:0:0:
320,192,179823,1,0,0:0:0:0:
448,192,179823,1,0,0:0:0:0:
320,192,179939,1,0,0:0:0:0:
192,192,179939,1,0,0:0:0:0:
64,192,180017,1,0,0:0:0:0:
448,192,180095,1,0,0:0:0:0:
320,192,180172,1,0,0:0:0:0:
64,192,180172,1,0,0:0:0:0:
192,192,180288,1,0,0:0:0:0:
448,192,180288,1,0,0:0:0:0:
320,192,180405,1,0,0:0:0:0:
448,192,180521,1,0,0:0:0:0:
64,192,180521,1,0,0:0:0:0:
320,192,180579,1,0,0:0:0:0:
192,192,180637,1,0,0:0:0:0:
64,192,180695,1,0,0:0:0:0:
448,192,180753,1,0,0:0:0:0:
320,192,180753,1,0,0:0:0:0:
64,192,180870,1,0,0:0:0:0:
448,192,180870,1,0,0:0:0:0:
320,192,180986,1,0,0:0:0:0:
64,192,180986,1,0,0:0:0:0:
448,192,180986,1,0,0:0:0:0:
192,192,181064,1,0,0:0:0:0:
320,192,181141,1,0,0:0:0:0:
64,192,181219,1,0,0:0:0:0:
192,192,181219,1,0,0:0:0:0:
64,192,181335,1,0,0:0:0:0:
320,192,181335,1,0,0:0:0:0:
64,192,181451,1,0,0:0:0:0:
320,192,181451,1,0,0:0:0:0:
192,192,181567,1,0,0:0:0:0:
448,192,181567,1,0,0:0:0:0:
320,192,181684,1,0,0:0:0:0:
448,192,181684,1,0,0:0:0:0:
448,192,181800,1,0,0:0:0:0:
192,192,181800,1,0,0:0:0:0:
64,192,181877,1,0,0:0:0:0:
320,192,181955,1,0,0:0:0:0:
64,192,182033,1,0,0:0:0:0:
192,192,182033,1,0,0:0:0:0:
320,192,182149,1,0,0:0:0:0:
192,192,182188,1,0,0:0:0:0:
448,192,182226,1,0,0:0:0:0:
320,192,182265,1,0,0:0:0:0:
192,192,182381,1,0,0:0:0:0:
448,192,182381,1,0,0:0:0:0:
64,192,182498,1,0,0:0:0:0:
192,192,182498,1,0,0:0:0:0:
64,192,182614,1,0,0:0:0:0:
320,192,182614,1,0,0:0:0:0:
448,192,182730,1,0,0:0:0:0:
192,192,182730,1,0,0:0:0:0:
64,192,182846,1,0,0:0:0:0:
320,192,182846,1,0,0:0:0:0:
448,192,182846,1,0,0:0:0:0:
192,192,182924,1,0,0:0:0:0:
320,192,183002,1,0,0:0:0:0:
448,192,183079,1,0,0:0:0:0:
64,192,183079,1,0,0:0:0:0:
192,192,183195,1,0,0:0:0:0:
64,192,183195,1,0,0:0:0:0:
192,192,183312,1,0,0:0:0:0:
448,192,183312,1,0,0:0:0:0:
320,192,183389,1,0,0:0:0:0:
192,192,183467,1,0,0:0:0:0:
64,192,183544,1,0,0:0:0:0:
448,192,183544,1,0,0:0:0:0:
192,192,183622,1,0,0:0:0:0:
320,192,183699,1,0,0:0:0:0:
192,192,183777,1,0,0:0:0:0:
64,192,183777,1,0,0:0:0:0:
448,192,183777,1,0,0:0:0:0:
320,192,183854,1,0,0:0:0:0:
448,192,183932,1,0,0:0:0:0:
64,192,184009,1,0,0:0:0:0:
192,192,184009,1,0,0:0:0:0:
448,192,184126,1,0,0:0:0:0:
192,192,184126,1,0,0:0:0:0:
64,192,184242,1,0,0:0:0:0:
448,192,184242,1,0,0:0:0:0:
320,192,184300,1,0,0:0:0:0:
192,192,184358,1,0,0:0:0:0:
448,192,184416,1,0,0:0:0:0:
64,192,184474,1,0,0:0:0:0:
320,192,184474,1,0,0:0:0:0:
192,192,184533,1,0,0:0:0:0:
448,192,184591,1,0,0:0:0:0:
320,192,184649,1,0,0:0:0:0:
448,192,184707,1,0,0:0:0:0:
64,192,184707,1,0,0:0:0:0:
192,192,184765,1,0,0:0:0:0:
320,192,184823,1,0,0:0:0:0:
64,192,184881,1,0,0:0:0:0:
448,192,184939,1,0,0:0:0:0:
192,192,184939,1,0,0:0:0:0:
448,192,185056,1,0,0:0:0:0:
64,192,185056,1,0,0:0:0:0:
64,192,185172,1,0,0:0:0:0:
320,192,185172,1,0,0:0:0:0:
64,192,185288,1,0,0:0:0:0:
320,192,185288,1,0,0:0:0:0:
448,192,185405,1,0,0:0:0:0:
192,192,185405,1,0,0:0:0:0:
192,192,185521,1,0,0:0:0:0:
448,192,185521,1,0,0:0:0:0:
448,192,185637,1,0,0:0:0:0:
320,192,185637,1,0,0:0:0:0:
64,192,185637,1,0,0:0:0:0:
192,192,185753,1,0,0:0:0:0:
320,192,185870,1,0,0:0:0:0:
64,192,185870,1,0,0:0:0:0:
448,192,185928,1,0,0:0:0:0:
192,192,185986,1,0,0:0:0:0:
320,192,186044,1,0,0:0:0:0:
448,192,186102,1,0,0:0:0:0:
64,192,186102,1,0,0:0:0:0:
192,192,186180,1,0,0:0:0:0:
320,192,186257,1,0,0:0:0:0:
192,192,186335,1,0,0:0:0:0:
64,192,186335,1,0,0:0:0:0:
320,192,186451,1,0,0:0:0:0:
448,192,186567,1,0,0:0:0:0:
320,192,186567,1,0,0:0:0:0:
64,192,186567,1,0,0:0:0:0:
192,192,186684,1,0,0:0:0:0:
448,192,186800,1,0,0:0:0:0:
64,192,186800,1,0,0:0:0:0:
320,192,186877,1,0,0:0:0:0:
192,192,186955,1,0,0:0:0:0:
320,192,187033,1,0,0:0:0:0:
64,192,187033,1,0,0:0:0:0:
448,192,187110,1,0,0:0:0:0:
192,192,187188,1,0,0:0:0:0:
320,192,187265,1,0,0:0:0:0:
448,192,187265,1,0,0:0:0:0:
64,192,187381,1,0,0:0:0:0:
320,192,187498,1,0,0:0:0:0:
448,192,187536,1,0,0:0:0:0:
192,192,187575,1,0,0:0:0:0:
320,192,187614,1,0,0:0:0:0:
64,192,187730,1,0,0:0:0:0:
192,192,187730,1,0,0:0:0:0:
448,192,187808,1,0,0:0:0:0:
320,192,187885,1,0,0:0:0:0:
192,192,187963,1,0,0:0:0:0:
448,192,187963,1,0,0:0:0:0:
64,192,188040,1,0,0:0:0:0:
320,192,188118,1,0,0:0:0:0:
448,192,188195,1,0,0:0:0:0:
64,192,188195,1,0,0:0:0:0:
320,192,188312,1,0,0:0:0:0:
192,192,188428,1,0,0:0:0:0:
64,192,188467,1,0,0:0:0:0:
320,192,188505,1,0,0:0:0:0:
448,192,188544,1,0,0:0:0:0:
64,192,188660,1,0,0:0:0:0:
192,192,188660,1,0,0:0:0:0:
320,192,188738,1,0,0:0:0:0:
64,192,188815,1,0,0:0:0:0:
192,192,188893,1,0,0:0:0:0:
448,192,188893,1,0,0:0:0:0:
320,192,188971,1,0,0:0:0:0:
448,192,189048,1,0,0:0:0:0:
192,192,189126,1,0,0:0:0:0:
64,192,189126,1,0,0:0:0:0:
448,192,189242,1,0,0:0:0:0:
320,192,189358,1,0,0:0:0:0:
64,192,189358,1,0,0:0:0:0:
192,192,189358,1,0,0:0:0:0:
448,192,189474,1,0,0:0:0:0:
192,192,189591,1,0,0:0:0:0:
64,192,189591,1,0,0:0:0:0:
448,192,189668,1,0,0:0:0:0:
320,192,189746,1,0,0:0:0:0:
192,192,189823,1,0,0:0:0:0:
64,192,189823,1,0,0:0:0:0:
448,192,189823,1,0,0:0:0:0:
192,192,189939,1,0,0:0:0:0:
64,192,189939,1,0,0:0:0:0:
192,192,190056,1,0,0:0:0:0:
320,192,190056,1,0,0:0:0:0:
448,192,190056,1,0,0:0:0:0:
320,192,190172,1,0,0:0:0:0:
448,192,190172,1,0,0:0:0:0:
448,192,190288,1,0,0:0:0:0:
192,192,190288,1,0,0:0:0:0:
64,192,190288,1,0,0:0:0:0:
64,192,190405,1,0,0:0:0:0:
192,192,190405,1,0,0:0:0:0:
64,192,190521,1,0,0:0:0:0:
320,192,190521,1,0,0:0:0:0:
448,192,190521,1,0,0:0:0:0:
192,192,190637,1,0,0:0:0:0:
448,192,190637,1,0,0:0:0:0:
320,192,190753,1,0,0:0:0:0:
192,192,190753,1,0,0:0:0:0:
64,192,190753,1,0,0:0:0:0:
64,192,190870,1,0,0:0:0:0:
320,192,190870,1,0,0:0:0:0:
192,192,190986,1,0,0:0:0:0:
320,192,190986,1,0,0:0:0:0:
448,192,190986,1,0,0:0:0:0:
448,192,191102,1,0,0:0:0:0:
64,192,191102,1,0,0:0:0:0:
320,192,191219,1,0,0:0:0:0:
192,192,191219,1,0,0:0:0:0:
64,192,191219,1,0,0:0:0:0:
448,192,191296,1,0,0:0:0:0:
192,192,191374,1,0,0:0:0:0:
448,192,191451,1,0,0:0:0:0:
64,192,191451,1,0,0:0:0:0:
320,192,191509,1,0,0:0:0:0:
192,192,191567,1,0,0:0:0:0:
64,192,191626,1,0,0:0:0:0:
320,192,191684,1,0,0:0:0:0:
448,192,191742,1,0,0:0:0:0:
192,192,191800,1,0,0:0:0:0:
320,192,191858,1,0,0:0:0:0:
64,192,191916,1,0,0:0:0:0:
448,192,191916,1,0,0:0:0:0:
192,192,191974,1,0,0:0:0:0:
320,192,192033,1,0,0:0:0:0:
448,192,192033,1,0,0:0:0:0:
64,192,192091,1,0,0:0:0:0:
192,192,192149,1,0,0:0:0:0:
448,192,192149,1,0,0:0:0:0:
320,192,192207,1,0,0:0:0:0:
192,192,192265,1,0,0:0:0:0:
64,192,192265,1,0,0:0:0:0:
320,192,192323,1,0,0:0:0:0:
448,192,192381,1,0,0:0:0:0:
64,192,192381,1,0,0:0:0:0:
320,192,192498,1,0,0:0:0:0:
448,192,192498,1,0,0:0:0:0:
192,192,192498,1,0,0:0:0:0:
320,192,192614,1,0,0:0:0:0:
64,192,192614,1,0,0:0:0:0:
192,192,192730,1,0,0:0:0:0:
64,192,192730,1,0,0:0:0:0:
320,192,192788,1,0,0:0:0:0:
448,192,192788,1,0,0:0:0:0:
64,192,192846,1,0,0:0:0:0:
192,192,192846,1,0,0:0:0:0:
192,192,192963,1,0,0:0:0:0:
448,192,192963,1,0,0:0:0:0:
64,192,193079,1,0,0:0:0:0:
320,192,193079,1,0,0:0:0:0:
320,192,193195,1,0,0:0:0:0:
448,192,193195,1,0,0:0:0:0:
192,192,193253,1,0,0:0:0:0:
64,192,193253,1,0,0:0:0:0:
320,192,193312,1,0,0:0:0:0:
448,192,193312,1,0,0:0:0:0:
192,192,193428,1,0,0:0:0:0:
64,192,193428,1,0,0:0:0:0:
448,192,193544,1,0,0:0:0:0:
192,192,193544,1,0,0:0:0:0:
64,192,193544,1,0,0:0:0:0:
320,192,193602,1,0,0:0:0:0:
448,192,193660,1,0,0:0:0:0:
192,192,193719,1,0,0:0:0:0:
320,192,193777,1,0,0:0:0:0:
64,192,193777,1,0,0:0:0:0:
448,192,193893,1,0,0:0:0:0:
192,192,193893,1,0,0:0:0:0:
448,192,194009,1,0,0:0:0:0:
320,192,194009,1,0,0:0:0:0:
64,192,194009,1,0,0:0:0:0:
192,192,194087,1,0,0:0:0:0:
320,192,194164,1,0,0:0:0:0:
64,192,194242,1,0,0:0:0:0:
448,192,194242,1,0,0:0:0:0:
320,192,194319,1,0,0:0:0:0:
192,192,194397,1,0,0:0:0:0:
64,192,194474,1,0,0:0:0:0:
448,192,194474,1,0,0:0:0:0:
320,192,194591,1,0,0:0:0:0:
448,192,194591,1,0,0:0:0:0:
320,192,194707,1,0,0:0:0:0:
64,192,194707,1,0,0:0:0:0:
448,192,194784,1,0,0:0:0:0:
192,192,194862,1,0,0:0:0:0:
320,192,194939,1,0,0:0:0:0:
448,192,194939,1,0,0:0:0:0:
64,192,194939,1,0,0:0:0:0:
320,192,195056,1,0,0:0:0:0:
192,192,195056,1,0,0:0:0:0:
64,192,195172,1,0,0:0:0:0:
192,192,195172,1,0,0:0:0:0:
448,192,195288,1,0,0:0:0:0:
320,192,195405,1,0,0:0:0:0:
64,192,195405,1,0,0:0:0:0:
448,192,195463,1,0,0:0:0:0:
64,192,195521,1,0,0:0:0:0:
192,192,195579,1,0,0:0:0:0:
320,192,195637,1,0,0:0:0:0:
448,192,195637,1,0,0:0:0:0:
64,192,195753,1,0,0:0:0:0:
192,192,195753,1,0,0:0:0:0:
448,192,195870,1,0,0:0:0:0:
320,192,195870,1,0,0:0:0:0:
192,192,195870,1,0,0:0:0:0:
64,192,195947,1,0,0:0:0:0:
320,192,196025,1,0,0:0:0:0:
64,192,196102,1,0,0:0:0:0:
192,192,196102,1,0,0:0:0:0:
64,192,196219,1,0,0:0:0:0:
448,192,196219,1,0,0:0:0:0:
448,192,196335,1,0,0:0:0:0:
320,192,196335,1,0,0:0:0:0:
192,192,196451,1,0,0:0:0:0:
64,192,196451,1,0,0:0:0:0:
448,192,196529,1,0,0:0:0:0:
192,192,196606,1,0,0:0:0:0:
320,192,196684,1,0,0:0:0:0:
64,192,196684,1,0,0:0:0:0:
192,192,196800,1,0,0:0:0:0:
320,192,196800,1,0,0:0:0:0:
448,192,196800,1,0,0:0:0:0:
64,192,196858,1,0,0:0:0:0:
320,192,196916,1,0,0:0:0:0:
448,192,196974,1,0,0:0:0:0:
192,192,197033,1,0,0:0:0:0:
64,192,197033,1,0,0:0:0:0:
320,192,197110,1,0,0:0:0:0:
64,192,197188,1,0,0:0:0:0:
192,192,197265,1,0,0:0:0:0:
448,192,197265,1,0,0:0:0:0:
320,192,197343,1,0,0:0:0:0:
192,192,197420,1,0,0:0:0:0:
64,192,197498,1,0,0:0:0:0:
448,192,197498,1,0,0:0:0:0:
192,192,197614,1,0,0:0:0:0:
64,192,197614,1,0,0:0:0:0:
320,192,197730,1,0,0:0:0:0:
192,192,197769,1,0,0:0:0:0:
448,192,197808,1,0,0:0:0:0:
320,192,197846,1,0,0:0:0:0:
64,192,197963,1,0,0:0:0:0:
192,192,197963,1,0,0:0:0:0:
448,192,198040,1,0,0:0:0:0:
192,192,198118,1,0,0:0:0:0:
64,192,198195,1,0,0:0:0:0:
448,192,198195,1,0,0:0:0:0:
320,192,198273,1,0,0:0:0:0:
64,192,198350,1,0,0:0:0:0:
192,192,198428,1,0,0:0:0:0:
448,192,198428,1,0,0:0:0:0:
320,192,198544,1,0,0:0:0:0:
192,192,198660,1,0,0:0:0:0:
64,192,198699,1,0,0:0:0:0:
448,192,198738,1,0,0:0:0:0:
320,192,198777,1,0,0:0:0:0:
448,192,198893,1,0,0:0:0:0:
320,192,198893,1,0,0:0:0:0:
64,192,198971,1,0,0:0:0:0:
192,192,199048,1,0,0:0:0:0:
64,192,199126,1,0,0:0:0:0:
320,192,199126,1,0,0:0:0:0:
448,192,199203,1,0,0:0:0:0:
192,192,199281,1,0,0:0:0:0:
320,192,199358,1,0,0:0:0:0:
448,192,199358,1,0,0:0:0:0:
320,192,199474,1,0,0:0:0:0:
64,192,199474,1,0,0:0:0:0:
64,192,199591,1,0,0:0:0:0:
192,192,199591,1,0,0:0:0:0:
448,192,199591,1,0,0:0:0:0:
320,192,199668,1,0,0:0:0:0:
192,192,199746,1,0,0:0:0:0:
64,192,199823,1,0,0:0:0:0:
320,192,199823,1,0,0:0:0:0:
448,192,199901,1,0,0:0:0:0:
64,192,199978,1,0,0:0:0:0:
320,192,200056,1,0,0:0:0:0:
448,192,200056,1,0,0:0:0:0:
192,192,200114,1,0,0:0:0:0:
448,192,200172,1,0,0:0:0:0:
64,192,200230,1,0,0:0:0:0:
320,192,200288,1,0,0:0:0:0:
64,192,200346,1,0,0:0:0:0:
448,192,200405,1,0,0:0:0:0:
192,192,200463,1,0,0:0:0:0:
320,192,200521,1,0,0:0:0:0:
448,192,200521,1,0,0:0:0:0:
192,192,200598,1,0,0:0:0:0:
320,192,200676,1,0,0:0:0:0:
448,192,200753,1,0,0:0:0:0:
64,192,200753,1,0,0:0:0:0:
192,192,200870,1,0,0:0:0:0:
64,192,200870,1,0,0:0:0:0:
320,192,200986,1,0,0:0:0:0:
448,192,200986,1,0,0:0:0:0:
64,192,200986,1,0,0:0:0:0:
192,192,201064,1,0,0:0:0:0:
64,192,201141,1,0,0:0:0:0:
320,192,201219,1,0,0:0:0:0:
448,192,201219,1,0,0:0:0:0:
320,192,201335,1,0,0:0:0:0:
192,192,201335,1,0,0:0:0:0:
448,192,201451,1,0,0:0:0:0:
320,192,201490,1,0,0:0:0:0:
192,192,201529,1,0,0:0:0:0:
64,192,201567,1,0,0:0:0:0:
320,192,201684,1,0,0:0:0:0:
448,192,201684,1,0,0:0:0:0:
192,192,201761,1,0,0:0:0:0:
320,192,201839,1,0,0:0:0:0:
448,192,201916,1,0,0:0:0:0:
64,192,201916,1,0,0:0:0:0:
192,192,201994,1,0,0:0:0:0:
320,192,202071,1,0,0:0:0:0:
192,192,202149,1,0,0:0:0:0:
64,192,202149,1,0,0:0:0:0:
320,192,202226,1,0,0:0:0:0:
448,192,202226,1,0,0:0:0:0:
192,192,202304,1,0,0:0:0:0:
64,192,202304,1,0,0:0:0:0:
320,192,202381,1,0,0:0:0:0:
448,192,202381,1,0,0:0:0:0:
64,192,202459,1,0,0:0:0:0:
320,192,202536,1,0,0:0:0:0:
192,192,202536,1,0,0:0:0:0:
448,192,202614,1,0,0:0:0:0:
64,192,202691,1,0,0:0:0:0:
192,192,202691,1,0,0:0:0:0:
448,192,202769,1,0,0:0:0:0:
320,192,202846,128,0,203079:0:0:0:0:
64,192,202846,1,0,0:0:0:0:
64,192,203079,128,0,203312:0:0:0:0:
320,192,203312,128,0,203544:0:0:0:0:
192,192,203544,128,0,203777:0:0:0:0:
448,192,203777,128,0,203951:0:0:0:0:
320,192,204242,128,0,204591:0:0:0:0:
192,192,204707,1,0,0:0:0:0:
64,192,204707,1,0,0:0:0:0:
448,192,204707,1,0,0:0:0:0:
320,192,204765,1,0,0:0:0:0:
64,192,204823,1,0,0:0:0:0:
448,192,204881,1,0,0:0:0:0:
192,192,204939,1,0,0:0:0:0:
320,192,204939,1,0,0:0:0:0:
64,192,204998,1,0,0:0:0:0:
448,192,205056,1,0,0:0:0:0:
192,192,205114,1,0,0:0:0:0:
448,192,205172,1,0,0:0:0:0:
320,192,205172,1,0,0:0:0:0:
64,192,205230,1,0,0:0:0:0:
192,192,205288,1,0,0:0:0:0:
320,192,205346,1,0,0:0:0:0:
448,192,205405,1,0,0:0:0:0:
64,192,205405,1,0,0:0:0:0:
192,192,205463,1,0,0:0:0:0:
64,192,205521,1,0,0:0:0:0:
320,192,205579,1,0,0:0:0:0:
448,192,205637,1,0,0:0:0:0:
64,192,205695,1,0,0:0:0:0:
192,192,205753,1,0,0:0:0:0:
448,192,205812,1,0,0:0:0:0:
320,192,205870,1,0,0:0:0:0:
64,192,205928,1,0,0:0:0:0:
192,192,205986,1,0,0:0:0:0:
320,192,206044,1,0,0:0:0:0:
448,192,206102,1,0,0:0:0:0:
64,192,206102,1,0,0:0:0:0:
192,192,206180,1,0,0:0:0:0:
448,192,206257,1,0,0:0:0:0:
192,192,206335,1,0,0:0:0:0:
320,192,206412,1,0,0:0:0:0:
192,192,206490,1,0,0:0:0:0:
64,192,206567,1,0,0:0:0:0:
448,192,206567,1,0,0:0:0:0:
320,192,206645,1,0,0:0:0:0:
192,192,206722,1,0,0:0:0:0:
320,192,206800,1,0,0:0:0:0:
64,192,206916,1,0,0:0:0:0:
448,192,206916,1,0,0:0:0:0:
448,192,207033,1,0,0:0:0:0:
64,192,207033,1,0,0:0:0:0:
320,192,207033,1,0,0:0:0:0:
192,192,207110,1,0,0:0:0:0:
448,192,207188,1,0,0:0:0:0:
64,192,207265,1,0,0:0:0:0:
192,192,207265,1,0,0:0:0:0:
320,192,207343,1,0,0:0:0:0:
64,192,207420,1,0,0:0:0:0:
448,192,207498,1,0,0:0:0:0:
192,192,207498,1,0,0:0:0:0:
320,192,207575,1,0,0:0:0:0:
192,192,207653,1,0,0:0:0:0:
448,192,207730,1,0,0:0:0:0:
64,192,207730,1,0,0:0:0:0:
320,192,207808,1,0,0:0:0:0:
64,192,207885,1,0,0:0:0:0:
192,192,207963,1,0,0:0:0:0:
448,192,207963,1,0,0:0:0:0:
320,192,207963,1,0,0:0:0:0:
320,192,208079,1,0,0:0:0:0:
448,192,208079,1,0,0:0:0:0:
64,192,208195,1,0,0:0:0:0:
320,192,208312,1,0,0:0:0:0:
448,192,208428,1,0,0:0:0:0:
64,192,208428,1,0,0:0:0:0:
192,192,208505,1,0,0:0:0:0:
320,192,208583,1,0,0:0:0:0:
448,192,208660,1,0,0:0:0:0:
64,192,208777,1,0,0:0:0:0:
192,192,208777,1,0,0:0:0:0:
64,192,208893,1,0,0:0:0:0:
448,192,208893,1,0,0:0:0:0:
192,192,208893,1,0,0:0:0:0:
320,192,208971,1,0,0:0:0:0:
64,192,209048,1,0,0:0:0:0:
448,192,209126,1,0,0:0:0:0:
320,192,209126,1,0,0:0:0:0:
192,192,209203,1,0,0:0:0:0:
448,192,209281,1,0,0:0:0:0:
64,192,209358,1,0,0:0:0:0:
192,192,209358,1,0,0:0:0:0:
448,192,209416,1,0,0:0:0:0:
320,192,209474,1,0,0:0:0:0:
192,192,209533,1,0,0:0:0:0:
64,192,209591,1,0,0:0:0:0:
448,192,209591,1,0,0:0:0:0:
320,192,209649,1,0,0:0:0:0:
192,192,209707,1,0,0:0:0:0:
448,192,209765,1,0,0:0:0:0:
64,192,209823,1,0,0:0:0:0:
320,192,209823,1,0,0:0:0:0:
448,192,209881,1,0,0:0:0:0:
192,192,209939,1,0,0:0:0:0:
320,192,209998,1,0,0:0:0:0:
64,192,210056,1,0,0:0:0:0:
192,192,210114,1,0,0:0:0:0:
448,192,210172,1,0,0:0:0:0:
320,192,210230,1,0,0:0:0:0:
64,192,210288,1,0,0:0:0:0:
192,192,210288,1,0,0:0:0:0:
448,192,210346,1,0,0:0:0:0:
320,192,210405,1,0,0:0:0:0:
192,192,210463,1,0,0:0:0:0:
448,192,210521,1,0,0:0:0:0:
320,192,210579,1,0,0:0:0:0:
64,192,210637,1,0,0:0:0:0:
192,192,210695,1,0,0:0:0:0:
448,192,210753,1,0,0:0:0:0:
320,192,210753,1,0,0:0:0:0:
64,192,210812,1,0,0:0:0:0:
192,192,210870,1,0,0:0:0:0:
448,192,210928,1,0,0:0:0:0:
320,192,210986,1,0,0:0:0:0:
64,192,210986,1,0,0:0:0:0:
192,192,211044,1,0,0:0:0:0:
448,192,211102,1,0,0:0:0:0:
64,192,211160,1,0,0:0:0:0:
320,192,211219,1,0,0:0:0:0:
448,192,211257,1,0,0:0:0:0:
192,192,211296,1,0,0:0:0:0:
64,192,211335,1,0,0:0:0:0:
320,192,211374,1,0,0:0:0:0:
448,192,211412,1,0,0:0:0:0:
192,192,211451,1,0,0:0:0:0:
64,192,211490,1,0,0:0:0:0:
448,192,211529,1,0,0:0:0:0:
320,192,211567,1,0,0:0:0:0:
192,192,211606,1,0,0:0:0:0:
64,192,211645,1,0,0:0:0:0:
448,192,211684,1,0,0:0:0:0:
320,192,211722,1,0,0:0:0:0:
64,192,211761,1,0,0:0:0:0:
192,192,211800,1,0,0:0:0:0:
320,192,211839,1,0,0:0:0:0:
448,192,211877,1,0,0:0:0:0:
192,192,211916,1,0,0:0:0:0:
64,192,211955,1,0,0:0:0:0:
448,192,211994,1,0,0:0:0:0:
320,192,212033,1,0,0:0:0:0:
64,192,212071,1,0,0:0:0:0:
192,192,212110,1,0,0:0:0:0:
320,192,212149,1,0,0:0:0:0:
448,192,212149,1,0,0:0:0:0:
64,192,212207,1,0,0:0:0:0:
192,192,212265,1,0,0:0:0:0:
448,192,212323,1,0,0:0:0:0:
320,192,212381,1,0,0:0:0:0:
64,192,212439,1,0,0:0:0:0:
448,192,212498,1,0,0:0:0:0:
192,192,212556,1,0,0:0:0:0:
64,192,212614,1,0,0:0:0:0:
448,192,212614,1,0,0:0:0:0:
320,192,212672,1,0,0:0:0:0:
64,192,212730,1,0,0:0:0:0:
192,192,212788,1,0,0:0:0:0:
448,192,212846,1,0,0:0:0:0:
320,192,212846,1,0,0:0:0:0:
64,192,212905,1,0,0:0:0:0:
320,192,212963,1,0,0:0:0:0:
448,192,213021,1,0,0:0:0:0:
64,192,213079,1,0,0:0:0:0:
192,192,213079,1,0,0:0:0:0:
320,192,213137,1,0,0:0:0:0:
192,192,213195,1,0,0:0:0:0:
64,192,213253,1,0,0:0:0:0:
448,192,213312,1,0,0:0:0:0:
320,192,213312,1,0,0:0:0:0:
192,192,213370,1,0,0:0:0:0:
448,192,213428,1,0,0:0:0:0:
320,192,213486,1,0,0:0:0:0:
192,192,213544,1,0,0:0:0:0:
64,192,213544,1,0,0:0:0:0:
192,192,213660,1,0,0:0:0:0:
448,192,213660,1,0,0:0:0:0:
320,192,213777,1,0,0:0:0:0:
448,192,213777,1,0,0:0:0:0:
320,192,213893,1,0,0:0:0:0:
64,192,213893,1,0,0:0:0:0:
192,192,214009,1,0,0:0:0:0:
64,192,214009,1,0,0:0:0:0:
320,192,214067,1,0,0:0:0:0:
448,192,214126,1,0,0:0:0:0:
64,192,214184,1,0,0:0:0:0:
192,192,214242,1,0,0:0:0:0:
448,192,214300,1,0,0:0:0:0:
320,192,214358,1,0,0:0:0:0:
192,192,214416,1,0,0:0:0:0:
64,192,214474,1,0,0:0:0:0:
448,192,214474,1,0,0:0:0:0:
320,192,214533,1,0,0:0:0:0:
448,192,214591,1,0,0:0:0:0:
192,192,214649,1,0,0:0:0:0:
64,192,214707,1,0,0:0:0:0:
320,192,214707,1,0,0:0:0:0:
448,192,214784,1,0,0:0:0:0:
192,192,214862,1,0,0:0:0:0:
320,192,214939,1,0,0:0:0:0:
448,192,214939,1,0,0:0:0:0:
64,192,215017,1,0,0:0:0:0:
320,192,215095,1,0,0:0:0:0:
64,192,215172,1,0,0:0:0:0:
192,192,215172,1,0,0:0:0:0:
448,192,215250,1,0,0:0:0:0:
192,192,215327,1,0,0:0:0:0:
448,192,215405,1,0,0:0:0:0:
64,192,215405,1,0,0:0:0:0:
320,192,215405,1,0,0:0:0:0:
192,192,215521,1,0,0:0:0:0:
64,192,215521,1,0,0:0:0:0:
448,192,215637,1,0,0:0:0:0:
320,192,215715,1,0,0:0:0:0:
64,192,215792,1,0,0:0:0:0:
192,192,215870,1,0,0:0:0:0:
448,192,215870,1,0,0:0:0:0:
320,192,215947,1,0,0:0:0:0:
192,192,216025,1,0,0:0:0:0:
448,192,216102,1,0,0:0:0:0:
320,192,216219,1,0,0:0:0:0:
64,192,216219,1,0,0:0:0:0:
64,192,216335,1,0,0:0:0:0:
192,192,216335,1,0,0:0:0:0:
448,192,216335,1,0,0:0:0:0:
320,192,216412,1,0,0:0:0:0:
64,192,216490,1,0,0:0:0:0:
320,192,216567,1,0,0:0:0:0:
448,192,216567,1,0,0:0:0:0:
192,192,216645,1,0,0:0:0:0:
448,192,216722,1,0,0:0:0:0:
320,192,216800,1,0,0:0:0:0:
64,192,216800,1,0,0:0:0:0:
192,192,216877,1,0,0:0:0:0:
448,192,216955,1,0,0:0:0:0:
320,192,217033,1,0,0:0:0:0:
64,192,217033,1,0,0:0:0:0:
448,192,217110,1,0,0:0:0:0:
192,192,217188,1,0,0:0:0:0:
320,192,217265,1,0,0:0:0:0:
64,192,217265,1,0,0:0:0:0:
448,192,217265,1,0,0:0:0:0:
192,192,217343,1,0,0:0:0:0:
320,192,217420,1,0,0:0:0:0:
64,192,217498,1,0,0:0:0:0:
448,192,217498,1,0,0:0:0:0:
192,192,217556,1,0,0:0:0:0:
320,192,217614,1,0,0:0:0:0:
448,192,217672,1,0,0:0:0:0:
64,192,217730,1,0,0:0:0:0:
192,192,217730,1,0,0:0:0:0:
320,192,217788,1,0,0:0:0:0:
448,192,217846,1,0,0:0:0:0:
192,192,217905,1,0,0:0:0:0:
320,192,217963,1,0,0:0:0:0:
448,192,217963,1,0,0:0:0:0:
64,192,218021,1,0,0:0:0:0:
192,192,218079,1,0,0:0:0:0:
448,192,218137,1,0,0:0:0:0:
320,192,218195,1,0,0:0:0:0:
64,192,218195,1,0,0:0:0:0:
192,192,218312,1,0,0:0:0:0:
64,192,218312,1,0,0:0:0:0:
192,192,218428,1,0,0:0:0:0:
448,192,218428,1,0,0:0:0:0:
320,192,218486,1,0,0:0:0:0:
64,192,218544,1,0,0:0:0:0:
192,192,218602,1,0,0:0:0:0:
320,192,218660,1,0,0:0:0:0:
448,192,218660,1,0,0:0:0:0:
192,192,218777,1,0,0:0:0:0:
64,192,218777,1,0,0:0:0:0:
320,192,218893,1,0,0:0:0:0:
192,192,218893,1,0,0:0:0:0:
320,192,219009,1,0,0:0:0:0:
448,192,219009,1,0,0:0:0:0:
192,192,219126,1,0,0:0:0:0:
64,192,219126,1,0,0:0:0:0:
320,192,219242,1,0,0:0:0:0:
448,192,219242,1,0,0:0:0:0:
192,192,219300,1,0,0:0:0:0:
64,192,219300,1,0,0:0:0:0:
320,192,219358,1,0,0:0:0:0:
448,192,219358,1,0,0:0:0:0:
192,192,219474,1,0,0:0:0:0:
64,192,219474,1,0,0:0:0:0:
320,192,219591,1,0,0:0:0:0:
448,192,219591,1,0,0:0:0:0:
64,192,219649,1,0,0:0:0:0:
192,192,219707,1,0,0:0:0:0:
320,192,219765,1,0,0:0:0:0:
448,192,219823,1,0,0:0:0:0:
192,192,219881,1,0,0:0:0:0:
320,192,219939,1,0,0:0:0:0:
64,192,219998,1,0,0:0:0:0:
448,192,220056,1,0,0:0:0:0:
320,192,220056,1,0,0:0:0:0:
192,192,220114,1,0,0:0:0:0:
64,192,220172,1,0,0:0:0:0:
320,192,220230,1,0,0:0:0:0:
448,192,220288,1,0,0:0:0:0:
192,192,220288,1,0,0:0:0:0:
64,192,220366,1,0,0:0:0:0:
320,192,220443,1,0,0:0:0:0:
192,192,220521,1,0,0:0:0:0:
64,192,220521,1,0,0:0:0:0:
448,192,220598,1,0,0:0:0:0:
192,192,220676,1,0,0:0:0:0:
448,192,220753,1,0,0:0:0:0:
320,192,220753,1,0,0:0:0:0:
64,192,220831,1,0,0:0:0:0:
320,192,220908,1,0,0:0:0:0:
448,192,220986,1,0,0:0:0:0:
64,192,220986,1,0,0:0:0:0:
320,192,221102,1,0,0:0:0:0:
448,192,221102,1,0,0:0:0:0:
64,192,221219,1,0,0:0:0:0:
192,192,221219,1,0,0:0:0:0:
448,192,221277,1,0,0:0:0:0:
320,192,221335,1,0,0:0:0:0:
192,192,221393,1,0,0:0:0:0:
64,192,221451,1,0,0:0:0:0:
448,192,221451,1,0,0:0:0:0:
320,192,221509,1,0,0:0:0:0:
448,192,221567,1,0,0:0:0:0:
192,192,221626,1,0,0:0:0:0:
320,192,221684,1,0,0:0:0:0:
64,192,221742,1,0,0:0:0:0:
192,192,221800,1,0,0:0:0:0:
448,192,221858,1,0,0:0:0:0:
192,192,221916,1,0,0:0:0:0:
320,192,221916,1,0,0:0:0:0:
64,192,221974,1,0,0:0:0:0:
448,192,222033,1,0,0:0:0:0:
320,192,222091,1,0,0:0:0:0:
64,192,222149,1,0,0:0:0:0:
192,192,222149,1,0,0:0:0:0:
448,192,222226,1,0,0:0:0:0:
192,192,222304,1,0,0:0:0:0:
64,192,222381,1,0,0:0:0:0:
448,192,222381,1,0,0:0:0:0:
320,192,222459,1,0,0:0:0:0:
192,192,222536,1,0,0:0:0:0:
320,192,222614,1,0,0:0:0:0:
448,192,222614,1,0,0:0:0:0:
64,192,222691,1,0,0:0:0:0:
192,192,222769,1,0,0:0:0:0:
64,192,222846,1,0,0:0:0:0:
320,192,222846,1,0,0:0:0:0:
448,192,222905,1,0,0:0:0:0:
192,192,222963,1,0,0:0:0:0:
64,192,222963,1,0,0:0:0:0:
320,192,223079,1,0,0:0:0:0:
448,192,223079,1,0,0:0:0:0:
320,192,223195,1,0,0:0:0:0:
192,192,223195,1,0,0:0:0:0:
192,192,223312,1,0,0:0:0:0:
64,192,223312,1,0,0:0:0:0:
448,192,223370,1,0,0:0:0:0:
320,192,223428,1,0,0:0:0:0:
64,192,223486,1,0,0:0:0:0:
192,192,223544,1,0,0:0:0:0:
320,192,223602,1,0,0:0:0:0:
448,192,223660,1,0,0:0:0:0:
64,192,223660,1,0,0:0:0:0:
64,192,223777,1,0,0:0:0:0:
320,192,223777,1,0,0:0:0:0:
448,192,223835,1,0,0:0:0:0:
192,192,223893,1,0,0:0:0:0:
64,192,224009,1,0,0:0:0:0:
448,192,224009,1,0,0:0:0:0:
320,192,224126,1,0,0:0:0:0:
192,192,224126,1,0,0:0:0:0:
448,192,224242,1,0,0:0:0:0:
64,192,224242,1,0,0:0:0:0:
320,192,224300,1,0,0:0:0:0:
192,192,224358,1,0,0:0:0:0:
64,192,224416,1,0,0:0:0:0:
320,192,224474,1,0,0:0:0:0:
448,192,224474,1,0,0:0:0:0:
192,192,224533,1,0,0:0:0:0:
448,192,224591,1,0,0:0:0:0:
64,192,224707,1,0,0:0:0:0:
192,192,224746,1,0,0:0:0:0:
448,192,224784,1,0,0:0:0:0:
320,192,224823,1,0,0:0:0:0:
192,192,224862,1,0,0:0:0:0:
320,192,224939,1,0,0:0:0:0:
448,192,224978,1,0,0:0:0:0:
192,192,225017,1,0,0:0:0:0:
64,192,225056,1,0,0:0:0:0:
320,192,225095,1,0,0:0:0:0:
448,192,225133,1,0,0:0:0:0:
64,192,225172,1,0,0:0:0:0:
192,192,225211,1,0,0:0:0:0:
448,192,225250,1,0,0:0:0:0:
320,192,225288,1,0,0:0:0:0:
192,192,225327,1,0,0:0:0:0:
64,192,225366,1,0,0:0:0:0:
448,192,225405,1,0,0:0:0:0:
320,192,225405,1,0,0:0:0:0:
192,192,225463,1,0,0:0:0:0:
64,192,225521,1,0,0:0:0:0:
320,192,225579,1,0,0:0:0:0:
448,192,225637,1,0,0:0:0:0:
192,192,225637,1,0,0:0:0:0:
64,192,225695,1,0,0:0:0:0:
320,192,225753,1,0,0:0:0:0:
448,192,225812,1,0,0:0:0:0:
192,192,225870,1,0,0:0:0:0:
64,192,225870,1,0,0:0:0:0:
448,192,225928,1,0,0:0:0:0:
320,192,225986,1,0,0:0:0:0:
192,192,226044,1,0,0:0:0:0:
64,192,226102,1,0,0:0:0:0:
320,192,226102,1,0,0:0:0:0:
448,192,226160,1,0,0:0:0:0:
192,192,226219,1,0,0:0:0:0:
448,192,226277,1,0,0:0:0:0:
64,192,226335,1,0,0:0:0:0:
320,192,226335,1,0,0:0:0:0:
192,192,226393,1,0,0:0:0:0:
448,192,226451,1,0,0:0:0:0:
320,192,226509,1,0,0:0:0:0:
64,192,226567,1,0,0:0:0:0:
192,192,226567,1,0,0:0:0:0:
448,192,226626,1,0,0:0:0:0:
320,192,226684,1,0,0:0:0:0:
192,192,226742,1,0,0:0:0:0:
320,192,226800,1,0,0:0:0:0:
448,192,226800,1,0,0:0:0:0:
64,192,226916,1,0,0:0:0:0:
192,192,226916,1,0,0:0:0:0:
192,192,227033,1,0,0:0:0:0:
448,192,227033,1,0,0:0:0:0:
64,192,227091,1,0,0:0:0:0:
320,192,227149,1,0,0:0:0:0:
192,192,227207,1,0,0:0:0:0:
448,192,227265,1,0,0:0:0:0:
320,192,227323,1,0,0:0:0:0:
64,192,227381,1,0,0:0:0:0:
192,192,227439,1,0,0:0:0:0:
64,192,227498,1,0,0:0:0:0:
448,192,227498,1,0,0:0:0:0:
320,192,227556,1,0,0:0:0:0:
192,192,227614,1,0,0:0:0:0:
448,192,227672,1,0,0:0:0:0:
320,192,227730,1,0,0:0:0:0:
64,192,227730,1,0,0:0:0:0:
448,192,227788,1,0,0:0:0:0:
192,192,227846,1,0,0:0:0:0:
320,192,227905,1,0,0:0:0:0:
64,192,227963,1,0,0:0:0:0:
448,192,227963,1,0,0:0:0:0:
192,192,228021,1,0,0:0:0:0:
320,192,228079,1,0,0:0:0:0:
448,192,228137,1,0,0:0:0:0:
64,192,228195,1,0,0:0:0:0:
192,192,228195,1,0,0:0:0:0:
320,192,228253,1,0,0:0:0:0:
64,192,228312,1,0,0:0:0:0:
192,192,228370,1,0,0:0:0:0:
320,192,228428,1,0,0:0:0:0:
448,192,228428,1,0,0:0:0:0:
64,192,228486,1,0,0:0:0:0:
320,192,228544,1,0,0:0:0:0:
192,192,228602,1,0,0:0:0:0:
448,192,228660,1,0,0:0:0:0:
320,192,228719,1,0,0:0:0:0:
192,192,228777,1,0,0:0:0:0:
448,192,228835,1,0,0:0:0:0:
192,192,228893,1,0,0:0:0:0:
64,192,228893,1,0,0:0:0:0:
320,192,228951,1,0,0:0:0:0:
64,192,229009,1,0,0:0:0:0:
448,192,229067,1,0,0:0:0:0:
320,192,229126,1,0,0:0:0:0:
448,192,229184,1,0,0:0:0:0:
192,192,229242,1,0,0:0:0:0:
320,192,229300,1,0,0:0:0:0:
64,192,229358,1,0,0:0:0:0:
192,192,229358,1,0,0:0:0:0:
448,192,229416,1,0,0:0:0:0:
320,192,229474,1,0,0:0:0:0:
192,192,229533,1,0,0:0:0:0:
448,192,229591,1,0,0:0:0:0:
320,192,229591,1,0,0:0:0:0:
64,192,229649,1,0,0:0:0:0:
192,192,229707,1,0,0:0:0:0:
320,192,229765,1,0,0:0:0:0:
192,192,229823,1,0,0:0:0:0:
64,192,229823,1,0,0:0:0:0:
448,192,229881,1,0,0:0:0:0:
320,192,229939,1,0,0:0:0:0:
192,192,229998,1,0,0:0:0:0:
448,192,230056,1,0,0:0:0:0:
64,192,230056,1,0,0:0:0:0:
320,192,230114,1,0,0:0:0:0:
448,192,230172,1,0,0:0:0:0:
192,192,230230,1,0,0:0:0:0:
320,192,230288,1,0,0:0:0:0:
64,192,230288,1,0,0:0:0:0:
192,192,230346,1,0,0:0:0:0:
448,192,230405,1,0,0:0:0:0:
320,192,230463,1,0,0:0:0:0:
64,192,230521,1,0,0:0:0:0:
192,192,230579,1,0,0:0:0:0:
64,192,230637,1,0,0:0:0:0:
320,192,230695,1,0,0:0:0:0:
192,192,230753,1,0,0:0:0:0:
448,192,230753,1,0,0:0:0:0:
64,192,230812,1,0,0:0:0:0:
448,192,230870,1,0,0:0:0:0:
320,192,230870,1,0,0:0:0:0:
192,192,230928,1,0,0:0:0:0:
320,192,230986,1,0,0:0:0:0:
448,192,231044,1,0,0:0:0:0:
64,192,231102,1,0,0:0:0:0:
192,192,231102,1,0,0:0:0:0:
320,192,231160,1,0,0:0:0:0:
64,192,231219,1,0,0:0:0:0:
448,192,231219,1,0,0:0:0:0:
192,192,231277,1,0,0:0:0:0:
320,192,231335,1,0,0:0:0:0:
448,192,231393,1,0,0:0:0:0:
64,192,231451,1,0,0:0:0:0:
192,192,231451,1,0,0:0:0:0:
320,192,231567,1,0,0:0:0:0:
64,192,231567,1,0,0:0:0:0:
192,192,231684,1,0,0:0:0:0:
448,192,231684,1,0,0:0:0:0:
320,192,231800,1,0,0:0:0:0:
448,192,231800,1,0,0:0:0:0:
192,192,231916,1,0,0:0:0:0:
64,192,231916,1,0,0:0:0:0:
192,192,232033,1,0,0:0:0:0:
64,192,232033,1,0,0:0:0:0:
320,192,232149,1,0,0:0:0:0:
448,192,232149,1,0,0:0:0:0:
192,192,232207,1,0,0:0:0:0:
64,192,232265,1,0,0:0:0:0:
192,192,232323,1,0,0:0:0:0:
320,192,232381,1,0,0:0:0:0:
448,192,232381,1,0,0:0:0:0:
320,192,232498,1,0,0:0:0:0:
448,192,232498,1,0,0:0:0:0:
64,192,232614,1,0,0:0:0:0:
448,192,232614,1,0,0:0:0:0:
192,192,232730,1,0,0:0:0:0:
64,192,232730,1,0,0:0:0:0:
320,192,232788,1,0,0:0:0:0:
448,192,232788,1,0,0:0:0:0:
64,192,232846,1,0,0:0:0:0:
192,192,232846,1,0,0:0:0:0:
320,192,232963,1,0,0:0:0:0:
448,192,232963,1,0,0:0:0:0:
448,192,233079,1,0,0:0:0:0:
192,192,233079,1,0,0:0:0:0:
64,192,233195,1,0,0:0:0:0:
320,192,233195,1,0,0:0:0:0:
192,192,233312,1,0,0:0:0:0:
64,192,233312,1,0,0:0:0:0:
448,192,233370,1,0,0:0:0:0:
320,192,233428,1,0,0:0:0:0:
448,192,233486,1,0,0:0:0:0:
64,192,233544,1,0,0:0:0:0:
192,192,233544,1,0,0:0:0:0:
320,192,233660,1,0,0:0:0:0:
448,192,233660,1,0,0:0:0:0:
448,192,233777,1,0,0:0:0:0:
192,192,233777,1,0,0:0:0:0:
64,192,233893,1,0,0:0:0:0:
320,192,233893,1,0,0:0:0:0:
192,192,234009,1,0,0:0:0:0:
64,192,234009,1,0,0:0:0:0:
320,192,234067,1,0,0:0:0:0:
448,192,234126,1,0,0:0:0:0:
320,192,234184,1,0,0:0:0:0:
192,192,234242,1,0,0:0:0:0:
64,192,234242,1,0,0:0:0:0:
64,192,234358,1,0,0:0:0:0:
448,192,234358,1,0,0:0:0:0:
448,192,234474,128,0,238195:0:0:0:0:
192,192,234474,1,0,0:0:0:0:
320,192,234474,1,0,0:0:0:0:
192,192,238195,1,0,0:0:0:0:
64,192,238637,1,0,0:0:0:0:
448,192,239078,1,0,0:0:0:0:
64,192,239519,1,0,0:0:0:0:
192,192,239960,1,0,0:0:0:0:
448,192,239960,1,0,0:0:0:0:
64,192,240401,1,0,0:0:0:0:
320,192,240843,1,0,0:0:0:0:
448,192,240953,1,0,0:0:0:0:
192,192,241063,1,0,0:0:0:0:
64,192,241284,1,0,0:0:0:0:
320,192,241504,128,0,241725:0:0:0:0:
192,192,241725,128,0,242166:0:0:0:0:
64,192,241725,1,0,0:0:0:0:
448,192,242166,1,0,0:0:0:0:
448,192,242387,128,0,242828:0:0:0:0:
320,192,242607,128,0,242828:0:0:0:0:
192,192,242828,1,0,0:0:0:0:
192,192,243048,128,0,243490:0:0:0:0:
320,192,243269,128,0,243490:0:0:0:0:
64,192,243490,1,0,0:0:0:0:
448,192,243490,1,0,0:0:0:0:
320,192,243931,1,0,0:0:0:0:
192,192,244372,1,0,0:0:0:0:
448,192,244372,128,0,244813:0:0:0:0:
64,192,244813,128,0,245254:0:0:0:0:
320,192,245254,128,0,245585:0:0:0:0:
448,192,245254,1,0,0:0:0:0:
448,192,246137,128,0,246468:0:0:0:0:
192,192,247019,128,0,247460:0:0:0:0:
448,192,247019,1,0,0:0:0:0:
64,192,247460,128,0,248343:0:0:0:0:
320,192,248343,128,0,248673:0:0:0:0:
