osu file format v14

[General]
AudioFilename: audio.mp3
AudioLeadIn: 0
PreviewTime: 177609
Countdown: 0
SampleSet: Soft
StackLeniency: 0.4
Mode: 0
LetterboxInBreaks: 0
EpilepsyWarning: 1
WidescreenStoryboard: 1

[Editor]
Bookmarks: 14935,37261,59586,74470,93074,115400,130284,145168,155400,177726,193540,204702,227028,238191
DistanceSpacing: 1
BeatDivisor: 8
GridSize: 32
TimelineZoom: 2.3

[Metadata]
Title:Kawaki wo Ameku
TitleUnicode:カワキヲアメク
Artist:Minami
ArtistUnicode:美波
Creator:Petal
Version:Keirelia's Extra
Source:ドメスティックな彼女
Tags:domestic girlfriend na kanojo opening op full version size dome kano domekano japanese anime matha saggin affirmation neoskylove pop jpop -mikan bazz_b pentori shurelia error- -keitaro uniform
BeatmapID:3096028
BeatmapSetID:1302370

[Difficulty]
HPDrainRate:5.3
CircleSize:4
OverallDifficulty:8.5
ApproachRate:9.3
SliderMultiplier:2.4
SliderTickRate:1

[Events]
//Background and Video events
0,0,"BG.jpg",0,0
Video,-480,"video.avi"
//Break Periods
2,85633,92520
//Storyboard Layer 0 (Background)
//Storyboard Layer 1 (Fail)
//Storyboard Layer 2 (Pass)
//Storyboard Layer 3 (Foreground)
//Storyboard Layer 4 (Overlay)
//Storyboard Sound Samples

[TimingPoints]
1511,437.956204379562,4,2,1,30,1,0
1511,-166.666666666667,4,2,1,30,0,0
5014,447.761194029851,4,2,1,30,1,0
5014,-166.666666666667,4,2,1,30,0,0
6357,409.556313993174,4,2,1,30,1,0
6766,447.761194029851,4,2,1,30,1,0
6766,-166.666666666667,4,2,1,30,0,0
7661,-250,4,2,1,30,0,0
8557,444.444444444444,4,2,1,30,1,0
8557,-250,4,2,1,30,0,0
10334,456.881781838949,4,2,1,30,1,0
10334,-500,4,2,1,30,0,0
13075,465.116279069767,4,2,3,40,1,0
14470,-83.3333333333333,4,2,1,40,0,0
14935,-125,4,2,1,55,0,0
15284,-125,4,2,1,55,0,0
20051,-100,4,2,1,55,0,0
21447,-100,4,2,3,55,0,0
21912,-83.3333333333333,4,2,1,55,0,0
22377,-125,4,2,1,50,0,0
23540,-125,4,2,3,50,0,0
36795,-125,4,2,1,50,0,0
37261,-100,4,2,1,60,0,0
48423,-83.3333333333333,4,2,1,60,0,0
49819,-125,4,2,1,60,0,0
50051,-83.3333333333333,4,2,1,60,0,0
50749,-66.6666666666667,4,2,1,60,0,0
51214,-100,4,2,1,60,0,0
52144,-83.3333333333333,4,2,1,60,0,0
55865,-58.8235294117647,4,2,1,65,0,0
57493,-55.5555555555556,4,2,1,65,0,0
58656,-400,4,2,3,65,0,0
59586,-62.5,4,2,2,75,0,1
59819,-62.5,4,2,1,75,0,1
60516,-76.9230769230769,4,2,1,75,0,1
61447,-62.5,4,2,1,75,0,1
62726,-76.9230769230769,4,2,1,75,0,1
63772,-66.6666666666667,4,2,1,75,0,1
64237,-76.9230769230769,4,2,1,75,0,1
64702,-66.6666666666667,4,2,1,75,0,1
65168,-76.9230769230769,4,2,1,75,0,1
67028,-62.5,4,2,1,75,0,1
67493,-76.9230769230769,4,2,1,75,0,1
67958,-100,4,2,1,75,0,1
68423,-66.6666666666667,4,2,1,75,0,1
68888,-76.9230769230769,4,2,1,75,0,1
69354,-66.6666666666667,4,2,1,75,0,1
69819,-76.9230769230769,4,2,1,75,0,1
70284,-66.6666666666667,4,2,1,75,0,1
70749,-76.9230769230769,4,2,1,75,0,1
71214,-71.4285714285714,4,2,1,75,0,1
71679,-66.6666666666667,4,2,1,75,0,1
72609,-45.4545454545455,4,2,1,75,0,1
73191,-45.4545454545455,4,2,1,75,0,0
73423,-100,4,2,1,75,0,0
74470,-62.5,4,2,2,75,0,1
74702,-62.5,4,2,1,75,0,1
74935,-76.9230769230769,4,2,1,75,0,1
78656,-400,4,2,1,75,0,1
78888,-76.9230769230769,4,2,1,75,0,1
80051,-66.6666666666667,4,2,1,75,0,1
80516,-76.9230769230769,4,2,1,75,0,1
81447,-58.8235294117647,4,2,1,75,0,1
82377,-76.9230769230769,4,2,1,75,0,1
83772,-500,4,2,1,75,0,0
84237,-500,4,2,1,40,0,0
85633,-500,4,2,4,60,0,0
93074,-142.857142857143,4,2,3,55,0,0
96563,-333.333333333334,4,2,3,55,0,0
96795,-125,4,2,3,55,0,0
97261,-100,4,2,1,55,0,0
100516,-125,4,2,5,55,0,0
100981,-100,4,2,5,55,0,0
101447,-100,4,2,5,55,0,0
101679,-125,4,2,5,55,0,0
102144,-100,4,2,5,55,0,0
104237,-125,4,2,5,55,0,0
104702,-100,4,2,5,55,0,0
105400,-125,4,2,5,55,0,0
105865,-100,4,2,5,55,0,0
106330,-125,4,2,5,55,0,0
106563,-100,4,2,5,55,0,0
107958,-125,4,2,5,55,0,0
109586,-100,4,2,5,55,0,0
111679,-125,4,2,5,55,0,0
112493,-100,4,2,5,55,0,0
112842,-125,4,2,5,55,0,0
113307,-100,4,2,5,55,0,0
115400,-100,4,2,5,55,0,0
122842,-166.666666666667,4,2,5,35,0,0
123772,-166.666666666667,4,2,5,35,0,0
124237,-125,4,2,5,35,0,0
124702,-166.666666666667,4,2,5,35,0,0
126563,-100,4,2,1,60,0,0
127493,-71.4285714285714,4,2,1,60,0,0
128191,-50,4,2,5,65,0,0
128656,-71.4285714285714,4,2,5,65,0,0
129819,-62.5,4,2,5,65,0,0
130284,-66.6666666666667,4,2,2,75,0,1
130400,-66.6666666666667,4,2,1,75,0,1
132144,-50,4,2,1,75,0,1
132609,-66.6666666666667,4,2,1,75,0,1
133772,-166.666666666667,4,2,1,75,0,1
134005,-66.6666666666667,4,2,1,75,0,1
135400,-166.666666666667,4,2,1,75,0,1
135865,-66.6666666666667,4,2,1,75,0,1
138423,-76.9230769230769,4,2,1,75,0,1
141679,-76.9230769230769,4,2,3,75,0,1
141912,-66.6666666666667,4,2,1,75,0,1
142144,-66.6666666666667,4,2,3,75,0,1
142609,-58.8235294117647,4,2,3,75,0,1
142842,-52.6315789473684,4,2,1,75,0,1
143074,-41.6666666666667,4,2,1,75,0,1
143888,-41.6666666666667,4,2,1,75,0,0
145168,-66.6666666666667,4,2,2,75,0,1
145400,-66.6666666666667,4,2,1,75,0,1
146098,-66.6666666666667,4,2,1,75,0,1
147958,-58.8235294117647,4,2,1,75,0,1
148191,-66.6666666666667,4,2,1,75,0,1
148888,-58.8235294117647,4,2,1,75,0,1
149121,-66.6666666666667,4,2,1,75,0,1
152086,-58.8235294117647,4,2,1,75,0,1
152609,-50,4,2,1,75,0,1
153074,-66.6666666666667,4,2,1,75,0,1
154470,-1000,4,2,1,60,0,0
155400,-1000,4,2,5,60,0,0
156330,-125,4,2,5,55,0,0
158423,-250,4,2,5,55,0,0
159121,-125,4,2,5,55,0,0
161214,-250,4,2,5,55,0,0
161795,-125,4,2,5,55,0,0
163307,-250,4,2,5,55,0,0
163772,-125,4,2,5,55,0,0
164935,-250,4,2,5,55,0,0
165400,-125,4,2,5,55,0,0
168656,-250,4,2,5,55,0,0
169354,-125,4,2,5,55,0,0
170284,-125,4,2,1,55,0,0
170981,-250,4,2,1,55,0,0
171214,-100,4,2,1,60,0,0
173074,-166.666666666667,4,2,1,55,0,0
173540,-100,4,2,1,60,0,0
175168,-500,4,2,1,55,0,0
176563,-500,4,2,3,55,0,0
176795,-500,4,2,1,60,0,0
177726,-1000,4,2,1,40,0,0
178656,-66.6666666666667,4,2,2,80,0,1
178947,-66.6666666666667,4,2,1,5,0,1
179005,-66.6666666666667,4,2,1,80,0,1
180807,-66.6666666666667,4,2,1,5,0,1
180865,-66.6666666666667,4,2,1,80,0,1
184005,-133.333333333333,4,2,1,80,0,1
184237,-66.6666666666667,4,2,1,80,0,1
184412,-66.6666666666667,4,2,1,5,0,1
184470,-50,4,2,1,80,0,1
184702,-66.6666666666667,4,2,1,80,0,1
185633,-43.4782608695652,4,2,1,80,0,1
186098,-66.6666666666667,4,2,1,80,0,1
187028,-100,4,2,1,80,0,1
187493,-200,4,2,1,80,0,1
187958,-66.6666666666667,4,2,1,80,0,1
189528,-66.6666666666667,4,2,1,5,0,1
189586,-66.6666666666667,4,2,1,80,0,1
189819,-100,4,2,3,80,0,1
190284,-80,4,2,1,80,0,1
190516,-80,4,2,3,80,0,1
190749,-66.6666666666667,4,2,3,80,0,1
191214,-66.6666666666667,4,2,1,80,0,1
191447,-50,4,2,1,80,0,1
192261,-66.6666666666667,4,2,1,80,0,0
193540,-45.4545454545455,4,2,2,80,0,1
193830,-45.4545454545455,4,2,1,5,0,1
193888,-45.4545454545455,4,2,1,80,0,1
194179,-45.4545454545455,4,2,1,5,0,1
194237,-66.6666666666667,4,2,1,80,0,1
195400,-55.5555555555556,4,2,1,80,0,1
196447,-66.6666666666667,4,2,1,80,0,1
196795,-62.5,4,2,1,80,0,1
196970,-62.5,4,2,1,5,0,1
197028,-62.5,4,2,1,80,0,1
197958,-66.6666666666667,4,2,1,80,0,1
199295,-66.6666666666667,4,2,1,5,0,1
199354,-66.6666666666667,4,2,1,80,0,1
200051,-55.5555555555556,4,2,1,80,0,1
200516,-45.4545454545455,4,2,1,80,0,1
200981,-66.6666666666667,4,2,1,80,0,1
202842,-500,4,2,1,80,0,0
203074,-500,4,2,1,55,0,0
204237,-200,4,2,1,40,0,0
204702,-62.5,4,2,2,75,0,1
204993,-62.5,4,2,1,5,0,1
205051,-62.5,4,2,1,75,0,1
205168,-83.3333333333333,4,2,1,75,0,1
205400,-66.6666666666667,4,2,1,75,0,1
206563,-50,4,2,1,75,0,1
207028,-66.6666666666667,4,2,1,75,0,1
207261,-52.6315789473684,4,2,1,75,0,1
207900,-52.6315789473684,4,2,1,5,0,1
207958,-66.6666666666667,4,2,1,75,0,1
208423,-50,4,2,1,75,0,1
208714,-50,4,2,1,5,0,1
208772,-50,4,2,1,75,0,1
209354,-45.4545454545455,4,2,1,75,0,1
210284,-40,4,2,1,75,0,1
210574,-40,4,2,1,5,0,1
210633,-40,4,2,1,75,0,1
212144,-50,4,2,1,75,0,1
212435,-50,4,2,1,5,0,1
212493,-50,4,2,1,75,0,1
212609,-66.6666666666667,4,2,1,75,0,1
212842,-58.8235294117647,4,2,1,75,0,1
213307,-66.6666666666667,4,2,1,75,0,1
214005,-58.8235294117647,4,2,1,75,0,1
214295,-58.8235294117647,4,2,1,5,0,1
214354,-58.8235294117647,4,2,1,75,0,1
214470,-100,4,2,1,75,0,1
214702,-66.6666666666667,4,2,1,75,0,1
216156,-66.6666666666667,4,2,1,5,0,1
216214,-66.6666666666667,4,2,1,75,0,1
217493,-58.8235294117647,4,2,1,75,0,1
217900,-58.8235294117647,4,2,1,5,0,1
217958,-100,4,2,1,75,0,1
218423,-66.6666666666667,4,2,1,75,0,1
219586,-58.8235294117647,4,2,1,75,0,1
220284,-66.6666666666667,4,2,1,75,0,1
221737,-66.6666666666667,4,2,1,5,0,1
221795,-66.6666666666667,4,2,1,75,0,1
222842,-133.333333333333,4,2,1,75,0,1
223074,-66.6666666666667,4,2,1,75,0,1
223772,-100,4,2,1,75,0,1
224005,-50,4,2,1,75,0,1
224702,-66.6666666666667,4,2,1,75,0,1
225400,-80,4,2,1,75,0,1
225865,-100,4,2,1,75,0,1
226563,-66.6666666666667,4,2,1,75,0,0
227028,-66.6666666666667,4,2,5,75,0,1
228888,-100,4,2,5,75,0,1
230749,-71.4285714285714,4,2,5,75,0,1
232609,-71.4285714285714,4,2,5,75,0,1
233074,-83.3333333333333,4,2,5,75,0,1
233540,-100,4,2,5,75,0,1
234470,-100,4,2,4,75,0,0
234586,-100,4,2,1,50,0,0
238074,-100,4,2,1,20,0,0
238191,434.782608695652,4,2,1,30,1,0
238191,-166.666666666667,4,2,1,30,0,0
239930,447.761194029851,4,2,1,30,1,0
239930,-166.666666666667,4,2,1,30,0,0
241721,441.176470588235,4,2,1,30,1,0
241721,-166.666666666667,4,2,1,30,0,0
243044,-333.333333333333,4,2,1,30,0,0
243485,433.212996389892,4,2,1,30,1,0
243485,-166.666666666667,4,2,1,30,0,0
245217,447.761194029851,4,2,1,25,1,0
245217,-250,4,2,1,25,0,0
247008,-500,4,2,1,25,0,0
247455,434.782608695652,4,2,1,17,1,0
248324,-1000,4,2,1,17,0,0
248541,-1000,4,2,1,5,0,0

[Colours]
Combo1 : 234,170,255
Combo2 : 255,43,43
Combo3 : 255,138,138
Combo4 : 156,179,219
Combo5 : 102,138,199
Combo6 : 191,191,191
Combo7 : 125,125,125
Combo8 : 237,255,106

[HitObjects]
70,139,1511,70,0,L|75:188,1,47.9999985351563,2|0,0:0|0:0,0:0:0:0:
84,259,1875,1,0,0:0:0:0:
70,139,3262,5,2,0:0:0:0:
84,259,3408,1,0,0:0:0:0:
70,139,5014,101,2,0:0:0:0:
76,201,5125,1,0,0:0:0:0:
84,259,5237,1,0,0:0:0:0:
84,259,7661,6,0,B|124:277|144:243|177:251,1,96,2|0,0:0|0:0,0:0:0:0:
196,345,8557,102,0,L|176:250,1,96,2|0,0:0|0:0,0:0:0:0:
278,346,9445,2,0,B|313:316|370:367|413:318,1,144
456,242,10334,2,0,P|438:198|426:152,1,96,2|0,0:0|0:0,0:0:0:0:
451,27,11476,1,0,0:0:0:0:
256,192,11590,12,4,14470,0:0:0:0:
451,27,14935,53,8,0:0:0:0:
216,98,15051,1,8,0:0:0:0:
197,93,15284,69,2,0:0:0:0:
179,86,15516,1,2,0:0:0:0:
161,78,15749,1,2,0:0:0:0:
143,69,15981,1,2,0:0:0:0:
126,59,16214,1,2,0:0:0:0:
110,48,16330,1,2,0:0:0:0:
96,34,16563,1,2,0:0:0:0:
77,31,16795,37,8,0:0:0:0:
187,306,16912,1,8,0:0:0:0:
212,318,17144,53,2,0:0:0:0:
240,323,17376,1,2,0:0:0:0:
268,321,17609,1,2,0:0:0:0:
296,319,17842,1,2,0:0:0:0:
324,314,18074,1,2,0:0:0:0:
351,306,18190,1,2,0:0:0:0:
376,292,18423,1,2,0:0:0:0:
398,274,18656,53,12,0:0:0:0:
140,15,18772,1,8,0:0:0:0:
134,62,19005,69,2,0:0:0:0:
128,109,19237,1,2,0:0:0:0:
119,156,19470,1,2,0:0:0:0:
111,203,19702,1,2,0:0:0:0:
105,250,19935,1,2,0:0:0:0:
97,291,20051,1,2,0:0:0:0:
91,338,20284,1,2,0:0:0:0:
257,29,20516,69,12,0:0:0:0:
257,29,20749,1,2,0:0:0:0:
257,29,21098,1,2,0:0:0:0:
257,29,21447,1,2,0:0:0:0:
257,29,21795,1,6,0:0:0:0:
257,29,22377,22,0,P|328:24|400:20,2,144,4|0|0,3:2|3:0|3:0,0:0:0:0:
65,270,23540,1,2,0:0:0:0:
83,274,23656,1,2,0:0:0:0:
102,276,23772,2,0,L|149:269,1,48,10|2,0:0|0:0,0:0:0:0:
224,202,24005,1,2,0:0:0:0:
262,205,24121,1,10,0:0:0:0:
299,211,24237,6,0,L|311:354,2,144,0|0|0,3:0|3:0|3:0,0:0:0:0:
493,349,25400,1,2,0:0:0:0:
424,240,25633,1,10,0:0:0:0:
419,221,25749,1,2,0:0:0:0:
432,207,25865,1,2,0:0:0:0:
449,215,25981,1,10,0:0:0:0:
444,233,26098,70,0,L|435:185,1,48,2|0,3:2|0:0,0:0:0:0:
358,138,26330,2,0,L|349:90,1,48,2|0,0:0|3:0,0:0:0:0:
260,3,26563,2,0,L|269:51,1,48,2|0,0:0|0:0,0:0:0:0:
201,157,26795,1,2,3:2:0:0:
180,129,26912,1,2,0:0:0:0:
161,101,27028,2,0,L|152:196,1,96,2|2,0:0|0:0,0:0:0:0:
74,161,27377,2,0,L|82:256,1,96,2|2,0:0|0:0,0:0:0:0:
86,282,27726,1,2,0:0:0:0:
174,296,27842,1,10,0:0:0:0:
261,310,27958,5,2,3:2:0:0:
233,225,28074,2,0,P|280:222|321:246,1,96,2|2,0:0|0:0,0:0:0:0:
374,314,28423,1,2,0:0:0:0:
425,294,28540,1,2,0:0:0:0:
474,274,28656,1,2,3:2:0:0:
482,220,28773,1,2,0:0:0:0:
477,168,28888,1,2,0:0:0:0:
470,114,29005,1,2,0:0:0:0:
463,61,29121,2,0,B|413:52|413:52|377:80,1,96,2|8,3:2|3:0,0:0:0:0:
351,71,29819,101,0,3:0:0:0:
247,87,30051,1,2,0:0:0:0:
151,43,30284,1,2,0:0:0:0:
246,250,30516,1,0,3:0:0:0:
246,250,30981,21,2,0:0:0:0:
244,269,31098,1,2,0:0:0:0:
241,287,31214,1,10,0:0:0:0:
239,306,31330,1,2,0:0:0:0:
236,325,31447,1,2,0:0:0:0:
114,154,31679,86,0,P|66:150|18:142,1,96,0|2,3:0|0:0,0:0:0:0:
186,80,32028,2,0,P|230:62|277:52,1,96,0|0,3:0|0:0,0:0:0:0:
112,20,32377,1,0,3:0:0:0:
252,136,32609,1,2,0:0:0:0:
403,24,32842,37,2,0:0:0:0:
421,21,32958,1,2,0:0:0:0:
436,32,33074,1,10,0:0:0:0:
437,51,33191,1,2,0:0:0:0:
422,63,33307,1,2,0:0:0:0:
486,312,33540,85,0,3:0:0:0:
409,180,33772,1,2,0:0:0:0:
324,319,34005,1,2,0:0:0:0:
324,319,34237,1,0,3:0:0:0:
324,319,34702,5,2,0:0:0:0:
306,310,34819,1,2,0:0:0:0:
289,301,34935,1,10,0:0:0:0:
272,291,35051,1,2,0:0:0:0:
253,285,35168,1,2,0:0:0:0:
185,317,35284,1,10,0:0:0:0:
115,352,35400,6,0,P|100:281|84:211,2,144,0|0|0,3:0|3:0|3:0,0:0:0:0:
195,239,36563,1,2,3:2:0:0:
192,219,36679,1,2,0:0:0:0:
187,200,36795,69,8,0:0:0:0:
235,196,36912,1,4,3:0:0:0:
282,191,37028,1,8,3:0:0:0:
328,189,37144,1,8,3:0:0:0:
386,185,37261,6,0,P|397:119|337:70,1,120,6|0,3:2|0:0,0:0:0:0:
287,80,37609,1,0,3:0:0:0:
363,69,37726,2,0,P|358:43|324:9,1,60,8|0,0:0|0:0,0:0:0:0:
167,69,37958,2,0,L|310:81,1,120,0|0,3:0|0:0,0:0:0:0:
286,79,38423,2,0,L|271:146,1,60,0|0,3:0|0:0,0:0:0:0:
229,208,38656,2,0,P|166:214|121:152,1,120,8|2,0:0|0:0,0:0:0:0:
0,358,39121,86,0,L|142:331,1,120,0|2,3:0|0:0,0:0:0:0:
195,305,39470,1,0,3:0:0:0:
135,340,39586,2,0,L|218:320,1,60,8|0,0:0|0:0,0:0:0:0:
279,284,39819,1,0,3:0:0:0:
223,339,39935,2,0,P|282:370|354:320,1,120,2|8,0:0|0:0,0:0:0:0:
358,269,40284,1,0,3:0:0:0:
502,137,40516,2,0,L|487:286,1,120,8|2,0:0|0:0,0:0:0:0:
489,256,40981,118,0,L|417:251,1,60,0|2,3:0|0:0,0:0:0:0:
413,170,41214,2,0,L|346:194,1,60,2|0,0:0|3:0,0:0:0:0:
288,135,41447,2,0,L|272:201,1,60,8|2,0:0|0:0,0:0:0:0:
208,229,41679,1,0,3:0:0:0:
208,229,41795,2,0,P|134:221|108:155,2,120,2|2|2,0:0|0:0|0:0,0:0:0:0:
273,193,42377,2,0,L|261:58,1,120,8|2,0:0|0:0,0:0:0:0:
205,25,42726,1,0,0:0:0:0:
140,67,42842,5,0,3:0:0:0:
140,67,42958,2,0,B|86:90|86:90|30:64,1,120,2|0,0:0|3:0,0:0:0:0:
30,64,43307,2,0,P|44:110|39:139,1,60,10|2,0:0|0:0,0:0:0:0:
105,169,43540,2,0,P|65:201|31:200,1,60,2|2,3:2|0:0,0:0:0:0:
4,274,43772,2,0,L|111:286,1,60,2|2,0:0|0:0,0:0:0:0:
112,347,44005,2,0,L|219:359,1,60,0|0,3:0|0:0,0:0:0:0:
267,216,44237,2,0,P|206:226|186:313,1,120,8|2,0:0|0:0,0:0:0:0:
183,279,44586,1,0,0:0:0:0:
312,384,44702,6,0,L|325:236,1,120,6|2,3:2|0:0,0:0:0:0:
267,216,45051,1,0,3:0:0:0:
353,261,45168,2,0,L|358:183,1,60,8|0,0:0|0:0,0:0:0:0:
292,61,45400,2,0,P|235:93|245:163,1,120,0|0,3:0|0:0,0:0:0:0:
231,142,45865,2,0,L|322:150,1,60,0|0,3:0|0:0,0:0:0:0:
374,0,46098,2,0,L|362:148,1,120,8|2,0:0|0:0,0:0:0:0:
426,160,46447,1,0,0:0:0:0:
426,160,46563,86,0,P|490:137|488:84,1,120,0|2,3:0|0:0,0:0:0:0:
363,118,46912,1,0,3:0:0:0:
426,160,47028,2,0,L|442:245,1,60,8|0,0:0|0:0,0:0:0:0:
507,250,47261,2,0,L|490:333,1,60,0|0,3:0|0:0,0:0:0:0:
377,253,47493,1,2,0:0:0:0:
350,251,47609,1,0,0:0:0:0:
323,260,47726,2,0,P|309:294|315:353,1,60,0|0,3:0|0:0,0:0:0:0:
361,368,47958,2,0,L|211:346,1,120,8|2,0:0|0:0,0:0:0:0:
10,374,48423,6,0,B|41:337|41:337|16:215,1,143.999995605469,0|0,3:0|0:0,0:0:0:0:
85,179,48772,1,0,3:0:0:0:
14,252,48888,2,0,L|-1:170,1,71.9999978027344,12|0,0:0|0:0,0:0:0:0:
18,44,49121,1,8,0:0:0:0:
69,19,49237,1,8,0:0:0:0:
112,67,49354,1,8,0:0:0:0:
153,49,49470,1,8,0:0:0:0:
172,61,49586,1,4,3:0:0:0:
189,57,49702,1,4,3:0:0:0:
198,62,49819,2,0,L|189:137,1,48,8|0,0:0|0:0,0:0:0:0:
113,168,50051,102,0,B|163:145|163:145|228:226|228:226|309:189,1,215.999993408203,6|0,3:2|0:0,0:0:0:0:
279,202,50516,1,0,3:0:0:0:
491,341,50749,6,0,L|291:319,1,180.000006866455,10|0,0:0|0:0,0:0:0:0:
312,321,51098,1,0,0:0:0:0:
312,321,51214,1,0,3:0:0:0:
507,263,51447,6,0,L|411:254,1,60,8|0,0:0|0:0,0:0:0:0:
224,380,51679,2,0,L|128:371,1,60,8|0,0:0|3:0,0:0:0:0:
116,313,51912,1,4,3:0:0:0:
113,297,52028,1,8,3:0:0:0:
77,380,52144,86,0,L|102:178,1,143.999995605469,6|0,3:2|0:0,0:0:0:0:
160,184,52493,1,0,3:0:0:0:
72,238,52609,2,0,L|84:153,1,71.9999978027344,8|0,0:0|0:0,0:0:0:0:
225,98,52842,2,0,L|213:13,1,71.9999978027344,2|0,0:0|0:0,0:0:0:0:
80,84,53074,53,2,0:0:0:0:
47,90,53191,1,2,0:0:0:0:
160,184,53307,101,2,3:2:0:0:
193,190,53424,1,2,0:0:0:0:
258,92,53540,5,8,0:0:0:0:
225,98,53657,1,0,3:0:0:0:
304,165,53772,101,2,0:0:0:0:
337,171,53889,1,0,0:0:0:0:
431,151,54005,86,0,L|439:56,1,71.9999978027344,4|0,3:0|0:0,0:0:0:0:
330,14,54237,1,2,0:0:0:0:
330,14,54354,1,0,3:0:0:0:
330,14,54470,2,0,P|372:74|480:48,1,143.999995605469,8|0,0:0|0:0,0:0:0:0:
469,11,54819,1,2,0:0:0:0:
444,8,54935,2,0,L|437:79,1,71.9999978027344,0|0,3:0|0:0,0:0:0:0:
405,227,55168,6,0,L|497:214,1,71.9999978027344,0|8,3:0|0:0,0:0:0:0:
266,346,55400,86,0,L|337:356,1,71.9999978027344,8|8,0:0|0:0,0:0:0:0:
156,110,55633,6,0,L|248:97,1,71.9999978027344,4|0,3:0|0:0,0:0:0:0:
80,313,55865,38,0,B|54:321|37:340|37:340|53:320|53:287,1,102.000001945496,14|0,3:2|0:0,0:0:0:0:
137,160,56098,2,0,B|152:137|155:112|155:112|153:138|173:164,1,102.000001945496,10|0,0:0|0:0,0:0:0:0:
182,317,56330,2,0,B|182:343|195:366|195:366|181:344|149:334,1,102.000001945496,10|0,0:0|0:0,0:0:0:0:
53,215,56563,2,0,B|36:193|13:183|13:183|37:192|68:181,1,102.000001945496,10|0,0:0|0:0,0:0:0:0:
216,222,56795,2,0,B|241:229|266:224|266:224|241:231|222:258,1,102.000001945496,10|0,0:0|0:0,0:0:0:0:
80,313,57028,53,0,3:2:0:0:
69,281,57105,1,0,3:2:0:0:
61,249,57183,1,0,3:2:0:0:
53,215,57260,1,8,0:0:0:0:
262,8,57493,102,2,P|222:123|182:350,1,323.999990112305,14|0,3:2|0:0,0:1:0:0:
259,375,57958,5,0,3:0:0:0:
298,366,58074,1,0,3:0:0:0:
366,304,58191,101,8,0:0:0:0:
327,295,58307,1,0,3:0:0:0:
306,218,58423,5,8,0:0:0:0:
306,218,58656,38,0,L|310:185,3,30,2|2|10|10,0:0|0:0|0:0|0:0,0:0:0:0:
37,141,59586,54,0,L|226:171,1,192,14|0,3:2|0:0,0:0:0:0:
29,297,59935,1,0,3:0:0:0:
29,297,60051,2,0,L|218:266,1,192,8|0,0:0|3:0,0:0:0:0:
377,333,60400,1,2,0:0:0:0:
378,333,60516,6,8,P|340:337|311:312,1,77.9999964294435,2|0,0:0|0:0,0:0:0:0:
451,254,60749,1,0,3:0:0:0:
444,218,60865,1,2,0:0:0:0:
438,187,60981,1,8,0:0:0:0:
431,155,61098,2,0,P|358:146|331:77,1,155.999992858887,2|0,0:0|0:0,0:0:0:0:
331,77,61447,6,0,L|139:88,1,192,2|0,3:2|0:0,0:0:0:0:
335,220,61796,1,0,3:0:0:0:
335,220,61912,2,0,L|143:208,1,192,8|0,0:0|3:0,0:0:0:0:
13,138,62261,1,2,0:0:0:0:
29,123,62377,1,2,0:0:0:0:
56,146,62493,1,10,0:0:0:0:
43,202,62609,1,0,3:0:0:0:
21,274,62726,2,0,P|10:311|3:349,1,77.9999964294435,2|8,0:0|0:0,0:0:0:0:
256,364,62958,1,2,0:0:0:0:
256,364,63307,5,0,3:0:0:0:
234,346,63423,1,2,0:0:0:0:
298,310,63540,1,2,0:0:0:0:
201,277,63656,1,0,3:0:0:0:
298,199,63772,2,0,L|211:173,1,90.0000034332277,8|0,0:0|0:0,0:0:0:0:
214,148,64005,1,0,3:0:0:0:
325,114,64121,1,2,0:0:0:0:
422,87,64237,2,0,L|498:70,1,77.9999964294435,2|0,0:0|0:0,0:0:0:0:
434,263,64470,2,0,L|450:339,1,77.9999964294435,0|0,3:0|0:0,0:0:0:0:
214,148,64702,70,0,B|116:144|43:183|43:183|6:269|58:308,1,315.000012016297,8|0,0:0|0:0,0:0:0:0:
67,308,65168,6,0,P|100:289|138:282,1,77.9999964294435,0|0,3:0|0:0,0:0:0:0:
203,228,65400,2,0,P|240:237|272:260,1,77.9999964294435,2|0,0:0|3:0,0:0:0:0:
453,370,65633,2,0,P|475:338|485:300,1,77.9999964294435,8|0,0:0|0:0,0:0:0:0:
386,296,65865,2,0,P|379:257|359:224,1,77.9999964294435,0|0,3:0|0:0,0:0:0:0:
227,337,66098,5,0,3:0:0:0:
227,337,66214,1,8,0:0:0:0:
123,201,66330,1,0,3:0:0:0:
123,201,66447,1,8,0:0:0:0:
250,93,66563,1,10,0:0:0:0:
250,93,66795,1,0,3:0:0:0:
323,162,66912,1,8,0:0:0:0:
323,162,66970,1,8,0:0:0:0:
323,162,67028,6,0,L|231:191,1,96,6|0,3:2|0:0,0:0:0:0:
250,93,67261,2,0,L|158:121,1,96,2|0,0:0|3:0,0:0:0:0:
359,255,67493,70,0,L|436:265,1,77.9999964294435,8|0,0:0|0:0,0:0:0:0:
388,341,67726,2,0,L|465:352,1,77.9999964294435,0|0,3:0|0:0,0:0:0:0:
191,309,67958,6,0,L|113:298,1,60,2|8,0:0|0:0,0:0:0:0:
169,229,68191,2,0,L|109:219,1,60,0|0,3:0|0:0,0:0:0:0:
484,361,68423,5,8,0:0:0:0:
484,361,68656,5,2,0:0:0:0:
401,362,68772,1,8,0:0:0:0:
322,361,68888,1,0,3:0:0:0:
329,368,69121,69,2,0:0:0:0:
329,368,69237,1,0,3:0:0:0:
329,368,69354,1,8,0:0:0:0:
329,368,69586,5,0,3:0:0:0:
237,368,69702,1,2,0:0:0:0:
142,368,69819,1,2,0:0:0:0:
142,368,70051,5,0,3:0:0:0:
102,158,70284,1,8,0:0:0:0:
335,42,70516,1,2,0:0:0:0:
346,53,70749,6,0,P|371:84|383:121,1,77.9999964294435,0|0,3:0|0:0,0:0:0:0:
384,136,70981,2,0,P|379:174|362:209,1,77.9999964294435,2|0,0:0|0:0,0:0:0:0:
229,319,71214,70,0,P|196:344|156:355,1,83.9999974365235,8|0,0:0|0:0,0:0:0:0:
136,356,71446,2,0,P|95:350|58:331,1,83.9999974365235,2|0,0:0|0:0,0:0:0:0:
60,27,71679,6,0,P|104:19|148:23,1,90.0000034332277,0|0,3:0|0:0,0:0:0:0:
165,31,71912,2,0,P|185:40|202:54,2,45.0000017166138,2|2|2,0:0|0:0|0:0,0:0:0:0:
26,230,72144,6,0,P|19:274|26:318,1,90.0000034332277,8|0,0:0|0:0,0:0:0:0:
296,272,72377,1,6,3:2:0:0:
60,27,72609,6,2,B|50:79|50:79|86:98|86:98|80:135,1,132.00000402832,2|0,0:0|0:0,0:1:0:0:
78,171,72842,1,0,3:0:0:0:
161,150,72958,1,0,3:0:0:0:
225,204,73074,1,8,0:0:0:0:
297,162,73191,1,0,3:0:0:0:
297,162,73423,69,8,0:0:0:0:
302,245,73540,1,0,3:0:0:0:
378,284,73656,2,0,L|383:313,2,30,8|8|8,0:0|0:0|0:0,0:0:0:0:
441,230,73888,5,8,0:0:0:0:
406,125,74005,1,0,3:0:0:0:
300,47,74121,2,0,L|311:19,2,30,8|8|8,0:0|0:0|0:0,0:0:0:0:
138,28,74354,1,4,3:0:0:0:
33,74,74470,6,0,B|-12:122|9:190|9:190|29:156|64:149,1,192,6|0,3:2|0:0,0:0:0:0:
158,249,74819,1,0,3:0:0:0:
158,264,74935,2,0,P|106:256|83:209,1,77.9999964294435,8|0,0:0|0:0,0:0:0:0:
156,177,75168,2,0,P|173:130|228:125,1,77.9999964294435,0|0,3:0|0:0,0:0:0:0:
320,273,75400,5,2,0:0:0:0:
246,237,75516,1,2,0:0:0:0:
246,237,75633,2,0,L|241:341,1,77.9999964294435,0|0,3:0|0:0,0:0:0:0:
415,120,75865,69,10,0:0:0:0:
489,84,75981,1,2,0:0:0:0:
489,84,76098,2,0,L|494:188,1,77.9999964294435,2|0,0:0|0:0,0:0:0:0:
433,222,76330,6,0,B|338:227|380:144|268:159,1,155.999992858887,0|2,3:0|0:0,0:0:0:0:
258,83,76679,1,0,3:0:0:0:
298,157,76795,2,0,P|333:124|334:81,1,77.9999964294435,8|0,0:0|0:0,0:0:0:0:
169,20,77028,5,0,3:0:0:0:
183,106,77144,1,2,0:0:0:0:
107,148,77261,1,2,0:0:0:0:
25,111,77377,2,0,B|-3:84|-3:84|132:66,1,155.999992858887,2|2,0:0|0:0,0:0:0:0:
183,106,77726,2,0,L|177:201,1,77.9999964294435,8|0,0:0|0:0,0:0:0:0:
45,373,77958,6,0,P|7:339|4:300,1,77.9999964294435,2|0,0:0|0:0,0:0:0:0:
155,303,78191,2,0,P|144:352|112:375,1,77.9999964294435,0|0,3:0|0:0,0:0:0:0:
40,243,78423,2,0,P|88:227|123:243,1,77.9999964294435,2|0,0:0|0:0,0:0:0:0:
244,366,78656,70,0,L|247:383,1,15,8|0,0:0|0:0,0:0:0:0:
440,230,78888,6,0,P|478:264|481:303,1,77.9999964294435,0|0,3:0|0:0,0:0:0:0:
330,300,79121,2,0,P|340:250|372:227,1,77.9999964294435,2|0,0:0|0:0,0:0:0:0:
445,360,79353,2,0,P|396:375|361:359,1,77.9999964294435,0|0,3:0|0:0,0:0:0:0:
233,253,79586,6,0,L|223:145,1,77.9999964294435,8|0,0:0|0:0,0:0:0:0:
292,91,79819,2,0,P|362:88|382:115,1,77.9999964294435,2|0,0:0|0:0,0:0:0:0:
225,175,80051,6,0,P|138:159|22:135,1,180.000006866455,0|0,3:0|0:0,0:0:0:0:
35,277,80400,1,0,3:0:0:0:
35,277,80516,2,0,P|49:279|94:221,1,77.9999964294435,8|0,0:0|0:0,0:0:0:0:
20,16,80749,69,0,3:0:0:0:
89,53,80865,1,0,3:0:0:0:
89,53,80981,2,0,B|146:45|146:45|169:6|169:6|236:-2,1,155.999992858887,2|0,0:0|3:0,0:0:0:0:
221,0,81330,1,0,0:0:0:0:
48,140,81447,6,0,P|142:148|294:167,1,204.000003890991,8|0,0:0|0:0,0:0:0:0:
250,160,81795,1,8,0:0:0:0:
143,382,81912,6,0,P|124:306|-21:291,1,204.000003890991,6|0,3:2|0:0,0:0:0:0:
13,271,82261,1,0,3:0:0:0:
143,382,82377,2,0,L|232:369,1,77.9999964294435,8|0,0:0|0:0,0:0:0:0:
286,307,82609,2,0,L|363:318,1,77.9999964294435,2|0,0:0|0:0,0:0:0:0:
484,376,82842,5,8,0:0:0:0:
472,343,82919,1,8,0:0:0:0:
449,322,82997,1,8,0:0:0:0:
456,290,83074,1,8,0:0:0:0:
476,261,83152,1,8,0:0:0:0:
464,228,83229,1,8,0:0:0:0:
433,213,83307,69,8,0:0:0:0:
481,145,83462,5,8,0:0:0:0:
436,68,83617,5,8,0:0:0:0:
478,4,83772,22,0,L|382:14,1,96,14|2,0:0|0:0,0:0:0:0:
61,97,93074,6,0,P|123:85|185:72,1,125.999996154785,10|0,0:0|0:0,0:0:0:0:
258,54,93540,1,0,3:0:0:0:
258,54,93772,1,2,0:0:0:0:
211,148,94005,2,0,P|200:210|192:272,1,125.999996154785,2|0,0:0|0:0,0:0:0:0:
185,348,94470,1,0,3:0:0:0:
185,348,94702,1,0,0:0:0:0:
227,349,94819,1,2,0:0:0:0:
268,348,94935,102,0,P|330:345|393:342,1,125.999996154785,2|0,0:0|0:0,0:0:0:0:
468,340,95400,1,0,3:0:0:0:
468,340,95633,1,0,0:0:0:0:
472,298,95749,1,0,0:0:0:0:
478,256,95865,1,2,0:0:0:0:
401,90,96098,1,2,0:0:0:0:
378,211,96330,1,0,3:0:0:0:
281,44,96563,2,0,L|280:61,1,17.9999994506836
248,200,96795,86,0,P|177:216|107:233,1,144,2|0,3:2|0:0,0:0:0:0:
76,301,97261,1,10,0:0:0:0:
199,338,97493,1,0,0:0:0:0:
68,166,97726,2,0,P|83:108|100:50,1,120,0|2,3:0|3:2,0:0:0:0:
7,376,98423,5,6,3:2:0:0:
76,301,98888,1,2,0:0:0:0:
127,352,99121,1,2,0:0:0:0:
199,338,99470,1,2,0:0:0:0:
265,371,99819,101,0,0:0:0:0:
293,361,99935,1,0,0:0:0:0:
322,355,100051,1,4,3:0:0:0:
144,246,100284,1,0,0:0:0:0:
172,235,100400,1,0,0:0:0:0:
203,225,100516,102,0,L|60:203,1,144,4|0,3:2|0:0,0:0:0:0:
150,140,100981,1,8,0:0:0:0:
11,25,101214,1,0,0:0:0:0:
50,26,101330,1,0,0:0:0:0:
31,57,101447,1,2,0:0:0:0:
240,22,101679,2,0,L|382:44,1,144,0|0,3:0|0:0,0:0:0:0:
382,44,102144,2,0,B|364:105|364:105|407:142|407:142|397:200,1,180,8|0,0:0|0:0,0:0:0:0:
325,174,102609,5,0,3:0:0:0:
452,83,102842,1,8,0:0:0:0:
474,347,103191,1,8,0:0:0:0:
474,347,103540,1,0,3:0:0:0:
419,248,103772,1,8,0:0:0:0:
474,347,104005,2,0,P|444:350|414:355,1,60
331,301,104237,6,0,P|259:297|187:296,1,144,0|0,3:0|0:0,0:0:0:0:
255,374,104702,1,8,0:0:0:0:
467,125,105051,1,8,0:0:0:0:
467,125,105400,2,0,P|400:104|362:45,1,144,0|0,3:0|0:0,0:0:0:0:
362,44,105865,86,0,L|347:224,1,180,8|8,0:0|0:0,0:0:0:0:
304,156,106330,1,2,0:0:0:0:
181,222,106563,1,8,0:0:0:0:
181,222,106912,1,8,0:0:0:0:
181,222,107261,1,8,0:0:0:0:
92,141,107493,1,8,0:0:0:0:
133,122,107609,1,8,0:0:0:0:
110,78,107726,1,2,0:0:0:0:
14,255,107958,6,0,L|108:236,1,96,6|0,3:2|0:0,0:0:0:0:
73,327,108307,1,0,3:0:0:0:
17,339,108423,1,8,0:0:0:0:
129,130,108656,2,0,L|108:36,1,96,2|2,0:0|0:0,0:0:0:0:
108,36,109121,2,0,L|14:57,1,96,0|0,3:0|0:0,0:0:0:0:
14,56,109586,2,0,L|40:172,1,120,8|0,0:0|0:0,0:0:0:0:
247,171,110051,5,0,3:0:0:0:
174,267,110284,1,8,0:0:0:0:
246,375,110516,1,2,0:0:0:0:
283,355,110633,1,8,0:0:0:0:
267,313,110749,1,0,0:0:0:0:
121,377,110981,1,0,3:0:0:0:
10,268,111214,1,8,0:0:0:0:
31,234,111330,1,8,0:0:0:0:
72,245,111447,1,2,0:0:0:0:
247,171,111679,86,0,L|337:202,1,96,0|2,3:0|0:0,0:0:0:0:
416,285,112028,1,0,0:0:0:0:
416,285,112144,2,0,P|409:332|407:380,1,96,8|2,0:0|0:0,0:0:0:0:
486,202,112493,2,0,P|472:144|460:85,1,120,8|0,0:0|0:0,0:0:0:0:
346,45,112842,2,0,P|379:79|389:126,1,96,0|0,3:0|0:0,0:0:0:0:
187,87,113307,2,0,P|246:82|299:107,1,120,8|0,0:0|0:0,0:0:0:0:
129,146,113772,1,0,3:0:0:0:
271,274,114005,2,0,P|257:216|227:165,1,120,8|2,0:0|0:0,0:0:0:0:
205,221,114354,1,8,0:0:0:0:
190,279,114470,1,2,0:0:0:0:
340,348,114702,5,0,3:0:0:0:
460,231,114935,1,8,0:0:0:0:
415,197,115051,1,8,0:0:0:0:
372,166,115168,1,8,3:0:0:0:
394,146,115284,1,0,3:0:0:0:
416,129,115400,6,0,L|441:317,1,180,4|0,3:2|3:0,0:0:0:0:
439,307,115865,2,0,P|509:305|542:240,1,120,8|2,0:0|0:0,0:0:0:0:
351,183,116330,1,2,0:0:0:0:
506,24,116563,1,0,3:0:0:0:
506,24,116795,2,0,P|493:113|389:110,1,180,8|0,0:0|0:0,0:0:0:0:
415,128,117261,86,0,L|400:2,1,120,0|0,3:0|0:0,0:0:0:0:
322,2,117609,1,0,3:0:0:0:
322,2,117726,2,0,L|335:134,1,120,8|0,0:0|0:0,0:0:0:0:
253,273,118191,1,2,0:0:0:0:
167,171,118423,2,0,P|139:159|82:162,1,60,0|0,3:0|0:0,0:0:0:0:
73,92,118656,2,0,L|65:212,1,120,8|2,0:0|0:0,0:0:0:0:
5,264,119005,1,8,0:0:0:0:
5,264,119121,6,0,B|91:258|91:258|122:366,1,180,0|0,3:0|3:0,0:0:0:0:
116,348,119586,2,0,L|30:356,1,60,8|0,0:0|0:0,0:0:0:0:
168,263,119819,1,2,0:0:0:0:
168,263,119935,2,0,L|368:288,1,180,8|0,0:0|3:0,0:0:0:0:
512,379,120516,2,0,L|375:367,1,120,8|0,0:0|0:0,0:0:0:0:
312,189,120981,2,0,P|377:194|385:329,1,180,0|0,3:0|0:0,0:0:0:0:
395,375,121447,2,0,B|340:348|340:348|332:269,1,120,8|8,0:0|3:0,0:0:0:0:
395,124,121795,1,8,0:0:0:0:
415,137,121912,21,8,0:0:0:0:
393,34,122067,5,8,0:0:0:0:
279,51,122222,101,4,3:0:0:0:
216,141,122377,5,4,3:0:0:0:
293,128,122532,101,8,3:0:0:0:
279,51,122687,5,8,3:0:0:0:
193,256,122842,70,0,P|242:270|280:351,2,143.999995605469,6|2|2,0:0|0:0|0:0,0:0:0:0:
125,318,124005,1,2,0:0:0:0:
208,350,124237,2,0,L|191:245,1,96,2|2,0:0|0:0,0:0:0:0:
172,233,124586,1,8,0:0:0:0:
172,233,124702,6,0,P|61:208|54:165,2,143.999995605469,10|2|2,0:0|0:0|0:0,0:0:0:0:
210,144,125865,1,2,0:0:0:0:
56,195,126098,1,2,0:0:0:0:
298,62,126330,1,2,0:0:0:0:
512,250,126563,6,0,B|524:282|524:282|499:308,1,60,14|0,0:0|0:0,0:0:0:0:
270,251,126795,2,0,B|258:219|258:219|283:193,1,60,10|0,0:0|0:0,0:0:0:0:
390,373,127028,2,0,B|358:385|358:385|332:360,1,60,10|0,0:0|0:0,0:0:0:0:
389,131,127260,2,0,B|421:119|421:119|447:144,1,60,10|0,0:0|0:0,0:0:0:0:
434,259,127493,6,0,L|354:236,1,83.9999974365235,10|0,0:0|0:0,0:0:0:0:
153,328,127726,1,0,3:0:0:0:
160,337,127803,1,0,3:0:0:0:
167,346,127881,1,0,3:0:0:0:
173,356,127958,2,0,L|182:206,1,83.9999974365235,8|0,0:0|0:0,0:0:0:0:
75,112,128191,54,2,B|31:61|-27:96|-35:188|34:220|112:186|111:104|165:81|280:138,1,360,14|0,3:2|0:0,0:1:0:0:
230,118,128656,102,0,L|244:249,1,83.9999974365235,8|0,0:0|0:0,0:0:0:0:
303,353,128888,5,0,3:0:0:0:
324,275,129005,1,0,3:0:0:0:
399,309,129121,101,8,0:0:0:0:
406,346,129237,1,0,3:0:0:0:
499,332,129354,21,8,0:0:0:0:
484,308,129431,1,8,0:0:0:0:
474,282,129509,1,8,0:0:0:0:
470,254,129586,1,8,0:0:0:0:
473,226,129664,1,8,0:0:0:0:
481,199,129741,1,8,0:0:0:0:
495,175,129819,5,8,0:0:0:0:
458,167,129896,1,8,0:0:0:0:
420,169,129974,1,4,3:0:0:0:
384,183,130051,1,4,3:0:0:0:
354,207,130129,1,8,3:0:0:0:
333,239,130206,1,8,3:0:0:0:
321,275,130284,1,14,3:2:0:0:
304,346,130400,70,0,P|296:303|258:280,1,90.0000034332277,2|2,0:0|0:0,0:0:0:0:
190,153,130633,1,0,3:0:0:0:
190,152,130749,2,0,P|164:189|165:233,1,90.0000034332277,10|0,0:0|0:0,0:0:0:0:
137,361,130981,1,2,3:2:0:0:
90,378,131098,1,2,0:0:0:0:
90,378,131214,2,0,P|75:291|12:228,1,180.000006866455,2|2,0:0|3:2,0:0:0:0:
81,82,131563,5,0,0:0:0:0:
60,72,131679,1,10,0:0:0:0:
85,44,131795,1,2,0:0:0:0:
162,32,131912,1,2,0:0:0:0:
261,73,132028,1,2,0:0:0:0:
254,154,132144,6,0,P|311:143|339:93,1,120,2|0,3:2|0:0,0:0:0:0:
439,13,132377,1,2,0:0:0:0:
467,38,132493,1,2,3:2:0:0:
439,109,132609,2,0,P|437:153|444:198,1,90.0000034332277,10|0,0:0|0:0,0:0:0:0:
441,354,132842,1,2,3:2:0:0:
473,344,132958,1,2,0:0:0:0:
396,283,133074,2,0,B|347:264|318:277|318:277|277:308|285:366,1,180.000006866455,2|2,0:0|3:2,0:0:0:0:
192,360,133423,5,0,0:0:0:0:
177,312,133540,1,10,0:0:0:0:
182,241,133656,1,2,0:0:0:0:
230,178,133772,1,2,0:0:0:0:
230,178,134005,70,0,L|141:164,1,90.0000034332277,2|0,3:2|0:0,0:0:0:0:
135,145,134237,2,0,L|47:159,1,90.0000034332277,2|0,0:0|0:0,0:0:0:0:
75,26,134470,1,10,0:0:0:0:
160,68,134586,1,2,0:0:0:0:
239,27,134702,6,0,L|325:51,1,90.0000034332277,2|2,3:2|0:0,0:0:0:0:
340,70,134935,2,0,L|426:45,1,90.0000034332277,2|10,0:0|0:0,0:0:0:0:
311,159,135168,1,2,3:2:0:0:
383,209,135284,1,2,0:0:0:0:
398,297,135400,1,8,0:0:0:0:
398,297,135865,22,0,L|308:306,1,90.0000034332277,2|0,3:2|0:0,0:0:0:0:
209,260,136098,2,0,L|119:250,1,90.0000034332277,2|0,0:0|3:0,0:0:0:0:
325,162,136330,1,10,0:0:0:0:
224,171,136447,1,2,0:0:0:0:
327,134,136563,2,0,L|411:165,1,90.0000034332277,2|10,3:2|0:0,0:0:0:0:
253,84,136795,102,0,L|221:0,1,90.0000034332277,2|0,0:0|0:0,0:0:0:0:
190,11,137028,2,0,L|105:42,1,90.0000034332277,2|0,3:2|0:0,0:0:0:0:
295,93,137261,86,0,L|263:8,1,90.0000034332277,10|0,0:0|0:0,0:0:0:0:
138,0,137494,2,0,L|53:31,1,90.0000034332277,2|8,0:0|0:0,0:0:0:0:
37,38,137668,1,0,0:0:0:0:
21,46,137726,6,0,P|76:110|43:189,1,180.000006866455,6|2,3:2|0:0,0:0:0:0:
1,279,138074,1,0,0:0:0:0:
96,303,138191,1,8,0:0:0:0:
96,303,138423,6,0,P|127:279|164:285,1,77.9999964294435,2|0,3:2|0:0,0:0:0:0:
264,353,138656,2,0,P|233:376|196:370,1,77.9999964294435,2|0,0:0|0:0,0:0:0:0:
259,237,138888,1,2,3:2:0:0:
259,237,139121,2,0,P|316:231|356:271,1,116.999994644165,8|0,0:0|0:0,0:0:0:0:
356,271,139354,86,0,P|353:232|350:193,1,77.9999964294435,2|0,3:2|0:0,0:0:0:0:
400,0,139586,2,0,P|396:38|394:77,1,77.9999964294435,2|0,3:2|0:0,0:0:0:0:
256,158,139819,1,2,0:0:0:0:
256,158,140051,2,0,P|200:169|147:147,1,116.999994644165,8|0,0:0|0:0,0:0:0:0:
147,147,140284,6,0,P|155:185|158:223,1,77.9999964294435,2|8,3:2|0:0,0:0:0:0:
27,289,140516,2,0,P|64:301|99:317,1,77.9999964294435,2|0,0:0|0:0,0:0:0:0:
9,91,140749,2,0,P|44:74|81:62,1,77.9999964294435,2|0,3:2|0:0,0:0:0:0:
337,23,140981,1,10,0:0:0:0:
218,65,141098,1,0,0:0:0:0:
341,47,141214,1,2,0:0:0:0:
221,92,141330,1,8,0:0:0:0:
381,111,141447,6,0,P|419:103|445:75,1,77.9999964294435,2|0,3:2|0:0,0:0:0:0:
445,75,141679,2,0,L|455:152,1,77.9999964294435,10|0,0:0|0:0,0:0:0:0:
389,319,141912,6,0,P|345:325|313:356,1,90.0000034332277,10|0,0:0|0:0,0:0:0:0:
313,357,142144,2,0,L|301:267,1,90.0000034332277,10|0,3:2|0:0,0:0:0:0:
216,70,142377,70,0,P|172:63|140:32,1,90.0000034332277,10|0,0:0|0:0,0:0:0:0:
140,32,142609,2,0,L|126:133,1,102.000001945496,2|2,0:0|0:0,0:0:0:0:
110,307,142842,1,10,0:0:0:0:
110,307,142900,1,8,0:0:0:0:
110,307,142958,1,0,3:0:0:0:
249,216,143074,1,14,0:0:0:0:
0,229,143307,6,2,B|89:269|89:269|171:197|171:197|249:216,1,287.999991210938,2|0,0:0|3:0,0:1:0:0:
325,242,143656,5,0,3:0:0:0:
384,284,143772,1,8,0:0:0:0:
442,242,143888,1,0,3:0:0:0:
420,173,144005,1,0,3:0:0:0:
348,173,144121,1,8,0:0:0:0:
484,134,144237,5,0,3:0:0:0:
459,65,144354,1,8,0:0:0:0:
453,51,144412,1,8,0:0:0:0:
448,37,144470,1,8,0:0:0:0:
376,26,144586,1,8,0:0:0:0:
305,39,144702,2,0,B|183:54|120:33|17:43,1,287.999991210938,0|8,3:0|0:0,0:0:0:0:
20,148,145051,1,8,0:0:0:0:
212,222,145168,70,0,P|167:131|80:163,1,180.000006866455,6|0,3:2|0:0,0:0:0:0:
70,216,145516,1,2,3:2:0:0:
70,216,145633,1,10,0:0:0:0:
122,276,145749,1,2,0:0:0:0:
30,324,145865,2,0,L|131:301,1,90.0000034332277,2|10,3:2|0:0,0:0:0:0:
262,352,146098,6,0,L|284:211,1,135.000005149841,2|0,0:0|0:0,0:0:0:0:
282,218,146330,2,0,P|314:251|388:245,1,90.0000034332277,2|0,3:2|0:0,0:0:0:0:
349,167,146563,1,8,0:0:0:0:
512,221,146679,5,2,0:0:0:0:
512,221,146795,2,0,L|403:203,1,90.0000034332277,2|10,0:0|0:0,0:0:0:0:
349,167,147028,2,0,L|328:9,1,135.000005149841,2|0,3:2|0:0,0:0:0:0:
331,33,147261,2,0,P|292:82|239:95,1,90.0000034332277,2|0,0:0|3:0,0:0:0:0:
245,5,147493,1,8,0:0:0:0:
97,61,147609,5,2,0:0:0:0:
97,61,147726,2,0,L|201:70,1,90.0000034332277,2|2,3:2|0:0,0:0:0:0:
245,5,147958,70,0,L|201:192,1,153.000002918243,2|0,0:0|0:0,0:0:0:0:
209,153,148191,2,0,P|144:143|103:172,1,90.0000034332277,2|0,3:2|0:0,0:0:0:0:
173,228,148423,1,8,0:0:0:0:
0,250,148540,5,2,0:0:0:0:
0,250,148656,2,0,L|96:228,1,90.0000034332277,2|10,0:0|0:0,0:0:0:0:
173,228,148888,2,0,L|156:384,1,153.000002918243,2|0,3:2|0:0,0:0:0:0:
156,380,149121,2,0,P|195:336|241:336,1,90.0000034332277,2|0,0:0|3:0,0:0:0:0:
322,361,149354,2,0,L|304:253,1,90.0000034332277,8|0,0:0|0:0,0:0:0:0:
457,170,149586,1,0,3:0:0:0:
497,245,149702,5,2,0:0:0:0:
497,245,149819,2,0,P|432:210|365:238,1,135.000005149841,2|0,0:0|0:0,0:0:0:0:
377,227,150051,2,0,P|330:269|284:265,1,90.0000034332277,2|0,3:2|0:0,0:0:0:0:
292,95,150284,2,0,L|305:190,1,90.0000034332277,8|0,0:0|0:0,0:0:0:0:
429,290,150516,2,0,L|416:385,1,90.0000034332277,2|8,3:2|0:0,0:0:0:0:
233,230,150749,6,0,P|177:228|139:110,1,180.000006866455,2|2,3:2|0:0,0:0:0:0:
3,263,151098,1,0,3:0:0:0:
3,263,151214,2,0,L|99:279,1,90.0000034332277,10|0,0:0|0:0,0:0:0:0:
208,147,151447,2,0,L|219:50,1,90.0000034332277,2|2,3:2|0:0,0:0:0:0:
11,0,151679,70,0,L|47:190,1,180.000006866455,2|0,0:0|3:0,0:0:0:0:
44,176,152028,1,2,0:0:0:0:
280,0,152144,6,0,P|240:43|92:18,1,204.000003890991,10|0,0:0|0:0,0:0:0:0:
105,32,152493,1,8,0:0:0:0:
321,110,152609,6,0,B|369:22|474:42|474:42|425:57|409:113,1,240,6|0,3:2|0:0,0:0:0:0:
480,201,152958,1,0,3:0:0:0:
480,201,153074,2,0,P|501:164|473:98,1,90.0000034332277,8|0,0:0|0:0,0:0:0:0:
321,110,153307,2,0,L|334:215,1,90.0000034332277,2|0,0:0|0:0,0:0:0:0:
473,374,153540,5,8,0:0:0:0:
459,335,153617,1,8,0:0:0:0:
431,311,153695,1,8,0:0:0:0:
402,303,153772,1,8,0:0:0:0:
372,307,153850,1,8,0:0:0:0:
353,321,153927,1,8,0:0:0:0:
342,342,154005,69,8,0:0:0:0:
266,377,154160,5,4,3:0:0:0:
210,317,154315,5,8,3:0:0:0:
137,366,154470,22,0,L|89:362,1,48,6|10,3:2|0:0,0:0:0:0:
89,362,156330,5,6,0:0:0:0:
161,286,156563,2,0,L|149:94,1,192,0|2,0:0|3:2,0:0:0:0:
19,195,157261,1,10,0:0:0:0:
280,170,157726,1,0,0:0:0:0:
276,78,157958,2,0,P|371:74|467:67,1,192,2|0,0:0|3:0,0:0:0:0:
471,268,158772,1,0,3:0:0:0:
466,294,158888,1,0,0:0:0:0:
338,186,159121,70,0,P|350:232|356:279,1,96,10|2,0:0|0:0,0:0:0:0:
204,240,159586,2,0,P|237:274|266:312,1,96,2|0,0:0|0:0,0:0:0:0:
124,330,160051,1,0,3:0:0:0:
7,203,160284,22,0,P|101:188|194:162,1,192,0|2,0:0|3:2,0:0:0:0:
144,131,160865,1,2,3:2:0:0:
144,130,160981,2,0,P|235:102|331:99,1,192,8|0,0:0|0:0,0:0:0:0:
472,274,161679,5,0,0:0:0:0:
447,251,161795,1,2,0:0:0:0:
447,210,161912,1,2,0:0:0:0:
356,358,162144,1,0,3:0:0:0:
356,358,162493,1,0,3:0:0:0:
356,358,162726,1,0,0:0:0:0:
307,282,162842,2,0,P|238:266|168:280,1,144,8|0,0:0|0:0,0:0:0:0:
95,328,163307,1,4,0:0:0:0:
95,328,163540,1,0,0:0:0:0:
55,253,163656,1,2,0:0:0:0:
48,165,163772,70,0,P|33:95|9:27,2,144,2|0|2,3:2|3:0|3:2,0:0:0:0:
87,178,164586,1,2,3:2:0:0:
134,188,164702,2,0,P|227:165|322:160,1,192,8|0,0:0|0:0,0:0:0:0:
512,235,165400,1,2,0:0:0:0:
470,8,165865,1,0,3:0:0:0:
470,8,166214,1,0,3:0:0:0:
470,8,166330,1,0,0:0:0:0:
428,38,166447,1,0,0:0:0:0:
381,45,166563,22,0,P|389:92|392:140,1,96,10|2,0:0|0:0,0:0:0:0:
257,313,167028,2,0,P|248:265|245:217,1,96,2|0,0:0|0:0,0:0:0:0:
281,0,167493,5,2,3:2:0:0:
190,78,167726,2,0,P|142:73|95:63,1,96
130,256,168191,1,2,3:2:0:0:
112,227,168307,1,2,3:2:0:0:
81,241,168423,1,10,0:0:0:0:
85,353,168656,1,2,0:0:0:0:
471,348,169121,1,2,0:0:0:0:
336,311,169354,69,2,0:0:0:0:
347,223,169586,2,0,P|418:230|490:236,2,144,0|0|8,3:0|3:0|0:0,0:0:0:0:
489,120,170516,2,0,L|441:114,1,48,2|0,0:0|0:0,0:0:0:0:
327,68,170749,2,0,L|280:78,1,48,8|8,0:0|0:0,0:0:0:0:
201,171,170981,1,8,3:0:0:0:
153,184,171098,1,4,3:0:0:0:
105,198,171214,6,0,P|113:257|119:317,1,120,6|0,3:2|0:0,0:0:0:0:
135,355,171563,1,0,3:0:0:0:
179,355,171679,1,10,0:0:0:0:
18,209,171912,1,0,3:0:0:0:
0,178,172028,1,0,3:0:0:0:
21,142,172144,1,0,3:0:0:0:
169,21,172377,1,0,3:0:0:0:
229,81,172609,2,0,P|288:74|348:66,1,120,8|0,0:0|0:0,0:0:0:0:
366,65,173074,86,0,P|363:100|367:136,1,71.9999978027344,0|0,3:0|3:0,0:0:0:0:
398,162,173423,1,0,3:0:0:0:
433,179,173540,2,0,P|419:237|409:296,1,120,8|0,0:0|3:0,0:0:0:0:
430,328,173888,1,0,3:0:0:0:
474,325,174005,1,2,0:0:0:0:
320,259,174237,1,0,3:0:0:0:
232,305,174470,1,8,0:0:0:0:
179,384,174702,1,0,3:0:0:0:
179,384,174935,101,8,0:0:0:0:
15,178,175051,1,8,0:0:0:0:
15,178,175633,1,8,0:0:0:0:
256,38,175749,1,8,0:0:0:0:
256,38,176563,69,2,0:0:0:0:
260,42,176679,1,2,0:0:0:0:
256,38,176795,37,10,0:0:0:0:
140,102,176950,1,10,0:0:0:0:
140,237,177106,1,10,0:0:0:0:
370,102,177261,1,10,0:0:0:0:
370,237,177416,1,10,0:0:0:0:
256,303,177571,1,10,0:0:0:0:
256,38,177726,54,2,L|255:14,1,24,2|2,0:0|0:0,0:1:0:0:
255,14,178656,54,0,P|229:65|112:50,1,180.000006866455,14|0,3:2|0:0,0:1:0:0:
26,170,179005,1,0,3:0:0:0:
26,170,179121,2,0,P|39:112|47:176,1,180.000006866455,8|0,0:0|3:0,0:0:0:0:
94,248,179470,1,2,0:0:0:0:
94,248,179586,2,0,P|59:259|-9:247,1,90.0000034332277,2|0,0:0|0:0,0:0:0:0:
0,34,179819,1,0,3:0:0:0:
0,34,179935,2,0,P|35:23|103:35,1,90.0000034332277,2|8,0:0|0:0,0:0:0:0:
158,88,180168,2,0,L|148:212,1,90.0000034332277,2|0,0:0|0:0,0:0:0:0:
237,370,180400,5,0,0:0:0:0:
237,370,180516,2,0,B|301:380|339:316|339:316|315:337|278:332,1,180.000006866455,2|0,3:2|0:0,0:0:0:0:
252,184,180865,1,0,3:0:0:0:
252,184,180981,2,0,P|279:199|283:254,1,90.0000034332277,8|0,0:0|0:0,0:0:0:0:
416,378,181214,2,0,L|428:253,1,90.0000034332277,0|2,3:0|0:0,0:0:0:0:
427,132,181447,5,2,0:0:0:0:
389,197,181563,1,8,0:0:0:0:
351,129,181679,1,2,3:2:0:0:
467,204,181795,2,0,P|487:174|537:139,1,90.0000034332277,2|8,0:0|0:0,0:0:0:0:
422,20,182028,2,0,L|386:210,1,180.000006866455,2|0,0:0|0:0,0:0:0:0:
252,184,182377,85,2,3:2:0:0:
222,103,182493,1,2,0:0:0:0:
259,177,182609,21,2,0:0:0:0:
276,44,182726,1,2,3:2:0:0:
148,133,182842,6,0,P|103:145|69:44,1,180.000006866455,10|2,0:0|3:2,0:0:0:0:
138,9,183191,1,2,0:0:0:0:
138,9,183307,2,0,P|124:35|58:36,1,90.0000034332277,2|0,0:0|0:0,0:0:0:0:
50,200,183540,2,0,P|15:162|14:117,1,90.0000034332277,2|0,3:2|0:0,0:0:0:0:
173,213,183772,86,0,L|154:317,1,90.0000034332277,10|0,0:0|0:0,0:0:0:0:
82,384,184005,6,0,L|75:313,1,45.0000017166138,2|0,3:2|0:0,0:0:0:0:
77,339,184237,86,0,B|156:332|123:405|240:378,1,135.000005149841,2|0,3:2|0:0,0:0:0:0:
347,377,184470,6,0,P|314:292|223:305,1,180,2|0,0:0|0:0,0:0:0:0:
274,357,184702,6,0,L|281:265,1,90.0000034332277,10|0,0:0|0:0,0:0:0:0:
332,163,184935,85,2,3:2:0:0:
383,220,185051,1,2,0:0:0:0:
426,124,185168,5,2,0:0:0:0:
391,226,185284,1,8,0:0:0:0:
510,171,185400,5,0,3:0:0:0:
398,233,185516,1,8,0:3:0:0:
368,42,185633,86,0,B|396:17|405:-9|405:-9|415:17|440:47|440:47|378:38|285:63,1,276.000005264282,10|2,0:0|0:0,0:0:0:0:
223,16,185981,1,8,0:0:0:0:
212,276,186098,6,0,P|231:193|225:80,1,180.000006866455,6|2,3:2|0:0,0:0:0:0:
74,230,186447,1,0,3:0:0:0:
74,230,186563,2,0,P|128:206|144:154,1,90.0000034332277,10|0,0:0|0:0,0:0:0:0:
1,97,186795,2,0,P|33:142|87:144,1,90.0000034332277,2|0,3:2|0:0,0:0:0:0:
133,63,187028,22,0,L|57:74,1,60,2|0,0:0|0:0,0:0:0:0:
200,189,187261,2,0,L|132:179,1,60,2|0,3:2|0:0,0:0:0:0:
6,384,187493,86,0,L|13:320,1,60,8|2,0:0|0:0,0:0:0:0:
12,324,187842,1,0,0:0:0:0:
12,324,187958,2,0,B|112:309|89:376|187:351,1,180.000006866455,2|2,3:2|0:0,0:0:0:0:
195,204,188307,1,0,3:0:0:0:
195,204,188423,2,0,P|165:228|156:285,1,90.0000034332277,8|0,0:0|0:0,0:0:0:0:
406,312,188656,102,0,L|309:292,1,90.0000034332277,2|2,3:2|0:0,0:0:0:0:
350,141,188888,2,0,L|381:235,1,90.0000034332277,2|0,0:0|0:0,0:0:0:0:
230,275,189121,2,0,L|295:200,1,90.0000034332277,2|0,3:2|0:0,0:0:0:0:
494,136,189354,22,0,P|492:173|339:189,1,180.000006866455,8|2,0:0|0:0,0:0:0:0:
278,40,189702,5,0,0:0:0:0:
278,40,189819,2,0,L|272:106,1,60,2|0,3:2|0:0,0:0:0:0:
203,27,190051,2,0,L|197:93,1,60,2|0,3:2|0:0,0:0:0:0:
27,139,190284,86,0,L|34:218,1,75,10|0,0:0|0:0,0:0:0:0:
107,128,190516,2,0,L|114:207,1,75,2|0,3:2|0:0,0:0:0:0:
260,372,190749,102,0,L|366:327,1,90.0000034332277,10|0,3:2|0:0,0:0:0:0:
207,232,190981,2,0,L|192:346,1,90.0000034332277,10|0,3:2|0:0,0:0:0:0:
368,250,191214,2,0,L|276:180,1,90.0000034332277,10|0,0:0|0:0,0:0:0:0:
260,372,191447,6,2,P|273:188|225:3,1,360,6|0,3:2|0:0,0:1:0:0:
231,18,191912,1,0,3:0:0:0:
174,89,192028,1,0,3:0:0:0:
321,26,192144,1,8,0:0:0:0:
98,6,192261,102,0,P|141:62|153:183,1,180.000006866455,0|8,3:0|0:0,0:0:0:0:
92,215,192609,5,0,3:0:0:0:
23,276,192726,1,8,0:0:0:0:
24,284,192784,1,8,0:0:0:0:
25,294,192842,1,8,0:0:0:0:
70,366,192958,1,8,0:0:0:0:
155,348,193074,1,0,3:0:0:0:
177,266,193191,1,8,0:0:0:0:
176,256,193249,1,8,0:0:0:0:
175,248,193307,1,8,0:0:0:0:
92,215,193423,1,8,0:0:0:0:
163,146,193540,102,0,P|228:136|293:125,1,132.00000402832,6|0,3:2|0:0,0:0:0:0:
391,27,193772,1,0,0:0:0:0:
414,29,193888,1,2,3:2:0:0:
433,30,194005,2,0,P|415:93|400:157,1,132.00000402832,14|0,0:0|0:0,0:0:0:0:
279,321,194237,2,0,L|296:232,1,90.0000034332277,2|0,3:2|0:0,0:0:0:0:
467,194,194470,1,2,3:2:0:0:
420,312,194586,1,10,0:0:0:0:
420,312,194644,1,8,0:0:0:0:
420,312,194702,1,2,3:2:0:0:
362,361,194819,1,0,0:0:0:0:
240,350,194935,1,10,0:0:0:0:
166,352,195051,1,2,0:0:0:0:
95,369,195168,1,2,0:0:0:0:
20,20,195400,38,0,P|118:53|145:153,1,215.999993408203,2|0,3:2|0:0,0:0:0:0:
31,218,195749,1,2,3:2:0:0:
31,218,195865,2,0,L|51:111,1,107.999996704102,10|0,0:0|0:0,0:0:0:0:
163,237,196098,1,2,3:2:0:0:
237,272,196214,1,10,0:0:0:0:
313,230,196330,1,2,0:0:0:0:
396,261,196447,2,0,P|404:217|409:172,1,90.0000034332277,2|0,0:0|3:0,0:0:0:0:
460,0,196679,1,2,0:0:0:0:
455,13,196795,2,0,P|408:21|361:26,1,96,10|0,0:0|0:0,0:0:0:0:
113,49,197028,2,0,P|65:44|18:35,1,96,2|0,0:0|0:0,0:0:0:0:
255,146,197261,102,0,P|300:130|345:113,1,96,2|0,3:2|0:0,0:0:0:0:
112,269,197493,2,0,P|69:247|29:221,1,96,2|0,0:0|0:0,0:0:0:0:
242,372,197726,1,8,0:0:0:0:
251,359,197958,86,0,P|262:315|274:272,1,90.0000034332277,2|0,3:2|0:0,0:0:0:0:
351,54,198191,2,0,P|363:97|374:140,1,90.0000034332277,2|0,0:0|0:0,0:0:0:0:
501,359,198423,2,0,P|499:315|492:270,1,90.0000034332277,2|0,3:2|0:0,0:0:0:0:
453,77,198656,1,8,0:0:0:0:
452,53,198888,6,0,P|404:44|363:35,1,90.0000034332277,2|0,0:0|0:0,0:0:0:0:
281,73,199121,2,0,P|236:82|192:90,1,90.0000034332277,2|0,3:2|0:0,0:0:0:0:
340,188,199354,6,0,P|292:179|251:170,1,90.0000034332277,2|0,0:0|3:0,0:0:0:0:
169,208,199587,2,0,P|124:217|80:225,1,90.0000034332277,10|0,0:0|0:0,0:0:0:0:
240,265,199819,2,0,L|274:348,1,90.0000034332277,2|0,3:2|0:0,0:0:0:0:
30,340,200051,2,0,P|54:235|68:128,1,215.999993408203,2|0,0:0|3:0,0:0:0:0:
56,113,200400,1,2,0:0:0:0:
165,24,200516,2,0,B|242:51|347:22|427:40,1,264.000008056641,10|0,0:0|0:0,0:0:0:0:
477,170,200865,1,8,0:0:0:0:
477,170,200923,1,8,0:0:0:0:
477,170,200981,6,0,P|432:167|387:163,1,90.0000034332277,6|0,3:2|0:0,0:0:0:0:
290,272,201214,1,0,0:0:0:0:
229,314,201330,1,0,3:0:0:0:
154,307,201447,2,0,P|159:262|162:218,1,90.0000034332277,8|0,0:0|0:0,0:0:0:0:
108,151,201679,2,0,P|103:106|99:61,1,90.0000034332277,2|0,0:0|0:0,0:0:0:0:
177,11,201912,1,8,0:0:0:0:
234,80,202028,1,8,0:0:0:0:
234,80,202086,1,8,0:0:0:0:
234,80,202144,1,8,0:0:0:0:
252,161,202261,1,8,0:0:0:0:
251,244,202377,69,8,0:0:0:0:
295,319,202532,1,8,0:0:0:0:
376,349,202687,1,8,0:0:0:0:
460,350,202842,54,0,P|456:302|454:254,1,96,14|2,3:2|0:0,0:0:0:0:
454,254,204237,6,0,P|483:235|452:245,1,90,2|2,0:0|0:0,0:0:0:0:
339,281,204702,6,2,P|436:231|400:90,1,192,6|0,3:2|0:0,0:1:0:0:
407,81,205051,1,0,3:0:0:0:
262,158,205168,6,0,P|323:202|362:177,1,107.999996704102,10|0,0:0|0:0,0:0:0:0:
321,102,205400,6,2,B|178:118|256:247|97:253,1,270.000010299683,0|0,3:0|0:0,0:1:0:0:
37,298,205865,2,0,B|20:249|20:249|45:199,1,90.0000034332277,0|0,3:0|0:0,0:0:0:0:
145,19,206098,6,2,P|159:99|70:24,1,270.000010299683,8|0,0:0|0:0,0:1:0:0:
150,15,206563,70,2,P|126:109|114:277,1,240,2|0,3:2|0:0,0:1:0:0:
119,338,206912,1,0,3:0:0:0:
282,329,207028,6,0,B|248:298|194:291|194:291|228:307|244:330,1,135.000005149841,8|0,0:0|0:0,0:0:0:0:
333,384,207261,2,0,P|352:232|477:92,1,341.999990867615,2|8,3:1|0:0,0:0:0:0:
490,173,207726,2,0,P|425:167|394:103,1,113.999996955872,0|0,3:0|0:0,0:0:0:0:
295,58,207958,5,2,1:0:0:0:
386,37,208074,2,0,B|296:49|339:128|230:120,1,180.000006866455,0|8,3:0|0:0,0:0:0:0:
90,98,208423,6,2,B|60:81|19:86|19:86|33:14|83:-9|152:8|186:55|193:111|162:168|96:190|96:190|39:211|5:245|1:311|26:362|86:388|139:367|161:318,1,720.000027465821,0|0,3:0|3:0,0:1:0:0:
412,213,209354,70,2,B|442:173|489:183|558:214|554:321|479:374|409:330|409:330|325:271|276:248|248:272|181:335|226:394|317:436|412:405|386:240|298:184,1,792.000024169923,2|0,0:0|0:0,0:1:0:0:
14,22,210284,6,2,B|10:86|-13:126|-13:126|107:-15|211:32|211:32|310:92|277:198|285:282|70:383|-27:158|116:100|175:127,1,900,0|0,3:0|3:0,0:1:0:0:
459,104,211214,6,2,B|480:76|514:55|514:55|420:-15|339:34|332:171|443:196|443:196|548:228|554:359|458:393|380:377|364:332|356:242|356:242|349:322|291:370|266:366,1,900,2|8,0:0|0:0,0:1:0:0:
41,351,212144,6,2,P|4:266|106:319,1,240,6|0,3:2|0:0,0:1:0:0:
194,226,212493,1,0,3:0:0:0:
210,384,212609,2,0,P|177:334|187:297,1,90.0000034332277,8|0,0:0|0:0,0:0:0:0:
282,151,212842,2,0,P|244:206|228:77,1,306.000005836487,0|0,3:0|0:0,0:0:0:0:
341,0,213307,2,0,L|325:122,1,90.0000034332277,0|0,3:0|0:0,0:0:0:0:
358,169,213540,69,2,1:0:0:0:
408,105,213656,1,2,0:0:0:0:
353,176,213772,5,2,0:0:0:0:
285,51,213888,1,2,1:0:0:0:
445,190,214005,6,2,P|381:203|334:330,1,204.000003890991,0|0,3:0|0:0,0:1:0:0:
391,376,214354,1,0,3:0:0:0:
512,279,214470,6,0,L|435:290,1,60,8|0,0:0|0:0,0:0:0:0:
271,381,214702,2,0,L|160:364,1,90.0000034332277,2|8,3:1|0:0,0:0:0:0:
0,241,214935,70,0,P|54:261|69:320,1,90.0000034332277,0|8,0:0|0:0,0:0:0:0:
182,367,215168,2,0,P|160:313|194:262,1,90.0000034332277,0|0,3:0|0:0,0:0:0:0:
120,209,215400,5,2,1:0:0:0:
170,285,215516,2,0,P|204:225|158:124,1,180.000006866455,0|8,3:0|0:0,0:0:0:0:
25,65,215865,6,2,P|14:128|166:118,1,270.000010299683,6|0,3:2|3:0,0:1:0:0:
253,0,216330,2,0,P|224:32|227:84,1,90.0000034332277,8|0,0:0|0:0,0:0:0:0:
288,221,216563,2,0,P|274:179|228:156,1,90.0000034332277,0|0,3:0|0:0,0:0:0:0:
163,128,216795,5,2,0:0:0:0:
299,95,216912,1,2,0:0:0:0:
154,130,217028,2,0,L|145:224,1,90.0000034332277,0|0,3:0|0:0,0:0:0:0:
259,333,217261,2,0,P|222:285|175:285,1,90.0000034332277,8|0,0:0|0:0,0:0:0:0:
5,300,217493,70,2,B|36:336|34:378|34:378|101:332|108:244|14:198,1,306.000005836487,2|0,0:0|0:0,0:1:0:0:
11,26,217958,2,2,L|21:86,1,60,2|0,0:0|3:0,0:1:0:0:
20,201,218191,1,10,0:0:0:0:
101,69,218307,1,2,0:0:0:0:
154,130,218423,2,0,B|109:154|109:154|54:140,1,90.0000034332277,8|8,0:0|0:0,0:0:0:0:
101,69,218656,5,0,3:0:0:0:
191,50,218772,1,8,0:0:0:0:
191,50,218830,1,8,0:0:0:0:
191,50,218888,1,8,0:0:0:0:
244,119,219005,1,8,0:0:0:0:
204,201,219121,1,0,3:0:0:0:
243,284,219237,1,8,0:0:0:0:
243,284,219295,1,8,0:0:0:0:
243,284,219354,1,8,0:0:0:0:
219,367,219470,1,8,0:0:0:0:
303,344,219586,6,2,P|171:332|97:299,1,204.000003890991,6|0,3:2|0:0,0:1:0:0:
51,237,219935,1,0,3:0:0:0:
65,384,220051,2,0,P|105:353|88:280,1,102.000001945496,8|0,0:0|0:0,0:0:0:0:
0,172,220284,6,2,P|54:202|179:76,1,270.000010299683,0|0,3:0|0:0,0:1:0:0:
79,0,220749,2,0,L|93:104,1,90.0000034332277,0|2,3:0|0:0,0:0:0:0:
323,111,220981,69,8,0:0:0:0:
344,28,221098,2,0,B|237:22|282:101|170:77,1,180.000006866455,0|8,3:0|0:0,0:0:0:0:
91,89,221447,6,2,P|155:99|229:212,1,180.000006866455,0|0,3:0|0:0,0:1:0:0:
176,268,221795,1,0,3:0:0:0:
355,280,221912,2,0,L|239:260,1,90.0000034332277,8|0,0:0|0:0,0:0:0:0:
100,373,222144,6,2,P|186:341|176:268,1,180.000006866455,0|0,3:0|0:0,0:1:0:0:
0,185,222609,1,0,3:0:0:0:
69,272,222842,6,2,P|66:239|54:221,1,45.0000017166138,10|0,0:0|3:0,0:1:0:0:
0,185,223074,2,2,P|88:212|0:109,1,360.000013732911,2|0,0:0|0:0,0:1:0:0:
308,167,223772,70,2,P|291:201|289:225,1,60,10|0,0:0|0:0,0:1:0:0:
336,284,224005,2,2,B|303:194|197:209|118:274|165:386|238:422|317:366|317:366|359:338|423:396,1,480,2|0,3:2|3:0,0:1:0:0:
512,141,224702,6,2,L|404:124,1,90.0000034332277,10|0,0:0|3:0,0:1:0:0:
232,71,224935,6,2,P|279:9|277:123,1,270.000010299683,2|0,0:0|0:0,0:1:0:0:
202,175,225400,6,2,P|161:129|157:227,1,225,2|0,0:0|0:0,0:1:0:0:
260,286,225865,70,2,P|310:250|267:295,1,180,0|0,3:0|0:0,0:1:0:0:
183,301,226330,6,2,L|191:381,1,60,0|0,3:0|0:0,0:1:0:0:
188,360,226563,6,2,P|57:360|43:222,1,270.000010299683,8|8,0:0|0:0,0:1:0:0:
64,62,227028,6,0,P|47:37|30:12,5,60.0000022888184,2|2|2|2|2|2,3:2|0:0|0:0|0:0|0:0|0:0,0:0:0:0:
125,135,227493,1,10,0:0:0:0:
148,128,227571,1,2,0:0:0:0:
171,123,227648,1,2,0:0:0:0:
194,119,227726,1,4,3:0:0:0:
217,115,227803,1,2,0:0:0:0:
240,111,227881,1,2,0:0:0:0:
263,107,227958,6,0,L|307:146,5,60.0000022888184,2|2|2|4|2|2,0:0|0:0|0:0|3:0|0:0|0:0,0:0:0:0:
320,21,228423,1,10,0:0:0:0:
343,28,228501,1,2,0:0:0:0:
366,33,228578,1,2,0:0:0:0:
389,37,228656,1,2,0:0:0:0:
412,41,228733,1,2,0:0:0:0:
435,45,228811,1,2,0:0:0:0:
450,46,228888,6,0,L|486:29,5,40,14|2|2|2|2|2,3:0|0:0|0:0|0:0|0:0|0:0,0:0:0:0:
438,175,229353,1,10,0:0:0:0:
438,199,229431,1,2,0:0:0:0:
439,222,229508,1,2,0:0:0:0:
439,246,229586,1,4,3:0:0:0:
440,269,229663,1,2,0:0:0:0:
440,293,229741,1,2,0:0:0:0:
440,317,229819,38,0,L|468:344,5,40,2|2|2|4|2|2,0:0|0:0|0:0|3:0|0:0|0:0,0:0:0:0:
338,366,230284,1,10,0:0:0:0:
315,358,230362,1,2,0:0:0:0:
292,351,230439,1,2,0:0:0:0:
268,344,230517,1,2,0:0:0:0:
245,335,230594,1,2,0:0:0:0:
222,327,230672,1,2,0:0:0:0:
192,360,230749,21,6,3:2:0:0:
151,342,230826,1,2,0:0:0:0:
128,302,230904,1,2,0:0:0:0:
128,257,230981,1,10,0:0:0:0:
154,220,231059,1,2,0:0:0:0:
196,205,231137,1,2,0:0:0:0:
225,171,231214,21,10,0:0:0:0:
224,125,231292,1,2,0:0:0:0:
200,87,231369,1,2,0:0:0:0:
156,76,231447,1,10,0:0:0:0:
113,87,231524,1,2,0:0:0:0:
89,125,231602,1,2,0:0:0:0:
133,121,231679,85,2,3:2:0:0:
177,112,231757,1,2,0:0:0:0:
221,109,231834,1,2,0:0:0:0:
266,107,231912,1,2,3:2:0:0:
310,103,231989,1,2,0:0:0:0:
354,98,232067,1,2,0:0:0:0:
327,134,232144,5,10,0:0:0:0:
331,178,232222,1,2,0:0:0:0:
371,197,232299,1,2,0:0:0:0:
413,181,232377,1,10,0:0:0:0:
422,137,232454,1,2,0:0:0:0:
399,98,232532,1,2,0:0:0:0:
448,72,232609,5,6,3:2:0:0:
497,98,232687,1,2,0:0:0:0:
503,153,232764,1,2,0:0:0:0:
480,204,232842,1,10,0:0:0:0:
441,244,232919,1,2,0:0:0:0:
384,246,232997,1,2,0:0:0:0:
340,225,233074,1,2,3:2:0:0:
310,186,233152,1,2,0:0:0:0:
278,149,233230,1,2,0:0:0:0:
241,117,233307,1,2,3:2:0:0:
205,84,233385,1,2,0:0:0:0:
157,79,233462,1,2,0:0:0:0:
119,94,233540,1,2,3:2:0:0:
87,118,233617,1,2,0:0:0:0:
71,155,233695,1,2,0:0:0:0:
67,194,233772,1,10,3:2:0:0:
76,233,233850,1,2,0:0:0:0:
99,264,233927,1,2,0:0:0:0:
132,286,234005,1,10,3:2:0:0:
171,291,234082,1,2,0:0:0:0:
209,279,234160,1,2,0:0:0:0:
244,261,234237,1,6,3:2:0:0:
270,231,234315,1,2,0:0:0:0:
284,194,234392,1,2,0:0:0:0:
275,154,234470,1,6,3:2:0:0:
256,192,234586,12,0,238074,0:0:0:0:
43,353,238191,21,2,0:0:0:0:
107,302,238408,2,0,P|78:236|62:166,1,143.999995605469
43,353,239060,1,2,0:0:0:0:
149,371,239930,5,2,0:0:0:0:
212,319,240153,2,0,P|184:254|167:184,1,143.999995605469
149,371,240825,1,0,0:0:0:0:
295,362,241497,101,0,0:0:0:0:
358,292,241721,2,0,P|423:263|493:247,1,143.999995605469,2|0,0:0|0:0,0:0:0:0:
267,228,242382,2,0,P|196:239|124:236,1,143.999995605469,2|0,0:0|0:0,0:0:0:0:
356,166,243044,2,0,P|373:165|391:161,1,35.9999989013672,2|0,0:0|0:0,0:0:0:0:
257,99,243485,5,2,0:0:0:0:
187,79,243918,1,0,0:0:0:0:
119,57,244351,1,2,0:0:0:0:
50,77,244784,1,2,0:0:0:0:
62,146,245217,102,0,B|80:184|57:208|72:240,1,96,2|0,0:0|0:0,0:0:0:0:
220,207,246112,2,0,B|238:245|215:269|230:301,1,96,2|0,0:0|0:0,0:0:0:0:
370,158,247008,6,0,B|378:176|370:189|374:205,1,48,2|2,0:0|0:0,0:0:0:0:
490,355,248324,2,0,P|490:362|489:367,1,12,2|0,0:0|0:0,0:0:0:0:
