osu file format v14

[General]
AudioFilename: audio.mp3
AudioLeadIn: 0
PreviewTime: 59520
Countdown: 0
SampleSet: Soft
StackLeniency: 0.2
Mode: 0
LetterboxInBreaks: 0
WidescreenStoryboard: 1

[Editor]
Bookmarks: 29190
DistanceSpacing: 1.2
BeatDivisor: 4
GridSize: 16
TimelineZoom: 1

[Metadata]
Title:Kawaki wo Ameku
TitleUnicode:カワキヲアメク
Artist:Minami
ArtistUnicode:美波
Creator:PRIIDS
Version:ok kore wa SUGOI epikku
Source:ドメスティックな彼女
Tags:
BeatmapID:1987638
BeatmapSetID:951807

[Difficulty]
HPDrainRate:3
CircleSize:4
OverallDifficulty:6
ApproachRate:9
SliderMultiplier:1.4
SliderTickRate:1

[Events]
//Background and Video events
0,0,"amzing.jpg",0,0
//Break Periods
//Storyboard Layer 0 (Background)
//Storyboard Layer 1 (Fail)
//Storyboard Layer 2 (Pass)
//Storyboard Layer 3 (Foreground)
//Storyboard Sound Samples

[TimingPoints]
15800,465.116279069767,4,2,0,60,1,0
60451,-100,4,2,0,60,0,1
86497,-100,4,2,0,60,0,0

[HitObjects]
120,107,15800,5,0,0:0:0:0:
120,107,15916,1,0,0:0:0:0:
266,314,16148,1,0,0:0:0:0:
378,181,16381,1,0,0:0:0:0:
132,201,16613,1,0,0:0:0:0:
245,68,16846,1,0,0:0:0:0:
132,201,17079,1,0,0:0:0:0:
48,210,17195,1,0,0:0:0:0:
378,180,17427,1,0,0:0:0:0:
217,337,17660,5,0,0:0:0:0:
256,192,17776,1,0,0:0:0:0:
110,153,18009,1,0,0:0:0:0:
256,192,18241,1,0,0:0:0:0:
294,46,18474,1,0,0:0:0:0:
256,192,18706,1,0,0:0:0:0:
401,230,18939,1,0,0:0:0:0:
256,192,19055,1,0,0:0:0:0:
483,41,19288,1,0,0:0:0:0:
286,342,19520,5,0,0:0:0:0:
143,266,19637,1,0,0:0:0:0:
331,85,19869,1,0,0:0:0:0:
143,266,20102,1,0,0:0:0:0:
401,230,20334,1,0,0:0:0:0:
171,107,20567,1,0,0:0:0:0:
331,85,20799,1,0,0:0:0:0:
401,230,20916,1,0,0:0:0:0:
171,107,21148,1,0,0:0:0:0:
224,278,21381,5,0,0:0:0:0:
169,160,21497,1,0,0:0:0:0:
287,105,21613,1,0,0:0:0:0:
342,223,21729,1,0,0:0:0:0:
256,192,21962,5,0,0:0:0:0:
133,264,22311,5,0,0:0:0:0:
379,120,22660,1,0,0:0:0:0:
197,250,23009,5,0,0:0:0:0:
234,111,23241,1,0,0:0:0:0:
458,128,23590,1,0,0:0:0:0:
234,111,23939,1,0,0:0:0:0:
451,267,24404,5,0,0:0:0:0:
431,168,24520,1,0,0:0:0:0:
355,231,24636,1,0,0:0:0:0:
474,265,24753,5,0,0:0:0:0:
419,153,24869,1,0,0:0:0:0:
347,252,24985,1,0,0:0:0:0:
272,346,25102,5,0,0:0:0:0:
217,42,25451,1,0,0:0:0:0:
268,211,25799,1,0,0:0:0:0:
405,70,26265,5,0,0:0:0:0:
360,127,26381,1,0,0:0:0:0:
405,185,26497,1,0,0:0:0:0:
259,115,26613,5,0,0:0:0:0:
303,57,26729,1,0,0:0:0:0:
259,0,26845,1,0,0:0:0:0:
206,176,26962,5,0,0:0:0:0:
223,326,27195,1,0,0:0:0:0:
312,201,27427,1,0,0:0:0:0:
223,326,27660,1,0,0:0:0:0:
214,247,27776,1,0,0:0:0:0:
206,176,27893,1,0,0:0:0:0:
152,234,28009,1,0,0:0:0:0:
104,287,28125,1,0,0:0:0:0:
206,176,28241,1,0,0:0:0:0:
131,128,28474,5,0,0:0:0:0:
268,94,28590,1,0,0:0:0:0:
336,274,28823,5,0,0:0:0:0:
301,187,28939,1,0,0:0:0:0:
398,201,29172,5,0,0:0:0:0:
246,261,29288,1,0,0:0:0:0:
270,99,29404,1,0,0:0:0:0:
346,145,29520,1,0,0:0:0:0:
322,235,29636,1,0,0:0:0:0:
237,187,29753,1,0,0:0:0:0:
257,64,29869,1,0,0:0:0:0:
335,268,29986,1,0,0:0:0:0:
210,333,30451,5,0,0:0:0:0:
115,146,30683,1,0,0:0:0:0:
397,237,30916,1,0,0:0:0:0:
301,50,31148,1,0,0:0:0:0:
256,192,31381,1,0,0:0:0:0:
127,129,31846,5,0,0:0:0:0:
169,126,31962,1,0,0:0:0:0:
211,123,32079,1,0,0:0:0:0:
73,182,32195,5,0,0:0:0:0:
133,177,32311,1,0,0:0:0:0:
194,173,32428,1,0,0:0:0:0:
249,302,32544,5,0,0:0:0:0:
86,121,32776,1,0,0:0:0:0:
324,171,33009,1,0,0:0:0:0:
102,271,33241,1,0,0:0:0:0:
223,60,33474,1,0,0:0:0:0:
226,272,33706,5,0,0:0:0:0:
293,295,33823,1,0,0:0:0:0:
333,238,33939,1,0,0:0:0:0:
293,181,34055,1,0,0:0:0:0:
226,202,34172,1,0,0:0:0:0:
374,349,34288,1,0,0:0:0:0:
406,277,34404,1,0,0:0:0:0:
191,89,34637,5,0,0:0:0:0:
424,214,34869,1,0,0:0:0:0:
139,141,35567,5,0,0:0:0:0:
139,141,35683,1,0,0:0:0:0:
329,87,35799,1,0,0:0:0:0:
207,214,35916,5,0,0:0:0:0:
207,214,36032,1,0,0:0:0:0:
477,129,36148,1,0,0:0:0:0:
104,338,36265,5,0,0:0:0:0:
104,26,36613,1,0,0:0:0:0:
371,183,36962,1,0,0:0:0:0:
171,144,37427,5,0,0:0:0:0:
171,144,37544,1,0,0:0:0:0:
171,144,37660,1,0,0:0:0:0:
257,234,37776,5,0,0:0:0:0:
239,102,37892,1,0,0:0:0:0:
396,273,38008,1,0,0:0:0:0:
376,92,38125,5,0,0:0:0:0:
164,262,38474,1,0,0:0:0:0:
301,272,38823,1,0,0:0:0:0:
152,85,39288,5,0,0:0:0:0:
168,222,39753,1,0,0:0:0:0:
6,166,39986,5,0,0:0:0:0:
347,123,40218,1,0,0:0:0:0:
239,81,40451,1,0,0:0:0:0:
370,278,40683,1,0,0:0:0:0:
407,197,40799,1,0,0:0:0:0:
162,271,41148,1,0,0:0:0:0:
134,132,41381,5,0,0:0:0:0:
296,69,41613,1,0,0:0:0:0:
136,338,41846,5,0,0:0:0:0:
187,246,41962,1,0,0:0:0:0:
300,235,42079,1,0,0:0:0:0:
249,327,42195,1,0,0:0:0:0:
171,38,42311,5,0,0:0:0:0:
317,52,42427,1,0,0:0:0:0:
384,172,42544,1,0,0:0:0:0:
237,157,42660,1,0,0:0:0:0:
98,237,42893,5,0,0:0:0:0:
340,164,43125,1,0,0:0:0:0:
145,69,43474,5,0,0:0:0:0:
179,160,43590,1,0,0:0:0:0:
245,102,43706,5,0,0:0:0:0:
311,257,43823,1,0,0:0:0:0:
74,280,44055,5,0,0:0:0:0:
115,198,44172,1,0,0:0:0:0:
176,272,44288,1,0,0:0:0:0:
168,106,44404,5,0,0:0:0:0:
280,269,44520,1,0,0:0:0:0:
176,272,44637,5,0,0:0:0:0:
315,78,44753,1,0,0:0:0:0:
231,24,44869,1,0,0:0:0:0:
202,128,45334,5,0,0:0:0:0:
337,92,45567,1,0,0:0:0:0:
239,264,45799,1,0,0:0:0:0:
374,227,46032,1,0,0:0:0:0:
98,94,46265,5,0,0:0:0:0:
293,88,46730,5,0,0:0:0:0:
255,154,46846,1,0,0:0:0:0:
305,213,46962,1,0,0:0:0:0:
380,165,47079,1,0,0:0:0:0:
418,231,47195,1,0,0:0:0:0:
406,304,47311,1,0,0:0:0:0:
139,115,47427,5,0,0:0:0:0:
222,210,47660,5,0,0:0:0:0:
450,143,47893,1,0,0:0:0:0:
303,62,48125,1,0,0:0:0:0:
368,290,48358,1,0,0:0:0:0:
186,59,48590,1,0,0:0:0:0:
368,290,48823,1,0,0:0:0:0:
400,0,49055,5,0,0:0:0:0:
309,96,49172,1,0,0:0:0:0:
442,129,49288,1,0,0:0:0:0:
137,271,49520,5,0,0:0:0:0:
127,174,49637,1,0,0:0:0:0:
216,214,49753,1,0,0:0:0:0:
291,153,49986,5,0,0:0:0:0:
342,30,50102,1,0,0:0:0:0:
465,82,50218,1,0,0:0:0:0:
413,204,50334,1,0,0:0:0:0:
291,153,50451,1,0,0:0:0:0:
240,276,50567,1,0,0:0:0:0:
169,102,50683,1,0,0:0:0:0:
56,104,50916,5,0,0:0:0:0:
323,115,51381,5,0,0:0:0:0:
243,263,51613,1,0,0:0:0:0:
149,79,52079,5,0,0:0:0:0:
376,232,52311,1,0,0:0:0:0:
376,232,52544,1,0,0:0:0:0:
250,152,52660,1,0,0:0:0:0:
446,103,52776,1,0,0:0:0:0:
320,23,52892,1,0,0:0:0:0:
241,251,53009,5,0,0:0:0:0:
79,126,53358,5,0,0:0:0:0:
163,91,53474,1,0,0:0:0:0:
139,197,54172,5,0,0:0:0:0:
251,146,54404,1,0,0:0:0:0:
139,197,54520,1,0,0:0:0:0:
205,271,54869,5,0,0:0:0:0:
205,271,55218,1,0,0:0:0:0:
400,182,55334,1,0,0:0:0:0:
269,252,56032,5,0,0:0:0:0:
316,178,56149,1,0,0:0:0:0:
242,131,56265,1,0,0:0:0:0:
195,205,56381,1,0,0:0:0:0:
269,252,56497,1,0,0:0:0:0:
242,131,56613,1,0,0:0:0:0:
108,207,56730,5,0,0:0:0:0:
403,176,56963,1,0,0:0:0:0:
240,44,57194,1,0,0:0:0:0:
271,339,57427,1,0,0:0:0:0:
98,64,57660,5,0,0:0:0:0:
383,34,57893,1,0,0:0:0:0:
256,192,58009,1,0,0:0:0:0:
128,349,58124,1,0,0:0:0:0:
413,319,58357,1,0,0:0:0:0:
274,248,58823,5,0,0:0:0:0:
207,227,58939,1,0,0:0:0:0:
207,157,59055,1,0,0:0:0:0:
274,135,59172,1,0,0:0:0:0:
315,192,59288,1,0,0:0:0:0:
350,262,59404,1,0,0:0:0:0:
133,99,59520,5,0,0:0:0:0:
133,99,59753,1,0,0:0:0:0:
133,99,59986,1,0,0:0:0:0:
133,99,60218,1,0,0:0:0:0:
274,274,60451,5,0,0:0:0:0:
249,181,60567,1,0,0:0:0:0:
330,102,60683,1,0,0:0:0:0:
249,181,60799,1,0,0:0:0:0:
274,274,60915,1,0,0:0:0:0:
50,170,61148,5,0,0:0:0:0:
154,96,61265,1,0,0:0:0:0:
249,181,61381,1,0,0:0:0:0:
352,90,61613,5,0,0:0:0:0:
157,272,61730,1,0,0:0:0:0:
352,90,61962,1,0,0:0:0:0:
108,116,62311,5,0,0:0:0:0:
256,17,62427,1,0,0:0:0:0:
289,144,62544,1,0,0:0:0:0:
437,45,62660,1,0,0:0:0:0:
293,291,62776,5,0,0:0:0:0:
108,116,62893,1,0,0:0:0:0:
132,282,63009,1,0,0:0:0:0:
256,17,63126,1,0,0:0:0:0:
321,207,63241,5,0,0:0:0:0:
280,64,63358,1,0,0:0:0:0:
464,167,63474,1,0,0:0:0:0:
424,23,63590,1,0,0:0:0:0:
132,275,63823,5,0,0:0:0:0:
125,137,64172,5,0,0:0:0:0:
125,137,64288,1,0,0:0:0:0:
244,174,64404,1,0,0:0:0:0:
244,174,64520,1,0,0:0:0:0:
220,267,64637,5,0,0:0:0:0:
265,84,64753,1,0,0:0:0:0:
448,129,64869,1,0,0:0:0:0:
265,84,64985,1,0,0:0:0:0:
104,308,65102,5,0,0:0:0:0:
165,86,65334,1,0,0:0:0:0:
220,267,65567,1,0,0:0:0:0:
76,333,66032,5,0,0:0:0:0:
126,139,66148,1,0,0:0:0:0:
295,357,66264,5,0,0:0:0:0:
234,106,66380,1,0,0:0:0:0:
293,235,66497,5,0,0:0:0:0:
344,44,66613,1,0,0:0:0:0:
511,258,66729,5,0,0:0:0:0:
451,10,66845,1,0,0:0:0:0:
217,200,66962,5,0,0:0:0:0:
233,39,67078,1,0,0:0:0:0:
71,23,67194,1,0,0:0:0:0:
54,183,67311,1,0,0:0:0:0:
293,287,67427,1,0,0:0:0:0:
293,287,67660,5,0,0:0:0:0:
225,110,67893,1,0,0:0:0:0:
469,219,68125,1,0,0:0:0:0:
401,42,68358,1,0,0:0:0:0:
293,287,68590,1,0,0:0:0:0:
311,70,68823,1,0,0:0:0:0:
469,219,69055,1,0,0:0:0:0:
93,72,69288,1,0,0:0:0:0:
166,250,69520,5,0,0:0:0:0:
235,158,69753,1,0,0:0:0:0:
288,264,69986,1,0,0:0:0:0:
248,63,70218,1,0,0:0:0:0:
295,313,70451,1,0,0:0:0:0:
295,70,70683,1,0,0:0:0:0:
152,267,70915,1,0,0:0:0:0:
384,192,71148,1,0,0:0:0:0:
152,116,71380,1,0,0:0:0:0:
232,17,71613,5,0,0:0:0:0:
422,61,71846,1,0,0:0:0:0:
187,207,72079,1,0,0:0:0:0:
378,252,72311,1,0,0:0:0:0:
72,304,72544,5,0,0:0:0:0:
265,106,72777,1,0,0:0:0:0:
70,109,73010,1,0,0:0:0:0:
268,302,73242,1,0,0:0:0:0:
357,40,73474,5,0,0:0:0:0:
270,223,73706,5,0,0:0:0:0:
287,176,73822,1,0,0:0:0:0:
240,160,73938,1,0,0:0:0:0:
224,206,74055,1,0,0:0:0:0:
290,234,74172,5,0,0:0:0:0:
298,154,74288,1,0,0:0:0:0:
218,147,74404,1,0,0:0:0:0:
211,226,74521,1,0,0:0:0:0:
332,243,74637,5,0,0:0:0:0:
307,114,74753,1,0,0:0:0:0:
178,137,74869,1,0,0:0:0:0:
201,268,74986,1,0,0:0:0:0:
395,242,75103,5,0,0:0:0:0:
306,50,75219,1,0,0:0:0:0:
114,140,75335,1,0,0:0:0:0:
388,139,75567,5,0,0:0:0:0:
263,189,75683,1,0,0:0:0:0:
213,64,75799,1,0,0:0:0:0:
187,309,76032,1,0,0:0:0:0:
86,180,76265,5,0,0:0:0:0:
125,54,76381,1,0,0:0:0:0:
247,117,76497,1,0,0:0:0:0:
382,89,76846,5,0,0:0:0:0:
313,246,76962,1,0,0:0:0:0:
192,355,77195,5,0,0:0:0:0:
394,290,77311,1,0,0:0:0:0:
116,217,77427,5,0,0:0:0:0:
313,246,77543,1,0,0:0:0:0:
187,134,77660,5,0,0:0:0:0:
384,105,77776,1,0,0:0:0:0:
69,77,77893,5,0,0:0:0:0:
295,55,78009,1,0,0:0:0:0:
116,217,78125,5,0,0:0:0:0:
384,105,78241,1,0,0:0:0:0:
116,217,78474,5,0,0:0:0:0:
187,134,78590,1,0,0:0:0:0:
394,290,78823,1,0,0:0:0:0:
0,97,79055,5,0,0:0:0:0:
202,181,79172,1,0,0:0:0:0:
405,265,79288,1,0,0:0:0:0:
293,78,79520,5,0,0:0:0:0:
124,209,79753,1,0,0:0:0:0:
185,34,79986,5,0,0:0:0:0:
247,181,80102,1,0,0:0:0:0:
309,328,80218,1,0,0:0:0:0:
336,47,80451,5,0,0:0:0:0:
325,240,80683,1,0,0:0:0:0:
512,56,80916,1,0,0:0:0:0:
506,261,81148,1,0,0:0:0:0:
251,136,81381,5,0,0:0:0:0:
153,269,81613,5,0,0:0:0:0:
220,12,81730,1,0,0:0:0:0:
408,199,81846,1,0,0:0:0:0:
61,175,82311,5,0,0:0:0:0:
256,85,82776,5,0,0:0:0:0:
138,141,83009,1,0,0:0:0:0:
309,172,83241,5,0,0:0:0:0:
388,371,83358,1,0,0:0:0:0:
423,164,83474,5,0,0:0:0:0:
388,371,83590,1,0,0:0:0:0:
239,120,83706,5,0,0:0:0:0:
202,367,83823,1,0,0:0:0:0:
315,39,83939,5,0,0:0:0:0:
455,318,84055,1,0,0:0:0:0:
104,48,84172,5,0,0:0:0:0:
118,318,84327,5,0,0:0:0:0:
345,170,84482,5,0,0:0:0:0:
186,174,84637,5,0,0:0:0:0:
349,91,84869,1,0,0:0:0:0:
270,212,85102,5,0,0:0:0:0:
419,218,85334,1,0,0:0:0:0:
143,257,85567,5,0,0:0:0:0:
340,295,86032,5,0,0:0:0:0:
91,101,86497,5,0,0:0:0:0:
271,169,86730,1,0,0:0:0:0:
239,91,86962,5,0,0:0:0:0:
181,268,87079,1,0,0:0:0:0:
316,73,87311,5,0,0:0:0:0:
387,336,87427,1,0,0:0:0:0:
136,78,87660,5,0,0:0:0:0:
272,377,87776,1,0,0:0:0:0:
400,20,88009,5,0,0:0:0:0:
272,377,88125,1,0,0:0:0:0:
227,44,88358,5,0,0:0:0:0:
428,356,88474,1,0,0:0:0:0:
227,44,88590,1,0,0:0:0:0:
237,354,88823,5,0,0:0:0:0:
316,83,88939,1,0,0:0:0:0:
158,336,89172,5,0,0:0:0:0:
96,146,89288,1,0,0:0:0:0:
83,304,89520,5,0,0:0:0:0:
197,206,89637,1,0,0:0:0:0:
60,212,89869,5,0,0:0:0:0:
309,188,89986,1,0,0:0:0:0:
