osu file format v14

[General]
AudioFilename: audio.mp3
AudioLeadIn: 0
PreviewTime: 53088
Countdown: 0
SampleSet: None
StackLeniency: 0.7
Mode: 3
LetterboxInBreaks: 0
SpecialStyle: 0
WidescreenStoryboard: 1

[Editor]
DistanceSpacing: 1.4
BeatDivisor: 8
GridSize: 16
TimelineZoom: 2.299999

[Metadata]
Title:Kawaki wo Ameku
TitleUnicode:カワキヲアメク
Artist:Minami
ArtistUnicode:美波
Creator:LostCool
Version:Inexperienced, Cruel, but even so, be Beautiful
Source:Domestic Girlfriend
Tags:Dome x Kano Domekano
BeatmapID:1961492
BeatmapSetID:939046

[Difficulty]
HPDrainRate:8
CircleSize:7
OverallDifficulty:5
ApproachRate:5
SliderMultiplier:1.4
SliderTickRate:1

[Events]
//Background and Video events
0,0,"bg.jpg",0,0
//Break Periods
//Storyboard Layer 0 (Background)
//Storyboard Layer 1 (Fail)
//Storyboard Layer 2 (Pass)
//Storyboard Layer 3 (Foreground)
//Storyboard Sound Samples

[TimingPoints]
1477,444.444444444444,4,3,0,35,1,0
8588,434.782608695652,4,3,0,35,1,0
10324,461.538461538462,4,3,0,35,1,0
14949,465.116279069767,4,3,0,35,1,0
58669,-66.6666666666667,4,3,0,35,0,0
58728,-133.333333333333,4,3,0,35,0,0
58844,-303.030303030303,4,3,0,35,0,0
58902,-66.6666666666667,4,3,0,35,0,0
58961,-133.333333333333,4,3,0,35,0,0
59077,-303.030303030303,4,3,0,35,0,0
59135,-66.6666666666667,4,3,0,35,0,0
59194,-133.333333333333,4,3,0,35,0,0
59310,-303.030303030303,4,3,0,35,0,0
59367,-100,4,3,0,35,0,0
126576,-50,4,3,0,35,0,0
126664,-200,4,3,0,35,0,0
126693,-303.030303030303,4,3,0,35,0,0
126809,-50,4,3,0,35,0,0
126897,-200,4,3,0,35,0,0
126926,-303.030303030303,4,3,0,35,0,0
127042,-50,4,3,0,35,0,0
127130,-200,4,3,0,35,0,0
127159,-303.030303030303,4,3,0,35,0,0
127274,-50,4,3,0,35,0,0
127362,-200,4,3,0,35,0,0
127391,-303.030303030303,4,3,0,35,0,0
127507,-50,4,3,0,35,0,0
127595,-200,4,3,0,35,0,0
127624,-303.030303030303,4,3,0,35,0,0
127739,-50,4,3,0,35,0,0
127827,-200,4,3,0,35,0,0
127856,-303.030303030303,4,3,0,35,0,0
127972,-50,4,3,0,35,0,0
128060,-200,4,3,0,35,0,0
128089,-303.030303030303,4,3,0,35,0,0
128204,-50,4,3,0,35,0,0
128292,-200,4,3,0,35,0,0
128669,-66.6666666666667,4,3,0,35,0,0
128747,-133.333333333333,4,3,0,35,0,0
128824,-200,4,3,0,35,0,0
128844,-133.333333333333,4,3,0,35,0,0
128902,-100,4,3,0,35,0,0
175065,-20,4,3,0,35,0,0
175094,-200,4,3,0,35,0,0
175123,-400,4,3,0,35,0,0
175297,-100,4,3,0,35,0,0
175762,-20,4,3,0,35,0,0
175791,-200,4,3,0,35,0,0
175820,-400,4,3,0,35,0,0
175994,-100,4,3,0,35,0,0
176809,-33.3333333333333,4,3,0,35,0,0
176838,-101.010101010101,4,3,0,35,0,0
176848,-151.515151515152,4,3,0,35,0,0
176867,-303.030303030303,4,3,0,35,0,0
176964,-33.3333333333333,4,3,0,35,0,0
176993,-101.010101010101,4,3,0,35,0,0
177003,-151.515151515152,4,3,0,35,0,0
177022,-303.030303030303,4,3,0,35,0,0
177119,-33.3333333333333,4,3,0,35,0,0
177148,-101.010101010101,4,3,0,35,0,0
177158,-151.515151515152,4,3,0,35,0,0
177177,-303.030303030303,4,3,0,35,0,0
177274,-33.3333333333333,4,3,0,35,0,0
177303,-101.010101010101,4,3,0,35,0,0
177313,-151.515151515152,4,3,0,35,0,0
177332,-303.030303030303,4,3,0,35,0,0
177429,-33.3333333333333,4,3,0,35,0,0
177458,-101.010101010101,4,3,0,35,0,0
177468,-151.515151515152,4,3,0,35,0,0
177487,-303.030303030303,4,3,0,35,0,0
177584,-33.3333333333333,4,3,0,35,0,0
177613,-101.010101010101,4,3,0,35,0,0
177623,-151.515151515152,4,3,0,35,0,0
177642,-303.030303030303,4,3,0,35,0,0
177739,-400,4,3,0,35,0,0
178233,-20,4,3,0,35,0,0
178262,-200,4,3,0,35,0,0
178292,-400,4,3,0,35,0,0
178466,-100,4,3,0,35,0,0
236344,-133.333333333333,4,3,0,35,0,0

[Colours]
Combo1 : 255,0,0
Combo2 : 255,128,255
Combo3 : 255,0,255
Combo4 : 255,0,128
Combo5 : 255,128,128

[HitObjects]
329,192,1477,128,0,1921:0:0:0:0:
475,192,1477,1,0,0:0:0:0:
256,192,1921,128,0,2365:0:0:0:0:
402,192,1921,1,0,0:0:0:0:
182,192,2365,128,0,2810:0:0:0:0:
329,192,2365,1,0,0:0:0:0:
256,192,2810,128,0,3254:0:0:0:0:
109,192,2810,1,0,0:0:0:0:
329,192,3254,128,0,3699:0:0:0:0:
402,192,3254,128,0,3588:0:0:0:0:
36,192,3254,1,0,0:0:0:0:
402,192,3699,128,0,4365:0:0:0:0:
109,192,3699,1,0,0:0:0:0:
182,192,4143,1,0,0:0:0:0:
329,192,4143,128,0,4365:0:0:0:0:
256,192,4588,128,0,5032:0:0:0:0:
182,192,5032,128,0,5476:0:0:0:0:
36,192,5032,1,0,0:0:0:0:
256,192,5476,128,0,5921:0:0:0:0:
109,192,5476,1,0,0:0:0:0:
329,192,5921,128,0,6365:0:0:0:0:
182,192,5921,1,0,0:0:0:0:
256,192,6365,128,0,6810:0:0:0:0:
402,192,6365,1,0,0:0:0:0:
182,192,6810,128,0,7254:0:0:0:0:
329,192,6810,1,0,0:0:0:0:
109,192,7254,128,0,7699:0:0:0:0:
402,192,7254,1,0,0:0:0:0:
182,192,7699,128,0,8143:0:0:0:0:
475,192,7699,1,0,0:0:0:0:
256,192,8143,128,0,8588:0:0:0:0:
402,192,8143,1,0,0:0:0:0:
109,192,8588,128,0,14477:0:0:0:0:
402,192,8642,128,0,14477:0:0:0:0:
329,192,10324,128,0,14477:0:0:0:0:
182,192,10324,128,0,14477:0:0:0:0:
256,192,11477,128,0,14477:0:0:0:0:
36,192,13093,1,0,0:0:0:0:
475,192,13554,1,0,0:0:0:0:
36,192,14016,1,0,0:0:0:0:
475,192,14477,1,0,0:0:0:0:
182,192,14949,1,0,0:0:0:0:
109,192,14949,1,0,0:0:0:0:
36,192,14949,1,0,0:0:0:0:
256,192,14949,128,0,15007:0:0:0:0:
329,192,14949,128,0,15007:0:0:0:0:
109,192,15065,1,0,0:0:0:0:
36,192,15065,1,0,0:0:0:0:
182,192,15065,1,0,0:0:0:0:
402,192,15065,128,0,15181:0:0:0:0:
475,192,15065,128,0,15181:0:0:0:0:
329,192,15297,128,0,15414:0:0:0:0:
402,192,15297,128,0,15414:0:0:0:0:
182,192,15297,128,0,15530:0:0:0:0:
475,192,15297,1,0,0:0:0:0:
256,192,15530,128,0,15704:0:0:0:0:
329,192,15530,128,0,15704:0:0:0:0:
109,192,15530,128,0,15762:0:0:0:0:
402,192,15530,1,0,0:0:0:0:
475,192,15530,128,0,15762:0:0:0:0:
182,192,15762,128,0,15937:0:0:0:0:
256,192,15762,128,0,15937:0:0:0:0:
36,192,15762,128,0,15995:0:0:0:0:
402,192,15762,128,0,15995:0:0:0:0:
329,192,15762,1,0,0:0:0:0:
182,192,15995,128,0,16169:0:0:0:0:
109,192,15995,128,0,16169:0:0:0:0:
329,192,15995,128,0,16228:0:0:0:0:
256,192,15995,1,0,0:0:0:0:
36,192,16228,128,0,16460:0:0:0:0:
109,192,16228,128,0,16460:0:0:0:0:
182,192,16228,1,0,0:0:0:0:
256,192,16228,128,0,16693:0:0:0:0:
402,192,16344,128,0,16693:0:0:0:0:
475,192,16344,128,0,16693:0:0:0:0:
329,192,16344,1,0,0:0:0:0:
109,192,16576,128,0,16693:0:0:0:0:
36,192,16576,128,0,16693:0:0:0:0:
182,192,16576,1,0,0:0:0:0:
109,192,16809,1,0,0:0:0:0:
36,192,16809,1,0,0:0:0:0:
402,192,16809,1,0,0:0:0:0:
475,192,16809,1,0,0:0:0:0:
182,192,16809,128,0,16867:0:0:0:0:
256,192,16809,128,0,16867:0:0:0:0:
402,192,16925,1,0,0:0:0:0:
475,192,16925,1,0,0:0:0:0:
36,192,16925,1,0,0:0:0:0:
109,192,16925,1,0,0:0:0:0:
256,192,16925,128,0,17042:0:0:0:0:
329,192,16925,128,0,17042:0:0:0:0:
256,192,17158,128,0,17274:0:0:0:0:
182,192,17158,128,0,17274:0:0:0:0:
36,192,17158,128,0,17390:0:0:0:0:
109,192,17158,1,0,0:0:0:0:
329,192,17390,128,0,17565:0:0:0:0:
402,192,17390,128,0,17565:0:0:0:0:
475,192,17390,128,0,17623:0:0:0:0:
109,192,17390,1,0,0:0:0:0:
182,192,17623,128,0,17797:0:0:0:0:
109,192,17623,128,0,17797:0:0:0:0:
329,192,17623,1,0,0:0:0:0:
402,192,17623,1,0,0:0:0:0:
36,192,17623,128,0,17855:0:0:0:0:
402,192,17855,128,0,18030:0:0:0:0:
475,192,17855,128,0,18030:0:0:0:0:
182,192,17855,1,0,0:0:0:0:
109,192,17855,1,0,0:0:0:0:
256,192,17855,128,0,18088:0:0:0:0:
109,192,18088,128,0,18262:0:0:0:0:
36,192,18088,128,0,18262:0:0:0:0:
402,192,18088,1,0,0:0:0:0:
475,192,18088,1,0,0:0:0:0:
182,192,18088,128,0,18553:0:0:0:0:
402,192,18204,128,0,18553:0:0:0:0:
475,192,18204,128,0,18553:0:0:0:0:
329,192,18204,128,0,18553:0:0:0:0:
109,192,18437,128,0,18553:0:0:0:0:
36,192,18437,128,0,18553:0:0:0:0:
256,192,18437,1,0,0:0:0:0:
329,192,18669,1,0,0:0:0:0:
402,192,18669,1,0,0:0:0:0:
475,192,18669,1,0,0:0:0:0:
256,192,18669,128,0,18728:0:0:0:0:
182,192,18669,128,0,18728:0:0:0:0:
402,192,18786,1,0,0:0:0:0:
475,192,18786,1,0,0:0:0:0:
329,192,18786,1,0,0:0:0:0:
109,192,18786,128,0,18902:0:0:0:0:
36,192,18786,128,0,18902:0:0:0:0:
182,192,19018,128,0,19135:0:0:0:0:
109,192,19018,128,0,19135:0:0:0:0:
329,192,19018,128,0,19076:0:0:0:0:
36,192,19018,128,0,19251:0:0:0:0:
256,192,19251,128,0,19425:0:0:0:0:
182,192,19251,128,0,19425:0:0:0:0:
402,192,19251,128,0,19309:0:0:0:0:
109,192,19251,128,0,19483:0:0:0:0:
329,192,19483,128,0,19658:0:0:0:0:
256,192,19483,128,0,19658:0:0:0:0:
475,192,19483,128,0,19542:0:0:0:0:
182,192,19483,128,0,19716:0:0:0:0:
36,192,19483,128,0,19542:0:0:0:0:
329,192,19716,128,0,19890:0:0:0:0:
402,192,19716,128,0,19890:0:0:0:0:
109,192,19716,128,0,19774:0:0:0:0:
256,192,19716,128,0,19948:0:0:0:0:
475,192,19948,128,0,20181:0:0:0:0:
402,192,19948,128,0,20181:0:0:0:0:
182,192,19948,128,0,20007:0:0:0:0:
329,192,19948,128,0,20007:0:0:0:0:
109,192,20065,128,0,20414:0:0:0:0:
36,192,20065,128,0,20414:0:0:0:0:
256,192,20065,128,0,20414:0:0:0:0:
402,192,20297,128,0,20414:0:0:0:0:
475,192,20297,128,0,20414:0:0:0:0:
182,192,20297,128,0,20414:0:0:0:0:
329,192,20297,128,0,20414:0:0:0:0:
256,192,20530,128,0,20588:0:0:0:0:
109,192,20530,128,0,20588:0:0:0:0:
402,192,20530,128,0,20588:0:0:0:0:
182,192,20646,1,0,0:0:0:0:
329,192,20646,1,0,0:0:0:0:
109,192,20762,128,0,21693:0:0:0:0:
256,192,20762,128,0,21053:0:0:0:0:
402,192,20762,128,0,21693:0:0:0:0:
36,192,20879,1,0,0:0:0:0:
475,192,20879,1,0,0:0:0:0:
256,192,21111,128,0,21169:0:0:0:0:
256,192,21228,128,0,21460:0:0:0:0:
36,192,21344,1,0,0:0:0:0:
475,192,21344,1,0,0:0:0:0:
182,192,21460,128,0,21518:0:0:0:0:
329,192,21460,128,0,21518:0:0:0:0:
475,192,21576,1,0,0:0:0:0:
36,192,21576,1,0,0:0:0:0:
256,192,21693,1,0,0:0:0:0:
109,192,21809,128,0,21867:0:0:0:0:
402,192,21809,128,0,21867:0:0:0:0:
36,192,21809,1,0,0:0:0:0:
475,192,21809,1,0,0:0:0:0:
182,192,21925,128,0,22332:0:0:0:0:
256,192,21925,128,0,22332:0:0:0:0:
329,192,21925,128,0,22332:0:0:0:0:
36,192,22158,1,0,0:0:0:0:
475,192,22158,1,0,0:0:0:0:
182,192,22390,128,0,22448:0:0:0:0:
256,192,22390,128,0,22448:0:0:0:0:
329,192,22390,128,0,22448:0:0:0:0:
36,192,22390,128,0,22855:0:0:0:0:
402,192,22390,128,0,22855:0:0:0:0:
182,192,22739,128,0,22797:0:0:0:0:
256,192,22739,128,0,22797:0:0:0:0:
329,192,22739,128,0,22797:0:0:0:0:
109,192,22855,128,0,23437:0:0:0:0:
475,192,22855,128,0,23437:0:0:0:0:
182,192,23088,128,0,23146:0:0:0:0:
256,192,23088,128,0,23146:0:0:0:0:
329,192,23088,128,0,23146:0:0:0:0:
182,192,23553,1,0,0:0:0:0:
256,192,23553,1,0,0:0:0:0:
329,192,23553,1,0,0:0:0:0:
36,192,23553,128,0,23786:0:0:0:0:
475,192,23553,128,0,23786:0:0:0:0:
256,192,23669,1,0,0:0:0:0:
329,192,23786,1,0,0:0:0:0:
182,192,23786,1,0,0:0:0:0:
182,192,23902,1,0,0:0:0:0:
329,192,23902,1,0,0:0:0:0:
256,192,24018,1,0,0:0:0:0:
36,192,24018,128,0,24135:0:0:0:0:
475,192,24018,128,0,24135:0:0:0:0:
182,192,24135,1,0,0:0:0:0:
329,192,24135,1,0,0:0:0:0:
182,192,24251,128,0,24309:0:0:0:0:
256,192,24251,128,0,24309:0:0:0:0:
329,192,24251,128,0,24309:0:0:0:0:
36,192,24251,128,0,24600:0:0:0:0:
475,192,24251,128,0,24600:0:0:0:0:
182,192,24600,128,0,24658:0:0:0:0:
256,192,24600,128,0,24658:0:0:0:0:
329,192,24600,128,0,24658:0:0:0:0:
109,192,24600,128,0,24716:0:0:0:0:
402,192,24600,128,0,24716:0:0:0:0:
475,192,24716,128,0,25007:0:0:0:0:
36,192,24716,128,0,25007:0:0:0:0:
182,192,24948,128,0,25007:0:0:0:0:
256,192,24948,128,0,25007:0:0:0:0:
329,192,24948,128,0,25007:0:0:0:0:
109,192,24948,128,0,25414:0:0:0:0:
402,192,24948,128,0,25414:0:0:0:0:
256,192,25414,1,0,0:0:0:0:
36,192,25414,1,0,0:0:0:0:
475,192,25414,1,0,0:0:0:0:
329,192,25646,1,0,0:0:0:0:
182,192,25646,1,0,0:0:0:0:
256,192,25646,1,0,0:0:0:0:
36,192,25646,1,0,0:0:0:0:
475,192,25646,1,0,0:0:0:0:
182,192,25762,1,0,0:0:0:0:
109,192,25762,1,0,0:0:0:0:
182,192,25879,1,0,0:0:0:0:
329,192,25879,1,0,0:0:0:0:
329,192,25995,1,0,0:0:0:0:
402,192,25995,1,0,0:0:0:0:
256,192,26111,1,0,0:0:0:0:
182,192,26111,1,0,0:0:0:0:
329,192,26111,1,0,0:0:0:0:
36,192,26111,128,0,26460:0:0:0:0:
475,192,26111,128,0,26576:0:0:0:0:
109,192,26460,128,0,26809:0:0:0:0:
256,192,26460,1,0,0:0:0:0:
182,192,26460,1,0,0:0:0:0:
329,192,26460,1,0,0:0:0:0:
402,192,26576,128,0,26925:0:0:0:0:
256,192,26576,1,0,0:0:0:0:
36,192,26809,128,0,27274:0:0:0:0:
475,192,26809,128,0,27274:0:0:0:0:
109,192,26925,128,0,27042:0:0:0:0:
402,192,27042,128,0,27158:0:0:0:0:
182,192,27158,128,0,27274:0:0:0:0:
109,192,27274,1,0,0:0:0:0:
329,192,27274,128,0,27390:0:0:0:0:
256,192,27390,128,0,27448:0:0:0:0:
402,192,27390,1,0,0:0:0:0:
256,192,27507,1,0,0:0:0:0:
36,192,27507,1,0,0:0:0:0:
475,192,27507,1,0,0:0:0:0:
182,192,27623,1,0,0:0:0:0:
329,192,27623,1,0,0:0:0:0:
256,192,27739,1,0,0:0:0:0:
109,192,27739,1,0,0:0:0:0:
402,192,27739,1,0,0:0:0:0:
182,192,27855,1,0,0:0:0:0:
329,192,27855,1,0,0:0:0:0:
256,192,27972,1,0,0:0:0:0:
182,192,27972,1,0,0:0:0:0:
329,192,27972,1,0,0:0:0:0:
475,192,27972,128,0,28321:0:0:0:0:
402,192,27972,1,0,0:0:0:0:
109,192,27972,1,0,0:0:0:0:
36,192,27972,128,0,28437:0:0:0:0:
402,192,28321,128,0,28786:0:0:0:0:
329,192,28321,1,0,0:0:0:0:
256,192,28321,1,0,0:0:0:0:
182,192,28321,1,0,0:0:0:0:
109,192,28321,128,0,28379:0:0:0:0:
109,192,28437,128,0,28902:0:0:0:0:
182,192,28437,128,0,28553:0:0:0:0:
329,192,28553,128,0,28669:0:0:0:0:
182,192,28669,128,0,28786:0:0:0:0:
36,192,28669,1,0,0:0:0:0:
256,192,28669,1,0,0:0:0:0:
475,192,28669,1,0,0:0:0:0:
329,192,28786,128,0,28902:0:0:0:0:
182,192,28902,128,0,29018:0:0:0:0:
402,192,28902,128,0,29018:0:0:0:0:
109,192,29018,128,0,29135:0:0:0:0:
329,192,29018,128,0,29135:0:0:0:0:
182,192,29135,128,0,29367:0:0:0:0:
402,192,29135,128,0,29367:0:0:0:0:
256,192,29135,1,0,0:0:0:0:
475,192,29135,1,0,0:0:0:0:
329,192,29367,128,0,29600:0:0:0:0:
109,192,29367,128,0,29600:0:0:0:0:
256,192,29367,1,0,0:0:0:0:
36,192,29367,1,0,0:0:0:0:
475,192,29367,1,0,0:0:0:0:
256,192,29600,128,0,29832:0:0:0:0:
36,192,29832,128,0,30065:0:0:0:0:
329,192,29832,128,0,30065:0:0:0:0:
109,192,29832,1,0,0:0:0:0:
475,192,29832,1,0,0:0:0:0:
109,192,30065,128,0,30297:0:0:0:0:
402,192,30065,128,0,30297:0:0:0:0:
182,192,30065,1,0,0:0:0:0:
256,192,30181,1,0,0:0:0:0:
475,192,30297,128,0,30530:0:0:0:0:
182,192,30297,128,0,30588:0:0:0:0:
329,192,30297,1,0,0:0:0:0:
256,192,30530,128,0,30588:0:0:0:0:
329,192,30530,128,0,30588:0:0:0:0:
402,192,30530,1,0,0:0:0:0:
109,192,30530,128,0,30588:0:0:0:0:
36,192,30530,128,0,30588:0:0:0:0:
256,192,30995,1,0,0:0:0:0:
109,192,30995,1,0,0:0:0:0:
402,192,30995,1,0,0:0:0:0:
329,192,31111,1,0,0:0:0:0:
402,192,31228,1,0,0:0:0:0:
109,192,31228,1,0,0:0:0:0:
475,192,31344,1,0,0:0:0:0:
402,192,31460,1,0,0:0:0:0:
109,192,31460,1,0,0:0:0:0:
329,192,31576,1,0,0:0:0:0:
109,192,31576,1,0,0:0:0:0:
182,192,31693,128,0,31925:0:0:0:0:
475,192,31693,128,0,31925:0:0:0:0:
36,192,31693,1,0,0:0:0:0:
256,192,31751,1,0,0:0:0:0:
329,192,31809,1,0,0:0:0:0:
402,192,31925,128,0,32158:0:0:0:0:
109,192,31925,128,0,32158:0:0:0:0:
329,192,31925,1,0,0:0:0:0:
256,192,32042,1,0,0:0:0:0:
475,192,32042,1,0,0:0:0:0:
329,192,32158,128,0,32448:0:0:0:0:
36,192,32158,128,0,32390:0:0:0:0:
182,192,32158,1,0,0:0:0:0:
182,192,32390,128,0,32448:0:0:0:0:
256,192,32390,128,0,32448:0:0:0:0:
402,192,32390,128,0,32448:0:0:0:0:
475,192,32390,128,0,32448:0:0:0:0:
109,192,32390,1,0,0:0:0:0:
109,192,32623,128,0,32855:0:0:0:0:
36,192,32855,1,0,0:0:0:0:
256,192,32855,128,0,33088:0:0:0:0:
109,192,32972,1,0,0:0:0:0:
36,192,33088,1,0,0:0:0:0:
402,192,33088,128,0,33321:0:0:0:0:
182,192,33204,1,0,0:0:0:0:
36,192,33321,1,0,0:0:0:0:
475,192,33321,128,0,33553:0:0:0:0:
256,192,33321,1,0,0:0:0:0:
256,192,33437,1,0,0:0:0:0:
402,192,33495,128,0,33728:0:0:0:0:
36,192,33553,1,0,0:0:0:0:
329,192,33553,128,0,33844:0:0:0:0:
182,192,33611,128,0,33844:0:0:0:0:
109,192,33669,128,0,33960:0:0:0:0:
402,192,33786,1,0,0:0:0:0:
36,192,33786,1,0,0:0:0:0:
329,192,33902,1,0,0:0:0:0:
182,192,33902,1,0,0:0:0:0:
109,192,34018,1,0,0:0:0:0:
256,192,34018,128,0,34251:0:0:0:0:
475,192,34018,1,0,0:0:0:0:
36,192,34251,1,0,0:0:0:0:
182,192,34251,1,0,0:0:0:0:
329,192,34251,1,0,0:0:0:0:
475,192,34251,1,0,0:0:0:0:
109,192,34716,1,0,0:0:0:0:
182,192,34832,1,0,0:0:0:0:
329,192,34948,1,0,0:0:0:0:
402,192,34948,1,0,0:0:0:0:
329,192,35065,1,0,0:0:0:0:
402,192,35181,1,0,0:0:0:0:
182,192,35297,1,0,0:0:0:0:
109,192,35297,1,0,0:0:0:0:
182,192,35414,1,0,0:0:0:0:
329,192,35472,1,0,0:0:0:0:
36,192,35472,128,0,35704:0:0:0:0:
402,192,35530,1,0,0:0:0:0:
109,192,35530,128,0,35762:0:0:0:0:
475,192,35588,1,0,0:0:0:0:
182,192,35588,128,0,35821:0:0:0:0:
256,192,35762,128,0,35821:0:0:0:0:
329,192,35762,128,0,36169:0:0:0:0:
402,192,35762,128,0,36111:0:0:0:0:
475,192,35762,128,0,36053:0:0:0:0:
256,192,36111,128,0,36169:0:0:0:0:
182,192,36111,128,0,36169:0:0:0:0:
109,192,36111,128,0,36169:0:0:0:0:
36,192,36111,128,0,36169:0:0:0:0:
109,192,36576,1,0,0:0:0:0:
36,192,36576,1,0,0:0:0:0:
256,192,36576,1,0,0:0:0:0:
402,192,36576,1,0,0:0:0:0:
475,192,36576,1,0,0:0:0:0:
329,192,36576,1,0,0:0:0:0:
182,192,36576,1,0,0:0:0:0:
36,192,36809,1,0,0:0:0:0:
109,192,36809,1,0,0:0:0:0:
182,192,36809,1,0,0:0:0:0:
256,192,36809,1,0,0:0:0:0:
475,192,36809,1,0,0:0:0:0:
402,192,36809,1,0,0:0:0:0:
329,192,36925,1,0,0:0:0:0:
329,192,37042,1,0,0:0:0:0:
182,192,37042,1,0,0:0:0:0:
256,192,37042,1,0,0:0:0:0:
182,192,37158,1,0,0:0:0:0:
475,192,37274,128,0,37739:0:0:0:0:
109,192,37274,128,0,37623:0:0:0:0:
36,192,37274,128,0,37739:0:0:0:0:
256,192,37274,128,0,37390:0:0:0:0:
329,192,37274,128,0,37507:0:0:0:0:
402,192,37274,128,0,37623:0:0:0:0:
256,192,37507,1,0,0:0:0:0:
329,192,37623,1,0,0:0:0:0:
109,192,37739,128,0,37972:0:0:0:0:
402,192,37739,1,0,0:0:0:0:
182,192,37739,128,0,37972:0:0:0:0:
256,192,37739,1,0,0:0:0:0:
36,192,37972,128,0,38669:0:0:0:0:
329,192,37972,128,0,38204:0:0:0:0:
402,192,37972,128,0,38204:0:0:0:0:
256,192,37972,1,0,0:0:0:0:
475,192,37972,1,0,0:0:0:0:
182,192,38204,1,0,0:0:0:0:
109,192,38204,1,0,0:0:0:0:
329,192,38321,1,0,0:0:0:0:
402,192,38321,1,0,0:0:0:0:
109,192,38379,128,0,38437:0:0:0:0:
256,192,38437,128,0,38669:0:0:0:0:
182,192,38437,1,0,0:0:0:0:
475,192,38669,128,0,38902:0:0:0:0:
329,192,38669,1,0,0:0:0:0:
402,192,38669,128,0,38728:0:0:0:0:
109,192,38669,1,0,0:0:0:0:
256,192,38902,128,0,39135:0:0:0:0:
109,192,38902,128,0,38960:0:0:0:0:
182,192,38902,1,0,0:0:0:0:
402,192,38902,1,0,0:0:0:0:
36,192,39018,1,0,0:0:0:0:
475,192,39018,1,0,0:0:0:0:
329,192,39135,1,0,0:0:0:0:
402,192,39135,128,0,39193:0:0:0:0:
109,192,39135,128,0,39251:0:0:0:0:
182,192,39135,128,0,39367:0:0:0:0:
36,192,39251,128,0,39600:0:0:0:0:
256,192,39251,1,0,0:0:0:0:
109,192,39367,128,0,39600:0:0:0:0:
329,192,39367,1,0,0:0:0:0:
182,192,39483,128,0,39542:0:0:0:0:
402,192,39483,1,0,0:0:0:0:
475,192,39483,1,0,0:0:0:0:
182,192,39600,1,0,0:0:0:0:
329,192,39600,128,0,39832:0:0:0:0:
402,192,39600,128,0,39716:0:0:0:0:
256,192,39600,1,0,0:0:0:0:
475,192,39716,128,0,40065:0:0:0:0:
109,192,39716,1,0,0:0:0:0:
402,192,39832,128,0,40065:0:0:0:0:
36,192,39832,1,0,0:0:0:0:
256,192,39832,1,0,0:0:0:0:
182,192,39832,1,0,0:0:0:0:
329,192,39948,128,0,40007:0:0:0:0:
109,192,39948,1,0,0:0:0:0:
329,192,40065,1,0,0:0:0:0:
109,192,40065,128,0,40181:0:0:0:0:
36,192,40065,128,0,40297:0:0:0:0:
182,192,40065,1,0,0:0:0:0:
182,192,40181,128,0,40414:0:0:0:0:
402,192,40181,1,0,0:0:0:0:
109,192,40297,128,0,40472:0:0:0:0:
329,192,40297,1,0,0:0:0:0:
475,192,40297,1,0,0:0:0:0:
36,192,40414,128,0,40472:0:0:0:0:
256,192,40414,1,0,0:0:0:0:
402,192,40414,1,0,0:0:0:0:
109,192,40530,1,0,0:0:0:0:
402,192,40530,128,0,40646:0:0:0:0:
475,192,40530,128,0,40762:0:0:0:0:
36,192,40530,1,0,0:0:0:0:
329,192,40530,1,0,0:0:0:0:
182,192,40530,1,0,0:0:0:0:
329,192,40646,128,0,40879:0:0:0:0:
256,192,40646,1,0,0:0:0:0:
109,192,40646,1,0,0:0:0:0:
402,192,40762,128,0,40937:0:0:0:0:
182,192,40762,1,0,0:0:0:0:
36,192,40762,1,0,0:0:0:0:
475,192,40879,128,0,40937:0:0:0:0:
109,192,40879,1,0,0:0:0:0:
256,192,40879,1,0,0:0:0:0:
402,192,40995,1,0,0:0:0:0:
475,192,40995,1,0,0:0:0:0:
182,192,40995,1,0,0:0:0:0:
329,192,40995,1,0,0:0:0:0:
36,192,40995,128,0,41111:0:0:0:0:
256,192,41111,128,0,41460:0:0:0:0:
109,192,41111,128,0,41228:0:0:0:0:
329,192,41111,128,0,41228:0:0:0:0:
182,192,41228,128,0,41344:0:0:0:0:
402,192,41228,128,0,41344:0:0:0:0:
329,192,41344,1,0,0:0:0:0:
109,192,41344,128,0,41402:0:0:0:0:
475,192,41344,128,0,41693:0:0:0:0:
109,192,41460,1,0,0:0:0:0:
402,192,41460,128,0,41576:0:0:0:0:
182,192,41460,1,0,0:0:0:0:
36,192,41460,128,0,41809:0:0:0:0:
329,192,41576,128,0,41693:0:0:0:0:
109,192,41576,128,0,41693:0:0:0:0:
256,192,41693,1,0,0:0:0:0:
402,192,41693,128,0,41809:0:0:0:0:
182,192,41693,128,0,41751:0:0:0:0:
475,192,41809,128,0,41867:0:0:0:0:
329,192,41809,128,0,41925:0:0:0:0:
256,192,41809,1,0,0:0:0:0:
402,192,41925,128,0,42042:0:0:0:0:
475,192,41925,128,0,42042:0:0:0:0:
109,192,41925,128,0,42274:0:0:0:0:
36,192,41925,1,0,0:0:0:0:
182,192,41925,1,0,0:0:0:0:
329,192,42042,128,0,42158:0:0:0:0:
182,192,42042,128,0,42158:0:0:0:0:
402,192,42158,128,0,42274:0:0:0:0:
475,192,42158,128,0,42274:0:0:0:0:
256,192,42158,128,0,42216:0:0:0:0:
36,192,42158,1,0,0:0:0:0:
329,192,42274,128,0,42390:0:0:0:0:
182,192,42274,1,0,0:0:0:0:
402,192,42390,1,0,0:0:0:0:
475,192,42390,1,0,0:0:0:0:
182,192,42390,128,0,42739:0:0:0:0:
109,192,42390,1,0,0:0:0:0:
36,192,42390,1,0,0:0:0:0:
256,192,42507,128,0,42623:0:0:0:0:
329,192,42507,1,0,0:0:0:0:
329,192,42623,128,0,42855:0:0:0:0:
109,192,42623,1,0,0:0:0:0:
36,192,42623,1,0,0:0:0:0:
402,192,42623,1,0,0:0:0:0:
475,192,42623,1,0,0:0:0:0:
256,192,42739,1,0,0:0:0:0:
182,192,42855,1,0,0:0:0:0:
256,192,42855,128,0,43088:0:0:0:0:
475,192,42855,128,0,43262:0:0:0:0:
109,192,42855,128,0,42914:0:0:0:0:
36,192,42855,1,0,0:0:0:0:
402,192,42855,1,0,0:0:0:0:
329,192,42972,128,0,43088:0:0:0:0:
402,192,42972,1,0,0:0:0:0:
182,192,43088,128,0,43321:0:0:0:0:
109,192,43088,1,0,0:0:0:0:
36,192,43088,1,0,0:0:0:0:
256,192,43204,128,0,43321:0:0:0:0:
329,192,43204,1,0,0:0:0:0:
329,192,43321,128,0,43553:0:0:0:0:
36,192,43321,1,0,0:0:0:0:
109,192,43321,1,0,0:0:0:0:
475,192,43321,1,0,0:0:0:0:
402,192,43321,128,0,43786:0:0:0:0:
256,192,43437,128,0,43553:0:0:0:0:
182,192,43437,1,0,0:0:0:0:
182,192,43553,128,0,43786:0:0:0:0:
109,192,43553,1,0,0:0:0:0:
256,192,43669,128,0,43786:0:0:0:0:
329,192,43669,1,0,0:0:0:0:
475,192,43669,1,0,0:0:0:0:
36,192,43669,1,0,0:0:0:0:
329,192,43786,128,0,44018:0:0:0:0:
475,192,43786,128,0,44193:0:0:0:0:
109,192,43786,1,0,0:0:0:0:
256,192,43902,128,0,44018:0:0:0:0:
182,192,43902,1,0,0:0:0:0:
182,192,44018,128,0,44251:0:0:0:0:
36,192,44018,128,0,44425:0:0:0:0:
402,192,44018,1,0,0:0:0:0:
109,192,44018,1,0,0:0:0:0:
256,192,44135,128,0,44251:0:0:0:0:
329,192,44135,1,0,0:0:0:0:
329,192,44251,128,0,44425:0:0:0:0:
475,192,44251,128,0,44425:0:0:0:0:
109,192,44251,1,0,0:0:0:0:
402,192,44251,1,0,0:0:0:0:
256,192,44367,128,0,44425:0:0:0:0:
182,192,44367,1,0,0:0:0:0:
182,192,44483,128,0,44658:0:0:0:0:
36,192,44483,128,0,44658:0:0:0:0:
329,192,44483,1,0,0:0:0:0:
475,192,44483,1,0,0:0:0:0:
109,192,44483,1,0,0:0:0:0:
256,192,44600,128,0,44658:0:0:0:0:
402,192,44600,1,0,0:0:0:0:
182,192,44716,1,0,0:0:0:0:
36,192,44716,1,0,0:0:0:0:
329,192,44716,1,0,0:0:0:0:
475,192,44716,1,0,0:0:0:0:
109,192,44716,128,0,45065:0:0:0:0:
182,192,44832,128,0,45181:0:0:0:0:
402,192,44832,128,0,44948:0:0:0:0:
256,192,44948,128,0,45065:0:0:0:0:
475,192,44948,128,0,45065:0:0:0:0:
329,192,45065,128,0,45123:0:0:0:0:
402,192,45065,128,0,45123:0:0:0:0:
256,192,45181,128,0,45239:0:0:0:0:
109,192,45181,128,0,45239:0:0:0:0:
475,192,45181,128,0,45530:0:0:0:0:
36,192,45181,128,0,45530:0:0:0:0:
402,192,45297,128,0,45530:0:0:0:0:
182,192,45297,128,0,45414:0:0:0:0:
329,192,45414,128,0,45530:0:0:0:0:
109,192,45414,128,0,45530:0:0:0:0:
256,192,45530,128,0,45646:0:0:0:0:
182,192,45530,1,0,0:0:0:0:
109,192,45646,128,0,45762:0:0:0:0:
36,192,45646,128,0,45879:0:0:0:0:
329,192,45646,1,0,0:0:0:0:
402,192,45646,128,0,45762:0:0:0:0:
475,192,45646,128,0,45879:0:0:0:0:
182,192,45762,1,0,0:0:0:0:
329,192,45879,1,0,0:0:0:0:
402,192,45879,128,0,45995:0:0:0:0:
256,192,45879,128,0,46111:0:0:0:0:
109,192,45995,1,0,0:0:0:0:
475,192,45995,128,0,46111:0:0:0:0:
182,192,45995,128,0,46111:0:0:0:0:
402,192,46111,1,0,0:0:0:0:
36,192,46111,128,0,46228:0:0:0:0:
329,192,46111,128,0,46228:0:0:0:0:
109,192,46228,1,0,0:0:0:0:
182,192,46228,128,0,46344:0:0:0:0:
402,192,46344,1,0,0:0:0:0:
475,192,46344,128,0,46460:0:0:0:0:
329,192,46344,128,0,46576:0:0:0:0:
256,192,46344,128,0,46460:0:0:0:0:
36,192,46460,1,0,0:0:0:0:
182,192,46460,128,0,46693:0:0:0:0:
475,192,46576,1,0,0:0:0:0:
109,192,46576,128,0,46809:0:0:0:0:
402,192,46576,128,0,46809:0:0:0:0:
256,192,46576,1,0,0:0:0:0:
475,192,46693,128,0,46925:0:0:0:0:
36,192,46693,128,0,46925:0:0:0:0:
329,192,46693,1,0,0:0:0:0:
182,192,46809,1,0,0:0:0:0:
256,192,46809,1,0,0:0:0:0:
402,192,46925,1,0,0:0:0:0:
109,192,46925,1,0,0:0:0:0:
329,192,46925,1,0,0:0:0:0:
36,192,47042,1,0,0:0:0:0:
475,192,47042,1,0,0:0:0:0:
256,192,47042,1,0,0:0:0:0:
182,192,47042,128,0,47274:0:0:0:0:
402,192,47042,128,0,47274:0:0:0:0:
329,192,47158,1,0,0:0:0:0:
329,192,47274,128,0,47507:0:0:0:0:
109,192,47274,128,0,47507:0:0:0:0:
36,192,47274,1,0,0:0:0:0:
475,192,47274,1,0,0:0:0:0:
182,192,47390,1,0,0:0:0:0:
256,192,47507,128,0,47739:0:0:0:0:
36,192,47507,128,0,47739:0:0:0:0:
402,192,47507,1,0,0:0:0:0:
475,192,47507,1,0,0:0:0:0:
109,192,47623,1,0,0:0:0:0:
182,192,47739,128,0,47972:0:0:0:0:
475,192,47739,128,0,47972:0:0:0:0:
329,192,47739,1,0,0:0:0:0:
402,192,47739,1,0,0:0:0:0:
256,192,47855,1,0,0:0:0:0:
36,192,47855,1,0,0:0:0:0:
402,192,47972,128,0,48204:0:0:0:0:
109,192,47972,128,0,48204:0:0:0:0:
329,192,47972,1,0,0:0:0:0:
256,192,48088,1,0,0:0:0:0:
182,192,48088,1,0,0:0:0:0:
329,192,48204,128,0,48437:0:0:0:0:
36,192,48204,128,0,48437:0:0:0:0:
475,192,48204,1,0,0:0:0:0:
182,192,48321,1,0,0:0:0:0:
109,192,48321,1,0,0:0:0:0:
256,192,48437,128,0,48902:0:0:0:0:
402,192,48437,128,0,48553:0:0:0:0:
475,192,48437,128,0,48553:0:0:0:0:
109,192,48553,128,0,48669:0:0:0:0:
36,192,48553,128,0,48669:0:0:0:0:
402,192,48669,128,0,48786:0:0:0:0:
329,192,48669,128,0,48786:0:0:0:0:
109,192,48786,128,0,48902:0:0:0:0:
182,192,48786,128,0,48902:0:0:0:0:
36,192,48786,128,0,48844:0:0:0:0:
402,192,48902,1,0,0:0:0:0:
475,192,48902,1,0,0:0:0:0:
329,192,48902,1,0,0:0:0:0:
36,192,48902,128,0,49135:0:0:0:0:
329,192,49135,1,0,0:0:0:0:
402,192,49135,1,0,0:0:0:0:
475,192,49135,1,0,0:0:0:0:
182,192,49251,1,0,0:0:0:0:
109,192,49251,1,0,0:0:0:0:
36,192,49251,1,0,0:0:0:0:
109,192,49367,1,0,0:0:0:0:
182,192,49367,1,0,0:0:0:0:
256,192,49367,1,0,0:0:0:0:
182,192,49483,1,0,0:0:0:0:
256,192,49483,1,0,0:0:0:0:
329,192,49483,1,0,0:0:0:0:
329,192,49600,1,0,0:0:0:0:
475,192,49600,1,0,0:0:0:0:
402,192,49600,1,0,0:0:0:0:
182,192,49716,1,0,0:0:0:0:
109,192,49716,1,0,0:0:0:0:
256,192,49716,1,0,0:0:0:0:
109,192,49832,128,0,50065:0:0:0:0:
182,192,49832,1,0,0:0:0:0:
256,192,49832,1,0,0:0:0:0:
329,192,49832,1,0,0:0:0:0:
402,192,49832,128,0,50065:0:0:0:0:
329,192,50065,1,0,0:0:0:0:
256,192,50065,1,0,0:0:0:0:
182,192,50065,1,0,0:0:0:0:
36,192,50065,128,0,50530:0:0:0:0:
475,192,50065,128,0,50530:0:0:0:0:
109,192,50530,1,0,0:0:0:0:
182,192,50530,1,0,0:0:0:0:
402,192,50530,1,0,0:0:0:0:
256,192,50530,128,0,50995:0:0:0:0:
329,192,50530,1,0,0:0:0:0:
329,192,50762,1,0,0:0:0:0:
402,192,50762,1,0,0:0:0:0:
475,192,50762,1,0,0:0:0:0:
182,192,50762,1,0,0:0:0:0:
109,192,50762,1,0,0:0:0:0:
36,192,50762,1,0,0:0:0:0:
182,192,51228,1,0,0:0:0:0:
256,192,51228,1,0,0:0:0:0:
329,192,51228,1,0,0:0:0:0:
109,192,51460,1,0,0:0:0:0:
182,192,51460,1,0,0:0:0:0:
329,192,51460,1,0,0:0:0:0:
402,192,51460,1,0,0:0:0:0:
256,192,51499,1,0,0:0:0:0:
182,192,51693,1,0,0:0:0:0:
109,192,51693,1,0,0:0:0:0:
36,192,51693,1,0,0:0:0:0:
329,192,51693,1,0,0:0:0:0:
402,192,51693,1,0,0:0:0:0:
475,192,51693,1,0,0:0:0:0:
256,192,51731,1,0,0:0:0:0:
36,192,51809,1,0,0:0:0:0:
475,192,51809,1,0,0:0:0:0:
182,192,51809,1,0,0:0:0:0:
329,192,51809,1,0,0:0:0:0:
109,192,51925,1,0,0:0:0:0:
402,192,51925,1,0,0:0:0:0:
182,192,52042,1,0,0:0:0:0:
329,192,52042,1,0,0:0:0:0:
36,192,52042,1,0,0:0:0:0:
475,192,52042,1,0,0:0:0:0:
256,192,52158,1,0,0:0:0:0:
402,192,52158,1,0,0:0:0:0:
109,192,52158,1,0,0:0:0:0:
36,192,52158,1,0,0:0:0:0:
475,192,52158,1,0,0:0:0:0:
182,192,52274,128,0,52390:0:0:0:0:
329,192,52390,128,0,52507:0:0:0:0:
475,192,52390,1,0,0:0:0:0:
402,192,52390,1,0,0:0:0:0:
256,192,52390,1,0,0:0:0:0:
109,192,52390,1,0,0:0:0:0:
36,192,52390,1,0,0:0:0:0:
109,192,52507,128,0,52623:0:0:0:0:
402,192,52623,128,0,52739:0:0:0:0:
182,192,52623,1,0,0:0:0:0:
256,192,52623,1,0,0:0:0:0:
329,192,52623,1,0,0:0:0:0:
475,192,52623,1,0,0:0:0:0:
36,192,52623,1,0,0:0:0:0:
36,192,52739,128,0,52855:0:0:0:0:
475,192,52855,128,0,52972:0:0:0:0:
182,192,52855,1,0,0:0:0:0:
329,192,52855,1,0,0:0:0:0:
402,192,52855,1,0,0:0:0:0:
109,192,52972,128,0,53088:0:0:0:0:
402,192,53088,128,0,53204:0:0:0:0:
329,192,53088,1,0,0:0:0:0:
256,192,53088,1,0,0:0:0:0:
36,192,53088,1,0,0:0:0:0:
475,192,53088,1,0,0:0:0:0:
182,192,53204,128,0,53321:0:0:0:0:
329,192,53321,128,0,53437:0:0:0:0:
256,192,53321,128,0,53437:0:0:0:0:
109,192,53321,1,0,0:0:0:0:
36,192,53321,1,0,0:0:0:0:
475,192,53321,1,0,0:0:0:0:
402,192,53321,1,0,0:0:0:0:
182,192,53437,128,0,53553:0:0:0:0:
329,192,53553,128,0,53902:0:0:0:0:
256,192,53553,1,0,0:0:0:0:
475,192,53553,1,0,0:0:0:0:
402,192,53553,1,0,0:0:0:0:
36,192,53553,1,0,0:0:0:0:
182,192,53669,128,0,53786:0:0:0:0:
109,192,53669,1,0,0:0:0:0:
256,192,53786,128,0,53902:0:0:0:0:
402,192,53786,1,0,0:0:0:0:
182,192,53902,128,0,54018:0:0:0:0:
475,192,53902,1,0,0:0:0:0:
36,192,53902,1,0,0:0:0:0:
329,192,54018,128,0,54251:0:0:0:0:
256,192,54018,128,0,54135:0:0:0:0:
109,192,54018,1,0,0:0:0:0:
402,192,54018,1,0,0:0:0:0:
182,192,54135,128,0,54600:0:0:0:0:
475,192,54135,128,0,54251:0:0:0:0:
36,192,54135,1,0,0:0:0:0:
256,192,54251,128,0,54367:0:0:0:0:
109,192,54251,128,0,54367:0:0:0:0:
402,192,54251,1,0,0:0:0:0:
329,192,54367,1,0,0:0:0:0:
329,192,54483,128,0,54716:0:0:0:0:
256,192,54483,1,0,0:0:0:0:
109,192,54483,1,0,0:0:0:0:
36,192,54483,128,0,54832:0:0:0:0:
475,192,54483,1,0,0:0:0:0:
256,192,54600,128,0,54832:0:0:0:0:
402,192,54600,1,0,0:0:0:0:
182,192,54716,128,0,54832:0:0:0:0:
109,192,54716,1,0,0:0:0:0:
475,192,54716,1,0,0:0:0:0:
329,192,54832,128,0,55181:0:0:0:0:
402,192,54832,1,0,0:0:0:0:
256,192,54948,128,0,55065:0:0:0:0:
182,192,54948,1,0,0:0:0:0:
475,192,54948,1,0,0:0:0:0:
36,192,54948,1,0,0:0:0:0:
109,192,54948,128,0,55297:0:0:0:0:
182,192,55065,128,0,55297:0:0:0:0:
402,192,55065,1,0,0:0:0:0:
256,192,55181,1,0,0:0:0:0:
475,192,55181,1,0,0:0:0:0:
329,192,55297,1,0,0:0:0:0:
256,192,55297,128,0,55414:0:0:0:0:
36,192,55297,1,0,0:0:0:0:
182,192,55414,1,0,0:0:0:0:
329,192,55414,128,0,55762:0:0:0:0:
109,192,55414,1,0,0:0:0:0:
402,192,55414,128,0,55762:0:0:0:0:
475,192,55414,1,0,0:0:0:0:
256,192,55530,1,0,0:0:0:0:
182,192,55530,128,0,55762:0:0:0:0:
36,192,55530,1,0,0:0:0:0:
256,192,55646,128,0,55762:0:0:0:0:
475,192,55646,1,0,0:0:0:0:
109,192,55646,128,0,55762:0:0:0:0:
109,192,55879,1,0,0:0:0:0:
182,192,55879,1,0,0:0:0:0:
256,192,55879,1,0,0:0:0:0:
329,192,55879,1,0,0:0:0:0:
402,192,55879,1,0,0:0:0:0:
36,192,55917,128,0,55956:0:0:0:0:
109,192,56111,1,0,0:0:0:0:
182,192,56111,1,0,0:0:0:0:
256,192,56111,1,0,0:0:0:0:
329,192,56111,1,0,0:0:0:0:
402,192,56111,1,0,0:0:0:0:
475,192,56150,128,0,56189:0:0:0:0:
109,192,56344,1,0,0:0:0:0:
36,192,56344,1,0,0:0:0:0:
256,192,56344,1,0,0:0:0:0:
329,192,56344,1,0,0:0:0:0:
402,192,56344,1,0,0:0:0:0:
182,192,56383,128,0,56421:0:0:0:0:
256,192,56576,1,0,0:0:0:0:
402,192,56576,1,0,0:0:0:0:
475,192,56576,1,0,0:0:0:0:
109,192,56576,1,0,0:0:0:0:
182,192,56576,1,0,0:0:0:0:
329,192,56615,128,0,56654:0:0:0:0:
182,192,56809,1,0,0:0:0:0:
109,192,56809,1,0,0:0:0:0:
36,192,56809,1,0,0:0:0:0:
329,192,56809,1,0,0:0:0:0:
402,192,56809,1,0,0:0:0:0:
475,192,56809,1,0,0:0:0:0:
256,192,56848,128,0,56886:0:0:0:0:
182,192,57042,1,0,0:0:0:0:
475,192,57042,1,0,0:0:0:0:
109,192,57119,1,0,0:0:0:0:
402,192,57119,1,0,0:0:0:0:
329,192,57158,1,0,0:0:0:0:
36,192,57197,1,0,0:0:0:0:
256,192,57197,1,0,0:0:0:0:
182,192,57235,1,0,0:0:0:0:
109,192,57274,1,0,0:0:0:0:
475,192,57274,1,0,0:0:0:0:
402,192,57274,1,0,0:0:0:0:
329,192,57274,1,0,0:0:0:0:
182,192,57507,1,0,0:0:0:0:
256,192,57507,1,0,0:0:0:0:
36,192,57507,128,0,57972:0:0:0:0:
109,192,57507,128,0,57972:0:0:0:0:
402,192,57507,128,0,57972:0:0:0:0:
329,192,57507,1,0,0:0:0:0:
475,192,57507,128,0,57972:0:0:0:0:
182,192,57972,1,0,0:0:0:0:
256,192,57972,1,0,0:0:0:0:
329,192,57972,1,0,0:0:0:0:
182,192,58088,1,0,0:0:0:0:
256,192,58088,1,0,0:0:0:0:
329,192,58088,1,0,0:0:0:0:
109,192,58088,1,0,0:0:0:0:
402,192,58088,1,0,0:0:0:0:
402,192,58204,1,0,0:0:0:0:
475,192,58204,1,0,0:0:0:0:
109,192,58204,1,0,0:0:0:0:
36,192,58204,1,0,0:0:0:0:
256,192,58204,1,0,0:0:0:0:
182,192,58204,1,0,0:0:0:0:
329,192,58204,1,0,0:0:0:0:
329,192,58321,1,0,0:0:0:0:
182,192,58321,1,0,0:0:0:0:
109,192,58321,1,0,0:0:0:0:
402,192,58321,1,0,0:0:0:0:
475,192,58437,1,0,0:0:0:0:
256,192,58437,1,0,0:0:0:0:
36,192,58437,1,0,0:0:0:0:
256,192,58553,1,0,0:0:0:0:
402,192,58669,1,0,0:0:0:0:
475,192,58669,1,0,0:0:0:0:
329,192,58669,1,0,0:0:0:0:
256,192,58669,1,0,0:0:0:0:
182,192,58669,1,0,0:0:0:0:
36,192,58669,128,0,58698:0:0:0:0:
109,192,58669,128,0,58698:0:0:0:0:
402,192,58902,128,0,58931:0:0:0:0:
475,192,58902,128,0,58931:0:0:0:0:
36,192,58902,1,0,0:0:0:0:
256,192,58902,1,0,0:0:0:0:
329,192,58902,1,0,0:0:0:0:
182,192,58902,1,0,0:0:0:0:
109,192,58902,1,0,0:0:0:0:
182,192,59135,128,0,59164:0:0:0:0:
36,192,59135,128,0,59164:0:0:0:0:
109,192,59135,1,0,0:0:0:0:
256,192,59135,1,0,0:0:0:0:
329,192,59135,1,0,0:0:0:0:
402,192,59135,1,0,0:0:0:0:
475,192,59135,1,0,0:0:0:0:
475,192,59367,128,0,59396:0:0:0:0:
329,192,59367,128,0,59396:0:0:0:0:
402,192,59367,1,0,0:0:0:0:
182,192,59367,1,0,0:0:0:0:
36,192,59367,1,0,0:0:0:0:
109,192,59367,1,0,0:0:0:0:
256,192,59367,1,0,0:0:0:0:
256,192,59483,128,0,59512:0:0:0:0:
402,192,59483,128,0,59512:0:0:0:0:
182,192,59600,128,0,59629:0:0:0:0:
329,192,59600,128,0,59629:0:0:0:0:
475,192,59600,1,0,0:0:0:0:
109,192,59658,128,0,59687:0:0:0:0:
36,192,59716,128,0,59745:0:0:0:0:
402,192,59716,1,0,0:0:0:0:
256,192,59774,128,0,59803:0:0:0:0:
182,192,59832,128,0,59861:0:0:0:0:
475,192,59832,128,0,59861:0:0:0:0:
329,192,59832,128,0,59861:0:0:0:0:
109,192,59832,1,0,0:0:0:0:
36,192,59890,128,0,59919:0:0:0:0:
256,192,59948,1,0,0:0:0:0:
402,192,59948,128,0,59978:0:0:0:0:
109,192,60007,128,0,60036:0:0:0:0:
329,192,60065,128,0,60094:0:0:0:0:
182,192,60065,128,0,60094:0:0:0:0:
36,192,60065,128,0,60094:0:0:0:0:
402,192,60065,1,0,0:0:0:0:
475,192,60123,128,0,60152:0:0:0:0:
256,192,60181,128,0,60210:0:0:0:0:
109,192,60181,1,0,0:0:0:0:
402,192,60239,128,0,60268:0:0:0:0:
182,192,60297,128,0,60326:0:0:0:0:
36,192,60297,128,0,60326:0:0:0:0:
256,192,60355,128,0,60385:0:0:0:0:
329,192,60414,128,0,60443:0:0:0:0:
475,192,60414,128,0,60443:0:0:0:0:
109,192,60414,1,0,0:0:0:0:
402,192,60472,128,0,60501:0:0:0:0:
109,192,60530,128,0,60559:0:0:0:0:
36,192,60530,128,0,60559:0:0:0:0:
256,192,60530,1,0,0:0:0:0:
182,192,60588,128,0,60617:0:0:0:0:
256,192,60646,128,0,60675:0:0:0:0:
475,192,60646,128,0,60675:0:0:0:0:
329,192,60704,128,0,60733:0:0:0:0:
402,192,60762,128,0,60792:0:0:0:0:
109,192,60762,128,0,60792:0:0:0:0:
182,192,60762,128,0,60792:0:0:0:0:
36,192,60762,128,0,60792:0:0:0:0:
329,192,60821,128,0,60850:0:0:0:0:
256,192,60879,128,0,60908:0:0:0:0:
475,192,60879,1,0,0:0:0:0:
182,192,60937,128,0,60966:0:0:0:0:
109,192,60995,128,0,61024:0:0:0:0:
36,192,60995,128,0,61024:0:0:0:0:
475,192,60995,128,0,61024:0:0:0:0:
402,192,60995,128,0,61024:0:0:0:0:
329,192,61053,128,0,61082:0:0:0:0:
256,192,61111,128,0,61140:0:0:0:0:
36,192,61111,1,0,0:0:0:0:
182,192,61169,128,0,61198:0:0:0:0:
109,192,61228,128,0,61257:0:0:0:0:
402,192,61228,128,0,61257:0:0:0:0:
475,192,61228,128,0,61257:0:0:0:0:
329,192,61228,128,0,61257:0:0:0:0:
182,192,61286,128,0,61315:0:0:0:0:
256,192,61344,128,0,61373:0:0:0:0:
36,192,61344,1,0,0:0:0:0:
329,192,61402,128,0,61431:0:0:0:0:
402,192,61460,128,0,61489:0:0:0:0:
475,192,61460,128,0,61489:0:0:0:0:
109,192,61460,128,0,61489:0:0:0:0:
182,192,61460,1,0,0:0:0:0:
256,192,61518,128,0,61547:0:0:0:0:
36,192,61576,128,0,61605:0:0:0:0:
402,192,61576,1,0,0:0:0:0:
182,192,61635,128,0,61664:0:0:0:0:
329,192,61693,128,0,61722:0:0:0:0:
475,192,61693,128,0,61722:0:0:0:0:
109,192,61693,128,0,61722:0:0:0:0:
256,192,61751,128,0,61780:0:0:0:0:
402,192,61809,128,0,61838:0:0:0:0:
36,192,61809,1,0,0:0:0:0:
182,192,61867,128,0,61896:0:0:0:0:
36,192,61925,128,0,61954:0:0:0:0:
329,192,61925,128,0,61954:0:0:0:0:
475,192,61925,128,0,61954:0:0:0:0:
256,192,61925,1,0,0:0:0:0:
109,192,61983,128,0,62012:0:0:0:0:
256,192,62042,128,0,62071:0:0:0:0:
402,192,62042,1,0,0:0:0:0:
182,192,62100,128,0,62129:0:0:0:0:
109,192,62158,128,0,62187:0:0:0:0:
475,192,62158,1,0,0:0:0:0:
36,192,62216,128,0,62245:0:0:0:0:
256,192,62216,128,0,62245:0:0:0:0:
329,192,62274,128,0,62303:0:0:0:0:
402,192,62274,1,0,0:0:0:0:
109,192,62332,128,0,62361:0:0:0:0:
256,192,62390,128,0,62419:0:0:0:0:
475,192,62390,128,0,62419:0:0:0:0:
36,192,62390,128,0,62419:0:0:0:0:
182,192,62448,128,0,62478:0:0:0:0:
402,192,62507,128,0,62536:0:0:0:0:
109,192,62507,1,0,0:0:0:0:
256,192,62565,128,0,62594:0:0:0:0:
182,192,62623,1,0,0:0:0:0:
329,192,62623,128,0,62652:0:0:0:0:
36,192,62623,1,0,0:0:0:0:
402,192,62681,128,0,62710:0:0:0:0:
475,192,62739,128,0,62768:0:0:0:0:
256,192,62739,128,0,62768:0:0:0:0:
182,192,62797,128,0,62826:0:0:0:0:
109,192,62855,128,0,62885:0:0:0:0:
402,192,62855,128,0,62885:0:0:0:0:
36,192,62855,128,0,62885:0:0:0:0:
475,192,62855,1,0,0:0:0:0:
329,192,62914,128,0,62943:0:0:0:0:
256,192,62972,128,0,63001:0:0:0:0:
182,192,63030,128,0,63059:0:0:0:0:
109,192,63088,128,0,63117:0:0:0:0:
402,192,63088,128,0,63117:0:0:0:0:
475,192,63088,128,0,63117:0:0:0:0:
36,192,63088,1,0,0:0:0:0:
329,192,63146,128,0,63175:0:0:0:0:
256,192,63204,128,0,63233:0:0:0:0:
182,192,63262,128,0,63292:0:0:0:0:
36,192,63321,128,0,63350:0:0:0:0:
475,192,63321,128,0,63350:0:0:0:0:
329,192,63321,128,0,63350:0:0:0:0:
256,192,63321,128,0,63495:0:0:0:0:
402,192,63321,128,0,63495:0:0:0:0:
109,192,63321,128,0,63437:0:0:0:0:
182,192,63437,128,0,63466:0:0:0:0:
329,192,63553,128,0,63728:0:0:0:0:
182,192,63553,128,0,63728:0:0:0:0:
402,192,63553,128,0,63582:0:0:0:0:
256,192,63553,128,0,63582:0:0:0:0:
36,192,63553,128,0,63669:0:0:0:0:
109,192,63669,128,0,63698:0:0:0:0:
475,192,63669,128,0,63786:0:0:0:0:
256,192,63786,128,0,63960:0:0:0:0:
109,192,63786,128,0,63960:0:0:0:0:
182,192,63786,128,0,63815:0:0:0:0:
329,192,63786,128,0,63815:0:0:0:0:
402,192,63786,1,0,0:0:0:0:
36,192,63902,128,0,63960:0:0:0:0:
475,192,63902,128,0,64018:0:0:0:0:
182,192,64018,128,0,64193:0:0:0:0:
329,192,64018,128,0,64193:0:0:0:0:
109,192,64018,128,0,64047:0:0:0:0:
256,192,64018,128,0,64047:0:0:0:0:
402,192,64018,1,0,0:0:0:0:
109,192,64135,128,0,64193:0:0:0:0:
475,192,64135,128,0,64251:0:0:0:0:
256,192,64251,128,0,64425:0:0:0:0:
402,192,64251,128,0,64425:0:0:0:0:
182,192,64251,128,0,64280:0:0:0:0:
329,192,64251,128,0,64280:0:0:0:0:
36,192,64251,128,0,64367:0:0:0:0:
182,192,64367,128,0,64425:0:0:0:0:
109,192,64367,1,0,0:0:0:0:
329,192,64483,128,0,64658:0:0:0:0:
475,192,64483,128,0,64658:0:0:0:0:
256,192,64483,128,0,64512:0:0:0:0:
402,192,64483,128,0,64512:0:0:0:0:
109,192,64483,128,0,64600:0:0:0:0:
256,192,64600,128,0,64658:0:0:0:0:
36,192,64600,128,0,64716:0:0:0:0:
402,192,64716,128,0,65065:0:0:0:0:
329,192,64716,128,0,64774:0:0:0:0:
475,192,64716,128,0,64774:0:0:0:0:
182,192,64716,128,0,64832:0:0:0:0:
109,192,64716,1,0,0:0:0:0:
256,192,64832,128,0,64948:0:0:0:0:
109,192,64832,128,0,64919:0:0:0:0:
329,192,64948,128,0,65065:0:0:0:0:
475,192,64948,128,0,65065:0:0:0:0:
36,192,64948,128,0,64978:0:0:0:0:
109,192,64978,128,0,65036:0:0:0:0:
182,192,65007,128,0,65123:0:0:0:0:
256,192,65065,128,0,65239:0:0:0:0:
402,192,65181,128,0,65355:0:0:0:0:
329,192,65181,128,0,65210:0:0:0:0:
475,192,65181,128,0,65210:0:0:0:0:
109,192,65181,1,0,0:0:0:0:
36,192,65181,1,0,0:0:0:0:
256,192,65297,128,0,65472:0:0:0:0:
329,192,65297,128,0,65326:0:0:0:0:
182,192,65297,128,0,65326:0:0:0:0:
36,192,65297,1,0,0:0:0:0:
329,192,65414,128,0,65588:0:0:0:0:
182,192,65414,128,0,65443:0:0:0:0:
109,192,65414,1,0,0:0:0:0:
475,192,65414,1,0,0:0:0:0:
182,192,65530,128,0,65646:0:0:0:0:
256,192,65530,128,0,65559:0:0:0:0:
402,192,65530,1,0,0:0:0:0:
36,192,65530,1,0,0:0:0:0:
256,192,65646,128,0,65821:0:0:0:0:
109,192,65646,128,0,65675:0:0:0:0:
475,192,65646,1,0,0:0:0:0:
329,192,65646,1,0,0:0:0:0:
109,192,65762,128,0,65879:0:0:0:0:
402,192,65762,1,0,0:0:0:0:
182,192,65762,1,0,0:0:0:0:
182,192,65879,128,0,66053:0:0:0:0:
36,192,65879,128,0,65908:0:0:0:0:
329,192,65879,1,0,0:0:0:0:
256,192,65879,1,0,0:0:0:0:
475,192,65879,1,0,0:0:0:0:
36,192,65995,128,0,66228:0:0:0:0:
109,192,65995,1,0,0:0:0:0:
402,192,65995,1,0,0:0:0:0:
109,192,66111,128,0,66286:0:0:0:0:
182,192,66111,128,0,66140:0:0:0:0:
475,192,66111,1,0,0:0:0:0:
329,192,66111,1,0,0:0:0:0:
182,192,66228,128,0,66402:0:0:0:0:
256,192,66228,128,0,66257:0:0:0:0:
402,192,66228,1,0,0:0:0:0:
36,192,66344,128,0,66576:0:0:0:0:
256,192,66344,128,0,66518:0:0:0:0:
329,192,66344,128,0,66373:0:0:0:0:
109,192,66344,128,0,66402:0:0:0:0:
475,192,66344,1,0,0:0:0:0:
329,192,66460,128,0,66635:0:0:0:0:
402,192,66460,128,0,66489:0:0:0:0:
182,192,66460,128,0,66518:0:0:0:0:
402,192,66576,128,0,66983:0:0:0:0:
475,192,66576,1,0,0:0:0:0:
256,192,66576,128,0,66635:0:0:0:0:
109,192,66576,128,0,66809:0:0:0:0:
182,192,66576,128,0,66693:0:0:0:0:
475,192,66693,1,0,0:0:0:0:
329,192,66693,128,0,66751:0:0:0:0:
256,192,66693,128,0,66809:0:0:0:0:
36,192,66693,1,0,0:0:0:0:
182,192,66809,128,0,67042:0:0:0:0:
36,192,66809,128,0,67042:0:0:0:0:
329,192,66809,128,0,66925:0:0:0:0:
475,192,66809,128,0,66925:0:0:0:0:
256,192,66925,1,0,0:0:0:0:
109,192,66925,1,0,0:0:0:0:
256,192,67042,1,0,0:0:0:0:
329,192,67042,1,0,0:0:0:0:
475,192,67042,1,0,0:0:0:0:
109,192,67042,1,0,0:0:0:0:
402,192,67042,1,0,0:0:0:0:
182,192,67158,1,0,0:0:0:0:
36,192,67158,1,0,0:0:0:0:
402,192,67158,1,0,0:0:0:0:
329,192,67274,1,0,0:0:0:0:
109,192,67274,1,0,0:0:0:0:
475,192,67274,1,0,0:0:0:0:
182,192,67390,1,0,0:0:0:0:
402,192,67390,1,0,0:0:0:0:
36,192,67390,1,0,0:0:0:0:
256,192,67390,1,0,0:0:0:0:
182,192,67507,1,0,0:0:0:0:
329,192,67507,1,0,0:0:0:0:
109,192,67507,1,0,0:0:0:0:
475,192,67507,1,0,0:0:0:0:
36,192,67507,1,0,0:0:0:0:
182,192,67623,1,0,0:0:0:0:
402,192,67623,1,0,0:0:0:0:
256,192,67739,1,0,0:0:0:0:
329,192,67739,1,0,0:0:0:0:
475,192,67739,1,0,0:0:0:0:
109,192,67739,1,0,0:0:0:0:
36,192,67739,1,0,0:0:0:0:
256,192,67855,1,0,0:0:0:0:
109,192,67855,1,0,0:0:0:0:
402,192,67855,1,0,0:0:0:0:
402,192,67972,1,0,0:0:0:0:
475,192,67972,1,0,0:0:0:0:
109,192,67972,1,0,0:0:0:0:
36,192,67972,1,0,0:0:0:0:
329,192,67972,1,0,0:0:0:0:
182,192,67972,1,0,0:0:0:0:
402,192,68088,1,0,0:0:0:0:
182,192,68088,1,0,0:0:0:0:
329,192,68088,1,0,0:0:0:0:
36,192,68204,1,0,0:0:0:0:
109,192,68204,1,0,0:0:0:0:
256,192,68204,1,0,0:0:0:0:
402,192,68204,1,0,0:0:0:0:
475,192,68204,1,0,0:0:0:0:
329,192,68321,1,0,0:0:0:0:
475,192,68321,1,0,0:0:0:0:
182,192,68321,1,0,0:0:0:0:
402,192,68437,1,0,0:0:0:0:
256,192,68437,1,0,0:0:0:0:
475,192,68437,1,0,0:0:0:0:
109,192,68437,1,0,0:0:0:0:
36,192,68437,1,0,0:0:0:0:
329,192,68437,1,0,0:0:0:0:
182,192,68437,1,0,0:0:0:0:
109,192,68553,1,0,0:0:0:0:
402,192,68553,1,0,0:0:0:0:
256,192,68553,1,0,0:0:0:0:
182,192,68669,1,0,0:0:0:0:
402,192,68669,1,0,0:0:0:0:
36,192,68669,1,0,0:0:0:0:
475,192,68669,1,0,0:0:0:0:
329,192,68669,1,0,0:0:0:0:
475,192,68786,1,0,0:0:0:0:
256,192,68786,1,0,0:0:0:0:
109,192,68786,1,0,0:0:0:0:
109,192,68902,1,0,0:0:0:0:
36,192,68902,1,0,0:0:0:0:
256,192,68902,1,0,0:0:0:0:
475,192,68902,1,0,0:0:0:0:
329,192,68902,1,0,0:0:0:0:
402,192,68902,1,0,0:0:0:0:
182,192,69018,1,0,0:0:0:0:
182,192,69135,1,0,0:0:0:0:
109,192,69135,1,0,0:0:0:0:
329,192,69135,1,0,0:0:0:0:
402,192,69135,1,0,0:0:0:0:
475,192,69135,1,0,0:0:0:0:
36,192,69135,1,0,0:0:0:0:
256,192,69135,1,0,0:0:0:0:
329,192,69251,1,0,0:0:0:0:
256,192,69367,1,0,0:0:0:0:
182,192,69367,1,0,0:0:0:0:
109,192,69367,1,0,0:0:0:0:
36,192,69367,1,0,0:0:0:0:
402,192,69367,1,0,0:0:0:0:
475,192,69367,1,0,0:0:0:0:
329,192,69367,1,0,0:0:0:0:
182,192,69483,1,0,0:0:0:0:
182,192,69600,1,0,0:0:0:0:
109,192,69600,1,0,0:0:0:0:
36,192,69600,1,0,0:0:0:0:
256,192,69600,1,0,0:0:0:0:
475,192,69600,1,0,0:0:0:0:
402,192,69600,1,0,0:0:0:0:
329,192,69716,1,0,0:0:0:0:
109,192,69832,1,0,0:0:0:0:
402,192,69832,1,0,0:0:0:0:
475,192,69832,1,0,0:0:0:0:
182,192,69832,1,0,0:0:0:0:
329,192,69832,1,0,0:0:0:0:
36,192,69832,1,0,0:0:0:0:
109,192,69948,1,0,0:0:0:0:
182,192,69948,1,0,0:0:0:0:
36,192,70065,1,0,0:0:0:0:
109,192,70065,1,0,0:0:0:0:
256,192,70065,1,0,0:0:0:0:
329,192,70065,1,0,0:0:0:0:
402,192,70065,1,0,0:0:0:0:
475,192,70065,1,0,0:0:0:0:
402,192,70181,1,0,0:0:0:0:
329,192,70181,1,0,0:0:0:0:
256,192,70297,1,0,0:0:0:0:
182,192,70297,1,0,0:0:0:0:
109,192,70297,1,0,0:0:0:0:
36,192,70297,1,0,0:0:0:0:
402,192,70297,1,0,0:0:0:0:
475,192,70297,1,0,0:0:0:0:
329,192,70414,1,0,0:0:0:0:
256,192,70414,1,0,0:0:0:0:
182,192,70530,1,0,0:0:0:0:
36,192,70530,1,0,0:0:0:0:
402,192,70530,1,0,0:0:0:0:
475,192,70530,1,0,0:0:0:0:
256,192,70530,1,0,0:0:0:0:
109,192,70646,1,0,0:0:0:0:
182,192,70646,1,0,0:0:0:0:
329,192,70646,1,0,0:0:0:0:
256,192,70762,1,0,0:0:0:0:
182,192,70762,1,0,0:0:0:0:
36,192,70762,1,0,0:0:0:0:
109,192,70762,1,0,0:0:0:0:
402,192,70762,1,0,0:0:0:0:
475,192,70762,1,0,0:0:0:0:
182,192,70879,1,0,0:0:0:0:
36,192,70879,1,0,0:0:0:0:
329,192,70879,1,0,0:0:0:0:
329,192,70995,1,0,0:0:0:0:
256,192,70995,1,0,0:0:0:0:
182,192,70995,1,0,0:0:0:0:
109,192,70995,1,0,0:0:0:0:
402,192,71111,1,0,0:0:0:0:
109,192,71111,1,0,0:0:0:0:
256,192,71111,1,0,0:0:0:0:
182,192,71228,1,0,0:0:0:0:
256,192,71228,1,0,0:0:0:0:
329,192,71228,1,0,0:0:0:0:
402,192,71228,1,0,0:0:0:0:
36,192,71228,1,0,0:0:0:0:
475,192,71228,1,0,0:0:0:0:
109,192,71344,1,0,0:0:0:0:
475,192,71344,1,0,0:0:0:0:
329,192,71344,1,0,0:0:0:0:
256,192,71460,1,0,0:0:0:0:
329,192,71460,1,0,0:0:0:0:
402,192,71460,1,0,0:0:0:0:
475,192,71460,1,0,0:0:0:0:
182,192,71460,1,0,0:0:0:0:
36,192,71460,1,0,0:0:0:0:
109,192,71576,1,0,0:0:0:0:
256,192,71576,1,0,0:0:0:0:
402,192,71576,1,0,0:0:0:0:
402,192,71693,1,0,0:0:0:0:
256,192,71693,1,0,0:0:0:0:
182,192,71693,1,0,0:0:0:0:
475,192,71693,1,0,0:0:0:0:
36,192,71693,1,0,0:0:0:0:
182,192,71809,1,0,0:0:0:0:
329,192,71809,1,0,0:0:0:0:
475,192,71809,1,0,0:0:0:0:
475,192,71925,1,0,0:0:0:0:
402,192,71925,1,0,0:0:0:0:
36,192,71925,1,0,0:0:0:0:
109,192,71954,1,0,0:0:0:0:
182,192,71983,1,0,0:0:0:0:
256,192,72012,1,0,0:0:0:0:
329,192,72042,1,0,0:0:0:0:
402,192,72042,1,0,0:0:0:0:
36,192,72158,1,0,0:0:0:0:
109,192,72158,1,0,0:0:0:0:
256,192,72158,1,0,0:0:0:0:
182,192,72158,1,0,0:0:0:0:
329,192,72158,1,0,0:0:0:0:
475,192,72158,1,0,0:0:0:0:
402,192,72274,1,0,0:0:0:0:
182,192,72274,1,0,0:0:0:0:
256,192,72390,1,0,0:0:0:0:
329,192,72390,1,0,0:0:0:0:
109,192,72390,1,0,0:0:0:0:
182,192,72390,1,0,0:0:0:0:
402,192,72390,1,0,0:0:0:0:
36,192,72390,1,0,0:0:0:0:
475,192,72390,1,0,0:0:0:0:
402,192,72507,1,0,0:0:0:0:
256,192,72507,1,0,0:0:0:0:
109,192,72507,1,0,0:0:0:0:
36,192,72623,1,0,0:0:0:0:
182,192,72623,1,0,0:0:0:0:
256,192,72623,1,0,0:0:0:0:
109,192,72623,1,0,0:0:0:0:
402,192,72623,1,0,0:0:0:0:
329,192,72623,1,0,0:0:0:0:
475,192,72623,1,0,0:0:0:0:
36,192,72739,1,0,0:0:0:0:
109,192,72739,1,0,0:0:0:0:
256,192,72739,1,0,0:0:0:0:
402,192,72739,1,0,0:0:0:0:
475,192,72739,1,0,0:0:0:0:
182,192,72739,1,0,0:0:0:0:
329,192,72739,1,0,0:0:0:0:
36,192,72855,128,0,72885:0:0:0:0:
109,192,72855,128,0,72885:0:0:0:0:
182,192,72855,128,0,72885:0:0:0:0:
256,192,72855,128,0,72885:0:0:0:0:
329,192,72855,128,0,72885:0:0:0:0:
402,192,72855,128,0,72885:0:0:0:0:
475,192,72855,128,0,72885:0:0:0:0:
182,192,72972,128,0,73001:0:0:0:0:
109,192,72972,128,0,73001:0:0:0:0:
256,192,72972,128,0,73001:0:0:0:0:
475,192,72972,128,0,73001:0:0:0:0:
402,192,72972,128,0,73001:0:0:0:0:
329,192,72972,128,0,73001:0:0:0:0:
36,192,72972,128,0,73001:0:0:0:0:
256,192,73088,128,0,73146:0:0:0:0:
36,192,73088,128,0,73146:0:0:0:0:
182,192,73088,128,0,73146:0:0:0:0:
329,192,73088,128,0,73146:0:0:0:0:
402,192,73088,128,0,73146:0:0:0:0:
475,192,73088,128,0,73146:0:0:0:0:
109,192,73088,128,0,73146:0:0:0:0:
475,192,73204,128,0,73262:0:0:0:0:
402,192,73204,128,0,73262:0:0:0:0:
329,192,73204,128,0,73262:0:0:0:0:
182,192,73204,128,0,73262:0:0:0:0:
109,192,73204,128,0,73262:0:0:0:0:
36,192,73204,128,0,73262:0:0:0:0:
256,192,73204,128,0,73262:0:0:0:0:
36,192,73321,128,0,73408:0:0:0:0:
109,192,73321,128,0,73408:0:0:0:0:
182,192,73321,128,0,73408:0:0:0:0:
256,192,73321,128,0,73408:0:0:0:0:
329,192,73321,128,0,73408:0:0:0:0:
402,192,73321,128,0,73408:0:0:0:0:
475,192,73321,128,0,73408:0:0:0:0:
36,192,73437,128,0,73514:0:0:0:0:
109,192,73437,128,0,73514:0:0:0:0:
182,192,73437,128,0,73514:0:0:0:0:
256,192,73437,128,0,73514:0:0:0:0:
329,192,73437,128,0,73514:0:0:0:0:
475,192,73437,128,0,73514:0:0:0:0:
402,192,73437,128,0,73514:0:0:0:0:
329,192,73553,128,0,73611:0:0:0:0:
182,192,73553,128,0,73611:0:0:0:0:
109,192,73553,128,0,73611:0:0:0:0:
256,192,73553,128,0,73611:0:0:0:0:
36,192,73553,128,0,73611:0:0:0:0:
402,192,73553,128,0,73611:0:0:0:0:
475,192,73553,128,0,73611:0:0:0:0:
36,192,73669,1,0,0:0:0:0:
109,192,73669,1,0,0:0:0:0:
182,192,73669,1,0,0:0:0:0:
256,192,73669,1,0,0:0:0:0:
329,192,73669,1,0,0:0:0:0:
402,192,73669,1,0,0:0:0:0:
475,192,73669,1,0,0:0:0:0:
36,192,73728,1,0,0:0:0:0:
109,192,73728,1,0,0:0:0:0:
182,192,73728,1,0,0:0:0:0:
256,192,73728,1,0,0:0:0:0:
329,192,73728,1,0,0:0:0:0:
402,192,73728,1,0,0:0:0:0:
475,192,73728,1,0,0:0:0:0:
475,192,73786,1,0,0:0:0:0:
402,192,73786,1,0,0:0:0:0:
329,192,73786,1,0,0:0:0:0:
256,192,73786,1,0,0:0:0:0:
182,192,73786,1,0,0:0:0:0:
109,192,73786,1,0,0:0:0:0:
36,192,73786,1,0,0:0:0:0:
36,192,73902,128,0,73941:0:0:0:0:
109,192,73902,128,0,73941:0:0:0:0:
182,192,73902,128,0,73941:0:0:0:0:
402,192,73902,128,0,73941:0:0:0:0:
475,192,73902,128,0,73941:0:0:0:0:
329,192,73902,128,0,73941:0:0:0:0:
256,192,73902,128,0,73941:0:0:0:0:
36,192,74018,1,0,0:0:0:0:
109,192,74018,1,0,0:0:0:0:
182,192,74018,1,0,0:0:0:0:
329,192,74018,1,0,0:0:0:0:
402,192,74018,1,0,0:0:0:0:
475,192,74018,1,0,0:0:0:0:
256,192,74018,1,0,0:0:0:0:
109,192,74135,128,0,74193:0:0:0:0:
36,192,74135,128,0,74193:0:0:0:0:
182,192,74135,128,0,74193:0:0:0:0:
256,192,74135,128,0,74193:0:0:0:0:
329,192,74135,128,0,74193:0:0:0:0:
402,192,74135,128,0,74193:0:0:0:0:
475,192,74135,128,0,74193:0:0:0:0:
475,192,74251,1,0,0:0:0:0:
402,192,74251,1,0,0:0:0:0:
329,192,74251,1,0,0:0:0:0:
256,192,74251,1,0,0:0:0:0:
182,192,74251,1,0,0:0:0:0:
109,192,74251,1,0,0:0:0:0:
36,192,74251,1,0,0:0:0:0:
36,192,74367,128,0,74425:0:0:0:0:
109,192,74367,128,0,74425:0:0:0:0:
182,192,74367,128,0,74425:0:0:0:0:
256,192,74367,128,0,74425:0:0:0:0:
329,192,74367,128,0,74425:0:0:0:0:
475,192,74367,128,0,74425:0:0:0:0:
402,192,74367,128,0,74425:0:0:0:0:
109,192,74483,128,0,74512:0:0:0:0:
36,192,74483,128,0,74512:0:0:0:0:
256,192,74483,1,0,0:0:0:0:
182,192,74483,128,0,74512:0:0:0:0:
329,192,74483,1,0,0:0:0:0:
402,192,74483,1,0,0:0:0:0:
475,192,74483,128,0,74571:0:0:0:0:
329,192,74600,128,0,74658:0:0:0:0:
402,192,74600,128,0,74687:0:0:0:0:
475,192,74600,1,0,0:0:0:0:
402,192,74716,1,0,0:0:0:0:
36,192,74716,128,0,74890:0:0:0:0:
329,192,74716,128,0,74745:0:0:0:0:
256,192,74716,128,0,74803:0:0:0:0:
182,192,74716,128,0,74832:0:0:0:0:
109,192,74716,128,0,74861:0:0:0:0:
475,192,74716,1,0,0:0:0:0:
475,192,74832,1,0,0:0:0:0:
329,192,74832,1,0,0:0:0:0:
402,192,74832,1,0,0:0:0:0:
182,192,74948,1,0,0:0:0:0:
475,192,74948,128,0,74978:0:0:0:0:
329,192,74948,128,0,74978:0:0:0:0:
36,192,74948,128,0,75181:0:0:0:0:
256,192,74948,1,0,0:0:0:0:
402,192,74948,128,0,74978:0:0:0:0:
109,192,74948,1,0,0:0:0:0:
182,192,75065,1,0,0:0:0:0:
256,192,75065,1,0,0:0:0:0:
109,192,75181,1,0,0:0:0:0:
256,192,75181,1,0,0:0:0:0:
182,192,75181,1,0,0:0:0:0:
329,192,75181,128,0,75414:0:0:0:0:
402,192,75181,128,0,75355:0:0:0:0:
475,192,75181,128,0,75297:0:0:0:0:
36,192,75239,128,0,75297:0:0:0:0:
109,192,75297,128,0,75355:0:0:0:0:
182,192,75355,128,0,75414:0:0:0:0:
36,192,75414,1,0,0:0:0:0:
109,192,75414,1,0,0:0:0:0:
256,192,75414,1,0,0:0:0:0:
402,192,75414,128,0,75588:0:0:0:0:
475,192,75414,128,0,75530:0:0:0:0:
329,192,75472,128,0,75501:0:0:0:0:
256,192,75530,128,0,75559:0:0:0:0:
109,192,75530,128,0,75588:0:0:0:0:
36,192,75530,128,0,75588:0:0:0:0:
182,192,75588,128,0,75617:0:0:0:0:
109,192,75646,128,0,75675:0:0:0:0:
329,192,75646,128,0,75704:0:0:0:0:
402,192,75646,128,0,75762:0:0:0:0:
475,192,75646,128,0,75821:0:0:0:0:
182,192,75704,128,0,75733:0:0:0:0:
36,192,75762,1,0,0:0:0:0:
256,192,75762,128,0,75792:0:0:0:0:
329,192,75821,128,0,75850:0:0:0:0:
36,192,75879,128,0,75908:0:0:0:0:
109,192,75879,128,0,75908:0:0:0:0:
402,192,75879,128,0,75908:0:0:0:0:
475,192,75879,128,0,75908:0:0:0:0:
182,192,75937,128,0,75966:0:0:0:0:
475,192,75995,1,0,0:0:0:0:
256,192,75995,128,0,76024:0:0:0:0:
329,192,76053,128,0,76082:0:0:0:0:
36,192,76111,128,0,76140:0:0:0:0:
182,192,76111,128,0,76140:0:0:0:0:
402,192,76111,128,0,76140:0:0:0:0:
109,192,76111,128,0,76140:0:0:0:0:
329,192,76169,128,0,76198:0:0:0:0:
475,192,76228,1,0,0:0:0:0:
256,192,76228,128,0,76257:0:0:0:0:
182,192,76286,128,0,76315:0:0:0:0:
109,192,76344,128,0,76547:0:0:0:0:
402,192,76344,128,0,76373:0:0:0:0:
329,192,76344,128,0,76373:0:0:0:0:
475,192,76344,128,0,76373:0:0:0:0:
36,192,76344,128,0,76373:0:0:0:0:
256,192,76402,128,0,76431:0:0:0:0:
182,192,76460,128,0,76489:0:0:0:0:
475,192,76460,1,0,0:0:0:0:
402,192,76518,128,0,76547:0:0:0:0:
109,192,76576,1,0,0:0:0:0:
36,192,76576,128,0,76780:0:0:0:0:
329,192,76576,128,0,76605:0:0:0:0:
256,192,76576,1,0,0:0:0:0:
182,192,76635,128,0,76664:0:0:0:0:
475,192,76693,128,0,76722:0:0:0:0:
402,192,76693,1,0,0:0:0:0:
256,192,76751,128,0,76780:0:0:0:0:
36,192,76809,1,0,0:0:0:0:
109,192,76809,128,0,77012:0:0:0:0:
475,192,76809,128,0,76838:0:0:0:0:
329,192,76809,128,0,76838:0:0:0:0:
182,192,76809,128,0,76838:0:0:0:0:
402,192,76867,128,0,76896:0:0:0:0:
256,192,76925,128,0,76954:0:0:0:0:
36,192,76925,128,0,76954:0:0:0:0:
475,192,76983,128,0,77012:0:0:0:0:
109,192,77042,1,0,0:0:0:0:
182,192,77042,128,0,77158:0:0:0:0:
329,192,77042,128,0,77071:0:0:0:0:
402,192,77042,128,0,77071:0:0:0:0:
36,192,77100,128,0,77129:0:0:0:0:
256,192,77158,128,0,77274:0:0:0:0:
475,192,77158,128,0,77187:0:0:0:0:
329,192,77158,1,0,0:0:0:0:
109,192,77216,128,0,77245:0:0:0:0:
182,192,77274,1,0,0:0:0:0:
329,192,77274,128,0,77390:0:0:0:0:
402,192,77274,128,0,77303:0:0:0:0:
36,192,77332,128,0,77361:0:0:0:0:
402,192,77390,128,0,77507:0:0:0:0:
475,192,77390,128,0,77419:0:0:0:0:
109,192,77390,128,0,77419:0:0:0:0:
256,192,77448,128,0,77478:0:0:0:0:
475,192,77507,128,0,77710:0:0:0:0:
182,192,77507,128,0,77536:0:0:0:0:
36,192,77507,128,0,77536:0:0:0:0:
329,192,77565,128,0,77594:0:0:0:0:
256,192,77623,128,0,77652:0:0:0:0:
109,192,77623,128,0,77652:0:0:0:0:
36,192,77681,128,0,77710:0:0:0:0:
256,192,77739,1,0,0:0:0:0:
475,192,77739,1,0,0:0:0:0:
402,192,77739,128,0,77943:0:0:0:0:
182,192,77739,128,0,77768:0:0:0:0:
329,192,77739,128,0,77768:0:0:0:0:
109,192,77797,128,0,77826:0:0:0:0:
256,192,77855,128,0,77885:0:0:0:0:
36,192,77855,128,0,77885:0:0:0:0:
182,192,77914,128,0,77943:0:0:0:0:
402,192,77972,1,0,0:0:0:0:
329,192,77972,128,0,78001:0:0:0:0:
109,192,77972,128,0,78001:0:0:0:0:
475,192,77972,1,0,0:0:0:0:
256,192,78030,128,0,78059:0:0:0:0:
36,192,78030,128,0,78059:0:0:0:0:
182,192,78088,128,0,78117:0:0:0:0:
402,192,78088,128,0,78117:0:0:0:0:
475,192,78088,128,0,78117:0:0:0:0:
109,192,78088,128,0,78117:0:0:0:0:
329,192,78204,128,0,78233:0:0:0:0:
475,192,78204,128,0,78233:0:0:0:0:
402,192,78204,128,0,78233:0:0:0:0:
36,192,78204,128,0,78292:0:0:0:0:
109,192,78204,1,0,0:0:0:0:
256,192,78204,1,0,0:0:0:0:
182,192,78204,1,0,0:0:0:0:
109,192,78321,128,0,78408:0:0:0:0:
182,192,78321,128,0,78379:0:0:0:0:
36,192,78321,1,0,0:0:0:0:
329,192,78437,128,0,78553:0:0:0:0:
182,192,78437,128,0,78466:0:0:0:0:
475,192,78437,128,0,78611:0:0:0:0:
256,192,78437,128,0,78524:0:0:0:0:
109,192,78437,1,0,0:0:0:0:
402,192,78437,128,0,78582:0:0:0:0:
36,192,78437,1,0,0:0:0:0:
36,192,78553,1,0,0:0:0:0:
182,192,78553,1,0,0:0:0:0:
109,192,78553,1,0,0:0:0:0:
329,192,78669,1,0,0:0:0:0:
36,192,78669,128,0,78698:0:0:0:0:
182,192,78669,128,0,78698:0:0:0:0:
475,192,78669,128,0,78902:0:0:0:0:
256,192,78669,1,0,0:0:0:0:
109,192,78669,128,0,78698:0:0:0:0:
402,192,78669,1,0,0:0:0:0:
329,192,78786,1,0,0:0:0:0:
256,192,78786,1,0,0:0:0:0:
402,192,78902,1,0,0:0:0:0:
256,192,78902,1,0,0:0:0:0:
329,192,78902,1,0,0:0:0:0:
182,192,78902,128,0,79135:0:0:0:0:
109,192,78902,128,0,79076:0:0:0:0:
36,192,78902,128,0,79018:0:0:0:0:
475,192,78960,128,0,79018:0:0:0:0:
402,192,79018,128,0,79076:0:0:0:0:
329,192,79076,128,0,79135:0:0:0:0:
475,192,79135,1,0,0:0:0:0:
402,192,79135,1,0,0:0:0:0:
256,192,79135,1,0,0:0:0:0:
109,192,79135,128,0,79309:0:0:0:0:
36,192,79135,128,0,79251:0:0:0:0:
182,192,79193,128,0,79222:0:0:0:0:
256,192,79251,128,0,79280:0:0:0:0:
402,192,79251,128,0,79309:0:0:0:0:
475,192,79251,128,0,79309:0:0:0:0:
329,192,79309,128,0,79338:0:0:0:0:
402,192,79367,128,0,79396:0:0:0:0:
182,192,79367,128,0,79425:0:0:0:0:
109,192,79367,128,0,79483:0:0:0:0:
36,192,79367,128,0,79542:0:0:0:0:
329,192,79425,128,0,79454:0:0:0:0:
475,192,79483,1,0,0:0:0:0:
256,192,79483,128,0,79512:0:0:0:0:
182,192,79542,128,0,79571:0:0:0:0:
475,192,79600,128,0,79629:0:0:0:0:
402,192,79600,128,0,79629:0:0:0:0:
109,192,79600,128,0,79629:0:0:0:0:
36,192,79600,128,0,79629:0:0:0:0:
329,192,79658,128,0,79687:0:0:0:0:
36,192,79716,1,0,0:0:0:0:
256,192,79716,128,0,79745:0:0:0:0:
182,192,79774,128,0,79803:0:0:0:0:
475,192,79832,128,0,79861:0:0:0:0:
329,192,79832,128,0,79861:0:0:0:0:
109,192,79832,128,0,79861:0:0:0:0:
402,192,79832,128,0,79861:0:0:0:0:
182,192,79890,128,0,79919:0:0:0:0:
36,192,79948,1,0,0:0:0:0:
256,192,79948,128,0,79978:0:0:0:0:
329,192,80007,128,0,80036:0:0:0:0:
256,192,80065,128,0,80123:0:0:0:0:
36,192,80065,128,0,80123:0:0:0:0:
475,192,80065,128,0,80123:0:0:0:0:
402,192,80123,128,0,80239:0:0:0:0:
182,192,80123,128,0,80181:0:0:0:0:
329,192,80181,128,0,80239:0:0:0:0:
109,192,80181,128,0,80239:0:0:0:0:
256,192,80239,128,0,80355:0:0:0:0:
36,192,80239,128,0,80297:0:0:0:0:
182,192,80297,128,0,80355:0:0:0:0:
475,192,80297,128,0,80414:0:0:0:0:
402,192,80355,128,0,80414:0:0:0:0:
109,192,80355,128,0,80472:0:0:0:0:
329,192,80414,128,0,80530:0:0:0:0:
36,192,80414,128,0,80472:0:0:0:0:
256,192,80472,128,0,80530:0:0:0:0:
182,192,80530,128,0,80704:0:0:0:0:
109,192,80530,128,0,80588:0:0:0:0:
36,192,80530,128,0,80588:0:0:0:0:
402,192,80530,128,0,80588:0:0:0:0:
475,192,80530,128,0,80646:0:0:0:0:
256,192,80588,128,0,80762:0:0:0:0:
329,192,80646,128,0,80821:0:0:0:0:
36,192,80646,128,0,80762:0:0:0:0:
402,192,80704,128,0,80879:0:0:0:0:
109,192,80704,128,0,80762:0:0:0:0:
475,192,80762,128,0,80937:0:0:0:0:
182,192,80762,128,0,80879:0:0:0:0:
256,192,80821,128,0,80879:0:0:0:0:
36,192,80821,128,0,80879:0:0:0:0:
109,192,80879,128,0,80995:0:0:0:0:
329,192,80879,128,0,80995:0:0:0:0:
182,192,80937,128,0,80995:0:0:0:0:
402,192,80937,128,0,80995:0:0:0:0:
475,192,80995,128,0,81111:0:0:0:0:
256,192,80995,128,0,81111:0:0:0:0:
36,192,80995,128,0,81111:0:0:0:0:
109,192,81053,128,0,81111:0:0:0:0:
329,192,81053,128,0,81111:0:0:0:0:
182,192,81111,128,0,81228:0:0:0:0:
402,192,81111,128,0,81228:0:0:0:0:
256,192,81169,128,0,81228:0:0:0:0:
475,192,81169,128,0,81228:0:0:0:0:
329,192,81228,128,0,81344:0:0:0:0:
36,192,81228,128,0,81402:0:0:0:0:
109,192,81286,128,0,81402:0:0:0:0:
402,192,81286,128,0,81344:0:0:0:0:
182,192,81344,128,0,81402:0:0:0:0:
475,192,81344,128,0,81402:0:0:0:0:
256,192,81402,128,0,81460:0:0:0:0:
329,192,81460,128,0,81635:0:0:0:0:
402,192,81460,128,0,81518:0:0:0:0:
475,192,81460,128,0,81518:0:0:0:0:
109,192,81460,128,0,81518:0:0:0:0:
36,192,81460,128,0,81576:0:0:0:0:
256,192,81518,128,0,81576:0:0:0:0:
475,192,81576,128,0,81693:0:0:0:0:
182,192,81576,128,0,81751:0:0:0:0:
109,192,81635,128,0,81693:0:0:0:0:
402,192,81635,128,0,81693:0:0:0:0:
36,192,81693,128,0,81867:0:0:0:0:
329,192,81693,128,0,81809:0:0:0:0:
256,192,81751,128,0,81809:0:0:0:0:
475,192,81751,128,0,81809:0:0:0:0:
402,192,81809,128,0,81925:0:0:0:0:
182,192,81809,128,0,81925:0:0:0:0:
329,192,81867,128,0,81925:0:0:0:0:
109,192,81867,128,0,81925:0:0:0:0:
36,192,81925,1,0,0:0:0:0:
256,192,81925,1,0,0:0:0:0:
475,192,81925,1,0,0:0:0:0:
109,192,82042,1,0,0:0:0:0:
402,192,82042,1,0,0:0:0:0:
256,192,82042,1,0,0:0:0:0:
182,192,82158,1,0,0:0:0:0:
329,192,82158,1,0,0:0:0:0:
36,192,82158,1,0,0:0:0:0:
475,192,82158,1,0,0:0:0:0:
109,192,82274,1,0,0:0:0:0:
256,192,82274,1,0,0:0:0:0:
402,192,82274,1,0,0:0:0:0:
182,192,82390,1,0,0:0:0:0:
329,192,82390,1,0,0:0:0:0:
256,192,82390,1,0,0:0:0:0:
402,192,82390,1,0,0:0:0:0:
475,192,82390,1,0,0:0:0:0:
36,192,82390,1,0,0:0:0:0:
109,192,82507,1,0,0:0:0:0:
256,192,82507,1,0,0:0:0:0:
402,192,82507,1,0,0:0:0:0:
256,192,82623,1,0,0:0:0:0:
109,192,82623,1,0,0:0:0:0:
402,192,82623,1,0,0:0:0:0:
475,192,82652,1,0,0:0:0:0:
36,192,82652,1,0,0:0:0:0:
182,192,82739,1,0,0:0:0:0:
329,192,82739,1,0,0:0:0:0:
402,192,82768,1,0,0:0:0:0:
109,192,82768,1,0,0:0:0:0:
36,192,82855,1,0,0:0:0:0:
256,192,82855,1,0,0:0:0:0:
475,192,82855,1,0,0:0:0:0:
109,192,82855,1,0,0:0:0:0:
402,192,82894,1,0,0:0:0:0:
182,192,82933,1,0,0:0:0:0:
329,192,82972,1,0,0:0:0:0:
36,192,83011,1,0,0:0:0:0:
475,192,83030,1,0,0:0:0:0:
109,192,83049,1,0,0:0:0:0:
256,192,83088,1,0,0:0:0:0:
402,192,83088,1,0,0:0:0:0:
182,192,83127,1,0,0:0:0:0:
329,192,83166,1,0,0:0:0:0:
109,192,83204,1,0,0:0:0:0:
402,192,83243,1,0,0:0:0:0:
36,192,83282,1,0,0:0:0:0:
475,192,83282,1,0,0:0:0:0:
329,192,83321,1,0,0:0:0:0:
182,192,83321,1,0,0:0:0:0:
256,192,83437,1,0,0:0:0:0:
109,192,83437,1,0,0:0:0:0:
402,192,83437,1,0,0:0:0:0:
182,192,83476,1,0,0:0:0:0:
329,192,83476,1,0,0:0:0:0:
256,192,83631,1,0,0:0:0:0:
475,192,83631,1,0,0:0:0:0:
402,192,83631,1,0,0:0:0:0:
36,192,83631,1,0,0:0:0:0:
109,192,83631,1,0,0:0:0:0:
182,192,83786,1,0,0:0:0:0:
329,192,83786,1,0,0:0:0:0:
256,192,83786,1,0,0:0:0:0:
402,192,83786,1,0,0:0:0:0:
475,192,83786,1,0,0:0:0:0:
109,192,83786,1,0,0:0:0:0:
36,192,83786,1,0,0:0:0:0:
182,192,84018,1,0,0:0:0:0:
182,192,84251,1,0,0:0:0:0:
329,192,84483,1,0,0:0:0:0:
329,192,84716,128,0,84948:0:0:0:0:
402,192,85181,128,0,85646:0:0:0:0:
475,192,85646,128,0,86053:0:0:0:0:
36,192,85646,128,0,85704:0:0:0:0:
182,192,85646,128,0,85704:0:0:0:0:
329,192,85646,1,0,0:0:0:0:
109,192,85762,128,0,85821:0:0:0:0:
256,192,85762,128,0,85821:0:0:0:0:
182,192,85879,128,0,85937:0:0:0:0:
329,192,85879,128,0,85937:0:0:0:0:
36,192,85879,1,0,0:0:0:0:
402,192,85995,128,0,86053:0:0:0:0:
256,192,85995,128,0,86053:0:0:0:0:
109,192,85995,1,0,0:0:0:0:
36,192,86111,128,0,86518:0:0:0:0:
329,192,86111,128,0,86169:0:0:0:0:
475,192,86111,128,0,86169:0:0:0:0:
182,192,86111,1,0,0:0:0:0:
402,192,86228,128,0,86286:0:0:0:0:
256,192,86228,128,0,86286:0:0:0:0:
182,192,86344,128,0,86402:0:0:0:0:
329,192,86344,128,0,86402:0:0:0:0:
475,192,86344,1,0,0:0:0:0:
256,192,86460,128,0,86518:0:0:0:0:
109,192,86460,128,0,86518:0:0:0:0:
402,192,86460,1,0,0:0:0:0:
475,192,86576,128,0,86983:0:0:0:0:
182,192,86576,128,0,86635:0:0:0:0:
36,192,86576,128,0,86635:0:0:0:0:
329,192,86576,1,0,0:0:0:0:
256,192,86693,128,0,86751:0:0:0:0:
329,192,86693,128,0,86751:0:0:0:0:
109,192,86809,128,0,86867:0:0:0:0:
256,192,86809,128,0,86867:0:0:0:0:
182,192,86809,1,0,0:0:0:0:
36,192,86809,1,0,0:0:0:0:
329,192,86925,128,0,86983:0:0:0:0:
402,192,86925,128,0,86983:0:0:0:0:
36,192,87042,128,0,87448:0:0:0:0:
329,192,87042,128,0,87100:0:0:0:0:
182,192,87042,128,0,87100:0:0:0:0:
109,192,87042,1,0,0:0:0:0:
402,192,87158,128,0,87216:0:0:0:0:
475,192,87158,128,0,87216:0:0:0:0:
182,192,87158,1,0,0:0:0:0:
402,192,87274,128,0,87332:0:0:0:0:
256,192,87274,128,0,87332:0:0:0:0:
109,192,87274,1,0,0:0:0:0:
329,192,87390,128,0,87448:0:0:0:0:
475,192,87390,128,0,87448:0:0:0:0:
182,192,87390,1,0,0:0:0:0:
402,192,87507,128,0,87565:0:0:0:0:
36,192,87507,1,0,0:0:0:0:
475,192,87507,128,0,87914:0:0:0:0:
256,192,87507,128,0,87565:0:0:0:0:
329,192,87623,128,0,87681:0:0:0:0:
182,192,87623,128,0,87681:0:0:0:0:
256,192,87739,128,0,87797:0:0:0:0:
109,192,87739,128,0,87797:0:0:0:0:
402,192,87739,1,0,0:0:0:0:
36,192,87855,128,0,87914:0:0:0:0:
329,192,87855,128,0,87914:0:0:0:0:
182,192,87855,1,0,0:0:0:0:
109,192,87972,128,0,88030:0:0:0:0:
475,192,87972,128,0,88379:0:0:0:0:
256,192,87972,128,0,88030:0:0:0:0:
402,192,87972,1,0,0:0:0:0:
329,192,88088,128,0,88146:0:0:0:0:
182,192,88088,128,0,88146:0:0:0:0:
109,192,88204,1,0,0:0:0:0:
402,192,88204,128,0,88262:0:0:0:0:
256,192,88204,128,0,88262:0:0:0:0:
329,192,88321,128,0,88379:0:0:0:0:
182,192,88321,128,0,88379:0:0:0:0:
36,192,88321,1,0,0:0:0:0:
256,192,88437,128,0,88495:0:0:0:0:
475,192,88437,1,0,0:0:0:0:
36,192,88437,128,0,88844:0:0:0:0:
109,192,88437,128,0,88495:0:0:0:0:
182,192,88553,128,0,88611:0:0:0:0:
109,192,88553,128,0,88611:0:0:0:0:
402,192,88553,1,0,0:0:0:0:
256,192,88669,128,0,88728:0:0:0:0:
402,192,88669,128,0,88728:0:0:0:0:
329,192,88669,1,0,0:0:0:0:
475,192,88669,1,0,0:0:0:0:
256,192,88786,128,0,88844:0:0:0:0:
182,192,88786,128,0,88844:0:0:0:0:
36,192,88902,1,0,0:0:0:0:
402,192,88902,128,0,88960:0:0:0:0:
475,192,88902,128,0,89309:0:0:0:0:
256,192,88902,128,0,88960:0:0:0:0:
109,192,88902,1,0,0:0:0:0:
329,192,89018,128,0,89076:0:0:0:0:
402,192,89018,128,0,89076:0:0:0:0:
109,192,89135,128,0,89193:0:0:0:0:
256,192,89135,128,0,89193:0:0:0:0:
182,192,89135,1,0,0:0:0:0:
329,192,89251,128,0,89309:0:0:0:0:
256,192,89251,128,0,89309:0:0:0:0:
36,192,89251,1,0,0:0:0:0:
36,192,89367,128,0,89774:0:0:0:0:
475,192,89367,128,0,89425:0:0:0:0:
109,192,89367,128,0,89425:0:0:0:0:
256,192,89367,128,0,89425:0:0:0:0:
402,192,89367,1,0,0:0:0:0:
402,192,89483,128,0,89542:0:0:0:0:
182,192,89483,128,0,89542:0:0:0:0:
256,192,89600,128,0,89658:0:0:0:0:
329,192,89600,128,0,89658:0:0:0:0:
109,192,89600,1,0,0:0:0:0:
182,192,89716,128,0,89774:0:0:0:0:
402,192,89716,128,0,89774:0:0:0:0:
475,192,89832,128,0,90239:0:0:0:0:
36,192,89832,128,0,89890:0:0:0:0:
256,192,89832,128,0,89890:0:0:0:0:
329,192,89832,128,0,89890:0:0:0:0:
109,192,89832,1,0,0:0:0:0:
109,192,89948,128,0,90007:0:0:0:0:
402,192,89948,128,0,90007:0:0:0:0:
329,192,90065,128,0,90123:0:0:0:0:
182,192,90065,128,0,90123:0:0:0:0:
36,192,90065,1,0,0:0:0:0:
256,192,90181,128,0,90239:0:0:0:0:
109,192,90181,128,0,90239:0:0:0:0:
475,192,90297,128,0,90704:0:0:0:0:
36,192,90297,128,0,90355:0:0:0:0:
402,192,90297,128,0,90355:0:0:0:0:
256,192,90297,128,0,90355:0:0:0:0:
182,192,90297,1,0,0:0:0:0:
109,192,90414,128,0,90472:0:0:0:0:
329,192,90414,128,0,90472:0:0:0:0:
256,192,90530,128,0,90588:0:0:0:0:
182,192,90530,128,0,90588:0:0:0:0:
36,192,90530,1,0,0:0:0:0:
402,192,90530,1,0,0:0:0:0:
329,192,90646,128,0,90704:0:0:0:0:
109,192,90646,128,0,90704:0:0:0:0:
36,192,90762,128,0,91169:0:0:0:0:
475,192,90762,128,0,90821:0:0:0:0:
256,192,90762,128,0,90821:0:0:0:0:
182,192,90762,128,0,90821:0:0:0:0:
402,192,90762,1,0,0:0:0:0:
402,192,90879,128,0,90937:0:0:0:0:
109,192,90879,128,0,90937:0:0:0:0:
182,192,90995,128,0,91053:0:0:0:0:
329,192,90995,128,0,91053:0:0:0:0:
475,192,90995,1,0,0:0:0:0:
256,192,91111,128,0,91169:0:0:0:0:
402,192,91111,128,0,91169:0:0:0:0:
329,192,91228,128,0,91286:0:0:0:0:
475,192,91228,128,0,91286:0:0:0:0:
182,192,91228,1,0,0:0:0:0:
36,192,91228,128,0,91635:0:0:0:0:
109,192,91344,128,0,91402:0:0:0:0:
256,192,91344,128,0,91402:0:0:0:0:
182,192,91460,128,0,91518:0:0:0:0:
329,192,91460,128,0,91518:0:0:0:0:
475,192,91460,1,0,0:0:0:0:
256,192,91576,128,0,91635:0:0:0:0:
402,192,91576,128,0,91635:0:0:0:0:
475,192,91693,128,0,92100:0:0:0:0:
182,192,91693,128,0,91751:0:0:0:0:
36,192,91693,128,0,91751:0:0:0:0:
402,192,91693,1,0,0:0:0:0:
109,192,91809,128,0,91867:0:0:0:0:
182,192,91809,128,0,91867:0:0:0:0:
329,192,91809,1,0,0:0:0:0:
256,192,91925,128,0,91983:0:0:0:0:
402,192,91925,128,0,91983:0:0:0:0:
402,192,92042,128,0,92100:0:0:0:0:
329,192,92042,128,0,92100:0:0:0:0:
182,192,92042,1,0,0:0:0:0:
182,192,92158,128,0,92216:0:0:0:0:
36,192,92158,128,0,92216:0:0:0:0:
256,192,92158,1,0,0:0:0:0:
475,192,92158,128,0,92565:0:0:0:0:
109,192,92274,128,0,92332:0:0:0:0:
36,192,92274,128,0,92332:0:0:0:0:
329,192,92274,1,0,0:0:0:0:
256,192,92390,128,0,92448:0:0:0:0:
402,192,92390,128,0,92448:0:0:0:0:
182,192,92390,1,0,0:0:0:0:
256,192,92507,128,0,92565:0:0:0:0:
329,192,92507,128,0,92565:0:0:0:0:
109,192,92507,1,0,0:0:0:0:
402,192,92623,128,0,92681:0:0:0:0:
36,192,92623,128,0,92914:0:0:0:0:
109,192,92623,128,0,92681:0:0:0:0:
475,192,92623,128,0,92681:0:0:0:0:
182,192,92623,1,0,0:0:0:0:
329,192,92739,128,0,92797:0:0:0:0:
182,192,92739,128,0,92797:0:0:0:0:
256,192,92855,128,0,92914:0:0:0:0:
109,192,92855,128,0,92914:0:0:0:0:
475,192,92855,128,0,93321:0:0:0:0:
402,192,92855,1,0,0:0:0:0:
36,192,92972,128,0,93030:0:0:0:0:
182,192,92972,128,0,93030:0:0:0:0:
256,192,93088,128,0,93553:0:0:0:0:
36,192,93088,128,0,93553:0:0:0:0:
402,192,93088,1,0,0:0:0:0:
182,192,93088,1,0,0:0:0:0:
109,192,93088,1,0,0:0:0:0:
329,192,93088,128,0,93204:0:0:0:0:
109,192,93204,128,0,93321:0:0:0:0:
182,192,93321,128,0,93437:0:0:0:0:
329,192,93321,1,0,0:0:0:0:
402,192,93321,1,0,0:0:0:0:
402,192,93437,128,0,93553:0:0:0:0:
109,192,93553,128,0,94018:0:0:0:0:
329,192,93553,128,0,94018:0:0:0:0:
475,192,93553,128,0,93669:0:0:0:0:
182,192,93553,128,0,93669:0:0:0:0:
256,192,93669,128,0,93786:0:0:0:0:
402,192,93786,128,0,93902:0:0:0:0:
475,192,93786,1,0,0:0:0:0:
182,192,93786,1,0,0:0:0:0:
36,192,93786,1,0,0:0:0:0:
475,192,93902,128,0,94018:0:0:0:0:
256,192,94018,1,0,0:0:0:0:
182,192,94018,128,0,94483:0:0:0:0:
402,192,94018,128,0,94483:0:0:0:0:
36,192,94018,128,0,94135:0:0:0:0:
109,192,94135,128,0,94251:0:0:0:0:
256,192,94251,128,0,94367:0:0:0:0:
475,192,94251,1,0,0:0:0:0:
329,192,94251,1,0,0:0:0:0:
36,192,94251,1,0,0:0:0:0:
329,192,94367,128,0,94483:0:0:0:0:
256,192,94483,128,0,94948:0:0:0:0:
475,192,94483,128,0,94948:0:0:0:0:
36,192,94483,1,0,0:0:0:0:
109,192,94483,128,0,94600:0:0:0:0:
182,192,94600,128,0,94716:0:0:0:0:
402,192,94716,128,0,94832:0:0:0:0:
329,192,94716,1,0,0:0:0:0:
109,192,94716,1,0,0:0:0:0:
36,192,94716,1,0,0:0:0:0:
329,192,94832,128,0,94948:0:0:0:0:
182,192,94948,128,0,95414:0:0:0:0:
402,192,94948,128,0,95414:0:0:0:0:
36,192,94948,1,0,0:0:0:0:
109,192,94948,128,0,95065:0:0:0:0:
256,192,95065,128,0,95181:0:0:0:0:
109,192,95181,128,0,95297:0:0:0:0:
329,192,95181,1,0,0:0:0:0:
475,192,95181,1,0,0:0:0:0:
36,192,95181,1,0,0:0:0:0:
36,192,95297,128,0,95414:0:0:0:0:
329,192,95414,128,0,95879:0:0:0:0:
109,192,95414,128,0,95879:0:0:0:0:
475,192,95414,1,0,0:0:0:0:
256,192,95414,128,0,95530:0:0:0:0:
182,192,95530,128,0,95646:0:0:0:0:
256,192,95646,128,0,95762:0:0:0:0:
402,192,95646,1,0,0:0:0:0:
475,192,95646,1,0,0:0:0:0:
36,192,95646,1,0,0:0:0:0:
402,192,95762,128,0,95879:0:0:0:0:
256,192,95879,128,0,96344:0:0:0:0:
36,192,95879,128,0,96344:0:0:0:0:
475,192,95879,128,0,95995:0:0:0:0:
182,192,95879,1,0,0:0:0:0:
402,192,95995,128,0,96111:0:0:0:0:
329,192,96111,128,0,96228:0:0:0:0:
182,192,96111,1,0,0:0:0:0:
109,192,96111,1,0,0:0:0:0:
475,192,96111,1,0,0:0:0:0:
402,192,96228,128,0,96344:0:0:0:0:
109,192,96344,128,0,96809:0:0:0:0:
329,192,96344,128,0,96809:0:0:0:0:
182,192,96344,128,0,96460:0:0:0:0:
475,192,96344,1,0,0:0:0:0:
256,192,96460,128,0,96576:0:0:0:0:
475,192,96576,128,0,97216:0:0:0:0:
402,192,96576,128,0,96693:0:0:0:0:
182,192,96576,1,0,0:0:0:0:
36,192,96576,1,0,0:0:0:0:
256,192,96693,128,0,96809:0:0:0:0:
182,192,96809,128,0,97390:0:0:0:0:
36,192,96809,128,0,97390:0:0:0:0:
402,192,96809,1,0,0:0:0:0:
256,192,97042,1,0,0:0:0:0:
329,192,97042,1,0,0:0:0:0:
329,192,97274,128,0,98030:0:0:0:0:
475,192,97274,128,0,98030:0:0:0:0:
109,192,97274,1,0,0:0:0:0:
402,192,97274,1,0,0:0:0:0:
256,192,97274,1,0,0:0:0:0:
256,192,97507,1,0,0:0:0:0:
182,192,97507,128,0,97739:0:0:0:0:
36,192,97507,128,0,97739:0:0:0:0:
109,192,97507,1,0,0:0:0:0:
109,192,97739,1,0,0:0:0:0:
402,192,97739,1,0,0:0:0:0:
256,192,97739,1,0,0:0:0:0:
36,192,97972,128,0,98030:0:0:0:0:
182,192,97972,128,0,98030:0:0:0:0:
256,192,97972,1,0,0:0:0:0:
109,192,97972,128,0,98379:0:0:0:0:
402,192,97972,128,0,98030:0:0:0:0:
109,192,98437,128,0,98495:0:0:0:0:
329,192,98437,128,0,98495:0:0:0:0:
402,192,98437,128,0,98960:0:0:0:0:
475,192,98437,128,0,98495:0:0:0:0:
256,192,98437,1,0,0:0:0:0:
475,192,98902,128,0,98960:0:0:0:0:
329,192,98902,128,0,98960:0:0:0:0:
182,192,98902,128,0,98960:0:0:0:0:
36,192,98902,128,0,98960:0:0:0:0:
109,192,98902,128,0,99425:0:0:0:0:
182,192,99135,128,0,99193:0:0:0:0:
329,192,99135,128,0,99193:0:0:0:0:
109,192,99483,1,0,0:0:0:0:
256,192,99483,1,0,0:0:0:0:
402,192,99483,128,0,99832:0:0:0:0:
475,192,99716,1,0,0:0:0:0:
36,192,99716,1,0,0:0:0:0:
182,192,99832,1,0,0:0:0:0:
329,192,99832,1,0,0:0:0:0:
109,192,100065,128,0,100123:0:0:0:0:
256,192,100065,128,0,100123:0:0:0:0:
329,192,100065,128,0,100123:0:0:0:0:
182,192,100065,128,0,100123:0:0:0:0:
402,192,100065,128,0,100123:0:0:0:0:
475,192,100065,128,0,100123:0:0:0:0:
36,192,100065,128,0,100123:0:0:0:0:
109,192,100297,1,0,0:0:0:0:
36,192,100297,1,0,0:0:0:0:
402,192,100297,1,0,0:0:0:0:
475,192,100297,1,0,0:0:0:0:
256,192,100414,1,0,0:0:0:0:
329,192,100530,1,0,0:0:0:0:
402,192,100530,1,0,0:0:0:0:
109,192,100530,128,0,100646:0:0:0:0:
182,192,100530,128,0,100879:0:0:0:0:
36,192,100530,128,0,100646:0:0:0:0:
475,192,100530,128,0,100646:0:0:0:0:
256,192,100646,1,0,0:0:0:0:
402,192,100646,128,0,100762:0:0:0:0:
256,192,100762,1,0,0:0:0:0:
109,192,100762,128,0,100879:0:0:0:0:
36,192,100762,128,0,101111:0:0:0:0:
475,192,100762,128,0,100879:0:0:0:0:
329,192,100879,1,0,0:0:0:0:
402,192,100879,128,0,100995:0:0:0:0:
329,192,100995,1,0,0:0:0:0:
109,192,100995,128,0,101111:0:0:0:0:
182,192,100995,128,0,101576:0:0:0:0:
256,192,100995,128,0,101111:0:0:0:0:
475,192,100995,1,0,0:0:0:0:
402,192,101111,1,0,0:0:0:0:
475,192,101228,128,0,101344:0:0:0:0:
402,192,101228,1,0,0:0:0:0:
109,192,101228,128,0,101344:0:0:0:0:
36,192,101228,128,0,101576:0:0:0:0:
256,192,101228,128,0,101344:0:0:0:0:
329,192,101344,1,0,0:0:0:0:
402,192,101344,128,0,101460:0:0:0:0:
329,192,101460,1,0,0:0:0:0:
109,192,101460,128,0,101809:0:0:0:0:
256,192,101460,128,0,101518:0:0:0:0:
475,192,101460,128,0,101576:0:0:0:0:
256,192,101576,1,0,0:0:0:0:
402,192,101576,128,0,101693:0:0:0:0:
256,192,101693,1,0,0:0:0:0:
182,192,101693,128,0,101925:0:0:0:0:
36,192,101693,128,0,101925:0:0:0:0:
475,192,101693,128,0,101809:0:0:0:0:
329,192,101809,1,0,0:0:0:0:
402,192,101809,128,0,101925:0:0:0:0:
329,192,101925,1,0,0:0:0:0:
109,192,101925,128,0,102042:0:0:0:0:
256,192,101925,128,0,102042:0:0:0:0:
475,192,101925,1,0,0:0:0:0:
402,192,102042,1,0,0:0:0:0:
182,192,102042,128,0,102274:0:0:0:0:
36,192,102042,128,0,102507:0:0:0:0:
402,192,102158,1,0,0:0:0:0:
329,192,102158,1,0,0:0:0:0:
256,192,102158,128,0,102390:0:0:0:0:
109,192,102158,128,0,102274:0:0:0:0:
475,192,102158,1,0,0:0:0:0:
475,192,102274,1,0,0:0:0:0:
109,192,102390,1,0,0:0:0:0:
329,192,102390,128,0,102739:0:0:0:0:
402,192,102390,128,0,102507:0:0:0:0:
475,192,102390,128,0,102507:0:0:0:0:
182,192,102390,128,0,102507:0:0:0:0:
256,192,102507,1,0,0:0:0:0:
109,192,102507,128,0,102623:0:0:0:0:
256,192,102623,1,0,0:0:0:0:
402,192,102623,128,0,102739:0:0:0:0:
475,192,102623,128,0,102972:0:0:0:0:
36,192,102623,128,0,102739:0:0:0:0:
182,192,102739,1,0,0:0:0:0:
109,192,102739,128,0,102855:0:0:0:0:
182,192,102855,1,0,0:0:0:0:
402,192,102855,128,0,102972:0:0:0:0:
329,192,102855,128,0,103321:0:0:0:0:
36,192,102855,1,0,0:0:0:0:
109,192,102972,1,0,0:0:0:0:
109,192,103088,1,0,0:0:0:0:
402,192,103088,128,0,103204:0:0:0:0:
475,192,103088,128,0,103437:0:0:0:0:
36,192,103088,128,0,103204:0:0:0:0:
182,192,103204,1,0,0:0:0:0:
109,192,103204,128,0,103321:0:0:0:0:
402,192,103321,128,0,103669:0:0:0:0:
182,192,103321,1,0,0:0:0:0:
256,192,103321,128,0,103379:0:0:0:0:
36,192,103321,128,0,103437:0:0:0:0:
256,192,103437,1,0,0:0:0:0:
109,192,103437,128,0,103553:0:0:0:0:
256,192,103553,1,0,0:0:0:0:
329,192,103553,128,0,103902:0:0:0:0:
475,192,103553,128,0,103902:0:0:0:0:
36,192,103553,128,0,103669:0:0:0:0:
182,192,103669,1,0,0:0:0:0:
109,192,103669,128,0,103786:0:0:0:0:
182,192,103786,1,0,0:0:0:0:
402,192,103786,128,0,104135:0:0:0:0:
36,192,103786,1,0,0:0:0:0:
256,192,103786,128,0,103902:0:0:0:0:
109,192,103902,1,0,0:0:0:0:
109,192,104018,1,0,0:0:0:0:
329,192,104018,128,0,104135:0:0:0:0:
475,192,104018,128,0,104135:0:0:0:0:
256,192,104018,1,0,0:0:0:0:
36,192,104135,1,0,0:0:0:0:
182,192,104135,1,0,0:0:0:0:
109,192,104251,1,0,0:0:0:0:
256,192,104251,1,0,0:0:0:0:
402,192,104251,1,0,0:0:0:0:
329,192,104251,128,0,104367:0:0:0:0:
475,192,104251,128,0,104367:0:0:0:0:
182,192,104251,128,0,104367:0:0:0:0:
36,192,104251,128,0,104367:0:0:0:0:
402,192,104367,128,0,104483:0:0:0:0:
256,192,104367,128,0,104483:0:0:0:0:
475,192,104483,128,0,104600:0:0:0:0:
329,192,104483,128,0,104832:0:0:0:0:
109,192,104483,1,0,0:0:0:0:
36,192,104483,128,0,104600:0:0:0:0:
182,192,104483,128,0,104600:0:0:0:0:
402,192,104600,128,0,104716:0:0:0:0:
109,192,104600,128,0,104716:0:0:0:0:
475,192,104716,128,0,104832:0:0:0:0:
182,192,104716,1,0,0:0:0:0:
256,192,104716,1,0,0:0:0:0:
36,192,104716,128,0,104832:0:0:0:0:
402,192,104832,128,0,104948:0:0:0:0:
256,192,104832,128,0,104948:0:0:0:0:
329,192,104948,128,0,105065:0:0:0:0:
475,192,104948,128,0,105297:0:0:0:0:
182,192,104948,1,0,0:0:0:0:
109,192,104948,1,0,0:0:0:0:
36,192,104948,128,0,105065:0:0:0:0:
402,192,105065,128,0,105181:0:0:0:0:
182,192,105065,128,0,105181:0:0:0:0:
329,192,105181,128,0,105297:0:0:0:0:
109,192,105181,1,0,0:0:0:0:
36,192,105181,1,0,0:0:0:0:
256,192,105181,128,0,105297:0:0:0:0:
402,192,105297,128,0,105414:0:0:0:0:
36,192,105297,128,0,105414:0:0:0:0:
475,192,105414,128,0,105530:0:0:0:0:
329,192,105414,128,0,105762:0:0:0:0:
109,192,105414,1,0,0:0:0:0:
182,192,105414,1,0,0:0:0:0:
256,192,105414,128,0,105530:0:0:0:0:
402,192,105530,128,0,105646:0:0:0:0:
109,192,105530,128,0,105646:0:0:0:0:
475,192,105646,128,0,105762:0:0:0:0:
182,192,105646,1,0,0:0:0:0:
256,192,105646,1,0,0:0:0:0:
36,192,105646,128,0,105762:0:0:0:0:
402,192,105762,128,0,105879:0:0:0:0:
182,192,105762,128,0,105879:0:0:0:0:
329,192,105879,128,0,105995:0:0:0:0:
475,192,105879,128,0,105995:0:0:0:0:
36,192,105879,1,0,0:0:0:0:
256,192,105879,1,0,0:0:0:0:
109,192,105879,128,0,105995:0:0:0:0:
402,192,105995,128,0,106111:0:0:0:0:
256,192,105995,128,0,106111:0:0:0:0:
36,192,105995,128,0,106111:0:0:0:0:
329,192,106111,128,0,106228:0:0:0:0:
109,192,106111,1,0,0:0:0:0:
182,192,106111,1,0,0:0:0:0:
475,192,106111,1,0,0:0:0:0:
109,192,106228,128,0,106344:0:0:0:0:
256,192,106228,128,0,106460:0:0:0:0:
402,192,106228,1,0,0:0:0:0:
36,192,106344,128,0,106460:0:0:0:0:
182,192,106344,128,0,106460:0:0:0:0:
329,192,106344,1,0,0:0:0:0:
475,192,106344,1,0,0:0:0:0:
402,192,106344,128,0,106460:0:0:0:0:
109,192,106460,128,0,106576:0:0:0:0:
329,192,106460,128,0,106576:0:0:0:0:
36,192,106576,128,0,106809:0:0:0:0:
182,192,106576,128,0,106693:0:0:0:0:
402,192,106576,1,0,0:0:0:0:
256,192,106576,1,0,0:0:0:0:
475,192,106576,128,0,106693:0:0:0:0:
109,192,106693,128,0,106809:0:0:0:0:
402,192,106693,128,0,106809:0:0:0:0:
182,192,106809,128,0,106925:0:0:0:0:
329,192,106809,1,0,0:0:0:0:
475,192,106809,1,0,0:0:0:0:
256,192,106809,128,0,106925:0:0:0:0:
36,192,106925,128,0,107158:0:0:0:0:
109,192,106925,128,0,107042:0:0:0:0:
475,192,106925,1,0,0:0:0:0:
329,192,106925,128,0,107042:0:0:0:0:
182,192,107042,128,0,107158:0:0:0:0:
402,192,107042,1,0,0:0:0:0:
256,192,107042,1,0,0:0:0:0:
475,192,107042,128,0,107158:0:0:0:0:
109,192,107158,128,0,107274:0:0:0:0:
402,192,107158,128,0,107274:0:0:0:0:
36,192,107274,128,0,107390:0:0:0:0:
182,192,107274,128,0,107390:0:0:0:0:
329,192,107274,1,0,0:0:0:0:
256,192,107274,1,0,0:0:0:0:
475,192,107274,128,0,107390:0:0:0:0:
109,192,107390,128,0,107507:0:0:0:0:
329,192,107390,128,0,107507:0:0:0:0:
36,192,107507,128,0,107855:0:0:0:0:
182,192,107507,128,0,107623:0:0:0:0:
256,192,107507,1,0,0:0:0:0:
402,192,107507,1,0,0:0:0:0:
109,192,107623,128,0,107972:0:0:0:0:
256,192,107623,128,0,107739:0:0:0:0:
329,192,107623,1,0,0:0:0:0:
475,192,107623,1,0,0:0:0:0:
329,192,107739,128,0,107855:0:0:0:0:
182,192,107739,128,0,107855:0:0:0:0:
402,192,107739,1,0,0:0:0:0:
475,192,107739,1,0,0:0:0:0:
256,192,107855,128,0,107972:0:0:0:0:
402,192,107855,128,0,107972:0:0:0:0:
329,192,107972,128,0,108088:0:0:0:0:
475,192,107972,128,0,108321:0:0:0:0:
36,192,107972,1,0,0:0:0:0:
182,192,107972,1,0,0:0:0:0:
402,192,108088,128,0,108204:0:0:0:0:
329,192,108204,128,0,108321:0:0:0:0:
182,192,108204,128,0,108321:0:0:0:0:
256,192,108204,1,0,0:0:0:0:
109,192,108204,1,0,0:0:0:0:
256,192,108321,128,0,108553:0:0:0:0:
402,192,108321,128,0,108437:0:0:0:0:
36,192,108321,1,0,0:0:0:0:
475,192,108437,128,0,108553:0:0:0:0:
329,192,108437,128,0,108786:0:0:0:0:
109,192,108437,1,0,0:0:0:0:
182,192,108437,1,0,0:0:0:0:
402,192,108553,128,0,108669:0:0:0:0:
475,192,108669,128,0,109018:0:0:0:0:
256,192,108669,1,0,0:0:0:0:
402,192,108786,128,0,109135:0:0:0:0:
256,192,108786,128,0,108902:0:0:0:0:
182,192,108786,1,0,0:0:0:0:
329,192,108902,128,0,109018:0:0:0:0:
182,192,108902,128,0,109018:0:0:0:0:
109,192,108902,1,0,0:0:0:0:
36,192,108902,1,0,0:0:0:0:
256,192,109018,128,0,109135:0:0:0:0:
329,192,109135,128,0,109483:0:0:0:0:
475,192,109135,128,0,109251:0:0:0:0:
182,192,109135,1,0,0:0:0:0:
109,192,109135,1,0,0:0:0:0:
36,192,109135,1,0,0:0:0:0:
402,192,109251,128,0,109367:0:0:0:0:
256,192,109251,1,0,0:0:0:0:
475,192,109367,128,0,109483:0:0:0:0:
182,192,109367,1,0,0:0:0:0:
402,192,109483,128,0,109600:0:0:0:0:
109,192,109483,1,0,0:0:0:0:
329,192,109600,128,0,109948:0:0:0:0:
475,192,109600,128,0,109948:0:0:0:0:
256,192,109600,1,0,0:0:0:0:
182,192,109600,1,0,0:0:0:0:
36,192,109600,1,0,0:0:0:0:
109,192,109600,1,0,0:0:0:0:
402,192,109716,128,0,110181:0:0:0:0:
182,192,109716,1,0,0:0:0:0:
256,192,109832,128,0,109948:0:0:0:0:
109,192,109832,1,0,0:0:0:0:
182,192,109948,128,0,110297:0:0:0:0:
36,192,109948,1,0,0:0:0:0:
109,192,110065,128,0,110181:0:0:0:0:
256,192,110065,128,0,110181:0:0:0:0:
329,192,110065,1,0,0:0:0:0:
475,192,110065,1,0,0:0:0:0:
36,192,110181,128,0,110530:0:0:0:0:
109,192,110297,128,0,110414:0:0:0:0:
256,192,110297,128,0,110414:0:0:0:0:
329,192,110297,1,0,0:0:0:0:
402,192,110297,1,0,0:0:0:0:
475,192,110297,1,0,0:0:0:0:
182,192,110414,128,0,110530:0:0:0:0:
109,192,110530,128,0,110646:0:0:0:0:
256,192,110530,128,0,110646:0:0:0:0:
475,192,110530,1,0,0:0:0:0:
329,192,110530,1,0,0:0:0:0:
182,192,110646,128,0,110995:0:0:0:0:
36,192,110646,128,0,110762:0:0:0:0:
402,192,110646,1,0,0:0:0:0:
109,192,110762,128,0,110879:0:0:0:0:
329,192,110762,1,0,0:0:0:0:
256,192,110762,1,0,0:0:0:0:
475,192,110762,1,0,0:0:0:0:
36,192,110879,128,0,110995:0:0:0:0:
402,192,110879,1,0,0:0:0:0:
109,192,110995,128,0,111111:0:0:0:0:
329,192,110995,1,0,0:0:0:0:
256,192,110995,1,0,0:0:0:0:
36,192,111111,128,0,111344:0:0:0:0:
475,192,111111,1,0,0:0:0:0:
182,192,111111,128,0,111228:0:0:0:0:
109,192,111228,128,0,111460:0:0:0:0:
256,192,111228,128,0,111344:0:0:0:0:
402,192,111228,1,0,0:0:0:0:
329,192,111228,1,0,0:0:0:0:
182,192,111344,128,0,111576:0:0:0:0:
329,192,111344,128,0,111460:0:0:0:0:
475,192,111344,1,0,0:0:0:0:
256,192,111460,128,0,111925:0:0:0:0:
402,192,111460,1,0,0:0:0:0:
475,192,111460,1,0,0:0:0:0:
36,192,111460,1,0,0:0:0:0:
329,192,111576,128,0,111809:0:0:0:0:
109,192,111576,1,0,0:0:0:0:
36,192,111693,128,0,111809:0:0:0:0:
182,192,111693,1,0,0:0:0:0:
402,192,111693,1,0,0:0:0:0:
475,192,111693,1,0,0:0:0:0:
109,192,111809,128,0,111925:0:0:0:0:
182,192,111925,128,0,112042:0:0:0:0:
329,192,111925,128,0,112042:0:0:0:0:
36,192,111925,1,0,0:0:0:0:
475,192,111925,1,0,0:0:0:0:
256,192,112042,128,0,112274:0:0:0:0:
109,192,112042,128,0,112158:0:0:0:0:
402,192,112042,1,0,0:0:0:0:
36,192,112158,128,0,112274:0:0:0:0:
182,192,112158,128,0,112507:0:0:0:0:
329,192,112158,1,0,0:0:0:0:
475,192,112158,1,0,0:0:0:0:
109,192,112274,128,0,112390:0:0:0:0:
36,192,112390,128,0,112739:0:0:0:0:
256,192,112390,1,0,0:0:0:0:
475,192,112507,1,0,0:0:0:0:
109,192,112507,128,0,112855:0:0:0:0:
256,192,112507,128,0,112623:0:0:0:0:
329,192,112507,1,0,0:0:0:0:
402,192,112507,1,0,0:0:0:0:
182,192,112623,128,0,112739:0:0:0:0:
329,192,112623,128,0,112739:0:0:0:0:
475,192,112623,1,0,0:0:0:0:
402,192,112623,128,0,112739:0:0:0:0:
256,192,112739,128,0,112855:0:0:0:0:
182,192,112855,128,0,113204:0:0:0:0:
36,192,112855,128,0,112972:0:0:0:0:
329,192,112855,1,0,0:0:0:0:
402,192,112855,128,0,112972:0:0:0:0:
475,192,112855,128,0,112972:0:0:0:0:
109,192,112972,128,0,113088:0:0:0:0:
256,192,112972,1,0,0:0:0:0:
36,192,113088,128,0,113204:0:0:0:0:
402,192,113088,1,0,0:0:0:0:
475,192,113088,128,0,113204:0:0:0:0:
329,192,113088,128,0,113204:0:0:0:0:
109,192,113204,128,0,113321:0:0:0:0:
256,192,113204,1,0,0:0:0:0:
182,192,113321,128,0,113669:0:0:0:0:
36,192,113321,128,0,113466:0:0:0:0:
402,192,113321,128,0,113437:0:0:0:0:
475,192,113321,128,0,113437:0:0:0:0:
329,192,113321,1,0,0:0:0:0:
109,192,113437,128,0,113902:0:0:0:0:
256,192,113437,1,0,0:0:0:0:
329,192,113553,128,0,113669:0:0:0:0:
402,192,113553,1,0,0:0:0:0:
475,192,113553,1,0,0:0:0:0:
36,192,113553,128,0,113669:0:0:0:0:
402,192,113669,128,0,113786:0:0:0:0:
475,192,113786,128,0,114135:0:0:0:0:
329,192,113786,128,0,113902:0:0:0:0:
36,192,113786,1,0,0:0:0:0:
256,192,113786,1,0,0:0:0:0:
182,192,113786,128,0,113902:0:0:0:0:
402,192,113902,128,0,114135:0:0:0:0:
256,192,113902,128,0,114018:0:0:0:0:
329,192,114018,128,0,114135:0:0:0:0:
182,192,114018,128,0,114135:0:0:0:0:
109,192,114018,1,0,0:0:0:0:
36,192,114018,1,0,0:0:0:0:
256,192,114135,128,0,114251:0:0:0:0:
36,192,114251,128,0,114600:0:0:0:0:
475,192,114251,128,0,114367:0:0:0:0:
329,192,114251,128,0,114367:0:0:0:0:
402,192,114251,1,0,0:0:0:0:
182,192,114251,1,0,0:0:0:0:
109,192,114251,1,0,0:0:0:0:
256,192,114367,128,0,114483:0:0:0:0:
402,192,114367,128,0,114483:0:0:0:0:
109,192,114367,128,0,114600:0:0:0:0:
329,192,114483,128,0,114716:0:0:0:0:
182,192,114483,128,0,114716:0:0:0:0:
475,192,114483,1,0,0:0:0:0:
475,192,114600,128,0,114716:0:0:0:0:
402,192,114716,128,0,114948:0:0:0:0:
256,192,114716,128,0,114832:0:0:0:0:
36,192,114716,1,0,0:0:0:0:
109,192,114716,1,0,0:0:0:0:
182,192,114832,128,0,114948:0:0:0:0:
475,192,114948,128,0,115065:0:0:0:0:
329,192,114948,128,0,115065:0:0:0:0:
109,192,114948,1,0,0:0:0:0:
36,192,114948,1,0,0:0:0:0:
256,192,114948,1,0,0:0:0:0:
256,192,115065,128,0,115181:0:0:0:0:
402,192,115065,128,0,115181:0:0:0:0:
182,192,115065,1,0,0:0:0:0:
182,192,115181,128,0,115297:0:0:0:0:
329,192,115181,128,0,115297:0:0:0:0:
109,192,115181,1,0,0:0:0:0:
475,192,115181,1,0,0:0:0:0:
256,192,115297,128,0,115414:0:0:0:0:
109,192,115297,128,0,115414:0:0:0:0:
36,192,115297,1,0,0:0:0:0:
475,192,115297,128,0,116809:0:0:0:0:
402,192,115297,1,0,0:0:0:0:
36,192,115414,128,0,115879:0:0:0:0:
182,192,115414,128,0,116344:0:0:0:0:
329,192,115414,1,0,0:0:0:0:
402,192,115414,1,0,0:0:0:0:
256,192,115762,1,0,0:0:0:0:
402,192,115762,128,0,115879:0:0:0:0:
329,192,115762,128,0,115879:0:0:0:0:
256,192,115879,1,0,0:0:0:0:
109,192,115879,1,0,0:0:0:0:
36,192,116228,1,0,0:0:0:0:
109,192,116228,128,0,116344:0:0:0:0:
256,192,116228,128,0,116344:0:0:0:0:
36,192,116344,1,0,0:0:0:0:
329,192,116344,1,0,0:0:0:0:
402,192,116344,1,0,0:0:0:0:
329,192,116576,128,0,116809:0:0:0:0:
402,192,116576,128,0,116809:0:0:0:0:
36,192,116576,128,0,116809:0:0:0:0:
182,192,116576,128,0,116693:0:0:0:0:
109,192,116576,128,0,116693:0:0:0:0:
109,192,116809,1,0,0:0:0:0:
182,192,116809,1,0,0:0:0:0:
256,192,116809,1,0,0:0:0:0:
109,192,117042,128,0,117158:0:0:0:0:
256,192,117042,128,0,117158:0:0:0:0:
402,192,117042,128,0,117158:0:0:0:0:
329,192,117158,128,0,117274:0:0:0:0:
475,192,117158,128,0,117274:0:0:0:0:
182,192,117158,128,0,117274:0:0:0:0:
109,192,117274,128,0,117739:0:0:0:0:
256,192,117274,128,0,118204:0:0:0:0:
402,192,117274,128,0,118669:0:0:0:0:
36,192,117274,1,0,0:0:0:0:
182,192,117623,128,0,117739:0:0:0:0:
36,192,117623,128,0,117739:0:0:0:0:
475,192,117623,1,0,0:0:0:0:
329,192,117739,1,0,0:0:0:0:
475,192,117739,1,0,0:0:0:0:
36,192,117972,1,0,0:0:0:0:
109,192,117972,1,0,0:0:0:0:
182,192,118088,1,0,0:0:0:0:
329,192,118088,128,0,118204:0:0:0:0:
475,192,118088,128,0,118204:0:0:0:0:
182,192,118204,1,0,0:0:0:0:
36,192,118204,1,0,0:0:0:0:
109,192,118204,1,0,0:0:0:0:
109,192,118437,128,0,118669:0:0:0:0:
256,192,118437,128,0,118669:0:0:0:0:
329,192,118437,128,0,118553:0:0:0:0:
475,192,118437,128,0,118553:0:0:0:0:
36,192,118437,1,0,0:0:0:0:
475,192,118669,1,0,0:0:0:0:
329,192,118669,1,0,0:0:0:0:
182,192,118669,1,0,0:0:0:0:
36,192,118669,1,0,0:0:0:0:
109,192,118902,1,0,0:0:0:0:
256,192,118902,1,0,0:0:0:0:
36,192,118902,128,0,119135:0:0:0:0:
182,192,119018,1,0,0:0:0:0:
329,192,119018,1,0,0:0:0:0:
109,192,119018,128,0,119135:0:0:0:0:
182,192,119135,128,0,119600:0:0:0:0:
256,192,119135,1,0,0:0:0:0:
402,192,119135,1,0,0:0:0:0:
475,192,119135,128,0,119367:0:0:0:0:
329,192,119367,128,0,119832:0:0:0:0:
402,192,119367,128,0,119600:0:0:0:0:
36,192,119483,128,0,119600:0:0:0:0:
109,192,119483,1,0,0:0:0:0:
475,192,119600,128,0,120530:0:0:0:0:
256,192,119600,128,0,119832:0:0:0:0:
109,192,119600,1,0,0:0:0:0:
402,192,119832,128,0,120762:0:0:0:0:
109,192,119832,128,0,120065:0:0:0:0:
256,192,119948,1,0,0:0:0:0:
182,192,120065,1,0,0:0:0:0:
256,192,120065,1,0,0:0:0:0:
329,192,120065,128,0,120297:0:0:0:0:
36,192,120297,128,0,120530:0:0:0:0:
109,192,120297,128,0,120414:0:0:0:0:
256,192,120297,128,0,120414:0:0:0:0:
109,192,120530,1,0,0:0:0:0:
256,192,120530,1,0,0:0:0:0:
182,192,120530,128,0,120762:0:0:0:0:
109,192,120762,128,0,121925:0:0:0:0:
329,192,120762,128,0,120879:0:0:0:0:
475,192,120762,128,0,120879:0:0:0:0:
329,192,120995,1,0,0:0:0:0:
475,192,120995,1,0,0:0:0:0:
36,192,120995,128,0,121228:0:0:0:0:
182,192,120995,128,0,121228:0:0:0:0:
475,192,121228,128,0,121925:0:0:0:0:
256,192,121228,1,0,0:0:0:0:
182,192,121344,1,0,0:0:0:0:
329,192,121344,1,0,0:0:0:0:
329,192,121460,128,0,122448:0:0:0:0:
402,192,121460,1,0,0:0:0:0:
256,192,121460,1,0,0:0:0:0:
36,192,121460,1,0,0:0:0:0:
182,192,121693,128,0,122158:0:0:0:0:
256,192,121693,128,0,121809:0:0:0:0:
36,192,121693,128,0,121809:0:0:0:0:
402,192,121770,1,0,0:0:0:0:
36,192,121925,1,0,0:0:0:0:
256,192,121925,1,0,0:0:0:0:
402,192,122080,1,0,0:0:0:0:
109,192,122080,1,0,0:0:0:0:
182,192,122235,1,0,0:0:0:0:
475,192,122235,1,0,0:0:0:0:
402,192,122390,1,0,0:0:0:0:
109,192,122390,1,0,0:0:0:0:
36,192,122545,1,0,0:0:0:0:
329,192,122545,1,0,0:0:0:0:
256,192,122700,1,0,0:0:0:0:
475,192,122700,1,0,0:0:0:0:
475,192,122855,128,0,122894:0:0:0:0:
329,192,122855,1,0,0:0:0:0:
182,192,122855,1,0,0:0:0:0:
36,192,122855,1,0,0:0:0:0:
109,192,122885,128,0,123960:0:0:0:0:
402,192,123088,128,0,123127:0:0:0:0:
256,192,123088,1,0,0:0:0:0:
329,192,123321,128,0,123359:0:0:0:0:
182,192,123321,1,0,0:0:0:0:
36,192,123321,1,0,0:0:0:0:
475,192,123321,1,0,0:0:0:0:
256,192,123553,128,0,123592:0:0:0:0:
402,192,123553,1,0,0:0:0:0:
182,192,123786,128,0,123824:0:0:0:0:
329,192,123786,1,0,0:0:0:0:
475,192,123786,1,0,0:0:0:0:
36,192,123786,1,0,0:0:0:0:
109,192,124018,128,0,124057:0:0:0:0:
256,192,124018,1,0,0:0:0:0:
36,192,124251,128,0,124290:0:0:0:0:
182,192,124251,1,0,0:0:0:0:
329,192,124251,1,0,0:0:0:0:
475,192,124251,1,0,0:0:0:0:
402,192,124406,1,0,0:0:0:0:
256,192,124406,1,0,0:0:0:0:
109,192,124483,128,0,124522:0:0:0:0:
402,192,124600,1,0,0:0:0:0:
256,192,124600,1,0,0:0:0:0:
182,192,124716,128,0,124755:0:0:0:0:
36,192,124716,1,0,0:0:0:0:
329,192,124716,1,0,0:0:0:0:
475,192,124716,1,0,0:0:0:0:
402,192,124745,128,0,125355:0:0:0:0:
256,192,124948,128,0,124987:0:0:0:0:
109,192,124948,1,0,0:0:0:0:
36,192,125065,1,0,0:0:0:0:
329,192,125181,128,0,125220:0:0:0:0:
182,192,125181,1,0,0:0:0:0:
36,192,125181,1,0,0:0:0:0:
475,192,125181,1,0,0:0:0:0:
402,192,125414,128,0,125452:0:0:0:0:
256,192,125414,1,0,0:0:0:0:
109,192,125530,1,0,0:0:0:0:
475,192,125646,128,0,125685:0:0:0:0:
329,192,125646,1,0,0:0:0:0:
182,192,125646,1,0,0:0:0:0:
36,192,125646,1,0,0:0:0:0:
402,192,125879,128,0,125917:0:0:0:0:
256,192,125879,1,0,0:0:0:0:
36,192,125995,1,0,0:0:0:0:
329,192,126111,128,0,126150:0:0:0:0:
182,192,126111,1,0,0:0:0:0:
36,192,126111,1,0,0:0:0:0:
475,192,126111,1,0,0:0:0:0:
109,192,126228,1,0,0:0:0:0:
256,192,126344,128,0,126383:0:0:0:0:
402,192,126344,1,0,0:0:0:0:
329,192,126576,1,0,0:0:0:0:
475,192,126576,1,0,0:0:0:0:
182,192,126576,1,0,0:0:0:0:
36,192,126576,1,0,0:0:0:0:
256,192,126576,128,0,126605:0:0:0:0:
402,192,126605,128,0,126635:0:0:0:0:
109,192,126605,128,0,126635:0:0:0:0:
36,192,126809,1,0,0:0:0:0:
256,192,126809,1,0,0:0:0:0:
475,192,126809,1,0,0:0:0:0:
402,192,126809,1,0,0:0:0:0:
109,192,126809,1,0,0:0:0:0:
182,192,126838,128,0,126867:0:0:0:0:
329,192,126838,128,0,126867:0:0:0:0:
329,192,127042,1,0,0:0:0:0:
182,192,127042,1,0,0:0:0:0:
475,192,127042,1,0,0:0:0:0:
36,192,127042,1,0,0:0:0:0:
256,192,127042,128,0,127071:0:0:0:0:
402,192,127071,128,0,127100:0:0:0:0:
109,192,127071,128,0,127100:0:0:0:0:
402,192,127274,1,0,0:0:0:0:
109,192,127274,1,0,0:0:0:0:
256,192,127274,1,0,0:0:0:0:
475,192,127274,1,0,0:0:0:0:
36,192,127274,1,0,0:0:0:0:
182,192,127303,128,0,127332:0:0:0:0:
329,192,127303,128,0,127332:0:0:0:0:
475,192,127507,1,0,0:0:0:0:
36,192,127507,1,0,0:0:0:0:
329,192,127507,1,0,0:0:0:0:
182,192,127507,1,0,0:0:0:0:
256,192,127507,128,0,127536:0:0:0:0:
109,192,127536,128,0,127565:0:0:0:0:
402,192,127536,128,0,127565:0:0:0:0:
475,192,127739,1,0,0:0:0:0:
36,192,127739,1,0,0:0:0:0:
256,192,127739,1,0,0:0:0:0:
402,192,127739,1,0,0:0:0:0:
109,192,127739,1,0,0:0:0:0:
329,192,127768,128,0,127797:0:0:0:0:
182,192,127768,128,0,127797:0:0:0:0:
329,192,127972,1,0,0:0:0:0:
182,192,127972,1,0,0:0:0:0:
475,192,127972,1,0,0:0:0:0:
36,192,127972,1,0,0:0:0:0:
256,192,127972,128,0,128001:0:0:0:0:
402,192,128001,128,0,128030:0:0:0:0:
109,192,128001,128,0,128030:0:0:0:0:
402,192,128204,1,0,0:0:0:0:
109,192,128204,1,0,0:0:0:0:
256,192,128204,1,0,0:0:0:0:
475,192,128204,1,0,0:0:0:0:
36,192,128204,1,0,0:0:0:0:
182,192,128233,128,0,128262:0:0:0:0:
329,192,128233,128,0,128262:0:0:0:0:
475,192,128669,128,0,128873:0:0:0:0:
402,192,128669,128,0,128873:0:0:0:0:
329,192,128669,128,0,128873:0:0:0:0:
256,192,128669,128,0,128873:0:0:0:0:
182,192,128669,128,0,128873:0:0:0:0:
109,192,128669,128,0,128873:0:0:0:0:
36,192,128669,128,0,128873:0:0:0:0:
109,192,128902,128,0,129164:0:0:0:0:
36,192,128902,128,0,129164:0:0:0:0:
182,192,128931,128,0,129135:0:0:0:0:
256,192,128960,128,0,129135:0:0:0:0:
329,192,128989,128,0,129135:0:0:0:0:
402,192,129018,128,0,129105:0:0:0:0:
475,192,129018,128,0,129105:0:0:0:0:
402,192,129135,128,0,129454:0:0:0:0:
475,192,129135,128,0,129454:0:0:0:0:
329,192,129164,128,0,129396:0:0:0:0:
256,192,129193,128,0,129396:0:0:0:0:
182,192,129222,128,0,129396:0:0:0:0:
109,192,129251,128,0,129338:0:0:0:0:
36,192,129251,128,0,129338:0:0:0:0:
109,192,129367,128,0,129454:0:0:0:0:
36,192,129367,128,0,129454:0:0:0:0:
182,192,129445,128,0,129561:0:0:0:0:
256,192,129445,128,0,129561:0:0:0:0:
329,192,129445,128,0,129561:0:0:0:0:
402,192,129512,128,0,129629:0:0:0:0:
475,192,129512,128,0,129629:0:0:0:0:
182,192,129600,128,0,129716:0:0:0:0:
109,192,129600,128,0,129716:0:0:0:0:
36,192,129600,128,0,129716:0:0:0:0:
329,192,129677,128,0,129793:0:0:0:0:
402,192,129677,128,0,129793:0:0:0:0:
475,192,129677,128,0,129793:0:0:0:0:
109,192,129755,128,0,129948:0:0:0:0:
36,192,129755,128,0,129948:0:0:0:0:
256,192,129832,128,0,129910:0:0:0:0:
182,192,129832,128,0,129910:0:0:0:0:
329,192,129832,128,0,129910:0:0:0:0:
402,192,129910,128,0,130104:0:0:0:0:
475,192,129910,128,0,130104:0:0:0:0:
256,192,129987,128,0,130065:0:0:0:0:
182,192,129987,128,0,130142:0:0:0:0:
329,192,129987,128,0,130220:0:0:0:0:
109,192,130065,128,0,130142:0:0:0:0:
36,192,130065,128,0,130142:0:0:0:0:
402,192,130142,128,0,130220:0:0:0:0:
475,192,130142,128,0,130220:0:0:0:0:
256,192,130181,1,0,0:0:0:0:
109,192,130220,128,0,130297:0:0:0:0:
36,192,130220,128,0,130297:0:0:0:0:
182,192,130220,128,0,130297:0:0:0:0:
475,192,130297,1,0,0:0:0:0:
402,192,130297,128,0,130501:0:0:0:0:
329,192,130297,128,0,130501:0:0:0:0:
256,192,130355,128,0,130472:0:0:0:0:
182,192,130355,128,0,130472:0:0:0:0:
109,192,130414,128,0,130501:0:0:0:0:
36,192,130472,128,0,130501:0:0:0:0:
402,192,130530,1,0,0:0:0:0:
475,192,130530,128,0,130733:0:0:0:0:
329,192,130530,128,0,130733:0:0:0:0:
182,192,130530,128,0,130646:0:0:0:0:
256,192,130530,128,0,130646:0:0:0:0:
109,192,130588,128,0,130675:0:0:0:0:
36,192,130646,128,0,130675:0:0:0:0:
402,192,130646,128,0,130675:0:0:0:0:
475,192,130762,1,0,0:0:0:0:
402,192,130762,128,0,130966:0:0:0:0:
329,192,130762,128,0,130966:0:0:0:0:
256,192,130762,128,0,130879:0:0:0:0:
182,192,130762,128,0,130879:0:0:0:0:
109,192,130821,128,0,130908:0:0:0:0:
36,192,130879,128,0,130908:0:0:0:0:
329,192,130995,1,0,0:0:0:0:
402,192,130995,128,0,131198:0:0:0:0:
475,192,130995,128,0,131198:0:0:0:0:
182,192,130995,128,0,131111:0:0:0:0:
256,192,130995,128,0,131111:0:0:0:0:
109,192,131053,128,0,131140:0:0:0:0:
36,192,131111,128,0,131140:0:0:0:0:
329,192,131111,128,0,131140:0:0:0:0:
402,192,131228,1,0,0:0:0:0:
329,192,131228,128,0,131431:0:0:0:0:
475,192,131228,128,0,131431:0:0:0:0:
256,192,131228,128,0,131344:0:0:0:0:
182,192,131228,128,0,131344:0:0:0:0:
109,192,131286,128,0,131373:0:0:0:0:
36,192,131344,128,0,131373:0:0:0:0:
475,192,131460,1,0,0:0:0:0:
402,192,131460,128,0,131664:0:0:0:0:
329,192,131460,128,0,131664:0:0:0:0:
182,192,131460,128,0,131576:0:0:0:0:
256,192,131460,128,0,131576:0:0:0:0:
109,192,131518,128,0,131605:0:0:0:0:
36,192,131576,128,0,131605:0:0:0:0:
475,192,131576,128,0,131605:0:0:0:0:
256,192,131693,128,0,131780:0:0:0:0:
182,192,131693,128,0,131809:0:0:0:0:
329,192,131693,128,0,131751:0:0:0:0:
402,192,131693,128,0,131867:0:0:0:0:
475,192,131693,128,0,131983:0:0:0:0:
109,192,131751,128,0,131838:0:0:0:0:
36,192,131809,128,0,131838:0:0:0:0:
329,192,131809,128,0,131896:0:0:0:0:
256,192,131809,128,0,131925:0:0:0:0:
182,192,131867,128,0,131954:0:0:0:0:
109,192,131925,128,0,131954:0:0:0:0:
329,192,131925,128,0,132042:0:0:0:0:
402,192,131925,128,0,132012:0:0:0:0:
256,192,131983,128,0,132071:0:0:0:0:
182,192,132042,128,0,132071:0:0:0:0:
402,192,132042,128,0,132158:0:0:0:0:
475,192,132042,128,0,132129:0:0:0:0:
329,192,132100,128,0,132187:0:0:0:0:
256,192,132158,128,0,132187:0:0:0:0:
182,192,132158,128,0,132361:0:0:0:0:
109,192,132158,128,0,132361:0:0:0:0:
36,192,132158,1,0,0:0:0:0:
329,192,132245,128,0,132332:0:0:0:0:
256,192,132274,128,0,132332:0:0:0:0:
402,192,132274,128,0,132361:0:0:0:0:
475,192,132332,128,0,132361:0:0:0:0:
182,192,132390,128,0,132594:0:0:0:0:
109,192,132390,1,0,0:0:0:0:
36,192,132390,128,0,132594:0:0:0:0:
402,192,132448,128,0,132536:0:0:0:0:
329,192,132478,128,0,132565:0:0:0:0:
256,192,132507,128,0,132565:0:0:0:0:
109,192,132507,128,0,132536:0:0:0:0:
475,192,132507,128,0,132536:0:0:0:0:
36,192,132623,1,0,0:0:0:0:
109,192,132623,128,0,132826:0:0:0:0:
182,192,132623,128,0,132826:0:0:0:0:
329,192,132681,128,0,132768:0:0:0:0:
402,192,132710,128,0,132797:0:0:0:0:
256,192,132710,128,0,132768:0:0:0:0:
475,192,132768,128,0,132797:0:0:0:0:
36,192,132855,128,0,133059:0:0:0:0:
182,192,132855,1,0,0:0:0:0:
109,192,132855,128,0,133059:0:0:0:0:
329,192,132914,128,0,133001:0:0:0:0:
256,192,132943,128,0,133001:0:0:0:0:
402,192,132943,128,0,133030:0:0:0:0:
182,192,132972,128,0,133001:0:0:0:0:
475,192,133001,128,0,133030:0:0:0:0:
109,192,133088,1,0,0:0:0:0:
182,192,133088,128,0,133292:0:0:0:0:
36,192,133088,128,0,133292:0:0:0:0:
329,192,133146,128,0,133233:0:0:0:0:
256,192,133175,128,0,133233:0:0:0:0:
402,192,133175,128,0,133262:0:0:0:0:
475,192,133233,128,0,133262:0:0:0:0:
182,192,133321,128,0,133524:0:0:0:0:
36,192,133321,1,0,0:0:0:0:
109,192,133321,128,0,133524:0:0:0:0:
402,192,133350,128,0,133437:0:0:0:0:
329,192,133379,128,0,133466:0:0:0:0:
475,192,133408,128,0,133437:0:0:0:0:
256,192,133408,128,0,133466:0:0:0:0:
36,192,133437,128,0,133466:0:0:0:0:
36,192,133553,128,0,133844:0:0:0:0:
109,192,133553,128,0,133728:0:0:0:0:
256,192,133553,128,0,133640:0:0:0:0:
329,192,133553,128,0,133669:0:0:0:0:
182,192,133553,128,0,133611:0:0:0:0:
402,192,133611,128,0,133698:0:0:0:0:
256,192,133669,128,0,133786:0:0:0:0:
182,192,133669,128,0,133757:0:0:0:0:
475,192,133669,128,0,133698:0:0:0:0:
329,192,133728,128,0,133815:0:0:0:0:
109,192,133786,128,0,133873:0:0:0:0:
182,192,133786,128,0,133902:0:0:0:0:
402,192,133786,128,0,133815:0:0:0:0:
256,192,133844,128,0,133931:0:0:0:0:
36,192,133902,128,0,133989:0:0:0:0:
109,192,133902,128,0,134018:0:0:0:0:
329,192,133902,128,0,133931:0:0:0:0:
182,192,133960,128,0,134047:0:0:0:0:
256,192,134018,128,0,134047:0:0:0:0:
329,192,134018,128,0,134135:0:0:0:0:
402,192,134018,128,0,134193:0:0:0:0:
475,192,134018,128,0,134251:0:0:0:0:
109,192,134076,128,0,134135:0:0:0:0:
36,192,134076,128,0,134135:0:0:0:0:
182,192,134135,128,0,134193:0:0:0:0:
256,192,134193,128,0,134251:0:0:0:0:
329,192,134193,128,0,134251:0:0:0:0:
402,192,134251,128,0,134309:0:0:0:0:
182,192,134251,128,0,134367:0:0:0:0:
109,192,134251,128,0,134425:0:0:0:0:
36,192,134251,128,0,134483:0:0:0:0:
475,192,134309,128,0,134367:0:0:0:0:
329,192,134367,128,0,134425:0:0:0:0:
256,192,134367,128,0,134425:0:0:0:0:
402,192,134425,128,0,134483:0:0:0:0:
182,192,134483,128,0,134542:0:0:0:0:
256,192,134483,128,0,134542:0:0:0:0:
329,192,134483,1,0,0:0:0:0:
475,192,134483,1,0,0:0:0:0:
109,192,134600,128,0,134658:0:0:0:0:
182,192,134600,128,0,134658:0:0:0:0:
475,192,134600,1,0,0:0:0:0:
329,192,134658,128,0,134716:0:0:0:0:
36,192,134716,128,0,134774:0:0:0:0:
109,192,134716,128,0,134774:0:0:0:0:
182,192,134716,128,0,134774:0:0:0:0:
402,192,134774,1,0,0:0:0:0:
182,192,134832,128,0,134890:0:0:0:0:
256,192,134832,128,0,134890:0:0:0:0:
329,192,134832,128,0,134890:0:0:0:0:
109,192,134890,1,0,0:0:0:0:
329,192,134948,128,0,135007:0:0:0:0:
402,192,134948,128,0,135007:0:0:0:0:
475,192,134948,128,0,135007:0:0:0:0:
36,192,135007,1,0,0:0:0:0:
182,192,135065,128,0,135123:0:0:0:0:
109,192,135065,128,0,135123:0:0:0:0:
256,192,135065,128,0,135123:0:0:0:0:
475,192,135123,1,0,0:0:0:0:
256,192,135181,128,0,135239:0:0:0:0:
329,192,135181,128,0,135239:0:0:0:0:
402,192,135181,128,0,135239:0:0:0:0:
182,192,135297,128,0,135355:0:0:0:0:
109,192,135297,128,0,135355:0:0:0:0:
36,192,135297,128,0,135355:0:0:0:0:
402,192,135355,1,0,0:0:0:0:
182,192,135414,128,0,135472:0:0:0:0:
256,192,135414,128,0,135472:0:0:0:0:
329,192,135414,128,0,135472:0:0:0:0:
36,192,135472,128,0,135646:0:0:0:0:
475,192,135472,128,0,135646:0:0:0:0:
109,192,135530,128,0,135704:0:0:0:0:
402,192,135530,128,0,135704:0:0:0:0:
182,192,135588,128,0,135762:0:0:0:0:
329,192,135588,128,0,135762:0:0:0:0:
256,192,135646,128,0,135821:0:0:0:0:
36,192,135704,1,0,0:0:0:0:
475,192,135704,1,0,0:0:0:0:
109,192,135762,1,0,0:0:0:0:
402,192,135762,1,0,0:0:0:0:
182,192,135821,1,0,0:0:0:0:
329,192,135821,1,0,0:0:0:0:
256,192,135879,1,0,0:0:0:0:
36,192,135879,128,0,135937:0:0:0:0:
109,192,135879,128,0,135937:0:0:0:0:
475,192,135879,128,0,135937:0:0:0:0:
402,192,135879,128,0,135937:0:0:0:0:
182,192,135995,128,0,136053:0:0:0:0:
329,192,135995,128,0,136169:0:0:0:0:
182,192,136111,128,0,136169:0:0:0:0:
109,192,136111,128,0,136169:0:0:0:0:
256,192,136111,128,0,136169:0:0:0:0:
402,192,136111,128,0,136286:0:0:0:0:
36,192,136111,128,0,136518:0:0:0:0:
329,192,136228,128,0,136286:0:0:0:0:
475,192,136228,128,0,136402:0:0:0:0:
109,192,136228,128,0,136402:0:0:0:0:
256,192,136344,128,0,136402:0:0:0:0:
329,192,136344,128,0,136402:0:0:0:0:
402,192,136344,128,0,136402:0:0:0:0:
182,192,136344,128,0,136518:0:0:0:0:
109,192,136460,128,0,136518:0:0:0:0:
256,192,136460,128,0,136867:0:0:0:0:
475,192,136460,1,0,0:0:0:0:
36,192,136576,128,0,136635:0:0:0:0:
109,192,136576,128,0,136635:0:0:0:0:
182,192,136576,128,0,136635:0:0:0:0:
329,192,136576,128,0,136751:0:0:0:0:
475,192,136576,1,0,0:0:0:0:
402,192,136693,128,0,136751:0:0:0:0:
36,192,136693,1,0,0:0:0:0:
329,192,136809,128,0,136867:0:0:0:0:
402,192,136809,128,0,136867:0:0:0:0:
475,192,136809,128,0,136925:0:0:0:0:
182,192,136809,128,0,136983:0:0:0:0:
36,192,136809,1,0,0:0:0:0:
256,192,136925,128,0,136983:0:0:0:0:
109,192,136925,128,0,137100:0:0:0:0:
402,192,136925,1,0,0:0:0:0:
182,192,137042,128,0,137100:0:0:0:0:
256,192,137042,128,0,137100:0:0:0:0:
329,192,137042,128,0,137100:0:0:0:0:
36,192,137042,128,0,137216:0:0:0:0:
475,192,137042,128,0,137681:0:0:0:0:
402,192,137042,128,0,137158:0:0:0:0:
109,192,137158,128,0,137216:0:0:0:0:
256,192,137158,1,0,0:0:0:0:
109,192,137274,128,0,137332:0:0:0:0:
182,192,137274,128,0,137332:0:0:0:0:
36,192,137274,128,0,137332:0:0:0:0:
402,192,137274,128,0,137681:0:0:0:0:
329,192,137274,128,0,137390:0:0:0:0:
109,192,137390,1,0,0:0:0:0:
329,192,137507,128,0,137681:0:0:0:0:
182,192,137507,1,0,0:0:0:0:
36,192,137507,1,0,0:0:0:0:
256,192,137623,1,0,0:0:0:0:
109,192,137623,1,0,0:0:0:0:
182,192,137739,1,0,0:0:0:0:
329,192,137739,1,0,0:0:0:0:
402,192,137739,1,0,0:0:0:0:
475,192,137739,1,0,0:0:0:0:
36,192,137739,128,0,138204:0:0:0:0:
182,192,137855,128,0,137894:0:0:0:0:
329,192,137855,128,0,137894:0:0:0:0:
402,192,137855,128,0,137894:0:0:0:0:
475,192,137855,128,0,137894:0:0:0:0:
182,192,137972,128,0,138030:0:0:0:0:
329,192,137972,128,0,138030:0:0:0:0:
402,192,137972,128,0,138030:0:0:0:0:
475,192,137972,128,0,138030:0:0:0:0:
182,192,138088,128,0,138166:0:0:0:0:
329,192,138088,128,0,138166:0:0:0:0:
402,192,138088,128,0,138166:0:0:0:0:
475,192,138088,128,0,138166:0:0:0:0:
182,192,138204,1,0,0:0:0:0:
329,192,138204,1,0,0:0:0:0:
402,192,138204,1,0,0:0:0:0:
475,192,138204,1,0,0:0:0:0:
256,192,138321,1,0,0:0:0:0:
329,192,138321,1,0,0:0:0:0:
402,192,138321,1,0,0:0:0:0:
109,192,138321,1,0,0:0:0:0:
36,192,138437,1,0,0:0:0:0:
182,192,138437,1,0,0:0:0:0:
256,192,138437,1,0,0:0:0:0:
329,192,138437,1,0,0:0:0:0:
256,192,138553,1,0,0:0:0:0:
182,192,138553,1,0,0:0:0:0:
109,192,138553,1,0,0:0:0:0:
402,192,138553,1,0,0:0:0:0:
36,192,138669,1,0,0:0:0:0:
475,192,138669,128,0,139135:0:0:0:0:
182,192,138669,1,0,0:0:0:0:
109,192,138669,1,0,0:0:0:0:
329,192,138669,1,0,0:0:0:0:
329,192,138786,128,0,138824:0:0:0:0:
182,192,138786,128,0,138824:0:0:0:0:
109,192,138786,128,0,138824:0:0:0:0:
36,192,138786,128,0,138824:0:0:0:0:
36,192,138902,128,0,138960:0:0:0:0:
109,192,138902,128,0,138960:0:0:0:0:
182,192,138902,128,0,138960:0:0:0:0:
329,192,138902,128,0,138960:0:0:0:0:
109,192,139018,128,0,139096:0:0:0:0:
182,192,139018,128,0,139096:0:0:0:0:
329,192,139018,128,0,139096:0:0:0:0:
36,192,139018,128,0,139096:0:0:0:0:
109,192,139135,1,0,0:0:0:0:
329,192,139135,1,0,0:0:0:0:
36,192,139135,1,0,0:0:0:0:
182,192,139135,1,0,0:0:0:0:
256,192,139251,1,0,0:0:0:0:
402,192,139251,1,0,0:0:0:0:
109,192,139251,1,0,0:0:0:0:
329,192,139367,1,0,0:0:0:0:
475,192,139367,1,0,0:0:0:0:
182,192,139367,1,0,0:0:0:0:
256,192,139483,1,0,0:0:0:0:
402,192,139483,1,0,0:0:0:0:
109,192,139483,1,0,0:0:0:0:
182,192,139600,1,0,0:0:0:0:
329,192,139600,1,0,0:0:0:0:
36,192,139600,128,0,140007:0:0:0:0:
475,192,139600,128,0,140007:0:0:0:0:
329,192,139716,1,0,0:0:0:0:
182,192,139716,1,0,0:0:0:0:
109,192,139716,128,0,139890:0:0:0:0:
402,192,139716,128,0,139890:0:0:0:0:
256,192,139832,128,0,140065:0:0:0:0:
182,192,139832,128,0,139890:0:0:0:0:
329,192,139832,128,0,139890:0:0:0:0:
329,192,139948,128,0,140007:0:0:0:0:
182,192,139948,128,0,140007:0:0:0:0:
109,192,139948,128,0,140007:0:0:0:0:
402,192,139948,128,0,140007:0:0:0:0:
329,192,140065,1,0,0:0:0:0:
182,192,140065,1,0,0:0:0:0:
402,192,140065,128,0,140181:0:0:0:0:
475,192,140065,128,0,140181:0:0:0:0:
36,192,140065,128,0,140181:0:0:0:0:
109,192,140065,128,0,140181:0:0:0:0:
256,192,140181,128,0,140297:0:0:0:0:
329,192,140181,128,0,140297:0:0:0:0:
182,192,140181,128,0,140297:0:0:0:0:
402,192,140297,128,0,140530:0:0:0:0:
475,192,140297,128,0,140414:0:0:0:0:
109,192,140297,128,0,140414:0:0:0:0:
36,192,140297,128,0,140530:0:0:0:0:
182,192,140414,1,0,0:0:0:0:
256,192,140414,128,0,140646:0:0:0:0:
329,192,140414,128,0,140530:0:0:0:0:
182,192,140530,128,0,140646:0:0:0:0:
109,192,140530,128,0,140762:0:0:0:0:
475,192,140530,1,0,0:0:0:0:
36,192,140646,1,0,0:0:0:0:
329,192,140646,1,0,0:0:0:0:
402,192,140646,128,0,140762:0:0:0:0:
475,192,140646,128,0,140995:0:0:0:0:
182,192,140762,1,0,0:0:0:0:
329,192,140762,1,0,0:0:0:0:
36,192,140762,128,0,141111:0:0:0:0:
256,192,140762,1,0,0:0:0:0:
109,192,140879,128,0,140995:0:0:0:0:
402,192,140879,128,0,140995:0:0:0:0:
256,192,140879,128,0,140937:0:0:0:0:
182,192,140995,1,0,0:0:0:0:
329,192,140995,1,0,0:0:0:0:
256,192,140995,128,0,141111:0:0:0:0:
329,192,141111,1,0,0:0:0:0:
109,192,141111,1,0,0:0:0:0:
182,192,141111,128,0,141344:0:0:0:0:
402,192,141111,128,0,141460:0:0:0:0:
475,192,141111,128,0,141576:0:0:0:0:
256,192,141228,1,0,0:0:0:0:
36,192,141228,1,0,0:0:0:0:
109,192,141228,128,0,141344:0:0:0:0:
329,192,141228,128,0,141344:0:0:0:0:
256,192,141344,128,0,141460:0:0:0:0:
36,192,141460,128,0,141809:0:0:0:0:
109,192,141460,128,0,141576:0:0:0:0:
182,192,141460,128,0,142158:0:0:0:0:
329,192,141460,128,0,141576:0:0:0:0:
256,192,141576,1,0,0:0:0:0:
402,192,141576,1,0,0:0:0:0:
329,192,141693,128,0,141809:0:0:0:0:
402,192,141693,128,0,141925:0:0:0:0:
475,192,141693,128,0,141809:0:0:0:0:
256,192,141809,1,0,0:0:0:0:
109,192,141809,1,0,0:0:0:0:
36,192,141925,128,0,142158:0:0:0:0:
109,192,141925,128,0,142042:0:0:0:0:
256,192,142042,1,0,0:0:0:0:
329,192,142042,1,0,0:0:0:0:
475,192,142042,1,0,0:0:0:0:
402,192,142042,1,0,0:0:0:0:
402,192,142158,128,0,142390:0:0:0:0:
475,192,142158,128,0,142274:0:0:0:0:
182,192,142274,1,0,0:0:0:0:
36,192,142274,1,0,0:0:0:0:
256,192,142274,1,0,0:0:0:0:
109,192,142274,1,0,0:0:0:0:
36,192,142390,128,0,142739:0:0:0:0:
109,192,142390,128,0,142507:0:0:0:0:
182,192,142390,128,0,142623:0:0:0:0:
329,192,142507,1,0,0:0:0:0:
402,192,142507,1,0,0:0:0:0:
329,192,142623,128,0,142855:0:0:0:0:
402,192,142623,128,0,142739:0:0:0:0:
475,192,142623,128,0,142972:0:0:0:0:
182,192,142739,1,0,0:0:0:0:
109,192,142739,1,0,0:0:0:0:
256,192,142855,128,0,142972:0:0:0:0:
182,192,142855,128,0,143204:0:0:0:0:
109,192,142855,128,0,143204:0:0:0:0:
36,192,142855,128,0,143204:0:0:0:0:
329,192,142972,1,0,0:0:0:0:
402,192,142972,1,0,0:0:0:0:
256,192,143088,128,0,143233:0:0:0:0:
329,192,143088,128,0,143262:0:0:0:0:
402,192,143088,128,0,143292:0:0:0:0:
475,192,143088,128,0,143321:0:0:0:0:
256,192,143321,128,0,143495:0:0:0:0:
329,192,143350,128,0,143495:0:0:0:0:
182,192,143350,128,0,143495:0:0:0:0:
109,192,143379,128,0,143495:0:0:0:0:
402,192,143379,128,0,143495:0:0:0:0:
36,192,143408,128,0,143495:0:0:0:0:
475,192,143408,128,0,143495:0:0:0:0:
475,192,143553,128,0,143611:0:0:0:0:
256,192,143553,128,0,143698:0:0:0:0:
182,192,143553,128,0,143669:0:0:0:0:
329,192,143553,128,0,143669:0:0:0:0:
109,192,143553,128,0,143640:0:0:0:0:
402,192,143553,128,0,143640:0:0:0:0:
36,192,143553,128,0,143611:0:0:0:0:
36,192,143669,1,0,0:0:0:0:
475,192,143669,1,0,0:0:0:0:
109,192,143698,1,0,0:0:0:0:
402,192,143698,1,0,0:0:0:0:
182,192,143708,1,0,0:0:0:0:
329,192,143708,1,0,0:0:0:0:
256,192,143728,1,0,0:0:0:0:
475,192,143786,128,0,143844:0:0:0:0:
256,192,143786,128,0,143931:0:0:0:0:
182,192,143786,128,0,143902:0:0:0:0:
402,192,143786,128,0,143873:0:0:0:0:
109,192,143786,128,0,143873:0:0:0:0:
329,192,143786,128,0,143902:0:0:0:0:
36,192,143786,128,0,143844:0:0:0:0:
36,192,143902,1,0,0:0:0:0:
475,192,143902,1,0,0:0:0:0:
109,192,143931,1,0,0:0:0:0:
402,192,143931,1,0,0:0:0:0:
182,192,143941,1,0,0:0:0:0:
329,192,143941,1,0,0:0:0:0:
256,192,143960,1,0,0:0:0:0:
36,192,144018,128,0,144135:0:0:0:0:
475,192,144018,128,0,144135:0:0:0:0:
109,192,144018,128,0,144105:0:0:0:0:
182,192,144018,128,0,144076:0:0:0:0:
329,192,144018,128,0,144076:0:0:0:0:
402,192,144018,128,0,144105:0:0:0:0:
256,192,144047,1,0,0:0:0:0:
256,192,144135,128,0,144222:0:0:0:0:
182,192,144164,128,0,144193:0:0:0:0:
329,192,144164,128,0,144193:0:0:0:0:
109,192,144173,1,0,0:0:0:0:
402,192,144173,1,0,0:0:0:0:
475,192,144193,1,0,0:0:0:0:
36,192,144193,1,0,0:0:0:0:
256,192,144251,1,0,0:0:0:0:
329,192,144280,1,0,0:0:0:0:
182,192,144280,1,0,0:0:0:0:
109,192,144290,1,0,0:0:0:0:
402,192,144290,1,0,0:0:0:0:
36,192,144309,1,0,0:0:0:0:
475,192,144309,1,0,0:0:0:0:
256,192,144367,1,0,0:0:0:0:
182,192,144367,1,0,0:0:0:0:
329,192,144367,1,0,0:0:0:0:
402,192,144396,1,0,0:0:0:0:
109,192,144396,1,0,0:0:0:0:
36,192,144425,1,0,0:0:0:0:
475,192,144425,1,0,0:0:0:0:
256,192,144454,1,0,0:0:0:0:
182,192,144483,1,0,0:0:0:0:
329,192,144483,1,0,0:0:0:0:
402,192,144512,1,0,0:0:0:0:
109,192,144512,1,0,0:0:0:0:
36,192,144522,1,0,0:0:0:0:
475,192,144522,1,0,0:0:0:0:
256,192,144600,1,0,0:0:0:0:
475,192,144629,1,0,0:0:0:0:
182,192,144629,1,0,0:0:0:0:
329,192,144629,1,0,0:0:0:0:
36,192,144629,1,0,0:0:0:0:
402,192,144638,1,0,0:0:0:0:
109,192,144638,1,0,0:0:0:0:
256,192,144716,1,0,0:0:0:0:
182,192,144745,1,0,0:0:0:0:
329,192,144745,1,0,0:0:0:0:
402,192,144745,1,0,0:0:0:0:
109,192,144745,1,0,0:0:0:0:
36,192,144755,1,0,0:0:0:0:
475,192,144755,1,0,0:0:0:0:
182,192,144832,1,0,0:0:0:0:
256,192,144832,1,0,0:0:0:0:
329,192,144832,1,0,0:0:0:0:
109,192,144861,1,0,0:0:0:0:
402,192,144861,1,0,0:0:0:0:
475,192,144871,1,0,0:0:0:0:
36,192,144871,1,0,0:0:0:0:
109,192,144948,1,0,0:0:0:0:
182,192,144948,1,0,0:0:0:0:
256,192,144948,1,0,0:0:0:0:
329,192,144948,1,0,0:0:0:0:
402,192,144948,1,0,0:0:0:0:
36,192,144948,1,0,0:0:0:0:
475,192,144948,1,0,0:0:0:0:
402,192,145065,1,0,0:0:0:0:
329,192,145065,1,0,0:0:0:0:
256,192,145065,1,0,0:0:0:0:
182,192,145065,1,0,0:0:0:0:
109,192,145065,1,0,0:0:0:0:
475,192,145065,1,0,0:0:0:0:
36,192,145065,1,0,0:0:0:0:
36,192,145181,128,0,145326:0:0:0:0:
109,192,145210,128,0,145355:0:0:0:0:
182,192,145239,128,0,145385:0:0:0:0:
256,192,145268,128,0,145414:0:0:0:0:
329,192,145297,128,0,145414:0:0:0:0:
402,192,145326,128,0,145414:0:0:0:0:
475,192,145355,128,0,145414:0:0:0:0:
109,192,145414,1,0,0:0:0:0:
36,192,145414,1,0,0:0:0:0:
182,192,145443,1,0,0:0:0:0:
256,192,145472,1,0,0:0:0:0:
329,192,145501,1,0,0:0:0:0:
402,192,145530,1,0,0:0:0:0:
475,192,145530,1,0,0:0:0:0:
256,192,145646,1,0,0:0:0:0:
475,192,145646,1,0,0:0:0:0:
109,192,145646,1,0,0:0:0:0:
36,192,145646,1,0,0:0:0:0:
402,192,145646,128,0,145704:0:0:0:0:
329,192,145646,128,0,145704:0:0:0:0:
402,192,145762,1,0,0:0:0:0:
182,192,145762,1,0,0:0:0:0:
36,192,145762,1,0,0:0:0:0:
329,192,145762,128,0,145821:0:0:0:0:
256,192,145762,128,0,145821:0:0:0:0:
329,192,145879,1,0,0:0:0:0:
109,192,145879,1,0,0:0:0:0:
475,192,145879,1,0,0:0:0:0:
256,192,145879,128,0,145937:0:0:0:0:
182,192,145879,128,0,145937:0:0:0:0:
256,192,145995,1,0,0:0:0:0:
36,192,145995,1,0,0:0:0:0:
402,192,145995,1,0,0:0:0:0:
475,192,145995,1,0,0:0:0:0:
182,192,145995,128,0,146053:0:0:0:0:
109,192,145995,128,0,146053:0:0:0:0:
329,192,146111,1,0,0:0:0:0:
402,192,146111,1,0,0:0:0:0:
475,192,146111,1,0,0:0:0:0:
182,192,146111,1,0,0:0:0:0:
109,192,146111,128,0,146286:0:0:0:0:
36,192,146111,128,0,146286:0:0:0:0:
256,192,146228,1,0,0:0:0:0:
182,192,146344,1,0,0:0:0:0:
109,192,146344,1,0,0:0:0:0:
36,192,146344,1,0,0:0:0:0:
329,192,146344,1,0,0:0:0:0:
402,192,146344,128,0,146518:0:0:0:0:
475,192,146344,128,0,146518:0:0:0:0:
256,192,146460,128,0,146518:0:0:0:0:
329,192,146576,1,0,0:0:0:0:
402,192,146576,1,0,0:0:0:0:
475,192,146576,1,0,0:0:0:0:
109,192,146576,1,0,0:0:0:0:
182,192,146576,1,0,0:0:0:0:
36,192,146576,1,0,0:0:0:0:
36,192,146693,128,0,146751:0:0:0:0:
182,192,146693,128,0,146751:0:0:0:0:
329,192,146693,128,0,146751:0:0:0:0:
402,192,146693,1,0,0:0:0:0:
109,192,146809,128,0,146867:0:0:0:0:
256,192,146809,128,0,146867:0:0:0:0:
475,192,146809,1,0,0:0:0:0:
402,192,146809,128,0,146867:0:0:0:0:
36,192,146809,1,0,0:0:0:0:
182,192,146925,128,0,146983:0:0:0:0:
329,192,146925,128,0,146983:0:0:0:0:
475,192,146925,128,0,146983:0:0:0:0:
109,192,146925,1,0,0:0:0:0:
182,192,147042,1,0,0:0:0:0:
109,192,147042,128,0,147216:0:0:0:0:
36,192,147042,128,0,147216:0:0:0:0:
329,192,147042,1,0,0:0:0:0:
475,192,147042,1,0,0:0:0:0:
256,192,147158,1,0,0:0:0:0:
475,192,147158,1,0,0:0:0:0:
36,192,147274,1,0,0:0:0:0:
109,192,147274,1,0,0:0:0:0:
182,192,147274,1,0,0:0:0:0:
402,192,147274,128,0,147448:0:0:0:0:
475,192,147274,128,0,147448:0:0:0:0:
329,192,147274,1,0,0:0:0:0:
256,192,147390,1,0,0:0:0:0:
36,192,147390,1,0,0:0:0:0:
475,192,147507,1,0,0:0:0:0:
402,192,147507,1,0,0:0:0:0:
329,192,147507,1,0,0:0:0:0:
182,192,147507,1,0,0:0:0:0:
109,192,147507,1,0,0:0:0:0:
36,192,147507,1,0,0:0:0:0:
475,192,147623,128,0,147681:0:0:0:0:
329,192,147623,128,0,147681:0:0:0:0:
182,192,147623,128,0,147681:0:0:0:0:
109,192,147623,1,0,0:0:0:0:
402,192,147739,128,0,147797:0:0:0:0:
256,192,147739,128,0,147797:0:0:0:0:
109,192,147739,128,0,147797:0:0:0:0:
36,192,147739,1,0,0:0:0:0:
475,192,147739,1,0,0:0:0:0:
36,192,147855,128,0,147914:0:0:0:0:
182,192,147855,128,0,147914:0:0:0:0:
329,192,147855,128,0,147914:0:0:0:0:
402,192,147855,1,0,0:0:0:0:
402,192,147972,128,0,148146:0:0:0:0:
475,192,147972,128,0,148146:0:0:0:0:
256,192,147972,1,0,0:0:0:0:
329,192,147972,1,0,0:0:0:0:
109,192,147972,1,0,0:0:0:0:
182,192,148088,1,0,0:0:0:0:
36,192,148088,1,0,0:0:0:0:
256,192,148204,1,0,0:0:0:0:
475,192,148204,1,0,0:0:0:0:
109,192,148204,128,0,148379:0:0:0:0:
402,192,148204,1,0,0:0:0:0:
36,192,148204,128,0,148379:0:0:0:0:
329,192,148321,1,0,0:0:0:0:
182,192,148321,1,0,0:0:0:0:
475,192,148437,1,0,0:0:0:0:
36,192,148437,1,0,0:0:0:0:
329,192,148437,1,0,0:0:0:0:
182,192,148437,1,0,0:0:0:0:
402,192,148437,1,0,0:0:0:0:
256,192,148437,128,0,148611:0:0:0:0:
109,192,148553,1,0,0:0:0:0:
36,192,148553,128,0,148611:0:0:0:0:
475,192,148553,1,0,0:0:0:0:
182,192,148553,128,0,148611:0:0:0:0:
329,192,148553,128,0,148728:0:0:0:0:
109,192,148669,128,0,148728:0:0:0:0:
256,192,148669,128,0,148728:0:0:0:0:
182,192,148669,1,0,0:0:0:0:
402,192,148669,128,0,148844:0:0:0:0:
329,192,148786,128,0,148844:0:0:0:0:
182,192,148786,128,0,148844:0:0:0:0:
256,192,148786,1,0,0:0:0:0:
475,192,148786,128,0,148960:0:0:0:0:
109,192,148902,128,0,149076:0:0:0:0:
36,192,148902,128,0,149076:0:0:0:0:
256,192,148902,1,0,0:0:0:0:
402,192,148902,1,0,0:0:0:0:
182,192,148902,128,0,149076:0:0:0:0:
329,192,149018,1,0,0:0:0:0:
475,192,149018,1,0,0:0:0:0:
36,192,149135,1,0,0:0:0:0:
402,192,149135,128,0,149309:0:0:0:0:
182,192,149135,1,0,0:0:0:0:
109,192,149135,1,0,0:0:0:0:
475,192,149135,128,0,149309:0:0:0:0:
329,192,149135,128,0,149309:0:0:0:0:
109,192,149251,1,0,0:0:0:0:
256,192,149251,1,0,0:0:0:0:
182,192,149367,1,0,0:0:0:0:
109,192,149367,1,0,0:0:0:0:
36,192,149367,1,0,0:0:0:0:
475,192,149367,1,0,0:0:0:0:
402,192,149367,1,0,0:0:0:0:
329,192,149367,1,0,0:0:0:0:
182,192,149483,1,0,0:0:0:0:
329,192,149483,1,0,0:0:0:0:
36,192,149483,1,0,0:0:0:0:
256,192,149600,128,0,149774:0:0:0:0:
402,192,149600,128,0,149658:0:0:0:0:
475,192,149600,1,0,0:0:0:0:
109,192,149600,1,0,0:0:0:0:
329,192,149716,128,0,149774:0:0:0:0:
402,192,149716,1,0,0:0:0:0:
36,192,149716,1,0,0:0:0:0:
475,192,149716,128,0,149774:0:0:0:0:
182,192,149716,128,0,149890:0:0:0:0:
256,192,149832,128,0,149890:0:0:0:0:
329,192,149832,1,0,0:0:0:0:
109,192,149832,128,0,150007:0:0:0:0:
402,192,149832,128,0,149890:0:0:0:0:
329,192,149948,128,0,150007:0:0:0:0:
256,192,149948,1,0,0:0:0:0:
182,192,149948,128,0,150007:0:0:0:0:
36,192,149948,128,0,150123:0:0:0:0:
182,192,150065,1,0,0:0:0:0:
109,192,150065,128,0,150123:0:0:0:0:
256,192,150065,128,0,150123:0:0:0:0:
329,192,150065,128,0,150239:0:0:0:0:
475,192,150065,128,0,150239:0:0:0:0:
402,192,150181,128,0,150239:0:0:0:0:
109,192,150181,1,0,0:0:0:0:
182,192,150297,128,0,150472:0:0:0:0:
36,192,150297,128,0,150472:0:0:0:0:
256,192,150297,128,0,150355:0:0:0:0:
329,192,150297,128,0,150355:0:0:0:0:
402,192,150297,128,0,150355:0:0:0:0:
475,192,150297,128,0,150355:0:0:0:0:
109,192,150414,128,0,150472:0:0:0:0:
182,192,150530,128,0,150704:0:0:0:0:
109,192,150530,128,0,150588:0:0:0:0:
36,192,150530,128,0,150588:0:0:0:0:
256,192,150530,128,0,150704:0:0:0:0:
402,192,150530,128,0,150588:0:0:0:0:
475,192,150530,128,0,150588:0:0:0:0:
329,192,150646,128,0,150704:0:0:0:0:
36,192,150762,128,0,150821:0:0:0:0:
109,192,150762,128,0,150821:0:0:0:0:
256,192,150762,128,0,150821:0:0:0:0:
329,192,150762,128,0,150937:0:0:0:0:
475,192,150762,128,0,150821:0:0:0:0:
402,192,150762,128,0,150937:0:0:0:0:
182,192,150879,128,0,150937:0:0:0:0:
329,192,150995,128,0,151053:0:0:0:0:
109,192,150995,128,0,151169:0:0:0:0:
36,192,150995,128,0,151169:0:0:0:0:
256,192,150995,128,0,151053:0:0:0:0:
402,192,150995,128,0,151053:0:0:0:0:
475,192,150995,128,0,151053:0:0:0:0:
329,192,151111,128,0,151169:0:0:0:0:
109,192,151228,128,0,151286:0:0:0:0:
256,192,151228,128,0,151286:0:0:0:0:
182,192,151228,128,0,151286:0:0:0:0:
36,192,151228,128,0,151286:0:0:0:0:
402,192,151228,128,0,151402:0:0:0:0:
475,192,151228,128,0,151402:0:0:0:0:
109,192,151344,1,0,0:0:0:0:
256,192,151460,128,0,151518:0:0:0:0:
182,192,151460,128,0,151518:0:0:0:0:
36,192,151460,128,0,151518:0:0:0:0:
329,192,151460,128,0,151635:0:0:0:0:
402,192,151460,128,0,151518:0:0:0:0:
475,192,151460,128,0,151635:0:0:0:0:
256,192,151576,1,0,0:0:0:0:
329,192,151693,128,0,151751:0:0:0:0:
182,192,151693,128,0,151867:0:0:0:0:
36,192,151693,128,0,151867:0:0:0:0:
109,192,151693,128,0,151751:0:0:0:0:
402,192,151693,128,0,151751:0:0:0:0:
475,192,151693,128,0,151751:0:0:0:0:
329,192,151809,1,0,0:0:0:0:
182,192,151925,128,0,151983:0:0:0:0:
109,192,151925,128,0,151983:0:0:0:0:
36,192,151925,128,0,151983:0:0:0:0:
256,192,151925,128,0,152100:0:0:0:0:
402,192,151925,128,0,152100:0:0:0:0:
475,192,151925,128,0,151983:0:0:0:0:
182,192,152042,1,0,0:0:0:0:
402,192,152158,128,0,152216:0:0:0:0:
329,192,152158,128,0,152216:0:0:0:0:
256,192,152158,128,0,152332:0:0:0:0:
475,192,152158,128,0,152216:0:0:0:0:
109,192,152158,128,0,152332:0:0:0:0:
36,192,152158,128,0,152216:0:0:0:0:
402,192,152274,1,0,0:0:0:0:
475,192,152390,128,0,152448:0:0:0:0:
256,192,152390,128,0,152448:0:0:0:0:
109,192,152390,128,0,152448:0:0:0:0:
182,192,152390,128,0,152565:0:0:0:0:
329,192,152390,128,0,152565:0:0:0:0:
36,192,152390,128,0,152448:0:0:0:0:
256,192,152507,1,0,0:0:0:0:
109,192,152623,128,0,152739:0:0:0:0:
36,192,152623,128,0,152739:0:0:0:0:
256,192,152623,128,0,152739:0:0:0:0:
402,192,152623,128,0,152739:0:0:0:0:
475,192,152623,128,0,152739:0:0:0:0:
329,192,152623,1,0,0:0:0:0:
182,192,152623,1,0,0:0:0:0:
182,192,152739,128,0,152855:0:0:0:0:
329,192,152739,128,0,152855:0:0:0:0:
109,192,152855,128,0,152972:0:0:0:0:
256,192,152855,128,0,152972:0:0:0:0:
402,192,152855,128,0,152972:0:0:0:0:
329,192,152972,128,0,153088:0:0:0:0:
182,192,152972,128,0,153088:0:0:0:0:
475,192,152972,128,0,153088:0:0:0:0:
36,192,152972,128,0,153088:0:0:0:0:
109,192,153088,128,0,153379:0:0:0:0:
256,192,153088,128,0,153379:0:0:0:0:
402,192,153088,128,0,153379:0:0:0:0:
329,192,153204,128,0,153321:0:0:0:0:
182,192,153204,128,0,153321:0:0:0:0:
36,192,153321,128,0,153379:0:0:0:0:
475,192,153321,128,0,153379:0:0:0:0:
109,192,153437,128,0,153495:0:0:0:0:
256,192,153437,128,0,153495:0:0:0:0:
402,192,153437,128,0,153495:0:0:0:0:
329,192,153553,128,0,153611:0:0:0:0:
182,192,153553,128,0,153611:0:0:0:0:
182,192,153631,1,0,0:0:0:0:
329,192,153631,1,0,0:0:0:0:
329,192,153708,1,0,0:0:0:0:
182,192,153708,1,0,0:0:0:0:
329,192,153786,1,0,0:0:0:0:
182,192,153786,1,0,0:0:0:0:
329,192,153873,1,0,0:0:0:0:
182,192,153873,1,0,0:0:0:0:
329,192,153960,1,0,0:0:0:0:
182,192,153960,1,0,0:0:0:0:
329,192,154047,1,0,0:0:0:0:
182,192,154047,1,0,0:0:0:0:
329,192,154135,1,0,0:0:0:0:
182,192,154135,1,0,0:0:0:0:
329,192,154251,1,0,0:0:0:0:
182,192,154251,1,0,0:0:0:0:
182,192,154367,1,0,0:0:0:0:
329,192,154367,1,0,0:0:0:0:
329,192,154483,1,0,0:0:0:0:
256,192,154483,1,0,0:0:0:0:
182,192,154483,1,0,0:0:0:0:
402,192,154512,128,0,154919:0:0:0:0:
475,192,154542,128,0,154948:0:0:0:0:
182,192,154948,128,0,155414:0:0:0:0:
402,192,155414,128,0,155821:0:0:0:0:
475,192,155414,128,0,155472:0:0:0:0:
329,192,155414,128,0,155762:0:0:0:0:
109,192,155414,1,0,0:0:0:0:
36,192,155414,1,0,0:0:0:0:
256,192,155414,1,0,0:0:0:0:
256,192,155704,1,0,0:0:0:0:
182,192,155762,1,0,0:0:0:0:
109,192,155821,1,0,0:0:0:0:
36,192,155879,1,0,0:0:0:0:
475,192,155879,1,0,0:0:0:0:
402,192,155879,1,0,0:0:0:0:
256,192,155879,1,0,0:0:0:0:
329,192,156344,1,0,0:0:0:0:
475,192,156344,1,0,0:0:0:0:
402,192,156344,1,0,0:0:0:0:
109,192,156344,1,0,0:0:0:0:
36,192,156344,1,0,0:0:0:0:
256,192,156344,1,0,0:0:0:0:
182,192,156460,1,0,0:0:0:0:
329,192,156576,1,0,0:0:0:0:
182,192,156693,1,0,0:0:0:0:
329,192,156809,1,0,0:0:0:0:
182,192,156925,1,0,0:0:0:0:
329,192,157042,1,0,0:0:0:0:
402,192,157042,128,0,157274:0:0:0:0:
475,192,157042,1,0,0:0:0:0:
109,192,157158,1,0,0:0:0:0:
256,192,157274,1,0,0:0:0:0:
182,192,157274,1,0,0:0:0:0:
329,192,157274,128,0,157507:0:0:0:0:
475,192,157274,1,0,0:0:0:0:
36,192,157390,1,0,0:0:0:0:
256,192,157507,128,0,157623:0:0:0:0:
109,192,157507,1,0,0:0:0:0:
182,192,157507,1,0,0:0:0:0:
475,192,157507,128,0,157972:0:0:0:0:
329,192,157623,1,0,0:0:0:0:
256,192,157739,1,0,0:0:0:0:
109,192,157739,1,0,0:0:0:0:
402,192,157855,1,0,0:0:0:0:
329,192,157972,1,0,0:0:0:0:
182,192,157972,1,0,0:0:0:0:
36,192,157972,128,0,158437:0:0:0:0:
475,192,158088,1,0,0:0:0:0:
402,192,158204,1,0,0:0:0:0:
256,192,158204,1,0,0:0:0:0:
182,192,158321,1,0,0:0:0:0:
329,192,158437,1,0,0:0:0:0:
475,192,158437,1,0,0:0:0:0:
402,192,158437,1,0,0:0:0:0:
109,192,158437,1,0,0:0:0:0:
256,192,158553,1,0,0:0:0:0:
182,192,158669,1,0,0:0:0:0:
402,192,158669,1,0,0:0:0:0:
36,192,158786,1,0,0:0:0:0:
109,192,158786,1,0,0:0:0:0:
402,192,158786,1,0,0:0:0:0:
475,192,158786,1,0,0:0:0:0:
329,192,158902,128,0,159018:0:0:0:0:
182,192,158902,1,0,0:0:0:0:
256,192,159018,128,0,159135:0:0:0:0:
109,192,159018,1,0,0:0:0:0:
329,192,159135,1,0,0:0:0:0:
402,192,159135,1,0,0:0:0:0:
475,192,159135,1,0,0:0:0:0:
36,192,159135,1,0,0:0:0:0:
182,192,159135,128,0,159367:0:0:0:0:
402,192,159367,1,0,0:0:0:0:
109,192,159367,1,0,0:0:0:0:
256,192,159367,128,0,159600:0:0:0:0:
36,192,159367,128,0,159454:0:0:0:0:
182,192,159600,1,0,0:0:0:0:
475,192,159600,1,0,0:0:0:0:
329,192,159600,128,0,159832:0:0:0:0:
109,192,159600,128,0,159716:0:0:0:0:
402,192,159832,1,0,0:0:0:0:
109,192,159832,1,0,0:0:0:0:
329,192,159948,1,0,0:0:0:0:
256,192,160065,1,0,0:0:0:0:
36,192,160065,1,0,0:0:0:0:
182,192,160065,128,0,160530:0:0:0:0:
475,192,160065,128,0,160297:0:0:0:0:
402,192,160065,128,0,160181:0:0:0:0:
329,192,160181,1,0,0:0:0:0:
402,192,160297,1,0,0:0:0:0:
256,192,160297,1,0,0:0:0:0:
109,192,160414,1,0,0:0:0:0:
475,192,160414,1,0,0:0:0:0:
36,192,160530,1,0,0:0:0:0:
475,192,160530,1,0,0:0:0:0:
256,192,160530,1,0,0:0:0:0:
402,192,160646,1,0,0:0:0:0:
109,192,160646,1,0,0:0:0:0:
329,192,160762,1,0,0:0:0:0:
182,192,160762,1,0,0:0:0:0:
182,192,160879,128,0,161111:0:0:0:0:
329,192,160879,128,0,161111:0:0:0:0:
109,192,160995,1,0,0:0:0:0:
402,192,160995,1,0,0:0:0:0:
109,192,161111,128,0,161344:0:0:0:0:
402,192,161111,128,0,161344:0:0:0:0:
256,192,161111,1,0,0:0:0:0:
329,192,161228,1,0,0:0:0:0:
182,192,161228,1,0,0:0:0:0:
36,192,161228,128,0,161460:0:0:0:0:
475,192,161228,128,0,161460:0:0:0:0:
256,192,161344,1,0,0:0:0:0:
109,192,161460,1,0,0:0:0:0:
402,192,161460,1,0,0:0:0:0:
329,192,161576,1,0,0:0:0:0:
182,192,161576,1,0,0:0:0:0:
36,192,161693,1,0,0:0:0:0:
475,192,161693,1,0,0:0:0:0:
256,192,161693,128,0,161809:0:0:0:0:
109,192,161809,1,0,0:0:0:0:
402,192,161809,1,0,0:0:0:0:
182,192,161925,1,0,0:0:0:0:
256,192,161925,1,0,0:0:0:0:
329,192,161925,1,0,0:0:0:0:
36,192,161925,128,0,162390:0:0:0:0:
475,192,161925,128,0,162739:0:0:0:0:
109,192,162042,1,0,0:0:0:0:
402,192,162158,1,0,0:0:0:0:
256,192,162158,1,0,0:0:0:0:
182,192,162274,1,0,0:0:0:0:
256,192,162390,1,0,0:0:0:0:
329,192,162390,1,0,0:0:0:0:
109,192,162507,1,0,0:0:0:0:
36,192,162507,1,0,0:0:0:0:
402,192,162623,1,0,0:0:0:0:
329,192,162623,1,0,0:0:0:0:
182,192,162739,1,0,0:0:0:0:
109,192,162739,1,0,0:0:0:0:
402,192,162855,1,0,0:0:0:0:
475,192,162855,1,0,0:0:0:0:
329,192,162855,1,0,0:0:0:0:
109,192,162855,1,0,0:0:0:0:
36,192,162855,1,0,0:0:0:0:
329,192,162972,1,0,0:0:0:0:
256,192,162972,1,0,0:0:0:0:
182,192,163088,1,0,0:0:0:0:
109,192,163088,1,0,0:0:0:0:
36,192,163088,1,0,0:0:0:0:
109,192,163204,1,0,0:0:0:0:
256,192,163204,1,0,0:0:0:0:
329,192,163321,1,0,0:0:0:0:
402,192,163321,1,0,0:0:0:0:
475,192,163321,1,0,0:0:0:0:
36,192,163321,128,0,163495:0:0:0:0:
475,192,163437,1,0,0:0:0:0:
256,192,163437,1,0,0:0:0:0:
329,192,163553,1,0,0:0:0:0:
182,192,163553,1,0,0:0:0:0:
109,192,163553,1,0,0:0:0:0:
36,192,163553,1,0,0:0:0:0:
36,192,163669,1,0,0:0:0:0:
256,192,163669,1,0,0:0:0:0:
329,192,163786,1,0,0:0:0:0:
402,192,163786,1,0,0:0:0:0:
475,192,163786,1,0,0:0:0:0:
182,192,163786,1,0,0:0:0:0:
109,192,163786,1,0,0:0:0:0:
256,192,163902,1,0,0:0:0:0:
36,192,163902,1,0,0:0:0:0:
402,192,164018,1,0,0:0:0:0:
182,192,164018,1,0,0:0:0:0:
475,192,164018,1,0,0:0:0:0:
109,192,164135,1,0,0:0:0:0:
329,192,164135,1,0,0:0:0:0:
256,192,164251,1,0,0:0:0:0:
182,192,164251,1,0,0:0:0:0:
36,192,164251,1,0,0:0:0:0:
475,192,164251,1,0,0:0:0:0:
402,192,164251,1,0,0:0:0:0:
329,192,164367,1,0,0:0:0:0:
36,192,164483,128,0,164716:0:0:0:0:
256,192,164483,1,0,0:0:0:0:
182,192,164600,1,0,0:0:0:0:
329,192,164600,1,0,0:0:0:0:
475,192,164600,1,0,0:0:0:0:
256,192,164716,128,0,164948:0:0:0:0:
109,192,164716,1,0,0:0:0:0:
402,192,164716,1,0,0:0:0:0:
475,192,164716,1,0,0:0:0:0:
182,192,164832,1,0,0:0:0:0:
475,192,164948,128,0,165181:0:0:0:0:
36,192,164948,1,0,0:0:0:0:
402,192,164948,1,0,0:0:0:0:
109,192,165065,1,0,0:0:0:0:
329,192,165065,1,0,0:0:0:0:
256,192,165181,1,0,0:0:0:0:
182,192,165181,1,0,0:0:0:0:
329,192,165297,1,0,0:0:0:0:
402,192,165297,1,0,0:0:0:0:
256,192,165414,128,0,165879:0:0:0:0:
109,192,165414,1,0,0:0:0:0:
182,192,165414,1,0,0:0:0:0:
402,192,165530,1,0,0:0:0:0:
475,192,165530,1,0,0:0:0:0:
182,192,165646,1,0,0:0:0:0:
109,192,165646,1,0,0:0:0:0:
36,192,165646,1,0,0:0:0:0:
329,192,165762,1,0,0:0:0:0:
402,192,165879,1,0,0:0:0:0:
475,192,165879,1,0,0:0:0:0:
109,192,165879,1,0,0:0:0:0:
36,192,165879,1,0,0:0:0:0:
256,192,165995,1,0,0:0:0:0:
329,192,166111,1,0,0:0:0:0:
475,192,166111,1,0,0:0:0:0:
182,192,166111,1,0,0:0:0:0:
109,192,166228,1,0,0:0:0:0:
256,192,166228,1,0,0:0:0:0:
402,192,166228,1,0,0:0:0:0:
329,192,166344,128,0,166576:0:0:0:0:
182,192,166344,128,0,166576:0:0:0:0:
36,192,166344,128,0,166809:0:0:0:0:
402,192,166460,128,0,166576:0:0:0:0:
256,192,166460,1,0,0:0:0:0:
109,192,166460,1,0,0:0:0:0:
475,192,166576,128,0,166809:0:0:0:0:
182,192,166693,1,0,0:0:0:0:
329,192,166693,1,0,0:0:0:0:
402,192,166809,128,0,167042:0:0:0:0:
109,192,166809,128,0,167507:0:0:0:0:
256,192,166925,1,0,0:0:0:0:
475,192,166925,1,0,0:0:0:0:
329,192,167042,128,0,167274:0:0:0:0:
36,192,167042,128,0,167507:0:0:0:0:
402,192,167158,1,0,0:0:0:0:
182,192,167158,1,0,0:0:0:0:
329,192,167390,1,0,0:0:0:0:
182,192,167390,1,0,0:0:0:0:
402,192,167507,128,0,167972:0:0:0:0:
475,192,167507,128,0,168321:0:0:0:0:
256,192,167507,128,0,167972:0:0:0:0:
329,192,167507,1,0,0:0:0:0:
182,192,167623,128,0,168088:0:0:0:0:
109,192,167739,128,0,168204:0:0:0:0:
329,192,167739,1,0,0:0:0:0:
36,192,167855,128,0,168321:0:0:0:0:
329,192,167972,1,0,0:0:0:0:
329,192,168088,128,0,168437:0:0:0:0:
402,192,168088,1,0,0:0:0:0:
256,192,168204,1,0,0:0:0:0:
182,192,168321,1,0,0:0:0:0:
256,192,168321,128,0,168437:0:0:0:0:
402,192,168321,1,0,0:0:0:0:
182,192,168437,128,0,168553:0:0:0:0:
109,192,168437,128,0,168669:0:0:0:0:
36,192,168437,128,0,168786:0:0:0:0:
475,192,168437,1,0,0:0:0:0:
402,192,168437,1,0,0:0:0:0:
256,192,168553,1,0,0:0:0:0:
329,192,168553,1,0,0:0:0:0:
182,192,168669,1,0,0:0:0:0:
475,192,168669,128,0,168902:0:0:0:0:
402,192,168669,1,0,0:0:0:0:
109,192,168786,1,0,0:0:0:0:
329,192,168786,1,0,0:0:0:0:
36,192,168902,1,0,0:0:0:0:
402,192,168902,1,0,0:0:0:0:
256,192,168902,1,0,0:0:0:0:
182,192,169018,1,0,0:0:0:0:
329,192,169135,128,0,169483:0:0:0:0:
109,192,169135,1,0,0:0:0:0:
475,192,169135,128,0,169251:0:0:0:0:
36,192,169251,1,0,0:0:0:0:
182,192,169367,128,0,170181:0:0:0:0:
109,192,169367,1,0,0:0:0:0:
475,192,169367,1,0,0:0:0:0:
36,192,169367,128,0,169483:0:0:0:0:
256,192,169483,1,0,0:0:0:0:
329,192,169600,128,0,170181:0:0:0:0:
402,192,169600,1,0,0:0:0:0:
36,192,169600,1,0,0:0:0:0:
109,192,169600,1,0,0:0:0:0:
475,192,169716,1,0,0:0:0:0:
402,192,169832,1,0,0:0:0:0:
256,192,169948,1,0,0:0:0:0:
109,192,169948,1,0,0:0:0:0:
36,192,169948,128,0,170065:0:0:0:0:
402,192,170065,1,0,0:0:0:0:
475,192,170065,1,0,0:0:0:0:
36,192,170181,1,0,0:0:0:0:
109,192,170181,1,0,0:0:0:0:
182,192,170297,1,0,0:0:0:0:
329,192,170297,1,0,0:0:0:0:
475,192,170297,1,0,0:0:0:0:
256,192,170297,128,0,170530:0:0:0:0:
402,192,170414,1,0,0:0:0:0:
36,192,170530,128,0,170762:0:0:0:0:
182,192,170530,128,0,170762:0:0:0:0:
329,192,170530,1,0,0:0:0:0:
475,192,170530,1,0,0:0:0:0:
109,192,170530,1,0,0:0:0:0:
256,192,170646,1,0,0:0:0:0:
329,192,170762,128,0,170995:0:0:0:0:
475,192,170762,128,0,170995:0:0:0:0:
402,192,170762,1,0,0:0:0:0:
109,192,170762,1,0,0:0:0:0:
182,192,170879,1,0,0:0:0:0:
36,192,170879,1,0,0:0:0:0:
256,192,170995,1,0,0:0:0:0:
402,192,170995,1,0,0:0:0:0:
109,192,170995,1,0,0:0:0:0:
182,192,171111,128,0,171344:0:0:0:0:
36,192,171111,128,0,171344:0:0:0:0:
402,192,171111,1,0,0:0:0:0:
329,192,171228,128,0,171383:0:0:0:0:
475,192,171228,128,0,171383:0:0:0:0:
256,192,171228,1,0,0:0:0:0:
109,192,171228,1,0,0:0:0:0:
402,192,171344,128,0,171460:0:0:0:0:
329,192,171460,128,0,171615:0:0:0:0:
475,192,171460,128,0,171576:0:0:0:0:
182,192,171460,128,0,171615:0:0:0:0:
36,192,171460,1,0,0:0:0:0:
109,192,171460,1,0,0:0:0:0:
256,192,171460,1,0,0:0:0:0:
256,192,171576,128,0,171693:0:0:0:0:
182,192,171693,128,0,171848:0:0:0:0:
329,192,171693,128,0,171809:0:0:0:0:
36,192,171693,128,0,171848:0:0:0:0:
109,192,171693,1,0,0:0:0:0:
402,192,171693,1,0,0:0:0:0:
475,192,171693,1,0,0:0:0:0:
109,192,171809,128,0,171925:0:0:0:0:
182,192,171925,128,0,172042:0:0:0:0:
36,192,171925,128,0,172080:0:0:0:0:
475,192,171925,128,0,172080:0:0:0:0:
402,192,171925,1,0,0:0:0:0:
329,192,171925,1,0,0:0:0:0:
256,192,171925,1,0,0:0:0:0:
402,192,172042,128,0,172158:0:0:0:0:
475,192,172158,128,0,172313:0:0:0:0:
329,192,172158,128,0,172313:0:0:0:0:
256,192,172158,1,0,0:0:0:0:
182,192,172158,1,0,0:0:0:0:
109,192,172158,1,0,0:0:0:0:
36,192,172158,1,0,0:0:0:0:
402,192,172274,128,0,172390:0:0:0:0:
329,192,172390,128,0,172545:0:0:0:0:
475,192,172390,128,0,172507:0:0:0:0:
182,192,172390,128,0,172545:0:0:0:0:
36,192,172390,1,0,0:0:0:0:
109,192,172390,1,0,0:0:0:0:
256,192,172390,1,0,0:0:0:0:
256,192,172507,128,0,172623:0:0:0:0:
329,192,172623,128,0,172739:0:0:0:0:
182,192,172623,128,0,172778:0:0:0:0:
36,192,172623,128,0,172778:0:0:0:0:
109,192,172623,1,0,0:0:0:0:
402,192,172623,1,0,0:0:0:0:
475,192,172623,1,0,0:0:0:0:
109,192,172739,128,0,172855:0:0:0:0:
36,192,172855,128,0,172972:0:0:0:0:
182,192,172855,128,0,172972:0:0:0:0:
475,192,172855,128,0,173011:0:0:0:0:
402,192,172855,1,0,0:0:0:0:
329,192,172855,1,0,0:0:0:0:
256,192,172855,1,0,0:0:0:0:
402,192,172972,128,0,173088:0:0:0:0:
329,192,173088,128,0,173262:0:0:0:0:
475,192,173088,128,0,173262:0:0:0:0:
182,192,173088,128,0,173262:0:0:0:0:
36,192,173088,128,0,173262:0:0:0:0:
256,192,173088,1,0,0:0:0:0:
109,192,173088,1,0,0:0:0:0:
256,192,173204,128,0,173321:0:0:0:0:
182,192,173321,128,0,173476:0:0:0:0:
329,192,173321,128,0,173476:0:0:0:0:
36,192,173321,128,0,173476:0:0:0:0:
402,192,173321,1,0,0:0:0:0:
475,192,173321,1,0,0:0:0:0:
109,192,173321,1,0,0:0:0:0:
109,192,173437,128,0,173553:0:0:0:0:
36,192,173553,128,0,173728:0:0:0:0:
182,192,173553,128,0,173728:0:0:0:0:
329,192,173553,128,0,173728:0:0:0:0:
475,192,173553,128,0,173728:0:0:0:0:
402,192,173553,1,0,0:0:0:0:
256,192,173553,1,0,0:0:0:0:
402,192,173669,128,0,173708:0:0:0:0:
182,192,173786,128,0,173960:0:0:0:0:
329,192,173786,128,0,173960:0:0:0:0:
475,192,173786,128,0,173960:0:0:0:0:
256,192,173786,1,0,0:0:0:0:
109,192,173786,1,0,0:0:0:0:
36,192,173786,1,0,0:0:0:0:
256,192,173902,128,0,173941:0:0:0:0:
329,192,174018,128,0,174193:0:0:0:0:
182,192,174018,128,0,174193:0:0:0:0:
36,192,174018,128,0,174193:0:0:0:0:
475,192,174018,128,0,174193:0:0:0:0:
109,192,174018,1,0,0:0:0:0:
402,192,174018,1,0,0:0:0:0:
109,192,174135,128,0,174173:0:0:0:0:
182,192,174251,128,0,174425:0:0:0:0:
36,192,174251,128,0,174425:0:0:0:0:
475,192,174251,128,0,174425:0:0:0:0:
256,192,174251,1,0,0:0:0:0:
329,192,174251,1,0,0:0:0:0:
402,192,174251,1,0,0:0:0:0:
402,192,174367,128,0,174406:0:0:0:0:
329,192,174483,128,0,174658:0:0:0:0:
475,192,174483,128,0,174658:0:0:0:0:
182,192,174483,128,0,174658:0:0:0:0:
36,192,174483,128,0,174658:0:0:0:0:
256,192,174483,1,0,0:0:0:0:
109,192,174483,1,0,0:0:0:0:
256,192,174600,128,0,174638:0:0:0:0:
182,192,174716,128,0,174890:0:0:0:0:
329,192,174716,128,0,174890:0:0:0:0:
36,192,174716,128,0,174890:0:0:0:0:
109,192,174716,1,0,0:0:0:0:
402,192,174716,1,0,0:0:0:0:
475,192,174716,1,0,0:0:0:0:
109,192,174832,128,0,174871:0:0:0:0:
36,192,174948,1,0,0:0:0:0:
182,192,174948,1,0,0:0:0:0:
256,192,174948,1,0,0:0:0:0:
329,192,174948,1,0,0:0:0:0:
402,192,174948,1,0,0:0:0:0:
475,192,174948,1,0,0:0:0:0:
402,192,175065,1,0,0:0:0:0:
256,192,175065,1,0,0:0:0:0:
182,192,175065,1,0,0:0:0:0:
109,192,175065,1,0,0:0:0:0:
36,192,175065,1,0,0:0:0:0:
475,192,175065,1,0,0:0:0:0:
329,192,175065,1,0,0:0:0:0:
329,192,175646,1,0,0:0:0:0:
256,192,175646,1,0,0:0:0:0:
109,192,175646,1,0,0:0:0:0:
182,192,175646,1,0,0:0:0:0:
36,192,175646,1,0,0:0:0:0:
475,192,175646,1,0,0:0:0:0:
402,192,175646,1,0,0:0:0:0:
182,192,175762,1,0,0:0:0:0:
109,192,175762,1,0,0:0:0:0:
36,192,175762,1,0,0:0:0:0:
256,192,175762,1,0,0:0:0:0:
329,192,175762,1,0,0:0:0:0:
475,192,175762,1,0,0:0:0:0:
36,192,176576,128,0,176615:0:0:0:0:
109,192,176576,128,0,176615:0:0:0:0:
182,192,176576,128,0,176615:0:0:0:0:
256,192,176576,128,0,176615:0:0:0:0:
329,192,176576,128,0,176615:0:0:0:0:
402,192,176576,128,0,176615:0:0:0:0:
475,192,176576,128,0,176615:0:0:0:0:
36,192,176693,128,0,176751:0:0:0:0:
109,192,176693,128,0,176751:0:0:0:0:
182,192,176693,128,0,176751:0:0:0:0:
256,192,176693,128,0,176751:0:0:0:0:
329,192,176693,128,0,176751:0:0:0:0:
475,192,176693,128,0,176751:0:0:0:0:
402,192,176693,128,0,176751:0:0:0:0:
36,192,176809,1,0,0:0:0:0:
109,192,176809,1,0,0:0:0:0:
182,192,176809,1,0,0:0:0:0:
256,192,176809,1,0,0:0:0:0:
402,192,176809,1,0,0:0:0:0:
475,192,176809,1,0,0:0:0:0:
329,192,176809,1,0,0:0:0:0:
36,192,176964,1,0,0:0:0:0:
109,192,176964,1,0,0:0:0:0:
182,192,176964,1,0,0:0:0:0:
256,192,176964,1,0,0:0:0:0:
475,192,176964,1,0,0:0:0:0:
402,192,176964,1,0,0:0:0:0:
329,192,176964,1,0,0:0:0:0:
475,192,177119,1,0,0:0:0:0:
109,192,177119,1,0,0:0:0:0:
256,192,177119,1,0,0:0:0:0:
402,192,177119,1,0,0:0:0:0:
329,192,177119,1,0,0:0:0:0:
36,192,177119,1,0,0:0:0:0:
182,192,177119,1,0,0:0:0:0:
36,192,177274,1,0,0:0:0:0:
256,192,177274,1,0,0:0:0:0:
402,192,177274,1,0,0:0:0:0:
182,192,177274,1,0,0:0:0:0:
109,192,177274,1,0,0:0:0:0:
329,192,177274,1,0,0:0:0:0:
475,192,177274,1,0,0:0:0:0:
329,192,177429,1,0,0:0:0:0:
36,192,177429,1,0,0:0:0:0:
182,192,177429,1,0,0:0:0:0:
402,192,177429,1,0,0:0:0:0:
475,192,177429,1,0,0:0:0:0:
109,192,177429,1,0,0:0:0:0:
256,192,177429,1,0,0:0:0:0:
109,192,177584,1,0,0:0:0:0:
329,192,177584,1,0,0:0:0:0:
475,192,177584,1,0,0:0:0:0:
182,192,177584,1,0,0:0:0:0:
36,192,177584,1,0,0:0:0:0:
256,192,177584,1,0,0:0:0:0:
402,192,177584,1,0,0:0:0:0:
475,192,177739,128,0,178204:0:0:0:0:
402,192,177739,128,0,178204:0:0:0:0:
256,192,177739,128,0,178204:0:0:0:0:
329,192,177739,128,0,178204:0:0:0:0:
109,192,177739,128,0,178204:0:0:0:0:
36,192,177739,128,0,178204:0:0:0:0:
182,192,177739,128,0,178204:0:0:0:0:
182,192,178669,1,0,0:0:0:0:
402,192,178669,128,0,178728:0:0:0:0:
475,192,178669,128,0,178728:0:0:0:0:
36,192,178669,128,0,178786:0:0:0:0:
256,192,178728,1,0,0:0:0:0:
109,192,178728,128,0,178902:0:0:0:0:
329,192,178786,1,0,0:0:0:0:
182,192,178786,128,0,179018:0:0:0:0:
402,192,178844,1,0,0:0:0:0:
475,192,178902,1,0,0:0:0:0:
256,192,178902,128,0,178960:0:0:0:0:
402,192,178960,1,0,0:0:0:0:
109,192,178960,128,0,179076:0:0:0:0:
36,192,179018,128,0,179135:0:0:0:0:
329,192,179018,1,0,0:0:0:0:
256,192,179076,1,0,0:0:0:0:
475,192,179076,128,0,179251:0:0:0:0:
182,192,179135,1,0,0:0:0:0:
402,192,179135,128,0,179309:0:0:0:0:
109,192,179193,1,0,0:0:0:0:
329,192,179193,128,0,179367:0:0:0:0:
36,192,179251,1,0,0:0:0:0:
256,192,179251,128,0,179309:0:0:0:0:
109,192,179309,1,0,0:0:0:0:
475,192,179367,128,0,179774:0:0:0:0:
182,192,179367,1,0,0:0:0:0:
402,192,179425,128,0,179658:0:0:0:0:
256,192,179425,1,0,0:0:0:0:
329,192,179483,128,0,179542:0:0:0:0:
182,192,179483,1,0,0:0:0:0:
109,192,179542,1,0,0:0:0:0:
256,192,179542,128,0,179600:0:0:0:0:
36,192,179600,1,0,0:0:0:0:
182,192,179600,128,0,179774:0:0:0:0:
329,192,179658,128,0,179716:0:0:0:0:
109,192,179716,1,0,0:0:0:0:
256,192,179716,128,0,179890:0:0:0:0:
36,192,179774,128,0,180007:0:0:0:0:
402,192,179774,128,0,179832:0:0:0:0:
182,192,179832,1,0,0:0:0:0:
329,192,179832,128,0,180007:0:0:0:0:
109,192,179890,128,0,180007:0:0:0:0:
475,192,179890,128,0,179948:0:0:0:0:
256,192,179948,1,0,0:0:0:0:
182,192,180007,128,0,180181:0:0:0:0:
109,192,180065,128,0,180297:0:0:0:0:
36,192,180065,128,0,180414:0:0:0:0:
475,192,180065,128,0,180181:0:0:0:0:
329,192,180065,128,0,180123:0:0:0:0:
402,192,180181,128,0,180530:0:0:0:0:
256,192,180181,128,0,180239:0:0:0:0:
329,192,180297,128,0,180414:0:0:0:0:
475,192,180297,128,0,180414:0:0:0:0:
182,192,180297,128,0,180355:0:0:0:0:
256,192,180414,128,0,180530:0:0:0:0:
109,192,180414,128,0,180472:0:0:0:0:
329,192,180530,1,0,0:0:0:0:
109,192,180530,128,0,180588:0:0:0:0:
36,192,180530,128,0,180588:0:0:0:0:
475,192,180530,128,0,180646:0:0:0:0:
256,192,180588,1,0,0:0:0:0:
402,192,180588,128,0,180762:0:0:0:0:
182,192,180646,1,0,0:0:0:0:
329,192,180646,128,0,180879:0:0:0:0:
109,192,180704,1,0,0:0:0:0:
36,192,180762,1,0,0:0:0:0:
256,192,180762,128,0,180821:0:0:0:0:
109,192,180821,1,0,0:0:0:0:
402,192,180821,128,0,180937:0:0:0:0:
475,192,180879,128,0,180995:0:0:0:0:
182,192,180879,1,0,0:0:0:0:
256,192,180937,1,0,0:0:0:0:
36,192,180937,128,0,181111:0:0:0:0:
109,192,180995,128,0,181169:0:0:0:0:
329,192,180995,1,0,0:0:0:0:
402,192,181053,1,0,0:0:0:0:
182,192,181053,128,0,181228:0:0:0:0:
475,192,181111,1,0,0:0:0:0:
256,192,181111,128,0,181169:0:0:0:0:
402,192,181169,1,0,0:0:0:0:
36,192,181228,128,0,181693:0:0:0:0:
329,192,181228,1,0,0:0:0:0:
109,192,181286,128,0,181576:0:0:0:0:
256,192,181286,1,0,0:0:0:0:
182,192,181344,128,0,181402:0:0:0:0:
329,192,181344,1,0,0:0:0:0:
402,192,181402,1,0,0:0:0:0:
256,192,181402,128,0,181460:0:0:0:0:
475,192,181460,1,0,0:0:0:0:
329,192,181460,128,0,181635:0:0:0:0:
182,192,181518,128,0,181576:0:0:0:0:
402,192,181576,1,0,0:0:0:0:
256,192,181576,128,0,181751:0:0:0:0:
475,192,181635,128,0,181751:0:0:0:0:
109,192,181635,128,0,181693:0:0:0:0:
329,192,181693,1,0,0:0:0:0:
182,192,181693,128,0,181867:0:0:0:0:
402,192,181751,128,0,181867:0:0:0:0:
36,192,181751,128,0,181809:0:0:0:0:
256,192,181809,1,0,0:0:0:0:
329,192,181867,128,0,181983:0:0:0:0:
402,192,181925,128,0,182100:0:0:0:0:
475,192,181925,128,0,182216:0:0:0:0:
182,192,181925,1,0,0:0:0:0:
109,192,181925,128,0,182042:0:0:0:0:
36,192,181925,128,0,182158:0:0:0:0:
182,192,182042,128,0,182158:0:0:0:0:
256,192,182042,1,0,0:0:0:0:
256,192,182158,128,0,182274:0:0:0:0:
329,192,182158,1,0,0:0:0:0:
109,192,182158,128,0,182332:0:0:0:0:
329,192,182274,128,0,182390:0:0:0:0:
402,192,182274,1,0,0:0:0:0:
36,192,182274,128,0,182332:0:0:0:0:
109,192,182390,128,0,182448:0:0:0:0:
182,192,182390,128,0,182448:0:0:0:0:
402,192,182390,1,0,0:0:0:0:
36,192,182390,128,0,182739:0:0:0:0:
475,192,182390,128,0,182623:0:0:0:0:
329,192,182507,128,0,182565:0:0:0:0:
182,192,182507,128,0,182565:0:0:0:0:
256,192,182507,1,0,0:0:0:0:
109,192,182507,1,0,0:0:0:0:
402,192,182623,128,0,182681:0:0:0:0:
256,192,182623,128,0,182681:0:0:0:0:
329,192,182623,1,0,0:0:0:0:
182,192,182623,1,0,0:0:0:0:
475,192,182739,128,0,182797:0:0:0:0:
329,192,182739,128,0,182797:0:0:0:0:
402,192,182739,1,0,0:0:0:0:
256,192,182739,1,0,0:0:0:0:
402,192,182855,128,0,182914:0:0:0:0:
36,192,182855,128,0,183088:0:0:0:0:
329,192,182855,1,0,0:0:0:0:
475,192,182855,128,0,183204:0:0:0:0:
109,192,182855,1,0,0:0:0:0:
182,192,182855,1,0,0:0:0:0:
329,192,182972,128,0,183030:0:0:0:0:
182,192,182972,128,0,183030:0:0:0:0:
256,192,182972,1,0,0:0:0:0:
402,192,182972,1,0,0:0:0:0:
109,192,183088,128,0,183146:0:0:0:0:
182,192,183088,1,0,0:0:0:0:
256,192,183088,128,0,183146:0:0:0:0:
329,192,183088,1,0,0:0:0:0:
182,192,183204,128,0,183262:0:0:0:0:
36,192,183204,128,0,183262:0:0:0:0:
109,192,183204,1,0,0:0:0:0:
256,192,183204,1,0,0:0:0:0:
109,192,183321,128,0,183379:0:0:0:0:
329,192,183321,128,0,183379:0:0:0:0:
402,192,183321,128,0,183437:0:0:0:0:
475,192,183321,128,0,183553:0:0:0:0:
36,192,183321,128,0,183728:0:0:0:0:
182,192,183379,128,0,183495:0:0:0:0:
109,192,183437,128,0,183728:0:0:0:0:
256,192,183437,128,0,183611:0:0:0:0:
329,192,183495,128,0,183611:0:0:0:0:
402,192,183553,128,0,183728:0:0:0:0:
182,192,183553,128,0,183728:0:0:0:0:
475,192,183611,128,0,183728:0:0:0:0:
329,192,183669,128,0,183728:0:0:0:0:
256,192,183728,128,0,183844:0:0:0:0:
402,192,183786,128,0,183844:0:0:0:0:
182,192,183786,128,0,183844:0:0:0:0:
109,192,183786,128,0,183902:0:0:0:0:
36,192,183786,128,0,184018:0:0:0:0:
475,192,183786,128,0,184135:0:0:0:0:
329,192,183844,128,0,183960:0:0:0:0:
256,192,183902,128,0,184076:0:0:0:0:
402,192,183902,128,0,184135:0:0:0:0:
182,192,183960,128,0,184076:0:0:0:0:
109,192,184018,128,0,184193:0:0:0:0:
329,192,184018,128,0,184135:0:0:0:0:
36,192,184076,128,0,184193:0:0:0:0:
182,192,184135,128,0,184193:0:0:0:0:
256,192,184193,128,0,184309:0:0:0:0:
475,192,184251,1,0,0:0:0:0:
402,192,184251,1,0,0:0:0:0:
329,192,184251,1,0,0:0:0:0:
182,192,184251,128,0,184309:0:0:0:0:
109,192,184251,128,0,184309:0:0:0:0:
36,192,184251,128,0,184309:0:0:0:0:
109,192,184367,1,0,0:0:0:0:
182,192,184367,1,0,0:0:0:0:
36,192,184367,1,0,0:0:0:0:
256,192,184425,128,0,184542:0:0:0:0:
402,192,184483,128,0,184542:0:0:0:0:
475,192,184483,128,0,184542:0:0:0:0:
329,192,184483,128,0,184542:0:0:0:0:
182,192,184483,1,0,0:0:0:0:
109,192,184483,1,0,0:0:0:0:
36,192,184483,1,0,0:0:0:0:
256,192,184600,1,0,0:0:0:0:
329,192,184600,1,0,0:0:0:0:
402,192,184600,1,0,0:0:0:0:
475,192,184600,1,0,0:0:0:0:
256,192,184716,128,0,184832:0:0:0:0:
109,192,184716,128,0,184774:0:0:0:0:
36,192,184716,128,0,184774:0:0:0:0:
182,192,184716,128,0,184774:0:0:0:0:
182,192,184832,1,0,0:0:0:0:
36,192,184832,1,0,0:0:0:0:
109,192,184832,1,0,0:0:0:0:
256,192,184948,128,0,185007:0:0:0:0:
475,192,184948,128,0,185007:0:0:0:0:
402,192,184948,128,0,185007:0:0:0:0:
329,192,184948,128,0,185007:0:0:0:0:
182,192,184948,1,0,0:0:0:0:
109,192,184948,1,0,0:0:0:0:
36,192,184948,1,0,0:0:0:0:
475,192,185065,1,0,0:0:0:0:
329,192,185065,1,0,0:0:0:0:
256,192,185065,1,0,0:0:0:0:
402,192,185065,1,0,0:0:0:0:
256,192,185181,128,0,185297:0:0:0:0:
182,192,185181,128,0,185239:0:0:0:0:
36,192,185181,128,0,185239:0:0:0:0:
109,192,185181,128,0,185239:0:0:0:0:
109,192,185297,1,0,0:0:0:0:
36,192,185297,1,0,0:0:0:0:
182,192,185297,1,0,0:0:0:0:
329,192,185297,128,0,185355:0:0:0:0:
402,192,185297,128,0,185355:0:0:0:0:
475,192,185297,128,0,185355:0:0:0:0:
475,192,185414,1,0,0:0:0:0:
329,192,185414,1,0,0:0:0:0:
402,192,185414,1,0,0:0:0:0:
256,192,185414,128,0,185646:0:0:0:0:
182,192,185530,1,0,0:0:0:0:
109,192,185530,1,0,0:0:0:0:
36,192,185530,1,0,0:0:0:0:
329,192,185646,1,0,0:0:0:0:
402,192,185646,1,0,0:0:0:0:
475,192,185646,1,0,0:0:0:0:
182,192,185646,1,0,0:0:0:0:
109,192,185646,1,0,0:0:0:0:
36,192,185646,1,0,0:0:0:0:
256,192,185762,1,0,0:0:0:0:
182,192,185879,1,0,0:0:0:0:
109,192,185879,1,0,0:0:0:0:
36,192,185879,1,0,0:0:0:0:
475,192,185879,1,0,0:0:0:0:
402,192,185879,1,0,0:0:0:0:
329,192,185879,1,0,0:0:0:0:
256,192,185995,1,0,0:0:0:0:
36,192,186111,128,0,186693:0:0:0:0:
109,192,186111,128,0,186169:0:0:0:0:
182,192,186111,128,0,186169:0:0:0:0:
256,192,186111,128,0,186169:0:0:0:0:
329,192,186111,128,0,186169:0:0:0:0:
402,192,186111,128,0,186169:0:0:0:0:
475,192,186111,128,0,186169:0:0:0:0:
182,192,186228,1,0,0:0:0:0:
109,192,186344,128,0,186402:0:0:0:0:
182,192,186344,128,0,186402:0:0:0:0:
256,192,186344,128,0,186402:0:0:0:0:
329,192,186344,128,0,186402:0:0:0:0:
402,192,186344,128,0,186402:0:0:0:0:
475,192,186344,128,0,186402:0:0:0:0:
329,192,186460,1,0,0:0:0:0:
256,192,186576,128,0,186635:0:0:0:0:
329,192,186576,128,0,186635:0:0:0:0:
109,192,186576,128,0,186635:0:0:0:0:
182,192,186576,128,0,186635:0:0:0:0:
475,192,186576,128,0,186635:0:0:0:0:
402,192,186576,128,0,186635:0:0:0:0:
475,192,186693,1,0,0:0:0:0:
36,192,186809,128,0,186867:0:0:0:0:
109,192,186809,128,0,186867:0:0:0:0:
182,192,186809,128,0,186867:0:0:0:0:
256,192,186809,128,0,186867:0:0:0:0:
402,192,186809,128,0,186867:0:0:0:0:
329,192,186809,128,0,186867:0:0:0:0:
475,192,186809,128,0,186867:0:0:0:0:
109,192,186925,1,0,0:0:0:0:
36,192,186925,1,0,0:0:0:0:
475,192,187042,128,0,187100:0:0:0:0:
182,192,187042,128,0,187100:0:0:0:0:
109,192,187042,128,0,187100:0:0:0:0:
256,192,187042,128,0,187448:0:0:0:0:
329,192,187042,128,0,187100:0:0:0:0:
402,192,187042,128,0,187100:0:0:0:0:
36,192,187042,128,0,187100:0:0:0:0:
329,192,187158,1,0,0:0:0:0:
402,192,187158,1,0,0:0:0:0:
182,192,187274,128,0,187332:0:0:0:0:
109,192,187274,128,0,187332:0:0:0:0:
36,192,187274,128,0,187332:0:0:0:0:
329,192,187274,128,0,187332:0:0:0:0:
402,192,187274,128,0,187332:0:0:0:0:
475,192,187274,128,0,187332:0:0:0:0:
109,192,187390,1,0,0:0:0:0:
182,192,187390,1,0,0:0:0:0:
36,192,187507,128,0,187565:0:0:0:0:
109,192,187507,128,0,187565:0:0:0:0:
182,192,187507,128,0,187565:0:0:0:0:
402,192,187507,128,0,187565:0:0:0:0:
329,192,187507,128,0,187565:0:0:0:0:
475,192,187507,128,0,187565:0:0:0:0:
256,192,187565,128,0,187623:0:0:0:0:
182,192,187623,128,0,187681:0:0:0:0:
109,192,187681,128,0,187739:0:0:0:0:
36,192,187739,128,0,187797:0:0:0:0:
329,192,187739,128,0,187797:0:0:0:0:
256,192,187739,128,0,187797:0:0:0:0:
402,192,187739,128,0,187797:0:0:0:0:
475,192,187739,128,0,187797:0:0:0:0:
109,192,187797,128,0,187855:0:0:0:0:
182,192,187855,128,0,187914:0:0:0:0:
475,192,187855,1,0,0:0:0:0:
329,192,187855,1,0,0:0:0:0:
256,192,187914,128,0,187972:0:0:0:0:
182,192,187972,128,0,188030:0:0:0:0:
109,192,187972,128,0,188030:0:0:0:0:
36,192,187972,128,0,188030:0:0:0:0:
329,192,187972,128,0,188030:0:0:0:0:
402,192,187972,128,0,188437:0:0:0:0:
475,192,187972,128,0,188030:0:0:0:0:
256,192,188088,1,0,0:0:0:0:
256,192,188204,128,0,188262:0:0:0:0:
182,192,188204,128,0,188262:0:0:0:0:
109,192,188204,128,0,188262:0:0:0:0:
36,192,188204,128,0,188262:0:0:0:0:
329,192,188204,128,0,188262:0:0:0:0:
475,192,188204,128,0,188262:0:0:0:0:
182,192,188321,1,0,0:0:0:0:
36,192,188321,1,0,0:0:0:0:
36,192,188437,128,0,188495:0:0:0:0:
109,192,188437,128,0,188495:0:0:0:0:
182,192,188437,128,0,188495:0:0:0:0:
256,192,188437,128,0,188495:0:0:0:0:
329,192,188437,128,0,188495:0:0:0:0:
475,192,188437,128,0,188495:0:0:0:0:
402,192,188553,1,0,0:0:0:0:
329,192,188669,128,0,188728:0:0:0:0:
256,192,188669,128,0,188728:0:0:0:0:
109,192,188669,128,0,188728:0:0:0:0:
36,192,188669,128,0,188728:0:0:0:0:
182,192,188669,128,0,188728:0:0:0:0:
402,192,188669,128,0,188728:0:0:0:0:
475,192,188669,128,0,188728:0:0:0:0:
256,192,188786,1,0,0:0:0:0:
109,192,188902,128,0,188960:0:0:0:0:
36,192,188902,128,0,188960:0:0:0:0:
329,192,188902,128,0,188960:0:0:0:0:
402,192,188902,128,0,188960:0:0:0:0:
475,192,188902,128,0,189309:0:0:0:0:
182,192,188902,128,0,188960:0:0:0:0:
256,192,188902,128,0,188960:0:0:0:0:
109,192,189018,1,0,0:0:0:0:
182,192,189135,128,0,189193:0:0:0:0:
109,192,189135,128,0,189193:0:0:0:0:
36,192,189135,128,0,189193:0:0:0:0:
256,192,189135,128,0,189193:0:0:0:0:
329,192,189135,128,0,189193:0:0:0:0:
402,192,189135,128,0,189193:0:0:0:0:
256,192,189251,1,0,0:0:0:0:
182,192,189367,128,0,189425:0:0:0:0:
109,192,189367,128,0,189425:0:0:0:0:
36,192,189367,128,0,189425:0:0:0:0:
256,192,189367,128,0,189425:0:0:0:0:
329,192,189367,128,0,189425:0:0:0:0:
402,192,189367,128,0,189425:0:0:0:0:
475,192,189367,128,0,189425:0:0:0:0:
182,192,189483,128,0,189542:0:0:0:0:
329,192,189483,128,0,189542:0:0:0:0:
402,192,189483,128,0,189542:0:0:0:0:
256,192,189483,128,0,189542:0:0:0:0:
109,192,189483,128,0,189542:0:0:0:0:
256,192,189600,128,0,189658:0:0:0:0:
182,192,189600,128,0,189658:0:0:0:0:
329,192,189600,128,0,189658:0:0:0:0:
256,192,189716,128,0,189774:0:0:0:0:
329,192,189832,128,0,190007:0:0:0:0:
182,192,189832,128,0,190007:0:0:0:0:
256,192,189832,128,0,190036:0:0:0:0:
109,192,189861,128,0,189978:0:0:0:0:
402,192,189861,128,0,189978:0:0:0:0:
36,192,189890,128,0,189948:0:0:0:0:
475,192,189890,128,0,189948:0:0:0:0:
256,192,190065,128,0,190268:0:0:0:0:
182,192,190094,128,0,190268:0:0:0:0:
329,192,190094,128,0,190268:0:0:0:0:
402,192,190123,128,0,190239:0:0:0:0:
109,192,190123,128,0,190239:0:0:0:0:
36,192,190152,128,0,190210:0:0:0:0:
475,192,190152,128,0,190210:0:0:0:0:
329,192,190297,128,0,190472:0:0:0:0:
182,192,190297,128,0,190472:0:0:0:0:
256,192,190297,128,0,190501:0:0:0:0:
109,192,190326,128,0,190443:0:0:0:0:
402,192,190326,128,0,190443:0:0:0:0:
36,192,190355,128,0,190414:0:0:0:0:
475,192,190355,128,0,190414:0:0:0:0:
256,192,190530,128,0,190733:0:0:0:0:
329,192,190559,128,0,190733:0:0:0:0:
182,192,190559,128,0,190733:0:0:0:0:
402,192,190588,128,0,190704:0:0:0:0:
109,192,190588,128,0,190704:0:0:0:0:
475,192,190617,128,0,190675:0:0:0:0:
36,192,190617,128,0,190675:0:0:0:0:
256,192,190762,128,0,190966:0:0:0:0:
182,192,190762,128,0,190937:0:0:0:0:
329,192,190762,128,0,190937:0:0:0:0:
402,192,190792,128,0,190908:0:0:0:0:
109,192,190792,128,0,190908:0:0:0:0:
475,192,190821,128,0,190879:0:0:0:0:
36,192,190821,128,0,190879:0:0:0:0:
256,192,190995,128,0,191198:0:0:0:0:
182,192,191024,128,0,191198:0:0:0:0:
329,192,191024,128,0,191198:0:0:0:0:
109,192,191053,128,0,191169:0:0:0:0:
402,192,191053,128,0,191169:0:0:0:0:
36,192,191082,128,0,191140:0:0:0:0:
475,192,191082,128,0,191140:0:0:0:0:
329,192,191228,128,0,191402:0:0:0:0:
182,192,191228,128,0,191402:0:0:0:0:
256,192,191228,128,0,191431:0:0:0:0:
109,192,191257,128,0,191373:0:0:0:0:
402,192,191257,128,0,191373:0:0:0:0:
36,192,191286,128,0,191344:0:0:0:0:
475,192,191286,128,0,191344:0:0:0:0:
36,192,191460,128,0,191809:0:0:0:0:
475,192,191460,128,0,191809:0:0:0:0:
402,192,191489,128,0,191809:0:0:0:0:
109,192,191489,128,0,191809:0:0:0:0:
329,192,191518,128,0,191809:0:0:0:0:
182,192,191518,128,0,191809:0:0:0:0:
256,192,191547,128,0,191809:0:0:0:0:
36,192,191925,128,0,191954:0:0:0:0:
109,192,191925,128,0,191954:0:0:0:0:
182,192,191925,128,0,191954:0:0:0:0:
256,192,191925,128,0,191954:0:0:0:0:
329,192,191925,128,0,191954:0:0:0:0:
402,192,191925,128,0,191954:0:0:0:0:
475,192,191925,128,0,191954:0:0:0:0:
182,192,192042,128,0,192071:0:0:0:0:
109,192,192042,128,0,192071:0:0:0:0:
256,192,192042,128,0,192071:0:0:0:0:
475,192,192042,128,0,192071:0:0:0:0:
402,192,192042,128,0,192071:0:0:0:0:
329,192,192042,128,0,192071:0:0:0:0:
36,192,192042,128,0,192071:0:0:0:0:
256,192,192158,128,0,192216:0:0:0:0:
36,192,192158,128,0,192216:0:0:0:0:
182,192,192158,128,0,192216:0:0:0:0:
329,192,192158,128,0,192216:0:0:0:0:
402,192,192158,128,0,192216:0:0:0:0:
475,192,192158,128,0,192216:0:0:0:0:
109,192,192158,128,0,192216:0:0:0:0:
475,192,192274,128,0,192332:0:0:0:0:
402,192,192274,128,0,192332:0:0:0:0:
329,192,192274,128,0,192332:0:0:0:0:
182,192,192274,128,0,192332:0:0:0:0:
109,192,192274,128,0,192332:0:0:0:0:
36,192,192274,128,0,192332:0:0:0:0:
256,192,192274,128,0,192332:0:0:0:0:
36,192,192390,128,0,192478:0:0:0:0:
109,192,192390,128,0,192478:0:0:0:0:
182,192,192390,128,0,192478:0:0:0:0:
256,192,192390,128,0,192478:0:0:0:0:
329,192,192390,128,0,192478:0:0:0:0:
402,192,192390,128,0,192478:0:0:0:0:
475,192,192390,128,0,192478:0:0:0:0:
36,192,192507,128,0,192584:0:0:0:0:
109,192,192507,128,0,192584:0:0:0:0:
182,192,192507,128,0,192584:0:0:0:0:
256,192,192507,128,0,192584:0:0:0:0:
329,192,192507,128,0,192584:0:0:0:0:
475,192,192507,128,0,192584:0:0:0:0:
402,192,192507,128,0,192584:0:0:0:0:
329,192,192623,128,0,192681:0:0:0:0:
182,192,192623,128,0,192681:0:0:0:0:
109,192,192623,128,0,192681:0:0:0:0:
256,192,192623,128,0,192681:0:0:0:0:
36,192,192623,128,0,192681:0:0:0:0:
402,192,192623,128,0,192681:0:0:0:0:
475,192,192623,128,0,192681:0:0:0:0:
36,192,192739,1,0,0:0:0:0:
109,192,192739,1,0,0:0:0:0:
182,192,192739,1,0,0:0:0:0:
256,192,192739,1,0,0:0:0:0:
329,192,192739,1,0,0:0:0:0:
402,192,192739,1,0,0:0:0:0:
475,192,192739,1,0,0:0:0:0:
36,192,192797,1,0,0:0:0:0:
109,192,192797,1,0,0:0:0:0:
182,192,192797,1,0,0:0:0:0:
256,192,192797,1,0,0:0:0:0:
329,192,192797,1,0,0:0:0:0:
402,192,192797,1,0,0:0:0:0:
475,192,192797,1,0,0:0:0:0:
475,192,192855,1,0,0:0:0:0:
402,192,192855,1,0,0:0:0:0:
329,192,192855,1,0,0:0:0:0:
256,192,192855,1,0,0:0:0:0:
182,192,192855,1,0,0:0:0:0:
109,192,192855,1,0,0:0:0:0:
36,192,192855,1,0,0:0:0:0:
36,192,192972,128,0,193011:0:0:0:0:
109,192,192972,128,0,193011:0:0:0:0:
182,192,192972,128,0,193011:0:0:0:0:
402,192,192972,128,0,193011:0:0:0:0:
475,192,192972,128,0,193011:0:0:0:0:
329,192,192972,128,0,193011:0:0:0:0:
256,192,192972,128,0,193011:0:0:0:0:
36,192,193088,1,0,0:0:0:0:
109,192,193088,1,0,0:0:0:0:
182,192,193088,1,0,0:0:0:0:
329,192,193088,1,0,0:0:0:0:
402,192,193088,1,0,0:0:0:0:
475,192,193088,1,0,0:0:0:0:
256,192,193088,1,0,0:0:0:0:
402,192,193204,128,0,193243:0:0:0:0:
109,192,193204,128,0,193243:0:0:0:0:
36,192,193204,128,0,193243:0:0:0:0:
182,192,193204,128,0,193243:0:0:0:0:
256,192,193204,128,0,193243:0:0:0:0:
475,192,193204,128,0,193243:0:0:0:0:
329,192,193204,128,0,193243:0:0:0:0:
36,192,193262,1,0,0:0:0:0:
182,192,193262,1,0,0:0:0:0:
329,192,193262,1,0,0:0:0:0:
475,192,193262,1,0,0:0:0:0:
109,192,193292,1,0,0:0:0:0:
256,192,193292,1,0,0:0:0:0:
402,192,193292,1,0,0:0:0:0:
475,192,193321,1,0,0:0:0:0:
329,192,193321,1,0,0:0:0:0:
182,192,193321,1,0,0:0:0:0:
36,192,193321,1,0,0:0:0:0:
402,192,193350,1,0,0:0:0:0:
256,192,193350,1,0,0:0:0:0:
109,192,193350,1,0,0:0:0:0:
36,192,193437,128,0,193495:0:0:0:0:
109,192,193437,128,0,193495:0:0:0:0:
182,192,193437,128,0,193495:0:0:0:0:
256,192,193437,128,0,193495:0:0:0:0:
329,192,193437,128,0,193495:0:0:0:0:
475,192,193437,128,0,193495:0:0:0:0:
402,192,193437,128,0,193495:0:0:0:0:
36,192,193553,128,0,193902:0:0:0:0:
182,192,193553,128,0,193631:0:0:0:0:
256,192,193553,128,0,193611:0:0:0:0:
329,192,193553,1,0,0:0:0:0:
402,192,193553,1,0,0:0:0:0:
475,192,193553,1,0,0:0:0:0:
109,192,193553,128,0,193669:0:0:0:0:
329,192,193669,1,0,0:0:0:0:
402,192,193669,1,0,0:0:0:0:
475,192,193669,1,0,0:0:0:0:
256,192,193786,1,0,0:0:0:0:
182,192,193786,1,0,0:0:0:0:
109,192,193786,1,0,0:0:0:0:
329,192,193786,1,0,0:0:0:0:
475,192,193786,1,0,0:0:0:0:
402,192,193786,1,0,0:0:0:0:
109,192,193902,128,0,193960:0:0:0:0:
256,192,193902,128,0,193960:0:0:0:0:
182,192,193902,128,0,193960:0:0:0:0:
475,192,193902,1,0,0:0:0:0:
402,192,193902,1,0,0:0:0:0:
329,192,193902,1,0,0:0:0:0:
329,192,194018,128,0,194135:0:0:0:0:
402,192,194018,128,0,194076:0:0:0:0:
256,192,194018,128,0,194193:0:0:0:0:
182,192,194018,128,0,194251:0:0:0:0:
109,192,194018,128,0,194309:0:0:0:0:
36,192,194018,128,0,194367:0:0:0:0:
475,192,194076,1,0,0:0:0:0:
402,192,194135,1,0,0:0:0:0:
329,192,194193,1,0,0:0:0:0:
256,192,194251,1,0,0:0:0:0:
475,192,194251,1,0,0:0:0:0:
182,192,194309,1,0,0:0:0:0:
402,192,194309,1,0,0:0:0:0:
109,192,194367,1,0,0:0:0:0:
329,192,194367,1,0,0:0:0:0:
256,192,194425,128,0,194542:0:0:0:0:
36,192,194425,1,0,0:0:0:0:
182,192,194483,128,0,194542:0:0:0:0:
329,192,194483,128,0,194542:0:0:0:0:
109,192,194542,128,0,194600:0:0:0:0:
402,192,194542,128,0,194600:0:0:0:0:
475,192,194600,128,0,194774:0:0:0:0:
36,192,194600,128,0,194774:0:0:0:0:
109,192,194658,128,0,194832:0:0:0:0:
402,192,194658,128,0,194832:0:0:0:0:
182,192,194716,128,0,194832:0:0:0:0:
329,192,194716,128,0,194832:0:0:0:0:
256,192,194774,1,0,0:0:0:0:
36,192,194832,1,0,0:0:0:0:
475,192,194832,1,0,0:0:0:0:
109,192,194890,1,0,0:0:0:0:
402,192,194890,1,0,0:0:0:0:
182,192,194948,1,0,0:0:0:0:
256,192,194948,128,0,195181:0:0:0:0:
329,192,194948,1,0,0:0:0:0:
329,192,195065,1,0,0:0:0:0:
182,192,195065,1,0,0:0:0:0:
109,192,195065,1,0,0:0:0:0:
402,192,195065,1,0,0:0:0:0:
475,192,195181,1,0,0:0:0:0:
402,192,195181,1,0,0:0:0:0:
36,192,195181,1,0,0:0:0:0:
109,192,195181,1,0,0:0:0:0:
182,192,195181,1,0,0:0:0:0:
329,192,195181,1,0,0:0:0:0:
256,192,195297,1,0,0:0:0:0:
182,192,195297,1,0,0:0:0:0:
109,192,195297,1,0,0:0:0:0:
329,192,195297,1,0,0:0:0:0:
402,192,195297,1,0,0:0:0:0:
256,192,195414,128,0,195472:0:0:0:0:
402,192,195414,128,0,195530:0:0:0:0:
329,192,195414,128,0,195588:0:0:0:0:
36,192,195414,128,0,195530:0:0:0:0:
109,192,195414,128,0,195472:0:0:0:0:
182,192,195414,128,0,195472:0:0:0:0:
475,192,195472,128,0,195530:0:0:0:0:
256,192,195530,128,0,195646:0:0:0:0:
182,192,195530,128,0,195646:0:0:0:0:
36,192,195588,128,0,195762:0:0:0:0:
109,192,195588,128,0,195704:0:0:0:0:
475,192,195646,128,0,195821:0:0:0:0:
402,192,195646,128,0,195821:0:0:0:0:
329,192,195704,128,0,195937:0:0:0:0:
256,192,195762,128,0,195879:0:0:0:0:
182,192,195762,128,0,195879:0:0:0:0:
109,192,195821,128,0,195995:0:0:0:0:
36,192,195879,128,0,195995:0:0:0:0:
475,192,195879,128,0,195995:0:0:0:0:
402,192,195937,128,0,196169:0:0:0:0:
329,192,195995,128,0,196111:0:0:0:0:
256,192,195995,128,0,196111:0:0:0:0:
182,192,196053,128,0,196286:0:0:0:0:
109,192,196111,128,0,196228:0:0:0:0:
36,192,196111,128,0,196169:0:0:0:0:
475,192,196169,128,0,196460:0:0:0:0:
329,192,196228,128,0,196344:0:0:0:0:
402,192,196228,128,0,196402:0:0:0:0:
256,192,196286,128,0,196460:0:0:0:0:
182,192,196344,1,0,0:0:0:0:
36,192,196344,128,0,196518:0:0:0:0:
329,192,196402,1,0,0:0:0:0:
109,192,196402,128,0,196576:0:0:0:0:
402,192,196460,1,0,0:0:0:0:
182,192,196460,128,0,196635:0:0:0:0:
475,192,196518,1,0,0:0:0:0:
256,192,196518,128,0,196693:0:0:0:0:
36,192,196576,1,0,0:0:0:0:
329,192,196576,128,0,196751:0:0:0:0:
109,192,196635,1,0,0:0:0:0:
402,192,196635,128,0,196693:0:0:0:0:
475,192,196693,1,0,0:0:0:0:
182,192,196693,128,0,196925:0:0:0:0:
402,192,196751,1,0,0:0:0:0:
256,192,196751,128,0,196867:0:0:0:0:
329,192,196809,1,0,0:0:0:0:
475,192,196809,128,0,196983:0:0:0:0:
109,192,196809,128,0,196983:0:0:0:0:
36,192,196809,128,0,197042:0:0:0:0:
402,192,196867,128,0,197042:0:0:0:0:
329,192,196925,128,0,197100:0:0:0:0:
256,192,196983,128,0,197158:0:0:0:0:
475,192,197042,1,0,0:0:0:0:
182,192,197042,128,0,197216:0:0:0:0:
402,192,197100,1,0,0:0:0:0:
109,192,197100,128,0,197158:0:0:0:0:
329,192,197158,1,0,0:0:0:0:
36,192,197158,1,0,0:0:0:0:
256,192,197216,1,0,0:0:0:0:
109,192,197216,1,0,0:0:0:0:
182,192,197274,1,0,0:0:0:0:
402,192,197274,128,0,197448:0:0:0:0:
475,192,197274,128,0,197448:0:0:0:0:
36,192,197332,1,0,0:0:0:0:
329,192,197390,128,0,197448:0:0:0:0:
256,192,197390,128,0,197448:0:0:0:0:
109,192,197448,128,0,197507:0:0:0:0:
402,192,197507,128,0,197681:0:0:0:0:
475,192,197507,128,0,197681:0:0:0:0:
182,192,197565,1,0,0:0:0:0:
329,192,197623,128,0,197739:0:0:0:0:
256,192,197623,128,0,197739:0:0:0:0:
109,192,197681,128,0,197739:0:0:0:0:
402,192,197739,128,0,197914:0:0:0:0:
475,192,197739,128,0,197914:0:0:0:0:
36,192,197797,1,0,0:0:0:0:
329,192,197855,128,0,198030:0:0:0:0:
256,192,197855,128,0,198030:0:0:0:0:
109,192,197914,128,0,197972:0:0:0:0:
402,192,197972,128,0,198146:0:0:0:0:
475,192,197972,128,0,198146:0:0:0:0:
182,192,198030,1,0,0:0:0:0:
256,192,198088,128,0,198146:0:0:0:0:
329,192,198146,1,0,0:0:0:0:
475,192,198204,1,0,0:0:0:0:
109,192,198204,128,0,198379:0:0:0:0:
36,192,198204,128,0,198379:0:0:0:0:
402,192,198262,1,0,0:0:0:0:
182,192,198321,128,0,198379:0:0:0:0:
256,192,198321,128,0,198379:0:0:0:0:
329,192,198379,128,0,198437:0:0:0:0:
109,192,198437,128,0,198611:0:0:0:0:
36,192,198437,128,0,198611:0:0:0:0:
402,192,198495,1,0,0:0:0:0:
182,192,198553,128,0,198669:0:0:0:0:
256,192,198553,128,0,198669:0:0:0:0:
475,192,198611,128,0,198669:0:0:0:0:
109,192,198669,128,0,198844:0:0:0:0:
36,192,198669,128,0,198844:0:0:0:0:
402,192,198728,1,0,0:0:0:0:
182,192,198786,128,0,198960:0:0:0:0:
256,192,198786,128,0,198960:0:0:0:0:
329,192,198844,128,0,198902:0:0:0:0:
109,192,198902,128,0,199076:0:0:0:0:
36,192,198902,128,0,199076:0:0:0:0:
402,192,198960,1,0,0:0:0:0:
475,192,199018,128,0,199076:0:0:0:0:
182,192,199018,128,0,199076:0:0:0:0:
256,192,199018,128,0,199076:0:0:0:0:
402,192,199076,1,0,0:0:0:0:
256,192,199135,1,0,0:0:0:0:
182,192,199135,1,0,0:0:0:0:
109,192,199135,1,0,0:0:0:0:
36,192,199135,1,0,0:0:0:0:
329,192,199135,1,0,0:0:0:0:
475,192,199135,1,0,0:0:0:0:
402,192,199193,1,0,0:0:0:0:
182,192,199251,1,0,0:0:0:0:
36,192,199251,1,0,0:0:0:0:
109,192,199251,1,0,0:0:0:0:
256,192,199251,1,0,0:0:0:0:
329,192,199251,1,0,0:0:0:0:
475,192,199251,1,0,0:0:0:0:
402,192,199309,1,0,0:0:0:0:
475,192,199367,1,0,0:0:0:0:
182,192,199367,1,0,0:0:0:0:
329,192,199367,1,0,0:0:0:0:
256,192,199367,1,0,0:0:0:0:
109,192,199367,1,0,0:0:0:0:
36,192,199367,1,0,0:0:0:0:
402,192,199425,1,0,0:0:0:0:
182,192,199483,1,0,0:0:0:0:
36,192,199483,1,0,0:0:0:0:
256,192,199483,1,0,0:0:0:0:
329,192,199483,1,0,0:0:0:0:
109,192,199483,1,0,0:0:0:0:
475,192,199483,1,0,0:0:0:0:
402,192,199542,1,0,0:0:0:0:
329,192,199600,1,0,0:0:0:0:
256,192,199600,1,0,0:0:0:0:
109,192,199600,1,0,0:0:0:0:
36,192,199600,1,0,0:0:0:0:
182,192,199600,1,0,0:0:0:0:
475,192,199600,1,0,0:0:0:0:
402,192,199658,1,0,0:0:0:0:
475,192,199716,1,0,0:0:0:0:
402,192,199716,1,0,0:0:0:0:
182,192,199716,1,0,0:0:0:0:
109,192,199716,1,0,0:0:0:0:
36,192,199716,1,0,0:0:0:0:
256,192,199716,1,0,0:0:0:0:
329,192,199774,1,0,0:0:0:0:
182,192,199832,1,0,0:0:0:0:
329,192,199832,1,0,0:0:0:0:
402,192,199832,1,0,0:0:0:0:
475,192,199832,1,0,0:0:0:0:
109,192,199832,1,0,0:0:0:0:
36,192,199832,1,0,0:0:0:0:
256,192,199890,1,0,0:0:0:0:
36,192,199948,1,0,0:0:0:0:
256,192,199948,1,0,0:0:0:0:
109,192,199948,1,0,0:0:0:0:
402,192,199948,1,0,0:0:0:0:
475,192,199948,1,0,0:0:0:0:
329,192,199948,1,0,0:0:0:0:
182,192,200007,1,0,0:0:0:0:
402,192,200065,1,0,0:0:0:0:
329,192,200065,1,0,0:0:0:0:
475,192,200065,1,0,0:0:0:0:
109,192,200065,1,0,0:0:0:0:
36,192,200065,1,0,0:0:0:0:
256,192,200065,1,0,0:0:0:0:
182,192,200123,1,0,0:0:0:0:
475,192,200181,1,0,0:0:0:0:
402,192,200181,1,0,0:0:0:0:
256,192,200181,1,0,0:0:0:0:
329,192,200181,1,0,0:0:0:0:
109,192,200181,1,0,0:0:0:0:
36,192,200181,1,0,0:0:0:0:
182,192,200239,1,0,0:0:0:0:
256,192,200297,1,0,0:0:0:0:
329,192,200297,1,0,0:0:0:0:
402,192,200297,1,0,0:0:0:0:
475,192,200297,1,0,0:0:0:0:
109,192,200297,1,0,0:0:0:0:
36,192,200297,1,0,0:0:0:0:
182,192,200355,1,0,0:0:0:0:
36,192,200414,1,0,0:0:0:0:
109,192,200414,1,0,0:0:0:0:
256,192,200414,1,0,0:0:0:0:
329,192,200414,1,0,0:0:0:0:
402,192,200414,1,0,0:0:0:0:
475,192,200414,1,0,0:0:0:0:
182,192,200472,1,0,0:0:0:0:
36,192,200530,1,0,0:0:0:0:
182,192,200530,1,0,0:0:0:0:
256,192,200530,1,0,0:0:0:0:
402,192,200530,1,0,0:0:0:0:
475,192,200530,1,0,0:0:0:0:
329,192,200530,1,0,0:0:0:0:
109,192,200588,1,0,0:0:0:0:
329,192,200646,1,0,0:0:0:0:
36,192,200646,1,0,0:0:0:0:
256,192,200646,1,0,0:0:0:0:
109,192,200646,1,0,0:0:0:0:
475,192,200646,1,0,0:0:0:0:
402,192,200646,1,0,0:0:0:0:
182,192,200704,1,0,0:0:0:0:
402,192,200762,1,0,0:0:0:0:
109,192,200762,1,0,0:0:0:0:
36,192,200762,1,0,0:0:0:0:
182,192,200762,1,0,0:0:0:0:
329,192,200762,1,0,0:0:0:0:
475,192,200762,1,0,0:0:0:0:
256,192,200821,1,0,0:0:0:0:
475,192,200879,1,0,0:0:0:0:
402,192,200879,1,0,0:0:0:0:
256,192,200879,1,0,0:0:0:0:
182,192,200879,1,0,0:0:0:0:
109,192,200879,1,0,0:0:0:0:
36,192,200879,1,0,0:0:0:0:
329,192,200937,1,0,0:0:0:0:
475,192,200995,1,0,0:0:0:0:
36,192,200995,128,0,201053:0:0:0:0:
109,192,200995,128,0,201111:0:0:0:0:
182,192,200995,128,0,201169:0:0:0:0:
256,192,200995,128,0,201228:0:0:0:0:
329,192,200995,128,0,201169:0:0:0:0:
402,192,200995,128,0,201402:0:0:0:0:
36,192,201228,1,0,0:0:0:0:
475,192,201228,1,0,0:0:0:0:
109,192,201257,1,0,0:0:0:0:
182,192,201286,1,0,0:0:0:0:
329,192,201286,1,0,0:0:0:0:
256,192,201315,1,0,0:0:0:0:
109,192,201460,128,0,201809:0:0:0:0:
475,192,201460,128,0,201518:0:0:0:0:
402,192,201460,128,0,201576:0:0:0:0:
329,192,201460,128,0,201635:0:0:0:0:
256,192,201460,128,0,201693:0:0:0:0:
182,192,201460,128,0,201635:0:0:0:0:
36,192,201460,1,0,0:0:0:0:
36,192,201693,1,0,0:0:0:0:
475,192,201693,1,0,0:0:0:0:
402,192,201722,1,0,0:0:0:0:
329,192,201751,1,0,0:0:0:0:
256,192,201780,1,0,0:0:0:0:
182,192,201809,1,0,0:0:0:0:
109,192,201925,1,0,0:0:0:0:
36,192,201925,1,0,0:0:0:0:
182,192,201925,128,0,201983:0:0:0:0:
256,192,201925,128,0,201983:0:0:0:0:
329,192,201983,128,0,202042:0:0:0:0:
402,192,202042,128,0,202100:0:0:0:0:
475,192,202042,128,0,202100:0:0:0:0:
109,192,202100,128,0,202158:0:0:0:0:
182,192,202100,128,0,202158:0:0:0:0:
256,192,202158,128,0,202216:0:0:0:0:
329,192,202216,128,0,202274:0:0:0:0:
402,192,202216,128,0,202274:0:0:0:0:
36,192,202274,128,0,202332:0:0:0:0:
109,192,202274,128,0,202332:0:0:0:0:
182,192,202332,128,0,202390:0:0:0:0:
256,192,202390,128,0,202448:0:0:0:0:
329,192,202390,128,0,202448:0:0:0:0:
402,192,202390,1,0,0:0:0:0:
475,192,202390,1,0,0:0:0:0:
402,192,202545,1,0,0:0:0:0:
475,192,202545,1,0,0:0:0:0:
182,192,202545,128,0,202623:0:0:0:0:
256,192,202545,128,0,202623:0:0:0:0:
475,192,202700,1,0,0:0:0:0:
402,192,202700,1,0,0:0:0:0:
109,192,202700,128,0,202778:0:0:0:0:
182,192,202700,128,0,202778:0:0:0:0:
402,192,202855,1,0,0:0:0:0:
475,192,202855,1,0,0:0:0:0:
182,192,202855,1,0,0:0:0:0:
109,192,202855,1,0,0:0:0:0:
36,192,202855,1,0,0:0:0:0:
256,192,203088,128,0,203379:0:0:0:0:
329,192,203088,128,0,203379:0:0:0:0:
182,192,203321,128,0,203379:0:0:0:0:
109,192,203321,128,0,203379:0:0:0:0:
36,192,203321,128,0,203379:0:0:0:0:
402,192,203321,128,0,203379:0:0:0:0:
475,192,203321,128,0,203379:0:0:0:0:
182,192,203553,128,0,203844:0:0:0:0:
256,192,203553,128,0,203844:0:0:0:0:
109,192,203786,128,0,203844:0:0:0:0:
36,192,203786,128,0,203844:0:0:0:0:
329,192,203786,128,0,203844:0:0:0:0:
402,192,203786,128,0,203844:0:0:0:0:
475,192,203786,128,0,203844:0:0:0:0:
36,192,204251,128,0,204290:0:0:0:0:
475,192,204251,128,0,204290:0:0:0:0:
109,192,204290,128,0,204328:0:0:0:0:
402,192,204290,128,0,204328:0:0:0:0:
182,192,204328,128,0,204367:0:0:0:0:
329,192,204328,128,0,204367:0:0:0:0:
256,192,204367,1,0,0:0:0:0:
182,192,204716,128,0,204890:0:0:0:0:
475,192,204716,128,0,204832:0:0:0:0:
402,192,204716,128,0,205065:0:0:0:0:
329,192,204716,128,0,205297:0:0:0:0:
256,192,204716,1,0,0:0:0:0:
109,192,204745,128,0,204919:0:0:0:0:
36,192,204774,128,0,204948:0:0:0:0:
182,192,204948,128,0,205007:0:0:0:0:
475,192,204948,1,0,0:0:0:0:
109,192,204978,128,0,205036:0:0:0:0:
36,192,205007,128,0,205065:0:0:0:0:
256,192,205065,1,0,0:0:0:0:
182,192,205065,1,0,0:0:0:0:
109,192,205094,1,0,0:0:0:0:
36,192,205123,1,0,0:0:0:0:
182,192,205181,128,0,205355:0:0:0:0:
402,192,205181,1,0,0:0:0:0:
256,192,205181,1,0,0:0:0:0:
109,192,205210,128,0,205385:0:0:0:0:
36,192,205239,128,0,205414:0:0:0:0:
475,192,205297,1,0,0:0:0:0:
182,192,205414,128,0,205472:0:0:0:0:
329,192,205414,1,0,0:0:0:0:
256,192,205414,128,0,205879:0:0:0:0:
109,192,205443,128,0,205501:0:0:0:0:
36,192,205472,128,0,205530:0:0:0:0:
402,192,205530,1,0,0:0:0:0:
182,192,205646,128,0,205821:0:0:0:0:
475,192,205646,1,0,0:0:0:0:
109,192,205675,128,0,205850:0:0:0:0:
36,192,205704,128,0,205879:0:0:0:0:
402,192,205762,1,0,0:0:0:0:
182,192,205879,128,0,205937:0:0:0:0:
475,192,205879,128,0,205995:0:0:0:0:
329,192,205879,128,0,205995:0:0:0:0:
109,192,205908,128,0,205966:0:0:0:0:
36,192,205937,128,0,205995:0:0:0:0:
402,192,205995,128,0,206111:0:0:0:0:
256,192,205995,128,0,206111:0:0:0:0:
182,192,206111,128,0,206286:0:0:0:0:
329,192,206111,128,0,206228:0:0:0:0:
475,192,206111,128,0,206576:0:0:0:0:
109,192,206140,128,0,206315:0:0:0:0:
36,192,206169,128,0,206344:0:0:0:0:
256,192,206228,128,0,206344:0:0:0:0:
402,192,206228,128,0,206693:0:0:0:0:
182,192,206344,128,0,206402:0:0:0:0:
329,192,206344,128,0,206809:0:0:0:0:
109,192,206373,128,0,206431:0:0:0:0:
36,192,206402,128,0,206460:0:0:0:0:
256,192,206460,128,0,206925:0:0:0:0:
182,192,206576,128,0,206693:0:0:0:0:
109,192,206576,128,0,206809:0:0:0:0:
36,192,206576,128,0,206925:0:0:0:0:
475,192,206693,1,0,0:0:0:0:
182,192,206809,1,0,0:0:0:0:
402,192,206809,1,0,0:0:0:0:
109,192,206925,1,0,0:0:0:0:
329,192,206925,1,0,0:0:0:0:
36,192,207042,1,0,0:0:0:0:
329,192,207042,128,0,207216:0:0:0:0:
256,192,207042,1,0,0:0:0:0:
402,192,207071,128,0,207245:0:0:0:0:
475,192,207100,128,0,207274:0:0:0:0:
109,192,207158,1,0,0:0:0:0:
329,192,207274,128,0,207332:0:0:0:0:
182,192,207274,1,0,0:0:0:0:
36,192,207274,128,0,207623:0:0:0:0:
256,192,207274,1,0,0:0:0:0:
402,192,207303,128,0,207361:0:0:0:0:
475,192,207332,128,0,207390:0:0:0:0:
329,192,207390,1,0,0:0:0:0:
109,192,207390,1,0,0:0:0:0:
402,192,207419,1,0,0:0:0:0:
475,192,207448,1,0,0:0:0:0:
329,192,207507,128,0,207681:0:0:0:0:
182,192,207507,128,0,207623:0:0:0:0:
402,192,207536,128,0,207710:0:0:0:0:
475,192,207565,128,0,207739:0:0:0:0:
256,192,207623,128,0,207739:0:0:0:0:
109,192,207623,128,0,207739:0:0:0:0:
329,192,207739,128,0,207797:0:0:0:0:
182,192,207739,128,0,207855:0:0:0:0:
36,192,207739,128,0,207855:0:0:0:0:
402,192,207768,128,0,207826:0:0:0:0:
475,192,207797,128,0,207855:0:0:0:0:
109,192,207855,128,0,207972:0:0:0:0:
329,192,207855,1,0,0:0:0:0:
402,192,207885,1,0,0:0:0:0:
475,192,207914,1,0,0:0:0:0:
182,192,207972,1,0,0:0:0:0:
329,192,207972,128,0,208146:0:0:0:0:
36,192,207972,128,0,208088:0:0:0:0:
256,192,207972,128,0,208204:0:0:0:0:
402,192,208001,128,0,208175:0:0:0:0:
475,192,208030,128,0,208204:0:0:0:0:
182,192,208088,128,0,208321:0:0:0:0:
109,192,208088,1,0,0:0:0:0:
329,192,208204,128,0,208262:0:0:0:0:
109,192,208204,128,0,208437:0:0:0:0:
36,192,208204,1,0,0:0:0:0:
402,192,208233,128,0,208292:0:0:0:0:
475,192,208262,128,0,208321:0:0:0:0:
256,192,208321,128,0,208437:0:0:0:0:
36,192,208321,128,0,208379:0:0:0:0:
329,192,208437,128,0,208611:0:0:0:0:
182,192,208437,128,0,208553:0:0:0:0:
36,192,208437,128,0,208669:0:0:0:0:
402,192,208466,128,0,208640:0:0:0:0:
475,192,208495,128,0,208669:0:0:0:0:
109,192,208553,128,0,208669:0:0:0:0:
329,192,208669,128,0,208728:0:0:0:0:
182,192,208669,128,0,208786:0:0:0:0:
402,192,208698,128,0,208757:0:0:0:0:
475,192,208728,128,0,208786:0:0:0:0:
256,192,208786,128,0,208902:0:0:0:0:
36,192,208786,1,0,0:0:0:0:
109,192,208902,1,0,0:0:0:0:
329,192,208902,128,0,209018:0:0:0:0:
475,192,208902,128,0,209251:0:0:0:0:
402,192,208902,1,0,0:0:0:0:
182,192,209018,1,0,0:0:0:0:
36,192,209018,128,0,209367:0:0:0:0:
256,192,209135,128,0,209251:0:0:0:0:
329,192,209135,1,0,0:0:0:0:
109,192,209135,128,0,209251:0:0:0:0:
402,192,209251,1,0,0:0:0:0:
182,192,209251,128,0,209600:0:0:0:0:
402,192,209367,128,0,209483:0:0:0:0:
475,192,209367,1,0,0:0:0:0:
109,192,209367,128,0,209483:0:0:0:0:
256,192,209367,128,0,209483:0:0:0:0:
329,192,209483,1,0,0:0:0:0:
36,192,209483,128,0,209832:0:0:0:0:
402,192,209600,128,0,209716:0:0:0:0:
256,192,209600,1,0,0:0:0:0:
109,192,209600,128,0,209716:0:0:0:0:
475,192,209600,128,0,210181:0:0:0:0:
182,192,209716,1,0,0:0:0:0:
329,192,209716,128,0,209832:0:0:0:0:
402,192,209832,128,0,209948:0:0:0:0:
109,192,209832,1,0,0:0:0:0:
256,192,209832,128,0,209948:0:0:0:0:
182,192,209948,1,0,0:0:0:0:
329,192,209948,128,0,210065:0:0:0:0:
36,192,209948,128,0,210297:0:0:0:0:
402,192,210065,128,0,210181:0:0:0:0:
256,192,210065,1,0,0:0:0:0:
109,192,210065,128,0,210181:0:0:0:0:
329,192,210181,1,0,0:0:0:0:
182,192,210181,128,0,210297:0:0:0:0:
109,192,210297,128,0,210414:0:0:0:0:
475,192,210297,1,0,0:0:0:0:
256,192,210297,1,0,0:0:0:0:
402,192,210414,1,0,0:0:0:0:
36,192,210414,128,0,210530:0:0:0:0:
182,192,210414,128,0,210646:0:0:0:0:
109,192,210530,128,0,210646:0:0:0:0:
329,192,210530,1,0,0:0:0:0:
475,192,210530,128,0,210646:0:0:0:0:
256,192,210646,1,0,0:0:0:0:
402,192,210646,128,0,210995:0:0:0:0:
36,192,210646,128,0,210995:0:0:0:0:
475,192,210762,128,0,210879:0:0:0:0:
109,192,210762,128,0,210879:0:0:0:0:
182,192,210762,1,0,0:0:0:0:
329,192,210762,128,0,210879:0:0:0:0:
256,192,210879,1,0,0:0:0:0:
182,192,210879,128,0,211228:0:0:0:0:
109,192,210995,128,0,211111:0:0:0:0:
329,192,210995,1,0,0:0:0:0:
256,192,210995,128,0,211111:0:0:0:0:
475,192,210995,1,0,0:0:0:0:
402,192,211111,1,0,0:0:0:0:
329,192,211111,128,0,211460:0:0:0:0:
36,192,211111,1,0,0:0:0:0:
36,192,211228,128,0,211344:0:0:0:0:
475,192,211228,1,0,0:0:0:0:
109,192,211228,1,0,0:0:0:0:
256,192,211228,128,0,211344:0:0:0:0:
402,192,211228,128,0,211344:0:0:0:0:
182,192,211344,1,0,0:0:0:0:
475,192,211344,128,0,211693:0:0:0:0:
109,192,211344,128,0,211460:0:0:0:0:
36,192,211460,128,0,211576:0:0:0:0:
256,192,211460,1,0,0:0:0:0:
402,192,211460,128,0,211576:0:0:0:0:
182,192,211460,128,0,211809:0:0:0:0:
329,192,211576,1,0,0:0:0:0:
109,192,211576,128,0,211693:0:0:0:0:
256,192,211576,128,0,211693:0:0:0:0:
36,192,211693,128,0,211809:0:0:0:0:
402,192,211693,1,0,0:0:0:0:
329,192,211693,128,0,211925:0:0:0:0:
475,192,211809,1,0,0:0:0:0:
109,192,211809,128,0,211925:0:0:0:0:
256,192,211809,128,0,211925:0:0:0:0:
36,192,211925,128,0,212158:0:0:0:0:
402,192,211925,1,0,0:0:0:0:
182,192,211925,128,0,212158:0:0:0:0:
475,192,211925,128,0,212042:0:0:0:0:
329,192,212042,1,0,0:0:0:0:
109,192,212042,128,0,212158:0:0:0:0:
402,192,212042,128,0,212158:0:0:0:0:
329,192,212158,128,0,212274:0:0:0:0:
256,192,212158,1,0,0:0:0:0:
475,192,212158,128,0,212507:0:0:0:0:
182,192,212274,1,0,0:0:0:0:
402,192,212274,128,0,212390:0:0:0:0:
329,192,212390,128,0,212507:0:0:0:0:
109,192,212390,1,0,0:0:0:0:
36,192,212507,1,0,0:0:0:0:
402,192,212507,128,0,212623:0:0:0:0:
329,192,212623,128,0,212739:0:0:0:0:
109,192,212623,1,0,0:0:0:0:
475,192,212623,128,0,212739:0:0:0:0:
256,192,212623,1,0,0:0:0:0:
36,192,212623,128,0,213088:0:0:0:0:
182,192,212739,1,0,0:0:0:0:
402,192,212739,128,0,212855:0:0:0:0:
329,192,212855,128,0,212972:0:0:0:0:
256,192,212855,1,0,0:0:0:0:
475,192,212855,128,0,212972:0:0:0:0:
182,192,212972,1,0,0:0:0:0:
402,192,212972,128,0,213088:0:0:0:0:
329,192,213088,128,0,213204:0:0:0:0:
109,192,213088,1,0,0:0:0:0:
475,192,213088,128,0,213437:0:0:0:0:
256,192,213088,1,0,0:0:0:0:
182,192,213088,128,0,213321:0:0:0:0:
36,192,213204,1,0,0:0:0:0:
402,192,213204,128,0,213321:0:0:0:0:
329,192,213321,128,0,213437:0:0:0:0:
109,192,213321,1,0,0:0:0:0:
182,192,213437,1,0,0:0:0:0:
402,192,213437,128,0,213553:0:0:0:0:
256,192,213553,1,0,0:0:0:0:
36,192,213553,128,0,213786:0:0:0:0:
475,192,213553,128,0,213786:0:0:0:0:
109,192,213553,1,0,0:0:0:0:
182,192,213669,1,0,0:0:0:0:
329,192,213669,1,0,0:0:0:0:
109,192,213786,1,0,0:0:0:0:
402,192,213786,1,0,0:0:0:0:
256,192,213786,1,0,0:0:0:0:
36,192,213902,1,0,0:0:0:0:
475,192,213902,1,0,0:0:0:0:
329,192,213902,1,0,0:0:0:0:
182,192,213902,1,0,0:0:0:0:
182,192,214018,1,0,0:0:0:0:
109,192,214018,1,0,0:0:0:0:
256,192,214018,1,0,0:0:0:0:
329,192,214018,1,0,0:0:0:0:
402,192,214018,1,0,0:0:0:0:
475,192,214018,128,0,214135:0:0:0:0:
109,192,214135,128,0,214483:0:0:0:0:
256,192,214135,1,0,0:0:0:0:
402,192,214135,1,0,0:0:0:0:
36,192,214251,128,0,214367:0:0:0:0:
182,192,214251,128,0,214367:0:0:0:0:
329,192,214251,1,0,0:0:0:0:
475,192,214251,1,0,0:0:0:0:
256,192,214367,128,0,214716:0:0:0:0:
402,192,214367,1,0,0:0:0:0:
182,192,214483,128,0,214600:0:0:0:0:
329,192,214483,128,0,214600:0:0:0:0:
475,192,214483,1,0,0:0:0:0:
36,192,214483,1,0,0:0:0:0:
109,192,214600,1,0,0:0:0:0:
402,192,214600,128,0,214716:0:0:0:0:
329,192,214716,128,0,214832:0:0:0:0:
475,192,214716,128,0,214832:0:0:0:0:
182,192,214716,1,0,0:0:0:0:
36,192,214716,1,0,0:0:0:0:
256,192,214832,1,0,0:0:0:0:
109,192,214832,1,0,0:0:0:0:
402,192,214832,128,0,215181:0:0:0:0:
329,192,214948,128,0,215065:0:0:0:0:
475,192,214948,128,0,215065:0:0:0:0:
182,192,214948,1,0,0:0:0:0:
36,192,214948,128,0,215065:0:0:0:0:
256,192,215065,128,0,215414:0:0:0:0:
109,192,215065,1,0,0:0:0:0:
182,192,215181,128,0,215297:0:0:0:0:
329,192,215181,128,0,215297:0:0:0:0:
36,192,215181,1,0,0:0:0:0:
475,192,215181,1,0,0:0:0:0:
402,192,215297,1,0,0:0:0:0:
109,192,215297,128,0,215646:0:0:0:0:
182,192,215414,128,0,215530:0:0:0:0:
329,192,215414,128,0,215530:0:0:0:0:
475,192,215414,128,0,215530:0:0:0:0:
36,192,215414,128,0,215762:0:0:0:0:
256,192,215530,128,0,215646:0:0:0:0:
402,192,215530,128,0,215646:0:0:0:0:
329,192,215646,128,0,215762:0:0:0:0:
182,192,215646,128,0,215762:0:0:0:0:
475,192,215646,128,0,215879:0:0:0:0:
109,192,215762,128,0,215821:0:0:0:0:
402,192,215762,128,0,215821:0:0:0:0:
182,192,215879,128,0,216053:0:0:0:0:
256,192,215879,128,0,215995:0:0:0:0:
109,192,215908,128,0,216082:0:0:0:0:
36,192,215937,128,0,216111:0:0:0:0:
329,192,215937,1,0,0:0:0:0:
402,192,215995,1,0,0:0:0:0:
475,192,216053,1,0,0:0:0:0:
182,192,216111,128,0,216169:0:0:0:0:
256,192,216111,128,0,216228:0:0:0:0:
329,192,216111,1,0,0:0:0:0:
109,192,216140,128,0,216198:0:0:0:0:
36,192,216169,128,0,216228:0:0:0:0:
402,192,216169,1,0,0:0:0:0:
475,192,216228,1,0,0:0:0:0:
36,192,216286,1,0,0:0:0:0:
182,192,216344,1,0,0:0:0:0:
256,192,216344,128,0,216693:0:0:0:0:
329,192,216344,128,0,216402:0:0:0:0:
402,192,216373,128,0,216431:0:0:0:0:
109,192,216402,1,0,0:0:0:0:
475,192,216402,128,0,216460:0:0:0:0:
36,192,216460,1,0,0:0:0:0:
182,192,216518,1,0,0:0:0:0:
109,192,216576,1,0,0:0:0:0:
329,192,216576,128,0,216722:0:0:0:0:
402,192,216605,128,0,216751:0:0:0:0:
36,192,216635,1,0,0:0:0:0:
475,192,216635,128,0,216780:0:0:0:0:
109,192,216693,1,0,0:0:0:0:
182,192,216751,1,0,0:0:0:0:
329,192,216809,128,0,216983:0:0:0:0:
256,192,216809,128,0,216925:0:0:0:0:
402,192,216838,128,0,217012:0:0:0:0:
475,192,216867,128,0,217042:0:0:0:0:
182,192,216867,1,0,0:0:0:0:
109,192,216925,1,0,0:0:0:0:
36,192,216983,1,0,0:0:0:0:
329,192,217042,128,0,217100:0:0:0:0:
256,192,217042,128,0,217158:0:0:0:0:
182,192,217042,1,0,0:0:0:0:
402,192,217071,128,0,217129:0:0:0:0:
475,192,217100,128,0,217158:0:0:0:0:
109,192,217100,1,0,0:0:0:0:
36,192,217158,1,0,0:0:0:0:
475,192,217216,1,0,0:0:0:0:
329,192,217274,1,0,0:0:0:0:
256,192,217274,128,0,217623:0:0:0:0:
182,192,217274,128,0,217332:0:0:0:0:
109,192,217303,128,0,217361:0:0:0:0:
402,192,217332,1,0,0:0:0:0:
36,192,217332,128,0,217390:0:0:0:0:
475,192,217390,1,0,0:0:0:0:
329,192,217448,1,0,0:0:0:0:
402,192,217507,1,0,0:0:0:0:
182,192,217507,128,0,217652:0:0:0:0:
109,192,217536,128,0,217681:0:0:0:0:
475,192,217565,1,0,0:0:0:0:
36,192,217565,128,0,217710:0:0:0:0:
402,192,217623,1,0,0:0:0:0:
329,192,217681,1,0,0:0:0:0:
256,192,217739,128,0,217885:0:0:0:0:
182,192,217768,128,0,217914:0:0:0:0:
109,192,217797,128,0,217943:0:0:0:0:
329,192,217826,1,0,0:0:0:0:
36,192,217855,1,0,0:0:0:0:
402,192,217855,1,0,0:0:0:0:
475,192,217855,1,0,0:0:0:0:
329,192,217972,128,0,218117:0:0:0:0:
256,192,218001,128,0,218146:0:0:0:0:
182,192,218030,128,0,218175:0:0:0:0:
402,192,218059,1,0,0:0:0:0:
475,192,218088,1,0,0:0:0:0:
109,192,218088,1,0,0:0:0:0:
36,192,218088,1,0,0:0:0:0:
402,192,218204,128,0,218350:0:0:0:0:
329,192,218233,128,0,218379:0:0:0:0:
256,192,218262,128,0,218408:0:0:0:0:
475,192,218292,1,0,0:0:0:0:
182,192,218321,1,0,0:0:0:0:
109,192,218321,1,0,0:0:0:0:
36,192,218321,1,0,0:0:0:0:
475,192,218437,128,0,218582:0:0:0:0:
402,192,218466,128,0,218611:0:0:0:0:
329,192,218495,128,0,218640:0:0:0:0:
256,192,218524,1,0,0:0:0:0:
182,192,218553,1,0,0:0:0:0:
109,192,218553,1,0,0:0:0:0:
36,192,218553,1,0,0:0:0:0:
256,192,218669,128,0,218728:0:0:0:0:
329,192,218669,1,0,0:0:0:0:
402,192,218669,1,0,0:0:0:0:
475,192,218669,1,0,0:0:0:0:
36,192,218669,1,0,0:0:0:0:
182,192,218698,128,0,218757:0:0:0:0:
109,192,218708,128,0,218747:0:0:0:0:
329,192,218786,128,0,218844:0:0:0:0:
402,192,218786,1,0,0:0:0:0:
475,192,218786,1,0,0:0:0:0:
36,192,218786,1,0,0:0:0:0:
109,192,218815,1,0,0:0:0:0:
256,192,218815,128,0,218873:0:0:0:0:
182,192,218824,128,0,218863:0:0:0:0:
402,192,218902,128,0,218960:0:0:0:0:
475,192,218902,1,0,0:0:0:0:
36,192,218902,1,0,0:0:0:0:
109,192,218902,1,0,0:0:0:0:
182,192,218931,1,0,0:0:0:0:
329,192,218931,128,0,218989:0:0:0:0:
256,192,218941,128,0,218980:0:0:0:0:
475,192,219018,128,0,219076:0:0:0:0:
182,192,219018,1,0,0:0:0:0:
109,192,219018,1,0,0:0:0:0:
36,192,219018,1,0,0:0:0:0:
256,192,219047,1,0,0:0:0:0:
402,192,219047,128,0,219105:0:0:0:0:
329,192,219057,128,0,219096:0:0:0:0:
182,192,219135,128,0,219193:0:0:0:0:
256,192,219135,1,0,0:0:0:0:
402,192,219135,1,0,0:0:0:0:
475,192,219135,1,0,0:0:0:0:
329,192,219164,1,0,0:0:0:0:
109,192,219164,128,0,219222:0:0:0:0:
36,192,219173,128,0,219212:0:0:0:0:
256,192,219251,128,0,219309:0:0:0:0:
329,192,219251,1,0,0:0:0:0:
402,192,219251,1,0,0:0:0:0:
475,192,219251,1,0,0:0:0:0:
36,192,219280,1,0,0:0:0:0:
182,192,219280,128,0,219338:0:0:0:0:
109,192,219290,128,0,219328:0:0:0:0:
329,192,219367,128,0,219425:0:0:0:0:
475,192,219367,1,0,0:0:0:0:
402,192,219367,1,0,0:0:0:0:
36,192,219367,1,0,0:0:0:0:
109,192,219396,1,0,0:0:0:0:
256,192,219396,128,0,219454:0:0:0:0:
182,192,219406,128,0,219445:0:0:0:0:
402,192,219483,128,0,219542:0:0:0:0:
36,192,219483,1,0,0:0:0:0:
109,192,219483,1,0,0:0:0:0:
475,192,219483,1,0,0:0:0:0:
182,192,219512,1,0,0:0:0:0:
329,192,219512,128,0,219571:0:0:0:0:
256,192,219522,128,0,219561:0:0:0:0:
36,192,219600,128,0,219774:0:0:0:0:
109,192,219600,128,0,219774:0:0:0:0:
402,192,219600,1,0,0:0:0:0:
475,192,219600,128,0,219948:0:0:0:0:
182,192,219658,128,0,219774:0:0:0:0:
256,192,219716,128,0,219832:0:0:0:0:
329,192,219774,128,0,219890:0:0:0:0:
402,192,219832,128,0,219948:0:0:0:0:
182,192,219832,128,0,220007:0:0:0:0:
109,192,219832,128,0,220007:0:0:0:0:
36,192,219832,128,0,220007:0:0:0:0:
256,192,219890,128,0,220065:0:0:0:0:
329,192,219948,128,0,220123:0:0:0:0:
402,192,220007,128,0,220181:0:0:0:0:
475,192,220065,128,0,220181:0:0:0:0:
109,192,220065,128,0,220239:0:0:0:0:
36,192,220065,128,0,220239:0:0:0:0:
182,192,220065,1,0,0:0:0:0:
182,192,220123,128,0,220297:0:0:0:0:
256,192,220181,128,0,220355:0:0:0:0:
329,192,220239,128,0,220414:0:0:0:0:
475,192,220297,128,0,220472:0:0:0:0:
402,192,220297,128,0,220472:0:0:0:0:
36,192,220297,128,0,220472:0:0:0:0:
109,192,220355,128,0,220530:0:0:0:0:
182,192,220414,128,0,220588:0:0:0:0:
256,192,220472,128,0,220646:0:0:0:0:
329,192,220530,128,0,220704:0:0:0:0:
402,192,220530,128,0,220704:0:0:0:0:
475,192,220530,128,0,220704:0:0:0:0:
36,192,220588,128,0,220762:0:0:0:0:
109,192,220646,128,0,220821:0:0:0:0:
182,192,220704,128,0,220879:0:0:0:0:
256,192,220762,128,0,220937:0:0:0:0:
329,192,220762,128,0,220937:0:0:0:0:
402,192,220821,128,0,220995:0:0:0:0:
36,192,220879,128,0,221053:0:0:0:0:
475,192,220879,128,0,220995:0:0:0:0:
109,192,220937,128,0,221111:0:0:0:0:
182,192,220995,128,0,221169:0:0:0:0:
256,192,220995,128,0,221169:0:0:0:0:
329,192,220995,1,0,0:0:0:0:
329,192,221053,128,0,221228:0:0:0:0:
402,192,221111,128,0,221286:0:0:0:0:
475,192,221111,128,0,221286:0:0:0:0:
36,192,221169,128,0,221344:0:0:0:0:
109,192,221228,128,0,221402:0:0:0:0:
182,192,221228,128,0,221402:0:0:0:0:
256,192,221286,128,0,221460:0:0:0:0:
329,192,221344,128,0,221518:0:0:0:0:
402,192,221344,128,0,221518:0:0:0:0:
475,192,221402,128,0,221576:0:0:0:0:
36,192,221460,128,0,221635:0:0:0:0:
109,192,221460,128,0,221635:0:0:0:0:
182,192,221460,1,0,0:0:0:0:
182,192,221518,128,0,221635:0:0:0:0:
256,192,221576,128,0,221693:0:0:0:0:
329,192,221635,128,0,221751:0:0:0:0:
402,192,221693,128,0,221809:0:0:0:0:
182,192,221693,128,0,221867:0:0:0:0:
109,192,221693,128,0,221867:0:0:0:0:
36,192,221693,128,0,221867:0:0:0:0:
475,192,221693,1,0,0:0:0:0:
256,192,221751,128,0,221925:0:0:0:0:
329,192,221809,128,0,221983:0:0:0:0:
402,192,221867,128,0,222042:0:0:0:0:
475,192,221925,128,0,222042:0:0:0:0:
109,192,221925,128,0,222100:0:0:0:0:
36,192,221925,128,0,222100:0:0:0:0:
182,192,221925,1,0,0:0:0:0:
182,192,221983,128,0,222158:0:0:0:0:
256,192,222042,128,0,222216:0:0:0:0:
329,192,222100,128,0,222274:0:0:0:0:
475,192,222158,128,0,222332:0:0:0:0:
402,192,222158,128,0,222332:0:0:0:0:
36,192,222158,128,0,222332:0:0:0:0:
109,192,222216,128,0,222390:0:0:0:0:
182,192,222274,128,0,222448:0:0:0:0:
256,192,222332,128,0,222507:0:0:0:0:
329,192,222390,128,0,222507:0:0:0:0:
402,192,222390,128,0,222565:0:0:0:0:
475,192,222390,128,0,222623:0:0:0:0:
36,192,222448,128,0,222710:0:0:0:0:
109,192,222448,128,0,222739:0:0:0:0:
182,192,222507,128,0,222768:0:0:0:0:
256,192,222565,128,0,222739:0:0:0:0:
329,192,222623,128,0,222797:0:0:0:0:
402,192,222681,128,0,222797:0:0:0:0:
475,192,222739,128,0,222797:0:0:0:0:
256,192,222797,128,0,222855:0:0:0:0:
182,192,222855,128,0,223088:0:0:0:0:
475,192,222855,1,0,0:0:0:0:
109,192,222885,128,0,223059:0:0:0:0:
36,192,222914,128,0,223030:0:0:0:0:
402,192,222914,128,0,222972:0:0:0:0:
329,192,222972,128,0,223030:0:0:0:0:
256,192,223030,128,0,223088:0:0:0:0:
475,192,223088,128,0,223292:0:0:0:0:
36,192,223088,128,0,223262:0:0:0:0:
402,192,223146,128,0,223262:0:0:0:0:
109,192,223146,128,0,223321:0:0:0:0:
329,192,223204,128,0,223233:0:0:0:0:
182,192,223204,128,0,223379:0:0:0:0:
256,192,223262,128,0,223437:0:0:0:0:
329,192,223321,128,0,223553:0:0:0:0:
36,192,223321,1,0,0:0:0:0:
402,192,223350,128,0,223524:0:0:0:0:
475,192,223379,128,0,223495:0:0:0:0:
109,192,223379,128,0,223437:0:0:0:0:
182,192,223437,128,0,223495:0:0:0:0:
256,192,223495,128,0,223553:0:0:0:0:
475,192,223553,128,0,223611:0:0:0:0:
36,192,223553,128,0,223611:0:0:0:0:
109,192,223611,128,0,223786:0:0:0:0:
402,192,223611,128,0,223669:0:0:0:0:
36,192,223669,1,0,0:0:0:0:
182,192,223669,128,0,223844:0:0:0:0:
329,192,223669,128,0,223728:0:0:0:0:
256,192,223728,128,0,223902:0:0:0:0:
329,192,223786,128,0,224018:0:0:0:0:
36,192,223786,1,0,0:0:0:0:
402,192,223815,128,0,223989:0:0:0:0:
475,192,223844,128,0,223960:0:0:0:0:
109,192,223844,128,0,223960:0:0:0:0:
182,192,223902,128,0,224018:0:0:0:0:
256,192,223960,128,0,224076:0:0:0:0:
36,192,224018,128,0,224222:0:0:0:0:
475,192,224018,128,0,224193:0:0:0:0:
109,192,224076,128,0,224193:0:0:0:0:
402,192,224076,128,0,224251:0:0:0:0:
182,192,224135,128,0,224164:0:0:0:0:
329,192,224135,128,0,224309:0:0:0:0:
256,192,224193,128,0,224367:0:0:0:0:
182,192,224251,128,0,224483:0:0:0:0:
475,192,224251,1,0,0:0:0:0:
109,192,224280,128,0,224454:0:0:0:0:
36,192,224309,128,0,224425:0:0:0:0:
402,192,224309,128,0,224367:0:0:0:0:
329,192,224367,128,0,224425:0:0:0:0:
256,192,224425,128,0,224483:0:0:0:0:
36,192,224483,128,0,224542:0:0:0:0:
475,192,224483,128,0,224542:0:0:0:0:
402,192,224542,128,0,224600:0:0:0:0:
109,192,224542,128,0,224600:0:0:0:0:
329,192,224600,128,0,224658:0:0:0:0:
182,192,224600,128,0,224658:0:0:0:0:
256,192,224658,128,0,224716:0:0:0:0:
475,192,224716,1,0,0:0:0:0:
182,192,224716,128,0,224948:0:0:0:0:
109,192,224745,128,0,224919:0:0:0:0:
402,192,224774,128,0,224890:0:0:0:0:
36,192,224774,128,0,224890:0:0:0:0:
329,192,224832,128,0,224948:0:0:0:0:
256,192,224890,128,0,225007:0:0:0:0:
36,192,224948,128,0,225123:0:0:0:0:
475,192,224948,128,0,225152:0:0:0:0:
109,192,225007,128,0,225181:0:0:0:0:
402,192,225007,128,0,225123:0:0:0:0:
182,192,225065,128,0,225239:0:0:0:0:
329,192,225065,128,0,225094:0:0:0:0:
256,192,225123,128,0,225297:0:0:0:0:
36,192,225181,1,0,0:0:0:0:
329,192,225181,128,0,225414:0:0:0:0:
402,192,225210,128,0,225385:0:0:0:0:
109,192,225239,128,0,225297:0:0:0:0:
475,192,225239,128,0,225355:0:0:0:0:
182,192,225297,128,0,225355:0:0:0:0:
256,192,225355,128,0,225414:0:0:0:0:
475,192,225414,128,0,225617:0:0:0:0:
109,192,225414,1,0,0:0:0:0:
402,192,225472,128,0,225588:0:0:0:0:
182,192,225472,128,0,225530:0:0:0:0:
329,192,225530,128,0,225559:0:0:0:0:
256,192,225530,128,0,225762:0:0:0:0:
36,192,225588,128,0,225646:0:0:0:0:
329,192,225646,128,0,225879:0:0:0:0:
182,192,225646,1,0,0:0:0:0:
402,192,225675,128,0,225850:0:0:0:0:
475,192,225704,128,0,225821:0:0:0:0:
109,192,225704,128,0,225821:0:0:0:0:
36,192,225762,128,0,225879:0:0:0:0:
182,192,225821,128,0,225995:0:0:0:0:
475,192,225879,128,0,226082:0:0:0:0:
256,192,225879,1,0,0:0:0:0:
402,192,225937,128,0,226053:0:0:0:0:
109,192,225937,128,0,226053:0:0:0:0:
329,192,225995,128,0,226024:0:0:0:0:
36,192,225995,128,0,226111:0:0:0:0:
256,192,226053,128,0,226286:0:0:0:0:
329,192,226111,128,0,226344:0:0:0:0:
182,192,226111,1,0,0:0:0:0:
402,192,226140,128,0,226315:0:0:0:0:
475,192,226169,128,0,226286:0:0:0:0:
109,192,226169,128,0,226228:0:0:0:0:
36,192,226228,128,0,226460:0:0:0:0:
182,192,226286,128,0,226344:0:0:0:0:
475,192,226344,128,0,226547:0:0:0:0:
109,192,226344,1,0,0:0:0:0:
402,192,226402,128,0,226518:0:0:0:0:
256,192,226402,128,0,226518:0:0:0:0:
329,192,226460,128,0,226489:0:0:0:0:
182,192,226460,128,0,226518:0:0:0:0:
109,192,226518,128,0,226576:0:0:0:0:
329,192,226576,128,0,226809:0:0:0:0:
36,192,226576,1,0,0:0:0:0:
402,192,226605,128,0,226780:0:0:0:0:
475,192,226635,128,0,226751:0:0:0:0:
256,192,226635,128,0,226693:0:0:0:0:
182,192,226635,128,0,226693:0:0:0:0:
109,192,226693,128,0,226751:0:0:0:0:
36,192,226751,128,0,226809:0:0:0:0:
475,192,226809,128,0,226838:0:0:0:0:
182,192,226809,128,0,226867:0:0:0:0:
256,192,226809,128,0,226867:0:0:0:0:
402,192,226867,128,0,226896:0:0:0:0:
109,192,226867,128,0,226925:0:0:0:0:
329,192,226925,128,0,226954:0:0:0:0:
36,192,226925,128,0,226983:0:0:0:0:
256,192,226983,128,0,227012:0:0:0:0:
182,192,227042,128,0,227071:0:0:0:0:
329,192,227042,128,0,227071:0:0:0:0:
475,192,227042,1,0,0:0:0:0:
109,192,227100,128,0,227129:0:0:0:0:
36,192,227158,128,0,227187:0:0:0:0:
402,192,227158,1,0,0:0:0:0:
256,192,227216,128,0,227245:0:0:0:0:
182,192,227274,128,0,227303:0:0:0:0:
475,192,227274,128,0,227303:0:0:0:0:
329,192,227274,128,0,227303:0:0:0:0:
109,192,227274,1,0,0:0:0:0:
36,192,227332,128,0,227361:0:0:0:0:
256,192,227390,1,0,0:0:0:0:
402,192,227390,128,0,227419:0:0:0:0:
109,192,227448,128,0,227478:0:0:0:0:
329,192,227507,128,0,227536:0:0:0:0:
182,192,227507,128,0,227536:0:0:0:0:
36,192,227507,128,0,227536:0:0:0:0:
402,192,227507,1,0,0:0:0:0:
475,192,227565,128,0,227594:0:0:0:0:
256,192,227623,128,0,227652:0:0:0:0:
109,192,227623,1,0,0:0:0:0:
402,192,227681,128,0,227710:0:0:0:0:
182,192,227739,128,0,227768:0:0:0:0:
36,192,227739,128,0,227768:0:0:0:0:
256,192,227797,128,0,227826:0:0:0:0:
329,192,227855,128,0,227885:0:0:0:0:
475,192,227855,128,0,227885:0:0:0:0:
109,192,227855,1,0,0:0:0:0:
402,192,227914,128,0,227943:0:0:0:0:
109,192,227972,128,0,228001:0:0:0:0:
36,192,227972,128,0,228001:0:0:0:0:
256,192,227972,1,0,0:0:0:0:
182,192,228030,128,0,228059:0:0:0:0:
256,192,228088,128,0,228117:0:0:0:0:
475,192,228088,128,0,228117:0:0:0:0:
329,192,228146,128,0,228175:0:0:0:0:
402,192,228204,128,0,228233:0:0:0:0:
109,192,228204,128,0,228233:0:0:0:0:
182,192,228204,128,0,228233:0:0:0:0:
36,192,228204,128,0,228233:0:0:0:0:
329,192,228262,128,0,228292:0:0:0:0:
256,192,228321,128,0,228350:0:0:0:0:
475,192,228321,1,0,0:0:0:0:
182,192,228379,128,0,228408:0:0:0:0:
109,192,228437,128,0,228466:0:0:0:0:
36,192,228437,128,0,228466:0:0:0:0:
475,192,228437,128,0,228466:0:0:0:0:
402,192,228437,128,0,228466:0:0:0:0:
329,192,228495,128,0,228524:0:0:0:0:
256,192,228553,128,0,228582:0:0:0:0:
36,192,228553,1,0,0:0:0:0:
182,192,228611,128,0,228640:0:0:0:0:
109,192,228669,128,0,228698:0:0:0:0:
402,192,228669,128,0,228698:0:0:0:0:
475,192,228669,128,0,228698:0:0:0:0:
329,192,228669,128,0,228698:0:0:0:0:
182,192,228728,128,0,228757:0:0:0:0:
256,192,228786,128,0,228815:0:0:0:0:
36,192,228786,1,0,0:0:0:0:
329,192,228844,128,0,228873:0:0:0:0:
475,192,228902,128,0,228931:0:0:0:0:
182,192,228902,128,0,228931:0:0:0:0:
36,192,228902,1,0,0:0:0:0:
402,192,228960,128,0,228989:0:0:0:0:
329,192,229018,128,0,229047:0:0:0:0:
109,192,229018,1,0,0:0:0:0:
256,192,229076,128,0,229105:0:0:0:0:
402,192,229135,128,0,229164:0:0:0:0:
36,192,229135,128,0,229164:0:0:0:0:
182,192,229135,128,0,229164:0:0:0:0:
475,192,229135,1,0,0:0:0:0:
329,192,229193,128,0,229222:0:0:0:0:
256,192,229251,1,0,0:0:0:0:
109,192,229251,128,0,229280:0:0:0:0:
475,192,229309,128,0,229338:0:0:0:0:
182,192,229367,128,0,229396:0:0:0:0:
329,192,229367,128,0,229396:0:0:0:0:
402,192,229367,128,0,229396:0:0:0:0:
109,192,229367,1,0,0:0:0:0:
36,192,229425,128,0,229454:0:0:0:0:
256,192,229483,128,0,229512:0:0:0:0:
402,192,229483,1,0,0:0:0:0:
109,192,229542,128,0,229571:0:0:0:0:
329,192,229600,128,0,229629:0:0:0:0:
475,192,229600,128,0,229629:0:0:0:0:
256,192,229658,128,0,229687:0:0:0:0:
182,192,229716,128,0,229745:0:0:0:0:
36,192,229716,128,0,229745:0:0:0:0:
402,192,229716,1,0,0:0:0:0:
109,192,229774,128,0,229803:0:0:0:0:
402,192,229832,128,0,229861:0:0:0:0:
475,192,229832,128,0,229861:0:0:0:0:
256,192,229832,1,0,0:0:0:0:
329,192,229890,128,0,229919:0:0:0:0:
256,192,229948,128,0,229978:0:0:0:0:
36,192,229948,128,0,229978:0:0:0:0:
182,192,230007,128,0,230036:0:0:0:0:
109,192,230065,128,0,230094:0:0:0:0:
402,192,230065,128,0,230094:0:0:0:0:
329,192,230065,128,0,230094:0:0:0:0:
475,192,230065,128,0,230094:0:0:0:0:
182,192,230123,128,0,230152:0:0:0:0:
256,192,230181,128,0,230210:0:0:0:0:
36,192,230181,1,0,0:0:0:0:
329,192,230239,128,0,230268:0:0:0:0:
402,192,230297,128,0,230326:0:0:0:0:
475,192,230297,128,0,230326:0:0:0:0:
36,192,230297,128,0,230326:0:0:0:0:
109,192,230297,128,0,230326:0:0:0:0:
182,192,230355,128,0,230385:0:0:0:0:
256,192,230414,128,0,230443:0:0:0:0:
475,192,230414,1,0,0:0:0:0:
329,192,230472,128,0,230501:0:0:0:0:
402,192,230530,128,0,230559:0:0:0:0:
109,192,230530,128,0,230559:0:0:0:0:
36,192,230530,128,0,230559:0:0:0:0:
182,192,230530,128,0,230559:0:0:0:0:
329,192,230588,128,0,230617:0:0:0:0:
256,192,230646,128,0,230675:0:0:0:0:
475,192,230646,1,0,0:0:0:0:
182,192,230704,128,0,230733:0:0:0:0:
36,192,230762,128,0,230937:0:0:0:0:
475,192,230762,128,0,230821:0:0:0:0:
256,192,230762,128,0,230821:0:0:0:0:
329,192,230821,128,0,230879:0:0:0:0:
109,192,230821,128,0,230995:0:0:0:0:
402,192,230879,128,0,230937:0:0:0:0:
182,192,230879,128,0,231053:0:0:0:0:
475,192,230937,128,0,230995:0:0:0:0:
256,192,230937,128,0,231111:0:0:0:0:
36,192,230995,128,0,231111:0:0:0:0:
329,192,230995,128,0,231169:0:0:0:0:
402,192,231053,128,0,231169:0:0:0:0:
109,192,231053,128,0,231111:0:0:0:0:
475,192,231111,128,0,231169:0:0:0:0:
182,192,231111,128,0,231286:0:0:0:0:
256,192,231169,128,0,231228:0:0:0:0:
109,192,231228,128,0,231344:0:0:0:0:
36,192,231228,128,0,231402:0:0:0:0:
475,192,231228,128,0,231286:0:0:0:0:
402,192,231228,128,0,231286:0:0:0:0:
329,192,231228,128,0,231402:0:0:0:0:
256,192,231286,128,0,231460:0:0:0:0:
182,192,231344,128,0,231518:0:0:0:0:
402,192,231402,128,0,231635:0:0:0:0:
109,192,231402,128,0,231576:0:0:0:0:
36,192,231460,128,0,231635:0:0:0:0:
329,192,231460,128,0,231576:0:0:0:0:
475,192,231460,128,0,231518:0:0:0:0:
256,192,231518,128,0,231635:0:0:0:0:
182,192,231576,128,0,231693:0:0:0:0:
475,192,231576,128,0,231635:0:0:0:0:
329,192,231635,128,0,231751:0:0:0:0:
109,192,231635,128,0,231751:0:0:0:0:
256,192,231693,128,0,231809:0:0:0:0:
36,192,231693,128,0,231809:0:0:0:0:
402,192,231693,128,0,231867:0:0:0:0:
475,192,231693,128,0,231867:0:0:0:0:
182,192,231751,128,0,231867:0:0:0:0:
329,192,231809,128,0,232100:0:0:0:0:
109,192,231809,128,0,231925:0:0:0:0:
36,192,231867,128,0,232042:0:0:0:0:
256,192,231867,128,0,232042:0:0:0:0:
182,192,231925,128,0,231983:0:0:0:0:
475,192,231925,128,0,232100:0:0:0:0:
402,192,231925,128,0,232216:0:0:0:0:
109,192,231983,128,0,232042:0:0:0:0:
182,192,232042,128,0,232100:0:0:0:0:
256,192,232100,128,0,232158:0:0:0:0:
475,192,232158,128,0,232216:0:0:0:0:
36,192,232158,128,0,232216:0:0:0:0:
329,192,232158,128,0,232216:0:0:0:0:
109,192,232158,128,0,232216:0:0:0:0:
182,192,232216,128,0,232274:0:0:0:0:
256,192,232274,128,0,232332:0:0:0:0:
402,192,232274,128,0,232332:0:0:0:0:
109,192,232332,128,0,232390:0:0:0:0:
475,192,232332,128,0,232390:0:0:0:0:
182,192,232390,128,0,232448:0:0:0:0:
329,192,232390,128,0,232448:0:0:0:0:
36,192,232448,128,0,232507:0:0:0:0:
109,192,232507,128,0,232565:0:0:0:0:
256,192,232507,128,0,232565:0:0:0:0:
402,192,232565,128,0,232623:0:0:0:0:
182,192,232623,128,0,232652:0:0:0:0:
329,192,232623,128,0,232652:0:0:0:0:
256,192,232623,128,0,232652:0:0:0:0:
36,192,232623,1,0,0:0:0:0:
475,192,232623,1,0,0:0:0:0:
109,192,232681,1,0,0:0:0:0:
402,192,232681,1,0,0:0:0:0:
256,192,232739,128,0,232768:0:0:0:0:
182,192,232739,128,0,232768:0:0:0:0:
329,192,232797,1,0,0:0:0:0:
182,192,232855,128,0,232885:0:0:0:0:
109,192,232855,128,0,232885:0:0:0:0:
402,192,232855,1,0,0:0:0:0:
475,192,232855,1,0,0:0:0:0:
256,192,232914,1,0,0:0:0:0:
36,192,232972,128,0,233001:0:0:0:0:
109,192,232972,128,0,233001:0:0:0:0:
402,192,232972,1,0,0:0:0:0:
182,192,233030,1,0,0:0:0:0:
36,192,233088,128,0,233117:0:0:0:0:
402,192,233088,128,0,233117:0:0:0:0:
475,192,233088,128,0,233117:0:0:0:0:
256,192,233088,1,0,0:0:0:0:
109,192,233146,128,0,233175:0:0:0:0:
329,192,233146,1,0,0:0:0:0:
182,192,233204,128,0,233233:0:0:0:0:
402,192,233204,1,0,0:0:0:0:
256,192,233262,128,0,233292:0:0:0:0:
36,192,233262,1,0,0:0:0:0:
109,192,233321,1,0,0:0:0:0:
402,192,233321,1,0,0:0:0:0:
329,192,233321,1,0,0:0:0:0:
256,192,233379,128,0,233408:0:0:0:0:
182,192,233437,128,0,233466:0:0:0:0:
402,192,233437,1,0,0:0:0:0:
475,192,233437,1,0,0:0:0:0:
329,192,233495,128,0,233524:0:0:0:0:
109,192,233495,128,0,233524:0:0:0:0:
402,192,233553,128,0,233582:0:0:0:0:
182,192,233553,1,0,0:0:0:0:
36,192,233553,1,0,0:0:0:0:
109,192,233611,128,0,233640:0:0:0:0:
329,192,233611,1,0,0:0:0:0:
475,192,233611,1,0,0:0:0:0:
402,192,233669,128,0,233698:0:0:0:0:
256,192,233669,1,0,0:0:0:0:
329,192,233728,128,0,233757:0:0:0:0:
182,192,233728,1,0,0:0:0:0:
256,192,233786,128,0,233815:0:0:0:0:
109,192,233786,1,0,0:0:0:0:
182,192,233844,128,0,233873:0:0:0:0:
36,192,233844,1,0,0:0:0:0:
109,192,233902,128,0,233931:0:0:0:0:
256,192,233902,1,0,0:0:0:0:
182,192,233960,128,0,233989:0:0:0:0:
475,192,233960,128,0,233989:0:0:0:0:
329,192,233960,1,0,0:0:0:0:
36,192,234018,128,0,234047:0:0:0:0:
256,192,234018,128,0,234047:0:0:0:0:
402,192,234018,1,0,0:0:0:0:
109,192,234018,1,0,0:0:0:0:
475,192,234076,128,0,234105:0:0:0:0:
182,192,234076,1,0,0:0:0:0:
329,192,234076,1,0,0:0:0:0:
256,192,234135,128,0,234164:0:0:0:0:
109,192,234135,1,0,0:0:0:0:
402,192,234135,1,0,0:0:0:0:
182,192,234193,128,0,234222:0:0:0:0:
329,192,234193,1,0,0:0:0:0:
36,192,234193,1,0,0:0:0:0:
256,192,234251,128,0,234280:0:0:0:0:
109,192,234251,1,0,0:0:0:0:
402,192,234251,1,0,0:0:0:0:
329,192,234309,128,0,234338:0:0:0:0:
182,192,234309,1,0,0:0:0:0:
475,192,234309,1,0,0:0:0:0:
256,192,234367,128,0,234396:0:0:0:0:
402,192,234367,1,0,0:0:0:0:
109,192,234367,1,0,0:0:0:0:
182,192,234425,128,0,234454:0:0:0:0:
36,192,234425,1,0,0:0:0:0:
329,192,234425,1,0,0:0:0:0:
256,192,234483,128,0,234512:0:0:0:0:
475,192,234483,128,0,234512:0:0:0:0:
402,192,234483,1,0,0:0:0:0:
109,192,234483,1,0,0:0:0:0:
475,192,238204,1,0,0:0:0:0:
402,192,238640,1,0,0:0:0:0:
329,192,239076,1,0,0:0:0:0:
256,192,239512,1,0,0:0:0:0:
402,192,239948,1,0,0:0:0:0:
329,192,240414,1,0,0:0:0:0:
256,192,240850,1,0,0:0:0:0:
402,192,240879,1,0,0:0:0:0:
182,192,241257,1,0,0:0:0:0:
109,192,241547,128,0,241605:0:0:0:0:
329,192,241751,1,0,0:0:0:0:
109,192,241780,128,0,242274:0:0:0:0:
256,192,242187,128,0,242245:0:0:0:0:
402,192,242187,1,0,0:0:0:0:
256,192,242419,128,0,242885:0:0:0:0:
475,192,242584,1,0,0:0:0:0:
402,192,242817,128,0,242894:0:0:0:0:
402,192,243059,128,0,243582:0:0:0:0:
256,192,243495,128,0,243553:0:0:0:0:
109,192,243902,128,0,243960:0:0:0:0:
36,192,244338,128,0,248379:0:0:0:0:
109,192,244774,128,0,248350:0:0:0:0:
182,192,245239,128,0,248321:0:0:0:0:
256,192,245268,1,0,0:0:0:0:
475,192,246082,128,0,248379:0:0:0:0:
329,192,247042,1,0,0:0:0:0:
402,192,247071,128,0,248350:0:0:0:0:
329,192,247478,128,0,248262:0:0:0:0:
329,192,248321,1,0,0:0:0:0:
