osu file format v14

[General]
AudioFilename: audio.mp3
AudioLeadIn: 0
PreviewTime: 58949
Countdown: 0
SampleSet: Normal
StackLeniency: 0.6
Mode: 0
LetterboxInBreaks: 0
WidescreenStoryboard: 0

[Editor]
DistanceSpacing: 1.4
BeatDivisor: 4
GridSize: 8
TimelineZoom: 1

[Metadata]
Title:Kawaki wo Ameku
TitleUnicode:カワキヲアメク
Artist:Minami
ArtistUnicode:美波
Creator:Firebool
Version:Mou ii
Source:
Tags:Domestic Girlfriend ドメスティックな彼女 anime opening teamrui tachibana rui
BeatmapID:1951908
BeatmapSetID:934966

[Difficulty]
HPDrainRate:7
CircleSize:4
OverallDifficulty:8
ApproachRate:8.5
SliderMultiplier:2
SliderTickRate:1

[Events]
//Background and Video events
0,0,"9594ea7fb3813e9ae171e9bbf5ec506cadfbc5b9.jpg",0,0
//Break Periods
//Storyboard Layer 0 (Background)
//Storyboard Layer 1 (Fail)
//Storyboard Layer 2 (Pass)
//Storyboard Layer 3 (Foreground)
//Storyboard Sound Samples

[TimingPoints]
9647,465.116279069767,4,1,0,70,1,0
18949,-83.3333333333333,4,1,0,70,0,0
21623,-83.3333333333333,4,1,0,5,0,0
21740,-83.3333333333333,4,1,0,70,0,0
21972,-83.3333333333333,4,1,0,5,0,0
22088,-83.3333333333333,4,1,0,70,0,0
22321,-83.3333333333333,4,1,0,5,0,0
22437,-83.3333333333333,4,1,0,70,0,0
22670,-100,4,1,0,40,0,0
24181,-100,4,1,0,10,0,0
24298,-100,4,1,0,40,0,0
37088,-76.9230769230769,4,1,0,60,0,0
37553,-83.3333333333333,4,1,0,50,0,0
44298,-66.6666666666667,4,1,0,50,0,0
44763,-83.3333333333333,4,1,0,50,0,0
51042,-100,4,1,0,50,0,0
52437,-76.9230769230769,4,1,0,50,0,0
59879,-55.5555555555556,4,1,0,70,0,1
71042,-100,4,1,0,70,0,1
71274,-83.3333333333333,4,1,0,70,0,1
71507,-71.4285714285714,4,1,0,70,0,1
71740,-62.5,4,1,0,70,0,1
71972,-55.5555555555556,4,1,0,70,0,1
72205,-50,4,1,0,70,0,1
72437,-50,4,1,0,70,0,1
74763,-55.5555555555556,4,1,0,70,0,1
84065,-83.3333333333333,4,1,0,40,0,0
85809,-83.3333333333333,4,1,0,5,0,0
85926,-83.3333333333333,4,1,0,40,0,0

[HitObjects]
256,192,10577,12,0,14763,0:0:0:0:
327,281,15228,5,0,0:0:0:0:
340,337,15344,1,0,0:0:0:0:
420,211,15577,2,0,L|394:91,1,100
456,31,16042,1,0,0:0:0:0:
358,11,16274,1,0,0:0:0:0:
281,75,16507,1,0,0:0:0:0:
281,75,16623,2,0,P|218:89|179:85,1,100
28,76,17088,5,0,0:0:0:0:
41,20,17204,1,0,0:0:0:0:
123,139,17437,2,0,L|100:244,1,100
120,334,17902,1,0,0:0:0:0:
217,357,18135,1,0,0:0:0:0:
309,319,18367,1,0,0:0:0:0:
309,319,18484,2,0,P|293:252|300:213,1,100
429,37,18949,5,0,0:0:0:0:
371,91,19065,2,0,P|425:116|482:96,1,119.999996337891
296,18,19530,1,0,0:0:0:0:
258,157,19763,1,0,0:0:0:0:
326,283,19995,1,0,0:0:0:0:
459,337,20228,1,0,0:0:0:0:
459,337,20344,2,0,P|482:278|473:219,1,119.999996337891
332,46,20809,6,0,L|356:169,1,119.999996337891,0|2,0:0|0:0,0:0:0:0:
236,82,21391,2,0,P|171:98|104:85,1,119.999996337891,2|0,0:0|0:0,0:0:0:0:
79,24,21740,2,0,P|125:72|147:136,1,119.999996337891,2|0,0:0|0:0,0:0:0:0:
108,189,22088,2,0,P|126:124|171:73,1,119.999996337891,2|0,0:0|0:0,0:0:0:0:
236,82,22437,1,0,0:0:0:0:
250,295,22670,6,0,P|212:232|209:142,2,150,0|2|0,0:0|0:0|0:0,0:0:0:0:
296,53,23833,1,0,0:0:0:0:
292,67,23949,1,0,0:0:0:0:
288,81,24065,2,0,P|265:82|231:67,1,50,2|0,0:0|0:0,0:0:0:0:
398,14,24298,2,0,P|374:5|349:6,1,50,0|2,0:0|0:0,0:0:0:0:
481,78,24530,6,0,L|466:245,2,150,0|2|0,0:0|0:0|0:0,0:0:0:0:
339,222,25693,1,0,0:0:0:0:
463,339,25926,1,0,0:0:0:0:
459,324,26042,1,0,0:0:0:0:
455,311,26158,2,0,P|432:310|398:325,1,50,2|0,0:0|0:0,0:0:0:0:
278,368,26391,6,0,P|229:289|229:225,2,150,0|2|0,0:0|0:0|0:0,0:0:0:0:
45,178,27553,1,0,0:0:0:0:
49,193,27669,1,0,0:0:0:0:
53,206,27785,2,0,P|76:207|110:192,1,50,2|0,0:0|0:0,0:0:0:0:
198,121,28019,2,0,P|175:120|141:135,1,50,0|2,0:0|0:0,0:0:0:0:
254,210,28251,6,0,P|297:132|277:57,2,150,0|2|0,0:0|0:0|0:0,0:0:0:0:
426,18,29414,1,2,0:0:0:0:
376,113,29646,2,0,P|430:126|483:109,1,100,8|0,0:0|0:0,0:0:0:0:
486,220,30112,6,0,L|331:252,2,150,0|2|0,0:0|0:0|0:0,0:0:0:0:
204,307,31274,1,0,0:0:0:0:
218,311,31390,1,0,0:0:0:0:
232,315,31506,2,0,P|233:338|218:372,1,50,2|0,0:0|0:0,0:0:0:0:
307,248,31739,2,0,P|306:271|321:305,1,50,0|2,0:0|0:0,0:0:0:0:
264,163,31972,6,0,P|262:100|218:21,2,150,0|2|0,0:0|0:0|0:0,0:0:0:0:
123,198,33135,1,0,0:0:0:0:
137,194,33251,1,0,0:0:0:0:
151,189,33367,2,0,P|151:164|143:140,1,50,2|0,0:0|0:0,0:0:0:0:
50,78,33600,2,0,P|41:101|42:126,1,50,0|2,0:0|0:0,0:0:0:0:
16,275,33833,6,0,L|172:285,2,150,0|2|0,0:0|0:0|0:0,0:0:0:0:
271,258,34995,1,0,0:0:0:0:
257,262,35111,1,0,0:0:0:0:
243,267,35228,2,0,P|242:291|250:315,1,50,2|0,0:0|0:0,0:0:0:0:
347,359,35460,2,0,P|347:334|339:310,1,50,0|2,0:0|0:0,0:0:0:0:
278,170,35693,6,0,P|359:184|434:167,2,150,0|2|0,0:0|0:0|0:0,0:0:0:0:
413,96,36856,1,0,0:0:0:0:
427,92,36972,1,0,0:0:0:0:
441,87,37088,2,0,P|442:50|424:19,1,64.9999970245363,8|0,0:0|0:0,0:0:0:0:
365,16,37321,1,0,0:0:0:0:
302,31,37437,1,2,0:0:0:0:
239,19,37553,6,0,P|211:110|256:184,1,179.999994506836
319,209,38019,2,0,P|259:180|201:187,1,119.999996337891,8|2,0:0|0:0,0:0:0:0:
98,251,38484,1,0,0:0:0:0:
28,144,38716,1,2,0:0:0:0:
2,344,38949,2,0,P|73:348|122:331,1,119.999996337891,8|0,0:0|0:0,0:0:0:0:
253,149,39414,6,0,L|230:330,1,179.999994506836
180,378,39879,2,0,P|255:353|293:362,1,119.999996337891,8|2,0:0|0:0,0:0:0:0:
309,369,40228,1,0,0:0:0:0:
326,373,40344,1,0,0:0:0:0:
383,247,40577,1,2,0:0:0:0:
463,358,40809,2,0,P|483:299|481:232,1,119.999996337891,8|0,0:0|0:0,0:0:0:0:
374,55,41274,6,0,L|381:117,1,59.9999981689454,2|0,0:0|0:0,0:0:0:0:
464,154,41507,2,0,L|457:92,1,59.9999981689454,0|2,0:0|0:0,0:0:0:0:
290,15,41740,5,8,0:0:0:0:
293,44,41856,1,0,0:0:0:0:
296,74,41972,1,2,0:0:0:0:
300,104,42088,1,0,0:0:0:0:
204,222,42321,1,2,0:0:0:0:
210,233,42437,2,0,P|268:245|338:232,1,119.999996337891,0|8,0:0|0:0,0:0:0:0:
116,158,42902,1,2,0:0:0:0:
14,361,43135,6,0,L|21:299,1,59.9999981689454,2|0,0:0|0:0,0:0:0:0:
104,262,43368,2,0,L|97:324,1,59.9999981689454,0|2,0:0|0:0,0:0:0:0:
171,378,43600,2,0,L|178:316,1,59.9999981689454,8|0,0:0|0:0,0:0:0:0:
261,279,43833,2,0,L|254:341,1,59.9999981689454,2|0,0:0|0:0,0:0:0:0:
324,377,44065,2,0,P|359:383|393:377,1,59.9999981689454,0|2,0:0|0:0,0:0:0:0:
460,308,44298,2,0,P|401:278|448:228,1,150.000005722046,0|8,0:0|0:0,0:0:0:0:
354,118,44763,1,2,0:0:0:0:
488,38,44995,6,0,B|455:13|350:53|304:34,1,179.999994506836
241,5,45460,2,0,P|270:65|257:115,1,119.999996337891,8|2,0:0|0:0,0:0:0:0:
244,126,45809,1,0,0:0:0:0:
227,133,45926,2,0,P|225:169|235:199,1,59.9999981689454,0|2,0:0|0:0,0:0:0:0:
242,203,46158,1,0,0:0:0:0:
175,70,46391,1,8,0:0:0:0:
121,183,46623,1,2,0:0:0:0:
303,334,46856,6,0,P|182:343|122:310,1,179.999994506836
54,309,47321,2,0,P|111:282|171:282,1,119.999996337891,8|2,0:0|0:0,0:0:0:0:
386,373,47786,6,0,L|379:311,1,59.9999981689454,2|0,0:0|0:0,0:0:0:0:
296,274,48019,2,0,L|303:336,1,59.9999981689454,0|2,0:0|0:0,0:0:0:0:
461,324,48251,2,0,P|467:252|446:194,1,119.999996337891,8|0,0:0|0:0,0:0:0:0:
403,70,48716,6,0,P|435:74|465:63,1,59.9999981689454,2|0,0:0|0:0,0:0:0:0:
277,13,48949,2,0,P|311:9|339:20,1,59.9999981689454,0|2,0:0|0:0,0:0:0:0:
216,74,49181,1,8,0:0:0:0:
73,20,49414,5,0,0:0:0:0:
73,20,49530,1,2,0:0:0:0:
73,20,49646,1,0,0:0:0:0:
46,52,49762,1,0,0:0:0:0:
35,92,49878,1,2,0:0:0:0:
42,133,49994,1,0,0:0:0:0:
64,168,50111,1,8,0:0:0:0:
243,225,50344,6,0,B|271:197|269:155|269:155|295:238|239:311,1,239.999992675781,0|2,0:0|0:0,0:0:0:0:
169,254,51042,2,0,P|166:201|202:161,2,100,8|2|0,0:0|0:0|0:0,0:0:0:0:
265,74,51740,1,8,0:0:0:0:
470,18,51972,1,8,0:0:0:0:
353,173,52205,1,0,0:0:0:0:
376,182,52321,1,0,0:0:0:0:
401,183,52437,6,0,P|440:196|466:223,1,64.9999970245363,2|0,0:0|0:0,0:0:0:0:
309,287,52670,2,0,P|334:267|365:258,1,64.9999970245363,2|0,0:0|0:0,0:0:0:0:
262,364,52902,2,0,P|192:373|129:356,1,129.999994049073,8|2,0:0|0:0,0:0:0:0:
18,200,53367,5,2,0:0:0:0:
18,200,53484,2,0,P|51:190|88:191,2,64.9999970245363,2|0|0,0:0|0:0|0:0,0:0:0:0:
95,269,53833,2,0,L|161:260,1,64.9999970245363,8|0,0:0|0:0,0:0:0:0:
220,134,54065,2,0,L|154:143,1,64.9999970245363
292,77,54298,6,0,P|306:40|305:3,1,64.9999970245363,2|0,0:0|0:0,0:0:0:0:
399,147,54530,2,0,P|385:110|386:73,1,64.9999970245363,2|0,0:0|0:0,0:0:0:0:
502,225,54763,2,0,B|463:222|463:222|398:262|329:219|329:219|284:206|243:228,1,259.999988098145,8|2,0:0|0:0,0:0:0:0:
126,28,55460,5,0,0:0:0:0:
89,43,55577,1,2,0:0:0:0:
57,84,55693,1,8,0:0:0:0:
44,147,55809,1,0,0:0:0:0:
57,210,55926,1,2,0:0:0:0:
89,251,56042,1,0,0:0:0:0:
126,266,56159,5,8,0:0:0:0:
221,166,56391,1,2,0:0:0:0:
240,379,56623,5,8,0:0:0:0:
207,244,56855,1,2,0:0:0:0:
401,334,57089,5,8,0:0:0:0:
268,295,57321,2,0,L|314:286,3,43.3333313496908,2|0|0|8,0:0|0:0|0:0|0:0,0:0:0:0:
342,201,57786,6,0,P|421:229|385:110,1,259.999988098145,0|2,0:0|0:0,0:0:0:0:
385,112,58367,1,0,0:0:0:0:
370,117,58484,2,0,P|337:126|304:122,1,64.9999970245363,8|0,0:0|0:0,0:0:0:0:
245,43,58716,2,0,P|212:39|181:48,1,64.9999970245363,2|0,0:0|0:0,0:0:0:0:
142,101,58949,5,2,0:0:0:0:
160,229,59181,1,0,0:0:0:0:
263,307,59414,1,2,0:0:0:0:
392,318,59646,1,0,0:0:0:0:
509,258,59879,6,0,P|504:148|455:83,1,179.999994506836,4|2,0:0|0:0,0:0:0:0:
292,85,60228,1,0,0:0:0:0:
292,85,60344,2,0,B|345:100|388:84|388:84|401:32|447:20,1,179.999994506836,8|0,0:0|0:0,0:0:0:0:
220,28,60693,1,2,0:0:0:0:
220,28,60809,2,0,B|191:87|224:147|224:147|227:178|207:207,1,179.999994506836,0|2,0:0|0:0,0:0:0:0:
137,287,61158,2,0,P|185:300|228:290,1,89.9999972534181,0|8,0:0|0:0,0:0:0:0:
61,195,61391,2,0,L|32:287,1,89.9999972534181,2|0,0:0|0:0,0:0:0:0:
121,371,61623,1,2,0:0:0:0:
251,378,61740,6,2,L|222:286,2,89.9999972534181,6|2|2,0:0|0:0|0:0,0:0:0:0:
332,261,62088,1,2,0:0:0:0:
332,261,62205,2,0,P|439:271|489:224,1,179.999994506836,8|2,0:0|0:0,0:0:0:0:
427,106,62553,1,0,0:0:0:0:
427,106,62670,2,2,P|401:154|405:199,2,89.9999972534181
301,17,63019,2,0,P|327:65|323:110,1,89.9999972534181,2|8,0:0|0:0,0:0:0:0:
159,135,63251,2,0,P|203:133|241:109,1,89.9999972534181,2|0,0:0|0:0,0:0:0:0:
140,32,63484,1,2,0:0:0:0:
15,48,63600,6,0,P|12:101|41:142,1,89.9999972534181,2|0,0:0|0:0,0:0:0:0:
101,213,63833,2,0,P|104:266|75:307,1,89.9999972534181,2|0,0:0|0:0,0:0:0:0:
21,382,64065,2,0,P|74:385|115:356,1,89.9999972534181,8|0,0:0|0:0,0:0:0:0:
187,301,64298,2,0,P|240:298|281:327,1,89.9999972534181,2|0,0:0|0:0,0:0:0:0:
359,376,64530,6,0,L|376:278,1,89.9999972534181,2|0,0:0|0:0,0:0:0:0:
453,212,64763,2,0,L|470:114,1,89.9999972534181,2|0,0:0|0:0,0:0:0:0:
480,16,64995,2,0,B|420:6|356:59|287:34,1,179.999994506836,8|0,0:0|0:0,0:0:0:0:
168,126,65460,6,0,P|146:80|149:27,1,89.9999972534181,2|0,0:0|0:0,0:0:0:0:
271,195,65693,2,0,P|293:149|290:96,1,89.9999972534181,2|0,0:0|0:0,0:0:0:0:
121,279,65926,2,0,P|99:233|102:180,1,89.9999972534181,8|0,0:0|0:0,0:0:0:0:
289,357,66158,2,0,P|311:311|308:258,1,89.9999972534181,2|0,0:0|0:0,0:0:0:0:
293,110,66391,6,2,L|204:128,2,89.9999972534181
396,36,66740,1,2,0:0:0:0:
511,86,66856,2,0,P|486:180|407:193,1,179.999994506836,8|2,0:0|0:0,0:0:0:0:
293,110,67205,1,2,0:0:0:0:
293,110,67321,6,0,L|259:293,1,179.999994506836,4|2,0:0|0:0,0:0:0:0:
114,353,67670,1,0,0:0:0:0:
114,353,67786,2,0,P|166:363|213:353,1,89.9999972534181,8|0,0:0|0:0,0:0:0:0:
33,224,68019,2,0,P|20:271|29:318,1,89.9999972534181,2|0,0:0|0:0,0:0:0:0:
166,142,68251,2,0,P|179:189|170:236,1,89.9999972534181,2|0,0:0|0:0,0:0:0:0:
29,101,68484,5,0,0:0:0:0:
42,86,68600,1,0,0:0:0:0:
59,77,68716,2,0,B|114:70|114:70|176:43|237:82,1,179.999994506836,8|2,0:0|0:0,0:0:0:0:
360,34,69065,1,0,0:0:0:0:
360,34,69181,2,0,P|353:126|406:205,1,179.999994506836,0|2,0:0|0:0,0:0:0:0:
506,279,69530,1,0,0:0:0:0:
506,279,69646,2,0,L|329:314,1,179.999994506836,8|2,0:0|0:0,0:0:0:0:
134,365,70112,6,0,B|111:314|176:234|148:184,1,179.999994506836,0|2,0:0|0:0,0:0:0:0:
54,86,70460,1,0,0:0:0:0:
54,86,70577,2,0,P|144:50|225:59,1,179.999994506836,8|2,0:0|0:0,0:0:0:0:
443,73,71042,6,2,P|435:46|438:11,1,50
343,105,71274,2,2,P|351:77|348:42,1,59.9999981689454
470,169,71507,2,0,P|461:139|464:101,1,69.9999978637696,8|2,0:0|0:0,0:0:0:0:
305,203,71740,2,2,P|315:166|311:118,1,80
503,285,71972,2,2,P|489:240|494:183,1,89.9999972534181
277,334,72205,6,0,P|342:290|264:269,1,200,2|8,0:0|0:0,0:0:0:0:
127,26,72670,2,0,P|92:139|129:224,1,200,0|8,0:0|0:0,0:0:0:0:
306,62,73135,5,2,0:0:0:0:
352,77,73251,1,0,0:0:0:0:
401,68,73367,2,0,P|447:42|502:39,1,100,8|0,0:0|0:0,0:0:0:0:
294,148,73600,5,2,0:0:0:0:
247,132,73716,1,0,0:0:0:0:
198,141,73832,2,0,P|151:170|97:170,1,100,8|0,0:0|0:0,0:0:0:0:
0,273,74065,5,2,0:0:0:0:
46,288,74181,1,0,0:0:0:0:
95,279,74297,2,0,P|152:279|195:249,1,100,8|2,0:0|0:0,0:0:0:0:
328,301,74530,2,0,P|271:301|227:330,1,100,0|2,0:0|0:0,0:0:0:0:
479,360,74763,6,0,L|440:168,1,179.999994506836,4|2,0:0|0:0,0:0:0:0:
391,49,75112,1,0,0:0:0:0:
391,49,75228,2,0,P|346:69|289:64,1,89.9999972534181,8|0,0:0|0:0,0:0:0:0:
189,8,75460,2,0,P|202:61|185:105,1,89.9999972534181,2|0,0:0|0:0,0:0:0:0:
38,143,75693,2,2,P|25:90|42:46,2,89.9999972534181
226,225,76158,1,8,0:0:0:0:
16,317,76391,2,0,L|114:308,1,89.9999972534181,2|0,0:0|0:0,0:0:0:0:
187,353,76623,6,0,B|221:330|331:364|367:333,1,179.999994506836,4|2,0:0|0:0,0:0:0:0:
481,248,76972,1,0,0:0:0:0:
481,248,77088,2,0,P|430:254|388:246,1,89.9999972534181,8|0,0:0|0:0,0:0:0:0:
299,101,77321,2,0,P|292:145|299:189,1,89.9999972534181,2|0,0:0|0:0,0:0:0:0:
441,28,77553,2,2,P|447:72|440:116,2,89.9999972534181
315,9,77902,1,2,0:0:0:0:
194,48,78019,2,0,L|167:145,1,89.9999972534181,8|0,0:0|0:0,0:0:0:0:
197,279,78251,2,0,L|224:182,1,89.9999972534181,2|0,0:0|0:0,0:0:0:0:
96,359,78484,6,0,P|51:273|64:190,1,179.999994506836,4|2,0:0|0:0,0:0:0:0:
103,33,78833,1,0,0:0:0:0:
103,33,78949,2,0,L|21:209,1,179.999994506836,8|2,0:0|0:0,0:0:0:0:
197,279,79414,6,0,P|295:289|369:250,1,179.999994506836,0|2,0:0|0:0,0:0:0:0:
419,108,79763,1,0,0:0:0:0:
419,108,79879,2,0,L|451:301,1,179.999994506836,8|2,0:0|0:0,0:0:0:0:
332,75,80344,6,0,P|280:60|239:62,1,89.9999972534181,2|0,0:0|0:0,0:0:0:0:
89,123,80577,1,2,0:0:0:0:
76,122,80693,1,2,0:0:0:0:
65,117,80809,2,0,P|50:65|52:24,1,89.9999972534181,8|0,0:0|0:0,0:0:0:0:
184,226,81042,2,0,P|199:174|197:133,1,89.9999972534181,2|2,0:0|0:0,0:0:0:0:
96,306,81274,6,0,P|50:292|-8:303,1,89.9999972534181,0|2,0:0|0:0,0:0:0:0:
260,343,81507,2,0,P|215:338|172:352,1,89.9999972534181,0|2,0:0|0:0,0:0:0:0:
419,297,81740,2,0,P|381:207|392:115,1,179.999994506836,8|2,0:0|0:0,0:0:0:0:
476,25,82088,1,0,0:0:0:0:
476,25,82205,6,0,B|432:5|384:31|334:61|278:30,1,179.999994506836,4|2,0:0|0:0,0:0:0:0:
167,197,82670,6,0,L|210:11,1,179.999994506836,8|2,0:0|0:0,0:0:0:0:
85,77,83019,1,2,0:0:0:0:
85,77,83135,6,2,L|71:9,2,59.9999981689454
5,173,83367,6,2,L|19:105,2,59.9999981689454
95,254,83600,6,2,L|81:186,2,59.9999981689454,10|2|2,0:0|0:0|0:0,0:0:0:0:
7,347,83833,6,2,L|21:279,2,59.9999981689454
130,376,84065,5,8,0:0:0:0:
216,231,84298,2,2,P|241:279|224:365,2,119.999996337891
238,137,84995,2,0,P|306:146|359:134,1,119.999996337891,2|0,0:0|0:0,0:0:0:0:
463,22,85460,6,0,P|428:108|460:205,1,179.999994506836,2|0,0:0|0:0,0:0:0:0:
484,273,85926,2,2,P|430:293|366:292,2,119.999996337891
256,192,86623,12,0,89530,0:0:0:0:
