osu file format v14

[General]
AudioFilename: audio.mp3
AudioLeadIn: 0
PreviewTime: 795
Countdown: 0
SampleSet: Soft
StackLeniency: 0.2
Mode: 0
LetterboxInBreaks: 0
WidescreenStoryboard: 1

[Editor]
Bookmarks: 21775,36659,51543,57822,58985
DistanceSpacing: 0.4
BeatDivisor: 4
GridSize: 16
TimelineZoom: 8

[Metadata]
Title:Kawaki o Ameku (TV Size)
TitleUnicode:カワキヲアメク (TV Size)
Artist:Minami
ArtistUnicode:美波
Creator:Kirylln
Version:<\3
Source:ドメスティックな彼女
Tags:Domestic Kanojo Girlfriend domekano ドメカノ opening op cyberx
BeatmapID:1986211
BeatmapSetID:946650

[Difficulty]
HPDrainRate:5
CircleSize:4
OverallDifficulty:9
ApproachRate:9.3
SliderMultiplier:3.59999990463257
SliderTickRate:0.5

[Events]
//Background and Video events
0,0,"BG (107).jpg",0,0
//Break Periods
//Storyboard Layer 0 (Background)
//Storyboard Layer 1 (Fail)
//Storyboard Layer 2 (Pass)
//Storyboard Layer 3 (Foreground)
//Storyboard Sound Samples

[TimingPoints]
905,437.956204379562,4,2,1,55,1,0
905,-200,4,2,1,55,0,0
9007,-100,4,2,1,5,0,0
9236,468.75,4,2,1,55,1,0
9704,461.538461538462,4,2,1,55,1,0
9704,-250,4,2,1,55,0,0
12242,-100,4,2,1,5,0,0
12473,-200,4,2,1,5,0,0
12483,454.545454545455,4,2,1,55,1,0
12937,-142.857142857143,4,2,1,55,0,0
13392,-111.111111111111,4,2,1,55,0,0
13846,-90.9090909090909,4,2,1,55,0,0
14334,465.116279069767,4,2,1,80,1,0
21775,-125,4,2,1,70,0,0
36659,-100,4,2,1,75,0,0
51078,-166.666666666667,4,2,1,75,0,0
51543,-100,4,2,1,75,0,0
54333,-83.3333333333333,4,2,1,75,0,0
55264,-66.6666666666667,4,2,1,85,0,0
56892,-58.8235294117647,4,2,1,85,0,0
57822,-66.6666666666667,4,2,1,85,0,0
58113,-66.6666666666667,4,2,1,5,0,0
58287,-66.6666666666667,4,2,1,85,0,0
58345,-66.6666666666667,4,2,1,5,0,0
58520,-66.6666666666667,4,2,1,85,0,0
58578,-66.6666666666667,4,2,1,5,0,0
58752,-66.6666666666667,4,2,1,85,0,0
58927,-66.6666666666667,4,2,1,5,0,0
58985,-200,4,2,1,95,0,1
59450,-50,4,2,1,95,0,1
59915,-66.6666666666667,4,2,1,95,0,1
60496,-55.5555555555556,4,2,1,95,0,1
60845,-200,4,2,1,95,0,1
61310,-50,4,2,1,95,0,1
61775,-66.6666666666667,4,2,1,95,0,1
62357,-55.5555555555556,4,2,1,95,0,1
63636,-58.8235294117647,4,2,1,95,0,1
64566,-66.6666666666667,4,2,1,95,0,1
70147,-100,4,2,1,95,0,1
70613,-83.3333333333333,4,2,1,95,0,1
71078,-71.4285714285714,4,2,1,95,0,1
71543,-62.5,4,2,1,95,0,1
72008,-50,4,2,1,95,0,1
72473,-66.6666666666667,4,2,1,95,0,1
73403,-66.6666666666667,4,2,1,95,0,0
73868,-200,4,2,1,95,0,1
74333,-50,4,2,1,95,0,1
74799,-66.6666666666667,4,2,1,95,0,1
75380,-55.5555555555556,4,2,1,95,0,1
75729,-200,4,2,1,95,0,1
76194,-50,4,2,1,95,0,1
76659,-66.6666666666667,4,2,1,95,0,1
77240,-55.5555555555556,4,2,1,95,0,1
77589,-66.6666666666667,4,2,1,95,0,1
79450,-83.3333333333333,4,2,1,95,0,1
83171,-66.6666666666667,4,2,1,95,0,0

[Colours]
Combo1 : 255,128,192
Combo2 : 255,128,128
Combo3 : 255,128,255
Combo4 : 208,208,208

[HitObjects]
170,281,905,6,0,B|216:288|216:288|352:272,2,179.999995231629,2|2|0,0:2|0:2|0:2,0:0:0:0:
213,128,2218,6,0,P|256:66|312:65,1,134.999996423721,0|0,0:2|0:0,0:0:0:0:
170,281,2656,6,0,B|213:297|213:297|349:310,2,179.999995231629,2|2|0,0:2|0:2|0:2,0:0:0:0:
213,128,3970,6,0,P|267:76|322:86,1,134.999996423721,0|0,0:2|0:0,0:0:0:0:
170,281,4408,6,0,B|209:306|209:306|339:346,2,179.999995231629,2|2|0,0:2|0:2|0:2,0:0:0:0:
213,128,5722,6,0,P|276:88|328:109,1,134.999996423721,0|0,0:2|0:0,0:0:0:0:
170,281,6160,6,0,B|202:313|202:313|321:379,1,179.999995231629,2|0,0:2|0:0,0:0:0:0:
39,314,7036,6,0,P|39:256|25:134,1,179.999995231629,2|2,0:2|0:2,0:0:0:0:
38,314,7912,6,0,B|97:307|97:307|116:292|116:292|218:280,2,179.999995231629,2|0|2,0:2|0:0|0:2,0:0:0:0:
327,337,9704,6,0,B|292:340|292:340|431:327|431:327|415:358|473:396|508:354,1,287.999992370606,2|0,0:2|0:0,0:0:0:0:
442,244,10857,6,0,B|346:252|346:252|304:242|304:242|218:249|218:249|210:255|210:255|168:257|168:257|94:264|94:264|201:279,1,431.999988555908,0|0,0:0|0:2,0:0:0:0:
211,134,12473,6,0,L|336:120,1,89.9999976158143,0|0,0:0|0:0,0:0:0:0:
211,134,12937,2,0,L|372:118,1,125.999992816925,8|0,0:3|0:0,0:0:0:0:
160,49,13392,6,0,L|323:32,1,161.999990764618,8|0,0:3|0:0,0:0:0:0:
160,49,13846,2,0,L|367:28,1,198.000000797272,10|0,0:3|0:0,0:0:0:0:
94,361,14334,5,6,3:2:0:0:
65,287,14450,1,2,3:2:0:0:
139,258,14682,5,2,0:2:0:0:
167,332,14915,1,2,0:2:0:0:
77,350,15147,5,2,0:2:0:0:
75,270,15380,1,2,0:2:0:0:
155,268,15613,5,2,0:2:0:0:
156,348,15728,1,2,0:2:0:0:
66,334,15961,5,2,0:2:0:0:
349,143,16194,5,6,3:2:0:0:
320,69,16310,1,2,3:2:0:0:
394,40,16542,5,2,0:2:0:0:
422,114,16775,1,2,0:2:0:0:
332,132,17007,5,2,0:2:0:0:
330,52,17240,1,2,0:2:0:0:
410,50,17473,5,2,0:2:0:0:
411,130,17588,1,2,0:2:0:0:
321,116,17821,5,2,0:2:0:0:
71,134,18054,5,6,3:2:0:0:
42,60,18170,1,6,3:2:0:0:
116,31,18402,5,0,0:0:0:0:
144,105,18635,1,2,0:2:0:0:
54,123,18867,5,2,0:2:0:0:
52,43,19100,1,2,0:2:0:0:
132,41,19333,5,2,0:2:0:0:
133,121,19448,1,0,0:0:0:0:
43,107,19681,5,2,0:2:0:0:
477,31,19915,5,2,3:2:0:0:
461,377,21775,6,0,P|411:306|459:216,1,143.999996185303,2|0,3:2|0:2,0:0:0:0:
461,377,22124,2,0,L|280:339,1,143.999996185303,2|0,3:2|0:2,0:0:0:0:
192,324,22473,5,2,3:2:0:0:
29,239,22938,6,0,L|40:353,3,71.9999980926514,2|4|8|8,0:3|0:3|0:1|0:3,0:0:0:0:
119,377,23403,2,0,L|108:267,1,71.9999980926514,2|8,0:3|0:1,0:0:0:0:
41,119,23636,6,0,P|88:45|170:43,1,143.999996185303,2|0,3:2|0:2,0:0:0:0:
41,119,23985,2,0,L|213:107,1,143.999996185303,2|0,3:2|0:2,0:0:0:0:
342,42,24333,5,2,3:2:0:0:
309,127,24799,6,0,L|398:120,3,71.9999980926514,2|0|8|8,0:2|0:0|0:1|0:3,0:0:0:0:
480,241,25264,2,0,L|391:248,1,71.9999980926514,2|8,0:3|0:1,0:0:0:0:
304,338,25496,6,0,P|255:267|151:268,1,143.999996185303,2|2,3:2|0:2,0:0:0:0:
202,253,25845,2,0,L|6:264,1,143.999996185303,0|0,3:2|0:2,0:0:0:0:
203,338,26194,5,2,3:2:0:0:
31,360,26659,6,0,P|63:368|108:362,3,71.9999980926514,2|2|8|2,0:2|0:2|0:1|0:2,0:0:0:0:
41,232,27124,2,0,P|57:260|94:287,1,71.9999980926514,2|8,0:2|0:1,0:0:0:0:
180,130,27357,6,0,L|192:286,1,143.999996185303,2|0,3:2|0:2,0:0:0:0:
308,114,27706,2,0,P|240:40|165:41,1,143.999996185303,2|2,3:2|0:2,0:0:0:0:
84,81,28054,6,0,L|88:168,1,71.9999980926514,2|2,3:2|0:2,0:0:0:0:
73,64,28287,6,0,L|77:151,1,71.9999980926514,2|2,0:2|0:2,0:0:0:0:
62,47,28520,6,0,L|66:134,1,71.9999980926514,2|0,3:2|0:0,0:0:0:0:
51,30,28752,5,2,0:1:0:0:
310,141,29217,6,0,P|345:69|432:63,1,143.999996185303,2|0,3:2|0:2,0:0:0:0:
492,21,29566,2,0,L|315:30,1,143.999996185303,2|0,3:2|0:2,0:0:0:0:
190,35,29915,5,2,3:2:0:0:
310,239,30380,6,0,L|314:315,3,71.9999980926514,2|4|8|8,0:3|0:3|0:1|0:3,0:0:0:0:
408,342,30845,2,0,L|298:352,1,71.9999980926514,2|8,0:3|0:1,0:0:0:0:
55,349,31078,6,0,L|261:337,1,143.999996185303,2|0,3:2|0:2,0:0:0:0:
109,242,31427,2,0,P|182:289|198:351,1,143.999996185303,2|0,3:2|0:2,0:0:0:0:
24,245,31775,5,2,3:2:0:0:
96,72,32240,6,0,P|101:103|107:151,3,71.9999980926514,2|0|8|8,0:3|0:0|0:1|0:3,0:0:0:0:
132,27,32706,2,0,P|87:33|44:32,1,71.9999980926514,2|0,0:3|0:0,0:0:0:0:
197,106,32938,6,0,L|388:97,1,143.999996185303,2|0,3:2|0:2,0:0:0:0:
340,99,33287,2,0,P|408:29|465:46,1,143.999996185303,2|0,3:2|0:2,0:0:0:0:
426,112,33636,5,2,3:2:0:0:
303,305,34101,6,0,L|297:218,3,71.9999980926514,2|4|8|8,0:3|0:3|0:1|0:3,0:0:0:0:
209,362,34566,2,0,L|203:275,1,71.9999980926514,2|8,0:3|0:1,0:0:0:0:
26,358,34799,6,0,P|42:250|80:238,1,143.999996185303,0|0,3:2|0:2,0:0:0:0:
64,97,35147,2,0,L|60:246,1,143.999996185303,0|0,3:2|0:2,0:0:0:0:
95,312,35496,5,0,3:2:0:0:
201,19,35961,6,0,P|198:60|200:123,1,71.9999980926514,0|0,3:2|0:0,0:0:0:0:
308,149,36194,5,8,0:2:0:0:
320,115,36310,1,8,0:2:0:0:
343,87,36426,1,2,0:1:0:0:
373,69,36542,1,0,3:1:0:0:
465,58,36659,6,0,B|390:50|390:50|366:34|366:34|286:26,2,179.999995231629,6|0|8,3:2|0:2|0:2,0:0:0:0:
465,58,37357,2,0,B|452:112|452:112|465:255,1,179.999995231629,2|0,3:2|0:0,0:0:0:0:
378,232,37822,6,0,P|390:303|496:315,2,179.999995231629,2|8|2,3:2|0:2|0:2,0:0:0:0:
216,338,38520,6,0,P|255:312|308:307,1,89.9999976158143,2|0,3:2|0:0,0:0:0:0:
199,277,38752,2,0,P|193:324|162:370,1,89.9999976158143,2|0,0:2|3:2,0:0:0:0:
74,360,38985,2,0,P|51:321|46:276,1,89.9999976158143,10|0,0:2|0:0,0:0:0:0:
111,122,39217,5,2,3:2:0:0:
111,122,39333,2,0,L|125:309,1,179.999995231629,2|2,0:2|0:2,0:0:0:0:
27,18,39682,2,0,L|158:12,1,89.9999976158143,2|0,3:2|0:2,0:0:0:0:
213,42,39915,6,0,L|344:36,1,89.9999976158143,10|0,0:2|0:2,0:0:0:0:
399,66,40147,2,0,L|530:60,1,89.9999976158143,2|0,0:2|0:2,0:0:0:0:
305,152,40380,5,2,3:2:0:0:
305,116,40496,1,0,0:2:0:0:
336,134,40613,1,2,0:2:0:0:
438,275,40729,5,2,3:2:0:0:
438,239,40845,1,10,0:2:0:0:
407,257,40962,1,2,0:2:0:0:
304,265,41078,6,0,L|313:371,1,89.9999976158143,2|2,3:2|0:2,0:0:0:0:
191,252,41310,6,0,L|200:358,2,89.9999976158143,0|0|2,0:2|0:0|3:2,0:0:0:0:
78,239,41659,1,0,0:0:0:0:
78,239,41775,2,0,L|87:345,1,89.9999976158143,8|0,0:2|0:0,0:0:0:0:
83,21,42008,5,2,0:2:0:0:
83,21,42124,1,2,0:2:0:0:
83,21,42240,2,0,L|89:116,1,89.9999976158143,2|2,3:2|3:2,0:0:0:0:
206,259,42473,1,0,0:2:0:0:
218,238,42589,2,0,L|212:143,2,89.9999976158143,2|10|2,3:2|0:2|0:2,0:0:0:0:
207,43,42938,6,0,L|315:38,1,89.9999976158143,2|2,3:2|0:2,0:0:0:0:
502,30,43171,6,0,L|394:35,1,89.9999976158143,2|2,0:2|3:2,0:0:0:0:
355,103,43403,1,2,0:2:0:0:
303,316,43636,5,8,0:2:0:0:
341,269,43752,1,0,0:0:0:0:
395,244,43868,1,2,0:2:0:0:
453,240,43984,1,0,0:0:0:0:
324,351,44101,6,0,P|235:272|110:283,2,179.999995231629,6|2|10,3:2|0:2|0:2,0:0:0:0:
67,364,44800,6,0,B|60:287|60:287|89:252|89:252|79:149|79:149|62:138|62:138|49:18|49:18,2,359.999990463257,2|0|2,3:2|0:0|0:2,0:0:0:0:
151,152,45960,6,0,P|171:114|224:90,1,89.9999976158143,0|0,0:0|0:0,0:0:0:0:
329,66,46194,5,2,0:0:0:0:
415,134,46427,1,10,0:2:0:0:
422,43,46659,5,2,3:2:0:0:
336,111,46892,1,2,0:2:0:0:
307,55,47124,5,2,3:2:0:0:
431,154,47357,1,10,0:2:0:0:
442,21,47589,5,2,0:2:0:0:
318,120,47822,6,0,L|336:308,1,179.999995231629,0|0,3:2|0:2,0:0:0:0:
297,365,48171,1,0,0:0:0:0:
374,365,48287,5,8,0:2:0:0:
201,343,48520,1,8,0:2:0:0:
141,341,48636,1,8,0:2:0:0:
81,340,48752,1,8,0:2:0:0:
21,339,48868,1,8,0:2:0:0:
27,253,48985,5,2,0:1:0:0:
114,235,49101,5,0,3:1:0:0:
20,132,49217,6,0,L|32:22,1,89.9999976158143,0|0,3:2|0:2,0:0:0:0:
112,102,49450,5,4,3:2:0:0:
211,57,49915,6,0,L|306:51,2,89.9999976158143,0|0|8,3:2|0:0|0:2,0:0:0:0:
354,107,50380,5,0,0:0:0:0:
160,29,50613,1,0,3:2:0:0:
158,107,50845,5,8,0:2:0:0:
352,29,51078,2,0,L|342:168,1,107.999993843079,10|2,0:2|0:1,0:0:0:0:
475,135,51543,6,0,P|424:213|429:324,2,179.999995231629,6|0|8,3:2|0:2|0:2,0:0:0:0:
311,305,52473,5,2,0:2:0:0:
337,329,52589,1,2,0:2:0:0:
303,340,52706,1,2,3:2:0:0:
315,321,52822,1,2,0:2:0:0:
206,280,52938,5,10,0:2:0:0:
210,324,53054,1,2,0:2:0:0:
215,369,53170,1,2,0:2:0:0:
210,324,53287,1,2,0:2:0:0:
96,266,53403,5,2,3:2:0:0:
77,353,53520,1,2,0:2:0:0:
106,269,53636,5,2,0:2:0:0:
65,348,53753,1,0,3:2:0:0:
115,275,53868,5,10,0:2:0:0:
37,126,54333,6,0,P|54:63|96:27,2,107.999993843079,0|0|10,0:2|0:0|3:2,0:0:0:0:
121,105,54682,1,8,0:2:0:0:
121,105,54799,2,0,L|356:97,1,215.999987686158,10|10,0:2|0:2,0:0:0:0:
303,313,55264,6,0,L|457:308,1,135.000001573563,2|0,3:2|0:0,0:0:0:0:
435,239,55496,2,0,L|440:393,1,135.000001573563,2|0,3:2|0:0,0:0:0:0:
337,134,55729,6,0,L|491:129,1,135.000001573563,2|0,3:2|0:0,0:0:0:0:
431,99,55961,2,0,L|436:253,1,135.000001573563,2|0,3:2|0:0,0:0:0:0:
337,134,56194,2,0,L|332:0,1,135.000001573563,2|0,3:2|0:0,0:0:0:0:
495,16,56427,6,0,L|497:75,4,33.7500003933907,2|0|0|0|0,3:2|0:0|0:0|0:0|0:0,0:0:0:0:
496,49,56659,6,0,L|287:57,1,135.000001573563,2|0,3:2|0:0,0:0:0:0:
134,106,56892,6,2,B|152:86|140:60|115:50|96:68|96:68|79:85|89:112|116:123|134:106|134:106|152:86|140:60|115:50|96:68|96:68|79:85|89:112|116:123|134:106|134:106|152:86|140:60|115:50|96:68|96:68|79:85|89:112|116:123|134:106|134:106|152:86|140:60|115:50|96:68|96:68|79:85|89:112|116:123|134:106|134:106|152:86|140:60|115:50|96:68|96:68|79:85|89:112|116:123|134:106|134:106|117:120|137:101,1,764.999994325638,14|0,0:2|3:2,0:0:0:0:
15,95,57589,5,8,0:2:0:0:
211,71,57706,1,0,3:2:0:0:
65,326,58054,6,0,B|114:299|114:299|149:324|149:324|245:319|245:319|265:307|265:307|327:303|327:303|377:325|377:325|470:312,1,405.000004720688,2|0,0:2|0:0,0:0:0:0:
446,315,58520,6,0,B|397:342|397:342|362:317|362:317|266:322|266:322|246:334|246:334|183:337|183:337|134:316|134:316|41:329,1,405.000004720688,2|0,0:2|0:0,0:0:0:0:
475,100,58985,6,0,L|486:278,1,134.999996423721,6|2,3:2|3:2,0:0:0:0:
399,338,59450,6,0,B|380:361|380:361|374:264|374:264|383:226|383:226|382:208|382:208|366:170|366:170|361:101|361:101|371:133|371:133|403:146,1,359.999990463257,10|0,0:2|0:0,0:0:0:0:
307,30,59799,5,2,0:2:0:0:
307,30,59915,2,0,L|488:22,1,135.000001573563,2|0,0:2|0:2,0:0:0:0:
197,66,60147,2,0,L|16:74,2,135.000001573563,2|2|8,3:2|0:2|0:2,0:0:0:0:
131,149,60496,6,0,L|142:320,1,161.999990764618,2|0,0:2|0:2,0:0:0:0:
31,359,60845,6,0,L|178:352,1,134.999996423721,2|2,3:2|3:2,0:0:0:0:
475,239,61310,6,0,B|500:264|500:264|435:268|435:268|426:276|426:276|339:282|339:282|331:301|331:301|188:311,1,359.999990463257,10|0,0:2|0:0,0:0:0:0:
56,258,61659,5,2,0:2:0:0:
56,258,61775,2,0,L|45:103,2,135.000001573563,2|2|2,0:2|0:2|3:2,0:0:0:0:
151,9,62124,2,0,L|162:164,1,135.000001573563,2|8,0:2|0:2,0:0:0:0:
312,105,62357,6,0,L|477:97,1,161.999990764618,2|0,0:2|0:0,0:0:0:0:
332,368,62706,5,2,3:2:0:0:
320,329,62822,1,2,0:2:0:0:
328,290,62938,1,2,0:2:0:0:
354,260,63054,1,2,3:2:0:0:
392,246,63171,6,0,B|193:263|193:263|192:247|192:247|72:258,1,323.999981529237,10|2,0:2|3:2,0:0:0:0:
9,377,63520,5,2,0:2:0:0:
9,377,63636,2,0,P|78:379|136:339,1,135.000001573563,2|0,0:2|0:0,0:0:0:0:
42,138,63868,2,0,P|47:216|83:256,1,135.000001573563,2|0,3:2|0:0,0:0:0:0:
342,130,64101,6,0,P|279:43|92:68,1,305.999997730255,10|0,0:2|0:0,0:0:0:0:
196,283,64566,6,0,P|258:245|336:250,2,135.000001573563,2|0|2,3:2|0:2|0:2,0:0:0:0:
464,340,64915,5,0,3:2:0:0:
464,340,65031,2,0,P|439:271|382:227,1,135.000001573563,10|0,0:2|0:2,0:0:0:0:
387,135,65264,2,0,L|396:282,1,135.000001573563,2|0,3:2|0:2,0:0:0:0:
484,134,65496,5,2,0:2:0:0:
471,69,65612,1,2,0:2:0:0:
419,27,65728,1,2,0:2:0:0:
353,27,65844,1,2,0:2:0:0:
303,70,65961,6,0,B|283:90|283:90|173:83,1,135.000001573563,10|0,0:2|0:0,0:0:0:0:
14,155,66194,2,0,P|35:92|116:86,1,135.000001573563,2|0,0:2|0:0,0:0:0:0:
176,83,66427,6,0,B|185:192|185:192|175:217|175:217|191:241|191:241|203:363,2,270.000003147125,6|0|10,3:2|0:0|0:2,0:0:0:0:
315,287,67124,1,2,3:2:0:0:
315,287,67357,6,0,B|325:183|325:183|341:159|341:159|331:134|331:134|341:24,2,270.000003147125,2|0|10,0:2|3:2|0:2,0:0:0:0:
30,328,68054,1,0,0:0:0:0:
30,328,68287,6,0,B|-5:316|-5:316|150:288|150:288|176:324|176:324|220:313,2,270.000003147125,2|0|8,3:2|0:2|0:2,0:0:0:0:
339,352,68985,1,2,3:2:0:0:
339,352,69217,6,0,B|305:288|305:288|460:260|460:260|441:318,1,270.000003147125,0|2,0:2|3:2,0:0:0:0:
194,58,69682,6,0,B|160:122|160:122|315:150|315:150|296:92,1,270.000003147125,10|0,0:2|0:0,0:0:0:0:
479,34,70147,6,0,L|347:46,1,89.9999976158143,2|0,3:2|0:2,0:0:0:0:
302,112,70380,2,0,L|170:124,1,89.9999976158143,2|0,3:2|0:2,0:0:0:0:
479,34,70613,6,0,L|342:45,1,107.999993843079,10|0,3:2|0:2,0:0:0:0:
302,112,70846,2,0,L|162:124,1,107.999993843079,2|0,3:2|0:2,0:0:0:0:
479,34,71078,6,0,L|340:45,1,125.999992816925,2|8,3:2|0:2,0:0:0:0:
302,112,71311,2,0,L|156:126,1,125.999992816925,2|0,3:2|0:2,0:0:0:0:
479,34,71543,6,0,L|331:46,1,143.999996185303,10|0,3:2|0:2,0:0:0:0:
302,112,71776,2,0,L|150:127,1,143.999996185303,6|0,3:2|0:0,0:0:0:0:
483,113,72007,6,0,B|407:122|407:122|391:131|391:131|165:155|165:155|159:120|159:120|148:45,1,431.999988555908,2|0,0:2|0:0,0:0:0:0:
4,287,72475,6,0,P|122:265|140:285,1,135.000001573563,0|0,0:0|0:0,0:0:0:0:
111,248,72706,2,0,P|45:246|0:294,1,135.000001573563,2|8,0:2|0:2,0:0:0:0:
458,240,72938,6,0,P|389:140|361:141,1,135.000001573563,0|8,3:2|0:2,0:0:0:0:
410,135,73171,2,0,P|457:179|455:244,1,135.000001573563,8|8,0:2|0:2,0:0:0:0:
217,361,73403,6,0,P|294:269|286:243,1,135.000001573563,8|8,3:2|0:2,0:0:0:0:
303,287,73636,2,0,P|271:344|207:359,1,135.000001573563,8|8,0:2|0:2,0:0:0:0:
179,38,73868,6,0,B|176:84|176:84|214:70|214:70|179:39,1,134.999996423721,6|2,3:2|3:2,0:0:0:0:
106,124,74333,6,0,B|70:143|70:143|107:124|107:124|294:114|294:114|320:84|320:84|343:113|343:113|312:116,1,359.999990463257,10|2,0:2|3:2,0:0:0:0:
468,96,74682,1,0,0:2:0:0:
468,96,74799,2,0,B|456:91|456:91|475:108|475:108|485:12,1,135.000001573563,2|2,0:2|0:2,0:0:0:0:
424,233,75031,6,0,B|436:228|436:228|417:245|417:245|407:149,2,135.000001573563,2|0|10,3:2|0:2|0:2,0:0:0:0:
464,334,75380,6,0,B|465:334|465:334|500:343|500:343|500:328|500:328|329:356,1,161.999990764618,2|2,0:2|0:2,0:0:0:0:
51,361,75729,6,0,B|44:343|44:343|51:361|51:361|172:331,1,134.999996423721,2|0,3:2|3:2,0:0:0:0:
73,94,76194,6,0,B|107:75|107:75|40:45|40:45|85:265|85:265|121:236,1,359.999990463257,10|2,0:2|3:2,0:0:0:0:
196,103,76543,5,2,0:2:0:0:
196,103,76659,2,0,B|201:131|201:131|190:77|190:77|210:-4,1,135.000001573563,2|0,0:2|0:2,0:0:0:0:
416,45,76892,2,0,B|367:33|367:33|313:44|313:44|341:39,2,135.000001573563,2|2|10,3:2|0:2|0:2,0:0:0:0:
384,149,77240,6,0,B|378:134|378:134|384:151|384:151|396:311,1,161.999990764618,0|2,0:0|0:2,0:0:0:0:
141,346,77589,6,0,B|248:333|248:333|307:346|307:346|434:332,2,270.000003147125,2|2|8,3:2|0:2|0:2,0:0:0:0:
51,303,78287,1,2,3:2:0:0:
51,303,78520,6,0,B|25:141|25:141|139:122,2,270.000003147125,2|2|8,0:0|3:2|0:2,0:0:0:0:
339,42,79217,5,2,0:2:0:0:
339,42,79450,2,0,L|348:162,1,107.999993843079,2|0,3:2|0:2,0:0:0:0:
441,140,79682,2,0,L|450:260,1,107.999993843079,2|0,0:2|3:2,0:0:0:0:
345,255,79915,6,0,L|354:375,1,107.999993843079,10|0,0:2|0:0,0:0:0:0:
505,356,80147,2,0,L|413:366,2,71.9999958953859,2|0|0,3:2|0:0|0:0,0:0:0:0:
214,250,80380,6,0,B|-7:269|-7:269|4:400,1,323.999981529237,2|0,3:2|0:2,0:0:0:0:
75,81,80845,6,0,B|100:333|100:333|179:325,1,323.999981529237,10|0,0:2|0:2,0:0:0:0:
416,37,81310,6,0,B|164:62|164:62|172:141,1,323.999981529237,6|0,3:2|0:0,0:0:0:0:
494,368,81775,5,8,3:2:0:0:
471,344,81891,1,0,0:0:0:0:
443,328,82007,1,0,3:2:0:0:
412,321,82123,1,0,0:0:0:0:
320,360,82240,5,8,3:2:0:0:
318,290,82357,1,0,0:0:0:0:
368,241,82472,1,8,3:2:0:0:
438,247,82589,1,0,0:0:0:0:
486,140,82705,5,8,3:2:0:0:
488,70,82861,5,8,0:2:0:0:
438,21,83016,5,8,0:2:0:0:
368,27,83171,5,12,3:2:0:0:
410,106,85031,5,6,3:2:0:0:
