osu file format v14

[General]
AudioFilename: audio.mp3
AudioLeadIn: 0
PreviewTime: 56027
Countdown: 0
SampleSet: Soft
StackLeniency: 0.2
Mode: 0
LetterboxInBreaks: 0
WidescreenStoryboard: 1

[Editor]
Bookmarks: 38120,84631
DistanceSpacing: 1.1
BeatDivisor: 4
GridSize: 16
TimelineZoom: 3.299999

[Metadata]
Title:Kawaki o Ameku (TV Size)
TitleUnicode:カワキヲアメク (TV Size)
Artist:Minami
ArtistUnicode:美波
Creator:Arkisol
Version:Insane
Source:ドメスティックな彼女
Tags:anime japanese
BeatmapID:1992217
BeatmapSetID:950296

[Difficulty]
HPDrainRate:5
CircleSize:3.6
OverallDifficulty:8
ApproachRate:9
SliderMultiplier:2.2
SliderTickRate:1

[Events]
//Background and Video events
0,0,"bgg.jpg",0,0
//Break Periods
//Storyboard Layer 0 (Background)
//Storyboard Layer 1 (Fail)
//Storyboard Layer 2 (Pass)
//Storyboard Layer 3 (Foreground)
//Storyboard Sound Samples

[TimingPoints]
603,437.956204379562,4,2,2,30,1,0
2354,-166.666666666667,4,2,2,30,0,0
3254,437.956204379562,4,2,2,30,1,0
3691,-166.666666666667,4,2,2,30,0,0
4107,444.444444444444,4,2,2,30,1,0
4107,-142.857142857143,4,2,2,30,0,0
5106,-166.666666666667,4,2,2,30,0,0
5879,437.956204379562,4,2,2,30,1,0
5879,-166.666666666667,4,2,2,30,0,0
7624,444.444444444444,4,2,2,30,1,0
7624,-133.333333333333,4,2,2,30,0,0
9388,446.096654275093,4,2,2,30,1,0
9413,446.096654275093,4,2,2,30,1,0
9413,-166.666666666667,4,2,2,30,0,0
10305,444.444444444444,4,2,2,10,1,0
11177,461.361014994233,4,2,2,30,1,0
11177,-133.333333333333,4,2,2,30,0,0
12321,465.116279069767,4,2,1,30,1,0
13934,465.116279069767,4,2,1,20,1,0
15329,-125,4,2,1,10,0,0
15794,-125,4,2,0,35,0,0
16143,-111.111111111111,4,2,0,35,0,0
19515,-111.111111111111,4,2,0,45,0,0
21375,-111.111111111111,4,2,0,35,0,0
22306,-249.999999999999,4,2,0,35,0,0
22771,-249.999999999999,4,2,1,10,0,0
23236,-100,4,2,1,35,0,0
38120,-83.3333333333333,4,2,1,35,0,0
39980,-71.4285714285714,4,2,1,35,0,0
40794,-76.9230769230769,4,2,1,35,0,0
47189,-83.3333333333333,4,2,1,35,0,0
59515,-166.666666666667,4,2,1,35,0,0
60445,-66.6666666666667,4,2,1,35,0,0
67654,-62.5,4,2,1,35,0,0
68352,-66.6666666666667,4,2,1,35,0,0
71608,-100,4,2,1,35,0,0
71840,-83.3333333333333,4,2,1,35,0,0
72073,-71.4285714285714,4,2,1,35,0,0
72306,-62.5,4,2,1,35,0,0
72538,-55.5555555555556,4,2,1,35,0,0
75213,-55.5555555555556,4,2,1,35,0,1
84631,-200,4,2,1,35,0,0
86492,-71.4285714285714,4,2,0,35,0,0

[Colours]
Combo1 : 255,192,0
Combo2 : 128,128,192
Combo3 : 255,128,255
Combo4 : 255,255,128

[HitObjects]
83,148,2354,6,0,B|146:125|147:169|221:147,1,131.99999597168,2|0,0:0|0:0,0:0:0:0:
269,75,3254,1,2,0:0:0:0:
269,75,3691,2,0,P|306:120|304:165,1,98.9999969787599
291,180,4107,2,0,P|347:136|431:165,1,153.999995300293,2|0,0:0|0:0,0:0:0:0:
369,220,4995,1,2,0:0:0:0:
369,220,5106,1,2,0:0:0:0:
390,355,5440,1,0,0:0:0:0:
438,171,5879,6,0,B|457:102|399:103|426:35,1,131.99999597168,2|0,0:0|0:0,0:0:0:0:
212,149,6754,1,2,0:0:0:0:
212,149,7192,2,0,P|156:148|116:115,1,98.9999969787599,0|0,0:0|0:0,0:0:0:0:
123,92,7624,6,0,B|121:155|121:155|111:190|111:190|122:262,1,165.000006294251,2|0,0:0|0:0,0:0:0:0:
209,301,8512,2,0,P|187:271|129:258,1,82.5000031471254,0|0,0:0|0:0,0:0:0:0:
211,331,8957,2,0,P|247:326|288:283,1,82.5000031471254,0|0,0:0|0:0,0:0:0:0:
332,201,9413,6,0,P|387:177|453:210,1,131.99999597168,2|0,0:0|0:0,0:0:0:0:
390,264,10305,1,2,0:0:0:0:
384,93,11177,2,0,L|380:4,1,82.5000031471254,0|0,0:0|0:0,0:0:0:0:
384,93,11638,1,0,0:0:0:0:
256,192,12321,12,4,15329,0:0:0:0:
234,215,15794,5,6,0:0:0:0:
234,215,15910,1,2,0:0:0:0:
220,125,16143,1,2,0:0:0:0:
155,268,16375,1,2,0:0:0:0:
112,160,16608,2,0,L|87:104,1,49.4999984893799,2|0,0:0|0:0,0:0:0:0:
234,215,16840,2,0,L|259:271,1,49.4999984893799,2|0,0:0|0:0,0:0:0:0:
223,345,17073,1,2,0:0:0:0:
223,345,17189,2,0,P|252:314|248:247,1,98.9999969787599,2|0,0:0|0:0,0:0:0:0:
38,352,17654,5,6,0:0:0:0:
38,352,17771,1,2,0:0:0:0:
4,252,18003,1,2,0:0:0:0:
132,345,18236,1,2,0:0:0:0:
50,142,18468,2,0,L|71:188,1,49.4999984893799,2|0,0:0|0:0,0:0:0:0:
150,64,18701,2,0,L|101:60,1,49.4999984893799,2|0,0:0|0:0,0:0:0:0:
182,169,18933,1,2,0:0:0:0:
182,169,19050,2,0,B|210:192|210:192|286:208,1,98.9999969787599,2|0,0:0|0:0,0:0:0:0:
486,196,19515,5,6,0:0:0:0:
486,196,19631,1,2,0:0:0:0:
407,130,19864,1,2,0:0:0:0:
455,275,20096,1,2,0:0:0:0:
495,99,20329,2,0,L|507:40,1,49.4999984893799,2|0,0:0|0:0,0:0:0:0:
378,217,20561,2,0,L|366:276,1,49.4999984893799,2|0,0:0|0:0,0:0:0:0:
394,372,20794,1,2,0:0:0:0:
394,372,20910,2,0,L|293:342,1,98.9999969787599,2|0,0:0|0:0,0:0:0:0:
66,280,21375,5,2,0:0:0:0:
66,280,21608,1,2,0:0:0:0:
258,192,21957,1,2,0:0:0:0:
97,79,22306,1,2,0:0:0:0:
161,232,22654,1,0,0:0:0:0:
161,232,22771,1,4,0:0:0:0:
223,43,23236,6,0,P|226:108|318:147,2,165,2|2|2,0:0|0:0|0:0,0:0:0:0:
302,77,24399,1,0,0:0:0:0:
302,77,24515,1,0,0:0:0:0:
302,77,24631,1,2,3:0:0:0:
418,164,24864,1,0,0:0:0:0:
431,172,24980,1,2,3:0:0:0:
443,179,25096,6,0,B|470:199|470:199|488:283,1,110,2|0,0:0|0:0,0:0:0:0:
495,302,25445,2,0,P|456:295|393:335,1,110,2|0,0:0|0:0,0:0:0:0:
383,350,25794,2,0,P|338:380|285:376,1,110,2|0,0:0|0:0,0:0:0:0:
316,303,26259,1,0,0:0:0:0:
316,303,26375,1,0,0:0:0:0:
316,303,26492,1,2,3:0:0:0:
161,243,26724,1,0,0:0:0:0:
149,236,26840,1,2,3:0:0:0:
132,228,26957,6,0,P|87:188|119:91,2,165,2|2|2,0:0|0:0|0:0,0:0:0:0:
164,155,27887,1,0,0:0:0:0:
8,173,28120,1,0,0:0:0:0:
9,191,28236,1,0,0:0:0:0:
11,213,28352,1,2,3:0:0:0:
13,232,28468,1,0,0:0:0:0:
13,249,28585,1,0,0:0:0:0:
15,267,28701,1,2,3:0:0:0:
17,292,28817,6,0,B|32:323|32:323|78:334|78:334|101:361,1,110,2|0,0:0|0:0,0:0:0:0:
113,384,29166,2,0,P|131:338|196:306,1,110,2|0,0:0|0:0,0:0:0:0:
211,303,29515,2,0,P|257:274|274:221,1,110,2|0,0:0|0:0,0:0:0:0:
179,214,29980,1,2,0:0:0:0:
352,353,30213,1,8,0:0:0:0:
232,138,30678,6,0,P|310:133|362:199,2,165,2|2|2,0:0|0:0|0:0,0:0:0:0:
273,223,31840,1,0,0:0:0:0:
287,252,31956,1,0,0:0:0:0:
301,282,32072,1,2,3:0:0:0:
325,316,32188,1,0,0:0:0:0:
357,313,32304,1,0,0:0:0:0:
387,300,32420,1,2,3:0:0:0:
411,277,32538,6,0,B|439:242|439:242|442:220|442:220|479:174,1,110,2|0,0:0|0:0,0:0:0:0:
489,162,32887,2,0,P|459:123|380:122,1,110,2|0,0:0|0:0,0:0:0:0:
369,118,33236,2,0,P|315:110|281:69,1,110,2|0,0:0|0:0,0:0:0:0:
182,9,33701,1,0,0:0:0:0:
145,0,33817,1,0,0:0:0:0:
107,0,33933,1,2,3:0:0:0:
73,14,34049,1,0,0:0:0:0:
43,33,34166,1,0,0:0:0:0:
18,64,34282,1,2,3:0:0:0:
5,99,34399,6,0,P|40:131|152:96,2,165,2|2|2,0:0|0:0|0:0,0:0:0:0:
145,106,35561,5,0,0:0:0:0:
154,142,35677,1,0,0:0:0:0:
179,172,35793,1,2,3:0:0:0:
214,187,35909,1,0,0:0:0:0:
252,186,36026,1,0,0:0:0:0:
286,173,36143,1,2,3:0:0:0:
310,144,36259,6,0,B|331:117|331:117|416:92,1,110,2|0,0:0|0:0,0:0:0:0:
441,86,36608,2,0,P|465:123|440:198,1,110,2|0,0:0|0:0,0:0:0:0:
438,212,36957,2,0,P|424:263|449:310,1,110,2|0,0:0|0:0,0:0:0:0:
286,173,37422,1,2,0:0:0:0:
252,186,37538,1,0,0:0:0:0:
214,187,37654,5,8,0:0:0:0:
168,163,37770,1,8,0:0:0:0:
119,182,37887,1,8,0:0:0:0:
105,234,38002,1,8,0:0:0:0:
138,275,38120,6,0,P|167:317|67:337,1,197.99999395752,2|0,0:0|0:0,0:0:0:0:
59,326,38585,2,0,P|88:375|162:342,1,131.99999597168,8|2,0:0|0:0,0:0:0:0:
234,214,39050,1,0,0:0:0:0:
325,335,39282,1,2,0:0:0:0:
325,335,39399,1,0,0:0:0:0:
325,335,39515,2,0,B|363:359|363:359|466:331,1,131.99999597168,8|0,0:0|0:0,0:0:0:0:
442,143,39980,6,0,P|391:178|381:279,1,153.999995300293,2|0,0:0|0:0,0:0:0:0:
476,237,40329,1,2,0:0:0:0:
450,226,40445,2,0,L|312:150,1,153.999995300293,8|2,0:0|0:0,0:0:0:0:
217,83,40794,2,0,L|359:49,1,142.99999345398,0|0,0:0|0:0,0:0:0:0:
481,17,41143,1,2,0:0:0:0:
315,151,41375,1,8,0:0:0:0:
217,83,41608,5,0,0:0:0:0:
188,91,41724,1,0,0:0:0:0:
156,100,41840,2,0,B|112:113|112:113|27:192,1,142.99999345398,2|0,0:0|0:0,0:0:0:0:
82,262,42189,1,2,0:0:0:0:
100,241,42306,2,0,L|155:179,1,71.4999967269899,8|0,0:0|0:0,0:0:0:0:
215,255,42538,1,2,0:0:0:0:
238,281,42654,1,0,0:0:0:0:
34,329,42887,1,0,0:0:0:0:
65,345,43003,1,2,0:0:0:0:
98,345,43120,1,0,0:0:0:0:
127,338,43236,6,0,B|170:326|204:348|190:357|227:370|287:355,1,142.99999345398,8|0,0:0|0:0,0:0:0:0:
334,328,43585,1,0,0:0:0:0:
348,313,43701,2,0,P|395:296|475:350,1,142.99999345398,2|0,0:0|0:0,0:0:0:0:
470,340,44050,1,2,0:0:0:0:
470,340,44166,1,8,0:0:0:0:
435,202,44399,1,2,0:0:0:0:
398,384,44631,1,0,0:0:0:0:
398,384,44747,1,0,0:0:0:0:
398,384,44864,1,2,0:0:0:0:
271,243,45096,6,0,B|239:209|239:209|144:166,1,142.99999345398,8|0,0:0|0:0,0:0:0:0:
181,97,45445,5,0,0:0:0:0:
202,105,45561,2,0,B|289:144|289:144|321:178,1,142.99999345398,2|0,0:0|0:0,0:0:0:0:
322,179,45910,1,2,0:0:0:0:
322,179,46027,1,8,0:0:0:0:
370,314,46259,2,0,P|423:286|440:182,1,142.99999345398,2|0,0:0|0:0,0:0:0:0:
356,0,46724,2,0,P|353:59|435:126,1,142.99999345398,2|8,0:0|0:0,0:0:0:0:
470,16,47189,6,0,P|451:86|391:121,1,131.99999597168,0|2,0:0|0:0,0:0:0:0:
151,75,47654,1,0,0:0:0:0:
151,75,47771,1,2,0:0:0:0:
151,75,47887,2,0,P|186:55|233:62,1,65.9999979858399,8|0,0:0|0:0,0:0:0:0:
251,174,48120,2,0,P|217:155|200:104,1,65.9999979858399
280,96,48352,5,0,0:0:0:0:
131,255,48585,1,2,0:0:0:0:
82,112,48817,1,8,0:0:0:0:
82,112,48933,1,0,0:0:0:0:
82,112,49050,1,0,0:0:0:0:
70,304,49282,6,0,P|115:335|197:293,1,131.99999597168,2|0,0:0|0:0,0:0:0:0:
241,254,49631,1,2,0:0:0:0:
251,242,49747,2,0,P|292:222|333:235,1,65.9999979858399,8|0,0:0|0:0,0:0:0:0:
371,332,49980,1,8,0:0:0:0:
366,363,50096,1,8,0:0:0:0:
341,384,50212,1,8,0:0:0:0:
309,383,50328,1,2,0:0:0:0:
286,360,50445,1,2,0:0:0:0:
285,328,50561,1,2,0:0:0:0:
305,303,50678,6,0,P|348:303|388:239,1,98.9999969787599,2|0,0:0|0:0,0:0:0:0:
391,220,50910,2,0,P|379:294|332:314,1,131.99999597168,2|0,0:0|0:0,0:0:0:0:
344,141,51375,1,2,0:0:0:0:
467,78,51608,2,0,B|491:71|501:59|501:59|474:29|407:50,1,131.99999597168,8|0,0:0|0:0,0:0:0:0:
252,109,52073,2,0,B|190:124|190:124|118:104,1,131.99999597168,2|8,0:0|0:0,0:0:0:0:
258,25,52538,1,8,0:0:0:0:
292,33,52654,1,0,0:0:0:0:
320,61,52771,1,2,0:0:0:0:
186,211,53003,6,0,B|129:222|129:222|111:217|111:217|41:237,1,131.99999597168,2|0,0:0|0:0,0:0:0:0:
4,303,53352,1,2,0:0:0:0:
22,325,53468,2,0,P|75:336|141:283,1,131.99999597168,8|0,0:0|0:0,0:0:0:0:
219,348,53933,1,0,0:0:0:0:
262,351,54050,1,0,0:0:0:0:
298,336,54166,1,2,0:0:0:0:
320,304,54282,1,0,0:0:0:0:
330,268,54399,6,0,B|316:238|316:238|351:137,1,131.99999597168,8|0,0:0|0:0,0:0:0:0:
404,112,54747,1,0,0:0:0:0:
404,112,54864,2,0,P|366:140|331:144,1,65.9999979858399,2|0,0:0|0:0,0:0:0:0:
252,124,55096,2,0,P|220:134|196:155,1,65.9999979858399,0|2,0:0|0:0,0:0:0:0:
169,244,55329,1,8,0:0:0:0:
79,117,55561,1,0,0:0:0:0:
252,124,55794,1,0,0:0:0:0:
23,24,56027,1,2,0:0:0:0:
23,24,56143,1,2,0:0:0:0:
23,24,56259,1,8,0:0:0:0:
23,24,56375,1,8,0:0:0:0:
23,24,56492,1,2,0:0:0:0:
246,46,56724,5,2,0:0:0:0:
250,342,56957,1,2,0:0:0:0:
330,200,57189,1,8,0:0:0:0:
90,171,57422,5,2,0:0:0:0:
413,340,57655,1,8,0:0:0:0:
346,215,57887,1,2,0:0:0:0:
346,215,57965,1,2,0:0:0:0:
346,215,58042,1,2,0:0:0:0:
346,215,58120,1,2,0:0:0:0:
83,263,58352,6,0,B|59:263|33:288|33:288|69:206|121:286|154:225,1,197.99999395752,2|0,0:0|0:0,0:0:0:0:
164,218,58817,1,2,0:0:0:0:
168,196,58933,1,2,0:0:0:0:
161,172,59050,1,8,0:0:0:0:
125,130,59166,1,2,0:0:0:0:
123,75,59282,1,2,0:0:0:0:
155,30,59398,1,2,0:0:0:0:
209,16,59515,6,0,P|160:31|76:5,1,131.99999597168,2|2,3:0|3:0,0:0:0:0:
92,18,60213,5,2,3:0:0:0:
92,18,60329,1,2,3:0:0:0:
92,18,60445,2,0,P|49:59|41:162,1,165.000006294251,2|0,0:0|0:0,0:0:0:0:
135,230,60794,1,2,0:0:0:0:
137,203,60910,2,0,B|122:160|137:119|137:119|93:115|44:69,1,165.000006294251,8|2,0:0|0:0,0:0:0:0:
207,159,61259,5,0,0:0:0:0:
220,174,61375,2,0,B|292:229|304:161|385:198,1,165.000006294251,0|2,0:0|0:0,0:0:0:0:
338,264,61724,1,0,0:0:0:0:
338,264,61840,2,0,P|356:215|402:180,1,82.5000031471254,8|0,0:0|0:0,0:0:0:0:
462,130,62073,1,2,0:0:0:0:
426,286,62306,6,0,P|389:339|277:323,1,165.000006294251,2|0,0:0|0:0,0:0:0:0:
148,277,62654,1,2,0:0:0:0:
177,290,62771,2,0,B|199:296|226:267|226:267|185:228|116:243,1,165.000006294251,8|2,0:0|0:0,0:0:0:0:
36,290,63120,5,0,0:0:0:0:
4,231,63236,1,2,0:0:0:0:
31,181,63352,1,2,0:0:0:0:
70,156,63468,1,2,0:0:0:0:
95,125,63585,1,0,0:0:0:0:
93,90,63701,2,0,P|72:62|16:50,2,82.5000031471254,8|0|2,0:0|0:0|0:0,0:0:0:0:
167,176,64050,5,0,0:0:0:0:
190,194,64166,2,0,P|242:205|276:185,1,82.5000031471254,2|0,0:0|0:0,0:0:0:0:
311,120,64399,2,0,P|259:109|225:129,1,82.5000031471254,0|2,0:0|0:0,0:0:0:0:
356,197,64631,2,0,P|396:155|348:43,1,165.000006294251,8|2,0:0|0:0,0:0:0:0:
451,14,64980,5,0,0:0:0:0:
465,36,65096,2,0,P|487:92|488:122,1,82.5000031471254,0|0,0:0|0:0,0:0:0:0:
473,189,65329,2,0,P|440:244|406:266,1,82.5000031471254,2|0,0:0|0:0,0:0:0:0:
318,312,65561,2,0,B|274:303|241:327|241:327|245:330|245:330|208:362|147:353,1,165.000006294251,8|0,0:0|0:0,0:0:0:0:
116,255,65910,5,0,0:0:0:0:
149,265,66027,2,0,P|206:249|234:202,1,82.5000031471254,2|0,0:0|0:0,0:0:0:0:
164,99,66259,2,0,P|149:156|176:204,1,82.5000031471254
252,79,66492,6,0,P|266:21|239:-26,1,82.5000031471254,8|0,0:0|0:0,0:0:0:0:
177,115,66724,2,0,P|219:156|274:157,1,82.5000031471254,2|0,0:0|0:0,0:0:0:0:
358,155,66957,1,0,0:0:0:0:
396,145,67073,1,2,0:0:0:0:
431,134,67189,2,0,B|448:130|448:130|377:81,1,82.5000031471254,2|0,0:0|0:0,0:0:0:0:
260,0,67422,1,8,0:0:0:0:
475,20,67654,5,0,0:0:0:0:
475,20,67771,1,2,0:0:0:0:
475,20,67887,2,0,B|489:83|489:83|479:132|479:132|494:200,1,176,2|0,0:0|0:0,0:0:0:0:
428,278,68236,1,2,0:0:0:0:
420,252,68352,2,0,B|404:202|404:202|410:171|410:171|393:87,1,165.000006294251,8|2,0:0|0:0,0:0:0:0:
188,161,68817,2,0,P|242:235|327:236,2,165.000006294251,0|2|8,0:0|0:0|0:0,0:0:0:0:
284,154,69515,5,0,0:0:0:0:
284,154,69631,1,2,0:0:0:0:
284,154,69747,2,0,B|231:229|231:229|126:241,1,165.000006294251,2|0,0:0|0:0,0:0:0:0:
4,258,70096,1,2,0:0:0:0:
39,256,70213,2,0,B|119:274|70:329|185:365,1,165.000006294251,8|2,0:0|0:0,0:0:0:0:
345,337,70678,2,0,P|396:307|416:268,1,82.5000031471254
451,184,70910,2,0,P|451:125|430:83,1,82.5000031471254,2|0,0:0|0:0,0:0:0:0:
321,31,71143,2,0,P|321:92|342:132,1,82.5000031471254,8|0,0:0|0:0,0:0:0:0:
451,184,71375,1,0,0:0:0:0:
246,85,71608,5,2,0:0:0:0:
495,10,71840,1,0,0:0:0:0:
246,85,72073,1,8,0:0:0:0:
325,247,72306,1,0,0:0:0:0:
239,3,72538,5,2,0:0:0:0:
45,160,72771,1,0,0:0:0:0:
168,384,73003,1,8,0:0:0:0:
347,227,73236,5,2,0:0:0:0:
347,227,73352,1,0,0:0:0:0:
347,227,73468,2,0,B|233:243|252:165|124:175,1,197.99999395752,0|2,0:0|0:0,0:0:0:0:
106,259,73817,1,2,0:0:0:0:
160,276,73933,1,8,0:0:0:0:
212,261,74050,1,0,0:0:0:0:
250,224,74166,1,0,0:0:0:0:
260,171,74282,1,2,0:0:0:0:
249,122,74399,6,0,P|244:79|286:19,1,98.9999969787599,2|8,0:0|0:0,0:0:0:0:
424,68,74631,2,0,P|389:93|316:87,1,98.9999969787599,2|8,0:0|0:0,0:0:0:0:
480,0,74864,1,2,0:0:0:0:
512,65,74980,1,8,0:0:0:0:
490,135,75096,1,2,0:0:0:0:
425,183,75213,1,2,0:0:0:0:
397,256,75329,6,0,P|431:317|487:340,1,98.9999969787599,2|0,0:0|0:0,0:0:0:0:
341,190,75561,1,0,0:0:0:0:
341,190,75678,1,2,0:0:0:0:
341,190,75794,2,0,B|271:200|246:235|266:240|232:273|137:266,1,197.99999395752,8|2,0:0|0:0,0:0:0:0:
64,174,76259,1,0,0:0:0:0:
121,158,76375,1,2,0:0:0:0:
172,180,76492,1,2,0:0:0:0:
0,122,76724,1,8,0:0:0:0:
0,95,76840,1,0,0:0:0:0:
0,67,76957,1,0,0:0:0:0:
0,45,77073,1,0,0:0:0:0:
0,18,77189,6,0,B|34:26|75:15|75:15|110:28|110:28|151:13|218:23,1,197.99999395752,2|0,0:0|0:0,0:0:0:0:
247,105,77538,1,2,0:0:0:0:
283,125,77654,2,0,P|345:115|374:84,2,98.9999969787599,8|0|2,0:0|0:0|0:0,0:0:0:0:
295,26,78003,1,0,0:0:0:0:
295,26,78120,1,0,0:0:0:0:
295,26,78236,1,2,0:0:0:0:
295,26,78352,1,2,0:0:0:0:
111,213,78585,1,8,0:0:0:0:
39,159,78817,6,0,P|97:120|202:199,2,197.99999395752,0|2|0,0:0|0:0|0:0,0:0:0:0:
39,159,79399,1,2,0:0:0:0:
39,159,79515,1,8,0:0:0:0:
120,264,79747,1,2,0:0:0:0:
31,55,79980,2,0,B|106:-8|144:65|223:-7,1,197.99999395752,0|2,0:0|0:0,0:0:0:0:
31,55,80445,1,8,0:0:0:0:
226,153,80678,5,0,0:0:0:0:
262,177,80794,1,0,0:0:0:0:
304,180,80910,2,0,P|373:153|350:34,1,197.99999395752,2|0,0:0|0:0,0:0:0:0:
294,93,81259,1,2,0:0:0:0:
294,93,81375,2,0,L|467:154,1,98.9999969787599,8|0,0:0|0:0,0:0:0:0:
512,130,81608,5,2,0:0:0:0:
506,183,81724,1,0,0:0:0:0:
478,223,81840,2,0,B|415:254|415:254|385:301|385:301|271:361,1,197.99999395752,0|2,0:0|0:0,0:0:0:0:
201,334,82306,2,0,B|138:303|138:303|108:256|108:256|-6:196,1,197.99999395752,8|0,0:0|0:0,0:0:0:0:
44,222,82654,1,2,0:0:0:0:
44,222,82771,1,2,0:0:0:0:
208,157,83003,1,0,0:0:0:0:
208,157,83120,1,2,0:0:0:0:
208,157,83236,1,8,0:0:0:0:
179,243,83701,6,2,L|241:264,6,65.9999979858399
149,322,84321,1,2,0:0:0:0:
149,322,84476,1,2,0:0:0:0:
149,322,84631,6,0,P|256:357|362:323,1,220,2|0,0:0|0:0,0:0:0:0:
252,190,86027,1,0,0:0:0:0:
252,190,86492,1,4,0:0:0:0:
