osu file format v14

[General]
AudioFilename: audio.mp3
AudioLeadIn: 0
PreviewTime: 56027
Countdown: 0
SampleSet: Soft
StackLeniency: 0.2
Mode: 0
LetterboxInBreaks: 0
WidescreenStoryboard: 0

[Editor]
Bookmarks: 38120,84631
DistanceSpacing: 1.1
BeatDivisor: 4
GridSize: 16
TimelineZoom: 3.299999

[Metadata]
Title:Kawaki o Ameku (TV Size)
TitleUnicode:カワキヲアメク (TV Size)
Artist:Minami
ArtistUnicode:美波
Creator:Arkisol
Version:Extra
Source:ドメスティックな彼女
Tags:anime japanese
BeatmapID:1984639
BeatmapSetID:950296

[Difficulty]
HPDrainRate:6
CircleSize:3.8
OverallDifficulty:9
ApproachRate:9.5
SliderMultiplier:2.2
SliderTickRate:1

[Events]
//Background and Video events
0,0,"bgg.jpg",0,0
//Break Periods
//Storyboard Layer 0 (Background)
//Storyboard Layer 1 (Fail)
//Storyboard Layer 2 (Pass)
//Storyboard Layer 3 (Foreground)
//Storyboard Layer 4 (Overlay)
//Storyboard Sound Samples

[TimingPoints]
603,437.956204379562,4,2,2,30,1,0
3254,437.956204379562,4,2,2,30,1,0
4107,444.444444444444,4,2,2,30,1,0
5106,-166.666666666667,4,2,2,30,0,0
5879,437.956204379562,4,2,2,30,1,0
7624,444.444444444444,4,2,2,30,1,0
7624,-133.333333333333,4,2,2,30,0,0
9388,446.096654275093,4,2,2,30,1,0
9413,446.096654275093,4,2,2,30,1,0
9413,-166.666666666667,4,2,2,30,0,0
10305,444.444444444444,4,2,2,10,1,0
11177,461.361014994233,4,2,2,30,1,0
11177,-133.333333333333,4,2,2,30,0,0
12321,465.116279069767,4,2,1,30,1,0
13934,465.116279069767,4,2,1,20,1,0
15329,-125,4,2,1,10,0,0
15794,-125,4,2,0,35,0,0
16143,-111.111111111111,4,2,0,35,0,0
19515,-111.111111111111,4,2,0,45,0,0
21375,-111.111111111111,4,2,0,35,0,0
22306,-249.999999999999,4,2,0,35,0,0
22771,-249.999999999999,4,2,1,10,0,0
23236,-100,4,2,1,35,0,0
38120,-83.3333333333333,4,2,1,35,0,0
39980,-71.4285714285714,4,2,1,35,0,0
40794,-76.9230769230769,4,2,1,35,0,0
47189,-83.3333333333333,4,2,1,35,0,0
58352,-58.8235294117647,4,2,1,35,0,0
59515,-166.666666666667,4,2,1,35,0,0
60445,-66.6666666666667,4,2,1,35,0,0
67654,-58.8235294117647,4,2,1,35,0,0
68352,-66.6666666666667,4,2,1,35,0,0
71608,-100,4,2,1,35,0,0
71840,-83.3333333333333,4,2,1,35,0,0
72073,-71.4285714285714,4,2,1,35,0,0
72306,-62.5,4,2,1,35,0,0
72538,-55.5555555555556,4,2,1,35,0,0
75213,-55.5555555555556,4,2,1,35,0,1
84631,-55.5555555555556,4,2,1,35,0,0
86492,-71.4285714285714,4,2,0,35,0,0

[Colours]
Combo1 : 255,173,91
Combo2 : 128,128,255
Combo3 : 255,128,255
Combo4 : 255,255,128

[HitObjects]
202,162,2354,5,2,0:0:0:0:
231,115,2798,1,0,0:0:0:0:
232,250,3254,1,2,0:0:0:0:
232,250,3691,1,0,0:0:0:0:
147,65,4107,5,2,0:0:0:0:
118,112,4551,1,0,0:0:0:0:
306,49,4995,1,2,0:0:0:0:
306,49,5106,2,0,P|340:36|380:41,1,65.9999979858399,2|0,0:0|0:0,0:0:0:0:
436,73,5440,2,0,P|402:107|354:111,1,98.9999969787599,2|0,0:0|0:0,0:0:0:0:
354,111,5879,5,2,0:0:0:0:
325,158,6323,1,0,0:0:0:0:
399,299,6754,1,2,0:0:0:0:
399,299,7198,1,0,0:0:0:0:
237,291,7624,2,0,B|193:323|153:314|160:290|118:286|70:311,1,165.000006294251,2|0,0:0|0:0,0:0:0:0:
237,291,8512,2,0,P|231:242|175:184,1,123.750004720688,2|0,0:0|0:0,0:0:0:0:
155,174,8957,2,0,P|200:193|278:173,1,123.750004720688,2|0,0:0|0:0,0:0:0:0:
299,162,9413,6,0,P|259:191|238:273,1,131.99999597168,2|0,0:0|0:0,0:0:0:0:
219,51,10305,1,2,0:0:0:0:
219,51,11177,2,0,B|254:34|294:53|286:66|327:79|383:51,1,165.000006294251,2|0,0:0|0:0,0:0:0:0:
256,192,12321,12,2,13948,3:0:0:0:
256,192,14399,5,2,3:0:0:0:
256,214,14864,1,2,3:0:0:0:
256,167,15329,2,0,B|251:132|251:132|261:102|261:102|255:67,1,88,4|0,0:0|0:0,0:0:0:0:
255,343,15794,5,6,0:0:0:0:
255,343,15910,1,2,0:0:0:0:
117,248,16143,2,0,L|181:268,1,49.4999984893799,2|0,0:0|0:0,0:0:0:0:
395,248,16375,2,0,L|331:268,1,49.4999984893799,2|0,0:0|0:0,0:0:0:0:
454,185,16608,1,2,0:0:0:0:
489,355,16840,1,2,0:0:0:0:
504,114,17073,1,2,0:0:0:0:
504,114,17189,2,0,B|469:99|469:99|388:103,1,98.9999969787599,2|0,0:0|0:0,0:0:0:0:
123,131,17654,5,6,0:0:0:0:
123,131,17771,1,2,0:0:0:0:
259,24,18003,1,2,0:0:0:0:
293,194,18236,1,2,0:0:0:0:
87,117,18468,2,0,L|57:163,1,49.4999984893799,2|0,0:0|0:0,0:0:0:0:
324,49,18701,2,0,L|294:3,1,49.4999984893799,2|0,0:0|0:0,0:0:0:0:
395,186,18933,1,2,0:0:0:0:
395,186,19050,2,0,B|395:216|395:216|431:148,1,98.9999969787599,2|0,0:0|0:0,0:0:0:0:
254,370,19515,5,6,0:0:0:0:
254,370,19631,1,2,0:0:0:0:
77,312,19864,1,2,0:0:0:0:
338,227,20096,1,2,0:0:0:0:
254,370,20329,2,0,L|236:319,1,49.4999984893799,2|0,0:0|0:0,0:0:0:0:
44,221,20561,2,0,L|62:272,1,49.4999984893799,2|0,0:0|0:0,0:0:0:0:
9,100,20794,1,2,0:0:0:0:
9,100,20910,2,0,B|26:66|26:66|85:37,1,98.9999969787599,2|0,0:0|0:0,0:0:0:0:
257,192,21375,5,6,0:0:0:0:
220,268,21608,1,2,0:0:0:0:
186,343,21957,5,2,0:0:0:0:
285,152,22306,2,0,L|244:131,1,44,2|0,0:0|0:0,0:0:0:0:
211,114,22654,1,2,0:0:0:0:
211,114,22771,1,0,0:0:0:0:
474,38,23236,6,0,P|431:26|403:34,1,55,2|0,0:0|0:0,0:0:0:0:
226,61,23585,2,0,P|198:61|173:50,1,55,2|0,0:0|0:0,0:0:0:0:
332,55,23933,2,0,B|348:89|348:89|343:184,1,110
331,313,24399,1,0,0:0:0:0:
331,313,24515,1,0,0:0:0:0:
331,313,24631,1,2,3:0:0:0:
382,297,24747,1,0,0:0:0:0:
407,347,24864,1,0,0:0:0:0:
370,384,24980,1,2,3:0:0:0:
314,364,25096,6,0,P|289:352|271:331,1,55,2|0,0:0|0:0,0:0:0:0:
135,238,25445,2,0,P|108:243|85:258,1,55,2|0,0:0|0:0,0:0:0:0:
291,191,25794,2,0,B|319:165|319:165|328:85,1,110,2|0,0:0|0:0,0:0:0:0:
327,93,26259,1,0,0:0:0:0:
231,31,26492,1,2,3:0:0:0:
188,35,26608,1,0,0:0:0:0:
139,40,26724,1,0,0:0:0:0:
92,45,26840,1,2,3:0:0:0:
48,54,26957,6,0,P|53:80|68:103,1,55,2|0,0:0|0:0,0:0:0:0:
204,154,27189,1,0,0:0:0:0:
204,154,27306,2,0,P|178:145|150:146,1,55,2|0,0:0|0:0,0:0:0:0:
264,233,27538,1,0,0:0:0:0:
264,233,27654,2,0,P|284:215|296:190,1,55,2|0,0:0|0:0,0:0:0:0:
415,132,28120,5,0,0:0:0:0:
415,132,28236,1,0,0:0:0:0:
415,132,28352,1,2,3:0:0:0:
394,180,28468,1,0,0:0:0:0:
434,211,28585,1,0,0:0:0:0:
472,189,28701,1,2,3:0:0:0:
469,136,28817,6,0,P|464:166|475:195,1,55,2|0,0:0|0:0,0:0:0:0:
506,337,29050,1,0,0:0:0:0:
506,337,29166,2,0,P|511:310|503:283,1,55,2|0,0:0|0:0,0:0:0:0:
396,261,29399,1,0,0:0:0:0:
396,261,29515,2,0,P|370:269|351:289,1,55,2|0,0:0|0:0,0:0:0:0:
272,353,29747,1,0,0:0:0:0:
217,352,29863,1,0,0:0:0:0:
170,326,29979,5,2,0:0:0:0:
321,329,30213,1,2,0:0:0:0:
43,365,30445,1,0,0:0:0:0:
43,365,30678,6,0,P|56:327|52:290,1,55,2|0,0:0|0:0,0:0:0:0:
0,163,30910,1,0,0:0:0:0:
0,163,31027,2,0,P|2:135|13:110,1,55,2|0,0:0|0:0,0:0:0:0:
171,194,31375,2,0,B|210:201|210:201|279:176,1,110,2|0,0:0|0:0,0:0:0:0:
401,126,31840,1,0,0:0:0:0:
401,126,31957,1,0,0:0:0:0:
401,126,32073,1,2,3:0:0:0:
450,130,32189,1,0,0:0:0:0:
478,175,32306,1,0,0:0:0:0:
446,221,32422,1,2,3:0:0:0:
390,216,32538,6,0,P|360:228|332:261,1,55,2|0,0:0|0:0,0:0:0:0:
223,358,32771,1,0,0:0:0:0:
223,358,32887,2,0,P|202:375|176:384,1,55,2|0,0:0|0:0,0:0:0:0:
4,293,33236,2,0,B|39:278|39:278|125:294,1,110,2|0,0:0|0:0,0:0:0:0:
52,196,33701,1,0,0:0:0:0:
52,196,33817,1,0,0:0:0:0:
52,196,33933,1,2,3:0:0:0:
96,172,34050,1,0,0:0:0:0:
137,148,34166,1,0,0:0:0:0:
182,123,34282,1,2,3:0:0:0:
225,98,34399,6,0,P|250:77|255:36,1,55,2|0,0:0|0:0,0:0:0:0:
52,14,34631,1,0,0:0:0:0:
52,14,34747,2,0,P|77:33|119:41,1,55,2|0,0:0|0:0,0:0:0:0:
281,13,35096,2,0,B|318:32|318:32|356:109,1,110,2|0,0:0|0:0,0:0:0:0:
352,210,35561,1,0,0:0:0:0:
353,237,35678,1,0,0:0:0:0:
354,262,35794,1,2,3:0:0:0:
310,318,35910,1,0,0:0:0:0:
238,309,36027,1,0,0:0:0:0:
210,241,36143,1,2,3:0:0:0:
247,175,36259,6,0,P|269:147|276:109,1,55,2|0,0:0|0:0,0:0:0:0:
84,142,36492,1,0,0:0:0:0:
84,142,36608,2,0,P|97:175|126:200,1,55,2|0,0:0|0:0,0:0:0:0:
225,27,36957,2,0,B|180:19|180:19|109:37,1,110,2|0,0:0|0:0,0:0:0:0:
22,241,37422,5,2,0:0:0:0:
79,238,37538,1,0,0:0:0:0:
110,189,37654,1,8,0:0:0:0:
68,272,37771,1,8,0:0:0:0:
128,340,37887,1,8,0:0:0:0:
222,301,38003,1,2,0:0:0:0:
222,209,38120,6,0,P|238:165|318:144,1,131.99999597168,2|0,0:0|0:0,0:0:0:0:
359,244,38468,1,2,0:0:0:0:
359,244,38585,2,0,P|313:230|290:199,1,65.9999979858399,2|0,0:0|0:0,0:0:0:0:
203,97,38817,2,0,B|164:73|164:73|76:71,1,131.99999597168,2|0,0:0|0:0,0:0:0:0:
300,42,39282,5,2,0:0:0:0:
300,42,39399,1,0,0:0:0:0:
300,42,39515,2,0,P|330:33|364:40,1,65.9999979858399,8|0,0:0|0:0,0:0:0:0:
476,34,39747,5,0,0:0:0:0:
476,34,39864,1,0,0:0:0:0:
476,34,39980,2,0,L|437:110,1,76.9999976501466,2|0,0:0|0:0,0:0:0:0:
424,198,40213,2,0,L|459:266,1,76.9999976501466,0|2,0:0|0:0,0:0:0:0:
506,349,40445,2,0,P|453:361|406:339,1,76.9999976501466,8|0,0:0|0:0,0:0:0:0:
335,298,40678,1,2,0:0:0:0:
335,298,40794,6,0,B|297:278|297:278|191:284,1,142.99999345398
127,285,41143,2,0,B|159:292|159:292|203:282,1,71.4999967269899,2|0,0:0|0:0,0:0:0:0:
57,279,41375,2,0,L|22:352,1,71.4999967269899,8|0,0:0|0:0,0:0:0:0:
166,217,41608,2,0,L|201:144,1,71.4999967269899
241,60,41840,6,0,P|276:85|297:137,1,71.4999967269899,2|0,0:0|0:0,0:0:0:0:
294,187,42073,1,0,0:0:0:0:
308,208,42189,1,2,0:0:0:0:
355,283,42306,1,8,0:0:0:0:
370,307,42422,1,0,0:0:0:0:
384,382,42538,5,2,0:0:0:0:
384,382,42654,2,0,P|419:367|439:315,1,71.4999967269899
445,241,42887,2,0,P|464:211|497:198,1,71.4999967269899,0|2,0:0|0:0,0:0:0:0:
384,183,43120,2,0,P|384:142|418:91,1,71.4999967269899,0|8,0:0|0:0,0:0:0:0:
448,9,43468,1,0,0:0:0:0:
377,21,43585,1,0,0:0:0:0:
308,33,43701,6,0,L|224:50,1,71.4999967269899,2|0,0:0|0:0,0:0:0:0:
166,120,43933,2,0,L|82:137,1,71.4999967269899,0|2,0:0|0:0,0:0:0:0:
1,157,44166,1,8,0:0:0:0:
13,182,44282,1,0,0:0:0:0:
115,231,44399,1,2,0:0:0:0:
98,260,44515,1,0,0:0:0:0:
31,348,44631,1,0,0:0:0:0:
73,370,44747,1,0,0:0:0:0:
119,358,44864,2,0,B|153:343|153:343|259:354,1,142.99999345398,2|8,0:0|0:0,0:0:0:0:
425,355,45329,6,0,P|470:345|500:311,1,71.4999967269899
429,277,45561,2,0,P|364:297|346:364,1,142.99999345398,8|0,0:0|0:0,0:0:0:0:
345,330,45910,1,2,0:0:0:0:
345,330,46027,2,0,P|321:288|292:268,1,71.4999967269899,8|0,0:0|0:0,0:0:0:0:
206,233,46259,2,0,P|154:218|106:142,1,142.99999345398,2|0,0:0|0:0,0:0:0:0:
231,103,46724,2,0,P|244:155|202:235,1,142.99999345398,2|8,0:0|0:0,0:0:0:0:
182,35,47189,6,0,P|221:20|271:31,1,65.9999979858399
319,81,47422,2,0,P|354:80|386:68,1,65.9999979858399,2|0,0:0|0:0,0:0:0:0:
480,84,47654,1,0,0:0:0:0:
480,84,47771,1,2,0:0:0:0:
480,84,47887,2,0,P|474:117|457:145,1,65.9999979858399,8|0,0:0|0:0,0:0:0:0:
383,235,48120,5,0,0:0:0:0:
383,235,48236,1,0,0:0:0:0:
383,235,48352,2,0,P|357:213|341:185,1,65.9999979858399
457,296,48585,2,0,P|451:328|434:356,1,65.9999979858399,2|0,0:0|0:0,0:0:0:0:
322,384,48817,2,0,P|296:362|280:334,1,65.9999979858399,8|0,0:0|0:0,0:0:0:0:
266,236,49050,2,0,P|249:207|224:186,1,65.9999979858399
91,118,49282,6,0,B|92:166|92:166|163:247,1,131.99999597168,2|0,0:0|0:0,0:0:0:0:
147,229,49631,1,2,0:0:0:0:
147,229,49747,1,2,0:0:0:0:
35,292,49980,5,8,0:0:0:0:
22,341,50096,1,8,0:0:0:0:
67,374,50213,1,8,0:0:0:0:
113,345,50329,1,8,0:0:0:0:
94,290,50445,1,2,0:0:0:0:
84,266,50561,1,2,0:0:0:0:
91,243,50678,1,2,0:0:0:0:
256,368,50910,5,2,0:0:0:0:
427,242,51375,1,2,0:0:0:0:
490,368,51608,1,8,0:0:0:0:
293,246,51840,1,0,0:0:0:0:
368,368,52073,1,0,0:0:0:0:
368,368,52306,1,0,0:0:0:0:
235,134,52538,1,8,0:0:0:0:
231,107,52654,1,0,0:0:0:0:
237,81,52771,1,2,0:0:0:0:
254,58,52887,1,0,0:0:0:0:
278,42,53003,6,0,P|202:56|126:28,1,131.99999597168,2|0,0:0|0:0,0:0:0:0:
41,21,53352,1,0,0:0:0:0:
41,21,53468,2,0,B|46:86|46:86|102:137,1,131.99999597168,2|0,0:0|0:0,0:0:0:0:
140,175,53933,5,0,0:0:0:0:
140,175,54050,2,0,P|115:140|68:128,1,65.9999979858399,0|2,0:0|0:0,0:0:0:0:
125,260,54282,1,0,0:0:0:0:
125,260,54399,2,0,P|150:295|197:307,1,65.9999979858399,8|0,0:0|0:0,0:0:0:0:
263,280,54631,1,0,0:0:0:0:
318,278,54747,1,0,0:0:0:0:
362,316,54864,6,0,B|372:345|372:345|403:373,1,65.9999979858399,2|0,0:0|0:0,0:0:0:0:
404,241,55096,2,0,B|416:212|416:212|402:167,1,65.9999979858399,0|2,0:0|0:0,0:0:0:0:
330,63,55329,2,0,B|310:105|310:105|322:208,1,131.99999597168,8|0,0:0|0:0,0:0:0:0:
330,63,55794,1,0,0:0:0:0:
141,48,56027,6,0,P|184:58|224:49,1,65.9999979858399,2|0,0:0|0:0,0:0:0:0:
47,35,56259,1,8,0:0:0:0:
47,35,56375,1,8,0:0:0:0:
47,35,56492,2,0,P|79:65|118:77,1,65.9999979858399,2|0,0:0|0:0,0:0:0:0:
9,137,56724,5,2,0:0:0:0:
310,88,56957,1,2,0:0:0:0:
223,384,57189,1,8,0:0:0:0:
141,48,57422,1,8,0:0:0:0:
466,126,57654,1,2,0:0:0:0:
60,266,57887,1,0,3:0:0:0:
60,266,57965,1,0,3:0:0:0:
60,266,58042,1,0,3:0:0:0:
60,266,58120,1,0,3:0:0:0:
222,298,58352,6,0,B|181:353|273:435|366:296|246:159,1,280.500005350113,4|0,0:0|0:0,0:0:0:0:
243,175,58817,1,2,0:0:0:0:
200,179,58933,1,2,0:0:0:0:
163,212,59050,1,10,0:0:0:0:
75,242,59166,1,0,0:0:0:0:
23,160,59282,1,2,0:0:0:0:
78,79,59399,1,2,0:0:0:0:
169,101,59515,6,0,P|218:102|241:87,1,65.9999979858399,2|0,3:0|0:0,0:0:0:0:
254,14,59980,2,0,P|228:55|230:83,1,65.9999979858399,2|0,3:0|0:0,0:0:0:0:
240,127,60329,1,2,3:0:0:0:
163,212,60445,6,0,P|223:243|330:221,1,165.000006294251,4|0,0:0|0:0,0:0:0:0:
220,345,60794,1,2,0:0:0:0:
316,229,60910,2,0,P|357:219|408:250,1,82.5000031471254,8|0,0:0|0:0,0:0:0:0:
390,384,61143,2,0,P|421:358|436:320,1,82.5000031471254,2|0,0:0|0:0,0:0:0:0:
370,119,61375,6,0,P|384:80|416:54,1,82.5000031471254
451,133,61608,1,2,0:0:0:0:
451,133,61724,2,0,L|341:114,1,82.5000031471254,0|8,0:0|0:0,0:0:0:0:
275,162,61957,2,0,B|221:189|221:189|116:192,1,165.000006294251
180,279,62306,6,0,P|209:226|176:124,1,165.000006294251,2|0,0:0|0:0,0:0:0:0:
283,258,62654,1,2,0:0:0:0:
181,129,62771,2,0,P|156:97|154:57,1,82.5000031471254,8|0,0:0|0:0,0:0:0:0:
318,12,63003,1,2,0:0:0:0:
318,12,63120,2,0,P|282:-5|242:0,1,82.5000031471254
82,113,63352,6,0,P|41:118|5:100,1,82.5000031471254,0|2,0:0|0:0,0:0:0:0:
51,37,63585,2,0,L|86:122,1,82.5000031471254,0|8,0:0|0:0,0:0:0:0:
6,186,63817,2,0,B|30:261|30:261|70:286|70:286|112:277,1,165.000006294251
136,186,64166,5,2,0:0:0:0:
108,277,64282,1,0,0:0:0:0:
163,351,64399,1,0,0:0:0:0:
257,339,64515,1,2,0:0:0:0:
299,258,64631,6,0,B|261:238|261:238|195:234,1,82.5000031471254,8|0,0:0|0:0,0:0:0:0:
355,337,64864,1,2,0:0:0:0:
355,337,64980,1,0,0:0:0:0:
432,287,65096,2,0,P|459:242|448:195,1,82.5000031471254
405,97,65329,2,0,P|405:56|429:23,1,82.5000031471254,2|0,0:0|0:0,0:0:0:0:
492,83,65561,2,0,P|405:97|323:52,1,165.000006294251,8|0,0:0|0:0,0:0:0:0:
185,21,66027,5,2,0:0:0:0:
140,116,66143,1,0,0:0:0:0:
177,202,66259,1,0,0:0:0:0:
206,153,66375,1,2,0:0:0:0:
81,190,66492,5,8,0:0:0:0:
112,241,66608,1,0,0:0:0:0:
205,252,66724,1,2,0:0:0:0:
177,202,66840,1,0,0:0:0:0:
144,317,66957,5,0,0:0:0:0:
247,369,67073,1,2,0:0:0:0:
322,292,67189,1,2,0:0:0:0:
288,189,67306,1,2,0:0:0:0:
331,93,67422,2,0,P|369:64|437:73,1,82.5000031471254,8|0,0:0|0:0,0:0:0:0:
288,189,67654,6,0,P|246:161|227:92,1,93.500001783371,0|2,0:0|0:0,0:0:0:0:
396,181,67887,2,0,P|392:231|342:282,1,93.500001783371,2|0,0:0|0:0,0:0:0:0:
249,366,68120,1,0,0:0:0:0:
282,343,68236,1,2,0:0:0:0:
330,348,68352,6,0,B|284:344|284:344|177:272,1,165.000006294251,8|2,0:0|0:0,0:0:0:0:
60,257,68701,1,0,0:0:0:0:
60,257,68817,2,0,B|103:250|103:250|138:206,1,82.5000031471254
124,104,69050,2,0,B|82:110|82:110|46:155,1,82.5000031471254,2|0,0:0|0:0,0:0:0:0:
213,149,69282,2,0,P|223:100|206:58,1,82.5000031471254,8|0,0:0|0:0,0:0:0:0:
137,6,69515,2,0,P|174:39|219:45,1,82.5000031471254
327,19,69747,6,0,P|366:30|395:59,1,82.5000031471254,2|0,0:0|0:0,0:0:0:0:
404,152,69980,1,0,0:0:0:0:
352,144,70096,1,2,0:0:0:0:
321,105,70213,2,0,P|342:151|327:207,1,82.5000031471254,8|0,0:0|0:0,0:0:0:0:
238,323,70445,2,0,P|217:277|232:221,1,82.5000031471254,2|0,0:0|0:0,0:0:0:0:
314,345,70678,6,0,P|279:324|239:323,1,82.5000031471254
184,380,70910,2,0,P|203:344|238:322,1,82.5000031471254,2|0,0:0|0:0,0:0:0:0:
399,363,71143,2,0,B|416:375|435:373|435:373|427:307|347:246,1,165.000006294251,8|0,0:0|0:0,0:0:0:0:
118,228,71492,5,2,0:0:0:0:
118,228,71608,2,0,P|141:213|168:206,1,55,2|0,0:0|0:0,0:0:0:0:
218,245,71840,2,0,P|178:220|160:193,1,65.9999979858399
177,131,72073,2,0,P|179:170|166:206,1,76.9999976501466,8|0,0:0|0:0,0:0:0:0:
97,255,72306,2,0,P|126:223|166:205,1,88
356,262,72538,6,0,B|450:299,1,98.9999969787599,2|0,0:0|0:0,0:0:0:0:
475,199,72771,2,0,B|433:178|433:178|433:174|433:174|385:163,1,98.9999969787599
420,65,73003,2,0,B|514:102,1,98.9999969787599,8|0,0:0|0:0,0:0:0:0:
255,60,73236,2,0,B|162:96,1,98.9999969787599,2|0,0:0|0:0,0:0:0:0:
71,205,73468,2,0,P|91:127|-6:81,1,197.99999395752,0|2,0:0|0:0,0:0:0:0:
20,151,73817,1,2,0:0:0:0:
120,270,73933,5,8,0:0:0:0:
210,280,74050,1,2,0:0:0:0:
268,209,74166,1,0,0:0:0:0:
252,114,74282,1,8,0:0:0:0:
162,95,74399,6,0,L|110:113,2,49.4999984893799,2|0|8,0:0|0:0|0:0,0:0:0:0:
252,114,74631,1,2,0:0:0:0:
359,91,74747,1,8,0:0:0:0:
422,25,74864,1,2,3:0:0:0:
441,27,74922,1,0,3:0:0:0:
462,28,74980,1,8,3:0:0:0:
512,182,75096,1,2,0:0:0:0:
448,111,75213,1,2,0:0:0:0:
420,199,75329,6,0,P|420:150|449:111,1,98.9999969787599
483,282,75561,1,0,0:0:0:0:
384,291,75678,1,2,0:0:0:0:
321,210,75794,2,0,P|279:185|231:186,1,98.9999969787599,8|0,0:0|0:0,0:0:0:0:
190,338,76027,2,0,P|227:319|258:245,1,98.9999969787599
270,98,76259,5,0,0:0:0:0:
231,186,76375,1,2,0:0:0:0:
170,108,76492,2,0,B|142:90|142:90|57:92,1,98.9999969787599,2|0,0:0|0:0,0:0:0:0:
63,231,76724,1,8,0:0:0:0:
63,231,76840,2,0,B|91:249|91:249|176:247,1,98.9999969787599
343,159,77073,5,0,0:0:0:0:
270,98,77189,2,0,P|316:70|382:79,1,98.9999969787599,2|0,0:0|0:0,0:0:0:0:
431,216,77422,1,0,0:0:0:0:
449,120,77538,1,2,0:0:0:0:
431,216,77654,2,0,P|405:257|361:279,1,98.9999969787599,8|0,0:0|0:0,0:0:0:0:
253,191,77887,5,2,0:0:0:0:
361,279,78003,1,0,0:0:0:0:
255,362,78120,1,0,0:0:0:0:
177,326,78236,1,0,0:0:0:0:
156,247,78352,1,2,0:0:0:0:
177,326,78468,1,0,0:0:0:0:
114,384,78585,6,0,P|86:348|102:274,1,98.9999969787599,8|0,0:0|0:0,0:0:0:0:
251,271,78817,2,0,L|140:243,1,98.9999969787599
9,159,79050,2,0,L|120:131,1,98.9999969787599,2|0,0:0|0:0,0:0:0:0:
284,83,79282,2,0,L|190:55,1,98.9999969787599,0|2,0:0|0:0,0:0:0:0:
338,19,79515,2,0,P|367:62|360:114,1,98.9999969787599,2|0,0:0|0:0,0:0:0:0:
295,194,79747,5,2,0:0:0:0:
340,297,79864,1,0,0:0:0:0:
465,296,79980,2,0,P|494:252|487:200,1,98.9999969787599
340,297,80213,2,0,P|310:340|317:392,1,98.9999969787599,2|0,0:0|0:0,0:0:0:0:
295,194,80445,2,0,B|247:174|247:174|155:194,1,98.9999969787599,8|0,0:0|0:0,0:0:0:0:
70,227,80678,1,0,0:0:0:0:
165,305,80794,1,0,0:0:0:0:
124,162,80910,6,0,L|91:60,1,98.9999969787599,2|0,0:0|0:0,0:0:0:0:
26,136,81143,1,0,0:0:0:0:
124,162,81259,1,2,0:0:0:0:
192,76,81375,2,0,P|253:64|311:98,1,98.9999969787599,8|0,0:0|0:0,0:0:0:0:
340,175,81608,5,2,0:0:0:0:
411,98,81724,1,0,0:0:0:0:
461,226,81840,2,0,L|499:318,1,98.9999969787599
343,366,82073,2,0,L|381:274,1,98.9999969787599,2|0,0:0|0:0,0:0:0:0:
217,247,82306,6,0,B|248:287|248:287|255:339,1,98.9999969787599,8|0,0:0|0:0,0:0:0:0:
134,312,82538,1,0,0:0:0:0:
113,237,82654,1,2,0:0:0:0:
163,162,82771,6,0,P|121:167|55:116,1,98.9999969787599,2|0,0:0|0:0,0:0:0:0:
208,82,83003,1,0,2:0:0:0:
269,157,83120,1,2,0:0:0:0:
308,68,83236,2,0,P|350:63|416:114,1,98.9999969787599,8|0,0:0|0:0,0:0:0:0:
370,331,83468,6,0,P|365:289|416:223,1,98.9999969787599
420,207,83701,2,0,P|443:164|440:115,1,98.9999969787599,2|0,0:0|0:0,0:0:0:0:
444,68,83875,2,2,L|481:27,5,49.4999984893799
342,162,84321,1,2,0:0:0:0:
325,262,84476,1,0,0:0:0:0:
370,331,84631,5,0,0:0:0:0:
370,331,86492,2,0,P|312:339|274:322,1,76.9999976501466,2|0,0:0|0:0,0:0:0:0:
216,289,86724,2,0,P|178:282|141:292,1,76.9999976501466,2|0,0:0|0:0,0:0:0:0:
27,352,86957,1,2,0:0:0:0:
27,352,87073,2,2,P|51:322|61:285,1,76.9999976501466,0|0,0:0|0:0,0:0:0:0:
20,183,87306,5,2,0:0:0:0:
19,183,87422,2,0,P|30:146|54:116,1,76.9999976501466,2|0,0:0|0:0,0:0:0:0:
221,112,87654,1,2,0:0:0:0:
221,112,87771,2,0,P|183:121|146:115,1,76.9999976501466,2|0,0:0|0:0,0:0:0:0:
276,41,88003,1,2,0:0:0:0:
276,41,88120,2,0,P|311:82|296:161,1,115.49999647522,2|0,0:0|0:0,0:0:0:0:
308,140,88352,6,0,P|345:130|382:136,1,76.9999976501466,2|0,0:0|0:0,0:0:0:0:
452,226,88585,2,0,P|441:262|417:292,1,76.9999976501466,2|0,0:0|0:0,0:0:0:0:
299,300,88817,1,2,0:0:0:0:
299,300,88933,2,0,P|272:272|258:236,1,76.9999976501466
156,300,89166,5,2,0:0:0:0:
156,300,89282,2,0,P|118:309|81:303,1,76.9999976501466,2|0,0:0|0:0,0:0:0:0:
0,211,89515,1,2,0:0:0:0:
0,211,89631,2,0,P|37:201|74:207,1,76.9999976501466,2|0,0:0|0:0,0:0:0:0:
156,300,89864,1,2,0:0:0:0:
156,300,89980,1,2,0:0:0:0:
